  0
SECTION
  2
HEADER
  9
$ACADVER
  1
AC1015
  9
$ACADMAINTVER
 70
     6
  9
$DWGCODEPAGE
  3
ANSI_932
  9
$INSBASE
 10
0.0
 20
0.0
 30
0.0
  9
$EXTMIN
 10
-1169.630777067876
 20
-792.961301975736
 30
0.0
  9
$EXTMAX
 10
1152.369701056493
 20
792.961301975736
 30
0.0
  9
$LIMMIN
 10
-401.0
 20
-286.0
  9
$LIMMAX
 10
401.0
 20
286.0
  9
$ORTHOMODE
 70
     0
  9
$REGENMODE
 70
     1
  9
$FILLMODE
 70
     1
  9
$QTEXTMODE
 70
     0
  9
$MIRRTEXT
 70
     1
  9
$LTSCALE
 40
0.25
  9
$ATTMODE
 70
     1
  9
$TEXTSIZE
 40
0.2
  9
$TRACEWID
 40
0.05
  9
$TEXTSTYLE
  7
Standard
  9
$CLAYER
  8
0
  9
$CELTYPE
  6
ByLayer
  9
$CECOLOR
 62
   256
  9
$CELTSCALE
 40
1.0
  9
$DISPSILH
 70
     0
  9
$DIMSCALE
 40
1.0
  9
$DIMASZ
 40
2.5
  9
$DIMEXO
 40
0.0625
  9
$DIMDLI
 40
0.38
  9
$DIMRND
 40
0.0
  9
$DIMDLE
 40
0.0
  9
$DIMEXE
 40
0.18
  9
$DIMTP
 40
0.0
  9
$DIMTM
 40
0.0
  9
$DIMTXT
 40
0.18
  9
$DIMCEN
 40
0.09
  9
$DIMTSZ
 40
0.0
  9
$DIMTOL
 70
     0
  9
$DIMLIM
 70
     0
  9
$DIMTIH
 70
     1
  9
$DIMTOH
 70
     1
  9
$DIMSE1
 70
     0
  9
$DIMSE2
 70
     0
  9
$DIMTAD
 70
     3
  9
$DIMZIN
 70
     0
  9
$DIMBLK
  1

  9
$DIMASO
 70
     1
  9
$DIMSHO
 70
     1
  9
$DIMPOST
  1

  9
$DIMAPOST
  1

  9
$DIMALT
 70
     0
  9
$DIMALTD
 70
     2
  9
$DIMALTF
 40
25.4
  9
$DIMLFAC
 40
1.0
  9
$DIMTOFL
 70
     0
  9
$DIMTVP
 40
0.0
  9
$DIMTIX
 70
     0
  9
$DIMSOXD
 70
     0
  9
$DIMSAH
 70
     0
  9
$DIMBLK1
  1

  9
$DIMBLK2
  1

  9
$DIMSTYLE
  2
Standard
  9
$DIMCLRD
 70
     0
  9
$DIMCLRE
 70
     0
  9
$DIMCLRT
 70
     0
  9
$DIMTFAC
 40
1.0
  9
$DIMGAP
 40
0.09
  9
$DIMJUST
 70
     0
  9
$DIMSD1
 70
     0
  9
$DIMSD2
 70
     0
  9
$DIMTOLJ
 70
     1
  9
$DIMTZIN
 70
     0
  9
$DIMALTZ
 70
     0
  9
$DIMALTTZ
 70
     0
  9
$DIMUPT
 70
     0
  9
$DIMDEC
 70
     4
  9
$DIMTDEC
 70
     4
  9
$DIMALTU
 70
     2
  9
$DIMALTTD
 70
     2
  9
$DIMTXSTY
  7
Standard
  9
$DIMAUNIT
 70
     0
  9
$DIMADEC
 70
     0
  9
$DIMALTRND
 40
0.0
  9
$DIMAZIN
 70
     0
  9
$DIMDSEP
 70
    46
  9
$DIMATFIT
 70
     3
  9
$DIMFRAC
 70
     0
  9
$DIMLDRBLK
  1

  9
$DIMLUNIT
 70
     2
  9
$DIMLWD
 70
    -2
  9
$DIMLWE
 70
    -2
  9
$DIMTMOVE
 70
     0
  9
$LUNITS
 70
     2
  9
$LUPREC
 70
     4
  9
$SKETCHINC
 40
0.1
  9
$FILLETRAD
 40
0.5
  9
$AUNITS
 70
     0
  9
$AUPREC
 70
     0
  9
$MENU
  1
.
  9
$ELEVATION
 40
0.0
  9
$PELEVATION
 40
0.0
  9
$THICKNESS
 40
0.0
  9
$LIMCHECK
 70
     0
  9
$CHAMFERA
 40
0.5
  9
$CHAMFERB
 40
0.5
  9
$CHAMFERC
 40
1.0
  9
$CHAMFERD
 40
0.0
  9
$SKPOLY
 70
     0
  9
$TDCREATE
 40
2454973.73714934
  9
$TDUCREATE
 40
2454973.36214934
  9
$TDUPDATE
 40
2454973.737149352
  9
$TDUUPDATE
 40
2454973.362149352
  9
$TDINDWG
 40
0.0000000116
  9
$TDUSRTIMER
 40
0.0000000116
  9
$USRTIMER
 70
     1
  9
$ANGBASE
 50
0.0
  9
$ANGDIR
 70
     0
  9
$PDMODE
 70
     0
  9
$PDSIZE
 40
1.0
  9
$PLINEWID
 40
0.0
  9
$SPLFRAME
 70
     0
  9
$SPLINETYPE
 70
     6
  9
$SPLINESEGS
 70
     8
  9
$HANDSEED
  5
4F7
  9
$SURFTAB1
 70
     6
  9
$SURFTAB2
 70
     6
  9
$SURFTYPE
 70
     6
  9
$SURFU
 70
     6
  9
$SURFV
 70
     6
  9
$UCSBASE
  2

  9
$UCSNAME
  2

  9
$UCSORG
 10
0.0
 20
0.0
 30
0.0
  9
$UCSXDIR
 10
1.0
 20
0.0
 30
0.0
  9
$UCSYDIR
 10
0.0
 20
1.0
 30
0.0
  9
$UCSORTHOREF
  2

  9
$UCSORTHOVIEW
 70
     0
  9
$UCSORGTOP
 10
0.0
 20
0.0
 30
0.0
  9
$UCSORGBOTTOM
 10
0.0
 20
0.0
 30
0.0
  9
$UCSORGLEFT
 10
0.0
 20
0.0
 30
0.0
  9
$UCSORGRIGHT
 10
0.0
 20
0.0
 30
0.0
  9
$UCSORGFRONT
 10
0.0
 20
0.0
 30
0.0
  9
$UCSORGBACK
 10
0.0
 20
0.0
 30
0.0
  9
$PUCSBASE
  2

  9
$PUCSNAME
  2

  9
$PUCSORG
 10
0.0
 20
0.0
 30
0.0
  9
$PUCSXDIR
 10
1.0
 20
0.0
 30
0.0
  9
$PUCSYDIR
 10
0.0
 20
1.0
 30
0.0
  9
$PUCSORTHOREF
  2

  9
$PUCSORTHOVIEW
 70
     0
  9
$PUCSORGTOP
 10
0.0
 20
0.0
 30
0.0
  9
$PUCSORGBOTTOM
 10
0.0
 20
0.0
 30
0.0
  9
$PUCSORGLEFT
 10
0.0
 20
0.0
 30
0.0
  9
$PUCSORGRIGHT
 10
0.0
 20
0.0
 30
0.0
  9
$PUCSORGFRONT
 10
0.0
 20
0.0
 30
0.0
  9
$PUCSORGBACK
 10
0.0
 20
0.0
 30
0.0
  9
$USERI1
 70
     0
  9
$USERI2
 70
     0
  9
$USERI3
 70
     0
  9
$USERI4
 70
     0
  9
$USERI5
 70
     0
  9
$USERR1
 40
0.0
  9
$USERR2
 40
0.0
  9
$USERR3
 40
0.0
  9
$USERR4
 40
0.0
  9
$USERR5
 40
0.0
  9
$WORLDVIEW
 70
     1
  9
$SHADEDGE
 70
     3
  9
$SHADEDIF
 70
    70
  9
$TILEMODE
 70
     1
  9
$MAXACTVP
 70
    64
  9
$PINSBASE
 10
0.0
 20
0.0
 30
0.0
  9
$PLIMCHECK
 70
     0
  9
$PEXTMIN
 10
1.000000000000000E+20
 20
1.000000000000000E+20
 30
1.000000000000000E+20
  9
$PEXTMAX
 10
-1.000000000000000E+20
 20
-1.000000000000000E+20
 30
-1.000000000000000E+20
  9
$PLIMMIN
 10
0.0
 20
0.0
  9
$PLIMMAX
 10
12.0
 20
9.0
  9
$UNITMODE
 70
     0
  9
$VISRETAIN
 70
     0
  9
$PLINEGEN
 70
     1
  9
$PSLTSCALE
 70
     0
  9
$TREEDEPTH
 70
  3020
  9
$CMLSTYLE
  2
Standard
  9
$CMLJUST
 70
     0
  9
$CMLSCALE
 40
1.0
  9
$PROXYGRAPHICS
 70
     0
  9
$MEASUREMENT
 70
     1
  9
$CELWEIGHT
370
    -1
  9
$ENDCAPS
280
     0
  9
$JOINSTYLE
280
     0
  9
$LWDISPLAY
290
     1
  9
$INSUNITS
 70
     4
  9
$HYPERLINKBASE
  1

  9
$STYLESHEET
  1

  9
$XEDIT
290
     1
  9
$CEPSNTYPE
380
     0
  9
$PSTYLEMODE
290
     1
  9
$FINGERPRINTGUID
  2
{F8D3CFB6-B6B1-4C99-A7E4-8F8EBD69A270}
  9
$VERSIONGUID
  2
{FAEB1C32-E019-11D5-929B-00C0DF256EC4}
  9
$EXTNAMES
290
     1
  9
$PSVPSCALE
 40
0.0
  9
$OLESTARTUP
290
     0
  0
ENDSEC
  0
SECTION
  2
CLASSES
  0
CLASS
  1
ACDBDICTIONARYWDFLT
  2
AcDbDictionaryWithDefault
  3
ObjectDBX Classes
 90
        0
280
     0
281
     0
  0
CLASS
  1
VISUALSTYLE
  2
AcDbVisualStyle
  3
ObjectDBX Classes
 90
     4095
280
     0
281
     0
  0
CLASS
  1
ACDBPLACEHOLDER
  2
AcDbPlaceHolder
  3
ObjectDBX Classes
 90
        0
280
     0
281
     0
  0
CLASS
  1
LAYOUT
  2
AcDbLayout
  3
ObjectDBX Classes
 90
        0
280
     0
281
     0
  0
ENDSEC
  0
SECTION
  2
TABLES
  0
TABLE
  2
VPORT
  5
8
330
0
100
AcDbSymbolTable
 70
     1
  0
VPORT
  5
29
330
8
100
AcDbSymbolTableRecord
100
AcDbViewportTableRecord
  2
*Active
 70
     0
 10
0.0
 20
0.0
 11
1.0
 21
1.0
 12
0.0
 22
0.0
 13
0.0
 23
0.0
 14
0.5
 24
0.5
 15
0.5
 25
0.5
 16
0.0
 26
0.0
 36
1.0
 17
-8.630538005691509
 27
5.133390283647714
 37
0.0
 40
528.741569164859
 41
1.493130498154817
 42
50.0
 43
0.0
 44
0.0
 50
0.0
 51
0.0
 71
     0
 72
  1000
 73
     1
 74
     1
 75
     0
 76
     0
 77
     0
 78
     0
281
     0
 65
     1
110
0.0
120
0.0
130
0.0
111
1.0
121
0.0
131
0.0
112
0.0
122
1.0
132
0.0
 79
     0
146
0.0
  0
ENDTAB
  0
TABLE
  2
LTYPE
  5
5
330
0
100
AcDbSymbolTable
 70
    53
  0
LTYPE
  5
14
330
5
100
AcDbSymbolTableRecord
100
AcDbLinetypeTableRecord
  2
ByBlock
 70
     0
  3

 72
    65
 73
     0
 40
0.0
  0
LTYPE
  5
15
330
5
100
AcDbSymbolTableRecord
100
AcDbLinetypeTableRecord
  2
ByLayer
 70
     0
  3

 72
    65
 73
     0
 40
0.0
  0
LTYPE
  5
16
330
5
100
AcDbSymbolTableRecord
100
AcDbLinetypeTableRecord
  2
Continuous
 70
     0
  3
Solid line
 72
    65
 73
     0
 40
0.0
  0
LTYPE
  5
3C
330
5
100
AcDbSymbolTableRecord
100
AcDbLinetypeTableRecord
  2
HIDDENX2
 70
     0
  3
Hidden (2x) ____ ____ ____ ____ ____ ____ ____ 
 72
    65
 73
     2
 40
19.05
 49
12.7
 74
     0
 49
-6.35
 74
     0
  0
LTYPE
  5
3D
330
5
100
AcDbSymbolTableRecord
100
AcDbLinetypeTableRecord
  2
HIDDEN
 70
     0
  3
Hidden __ __ __ __ __ __ __ __ __ __ __ __ __ __
 72
    65
 73
     2
 40
9.524999999999999
 49
6.35
 74
     0
 49
-3.175
 74
     0
  0
LTYPE
  5
3E
330
5
100
AcDbSymbolTableRecord
100
AcDbLinetypeTableRecord
  2
HIDDEN2
 70
     0
  3
Hidden (.5x) _ _ _ _ _ _ _ _ _ _ _ _ _ _ _ _ _ 
 72
    65
 73
     2
 40
4.762499999999999
 49
3.175
 74
     0
 49
-1.5875
 74
     0
  0
LTYPE
  5
3F
330
5
100
AcDbSymbolTableRecord
100
AcDbLinetypeTableRecord
  2
DASHED
 70
     0
  3
Dashed __ __ __ __ __ __ __ __ __ __ __ __ __ _
 72
    65
 73
     2
 40
19.05
 49
12.7
 74
     0
 49
-6.35
 74
     0
  0
LTYPE
  5
40
330
5
100
AcDbSymbolTableRecord
100
AcDbLinetypeTableRecord
  2
DASHED2
 70
     0
  3
Dashed (.5x) _ _ _ _ _ _ _ _ _ _ _ _ _ _ _ _ _ 
 72
    65
 73
     2
 40
9.524999999999999
 49
6.35
 74
     0
 49
-3.175
 74
     0
  0
LTYPE
  5
41
330
5
100
AcDbSymbolTableRecord
100
AcDbLinetypeTableRecord
  2
DASHEDX2
 70
     0
  3
Dashed (2x) ____  ____  ____  ____  ____  ___
 72
    65
 73
     2
 40
38.09999999999999
 49
25.4
 74
     0
 49
-12.7
 74
     0
  0
LTYPE
  5
42
330
5
100
AcDbSymbolTableRecord
100
AcDbLinetypeTableRecord
  2
DOTX2
 70
     0
  3
Dot (2x) .  .  .  .  .  .  .  .  .  .  .  .  .  .
 72
    65
 73
     2
 40
12.7
 49
0.0
 74
     0
 49
-12.7
 74
     0
  0
LTYPE
  5
43
330
5
100
AcDbSymbolTableRecord
100
AcDbLinetypeTableRecord
  2
DOT
 70
     0
  3
Dot . . . . . . . . . . . . . . . . . . . . . . . .
 72
    65
 73
     2
 40
6.35
 49
0.0
 74
     0
 49
-6.35
 74
     0
  0
LTYPE
  5
44
330
5
100
AcDbSymbolTableRecord
100
AcDbLinetypeTableRecord
  2
DOT2
 70
     0
  3
Dot (.5x) ........................................
 72
    65
 73
     2
 40
3.175
 49
0.0
 74
     0
 49
-3.175
 74
     0
  0
LTYPE
  5
45
330
5
100
AcDbSymbolTableRecord
100
AcDbLinetypeTableRecord
  2
CENTERX2
 70
     0
  3
Center (2x) ________  __  ________  __  _____
 72
    65
 73
     4
 40
101.6
 49
63.5
 74
     0
 49
-12.7
 74
     0
 49
12.7
 74
     0
 49
-12.7
 74
     0
  0
LTYPE
  5
46
330
5
100
AcDbSymbolTableRecord
100
AcDbLinetypeTableRecord
  2
CENTER
 70
     0
  3
Center ____ _ ____ _ ____ _ ____ _ ____ _ ____
 72
    65
 73
     4
 40
50.8
 49
31.75
 74
     0
 49
-6.35
 74
     0
 49
6.35
 74
     0
 49
-6.35
 74
     0
  0
LTYPE
  5
47
330
5
100
AcDbSymbolTableRecord
100
AcDbLinetypeTableRecord
  2
CENTER2
 70
     0
  3
Center (.5x) ___ _ ___ _ ___ _ ___ _ ___ _ ___
 72
    65
 73
     4
 40
28.575
 49
19.05
 74
     0
 49
-3.175
 74
     0
 49
3.175
 74
     0
 49
-3.175
 74
     0
  0
LTYPE
  5
48
330
5
100
AcDbSymbolTableRecord
100
AcDbLinetypeTableRecord
  2
DASHDOTX2
 70
     0
  3
Dash dot (2x) ____  .  ____  .  ____  .  ___
 72
    65
 73
     4
 40
50.8
 49
25.4
 74
     0
 49
-12.7
 74
     0
 49
0.0
 74
     0
 49
-12.7
 74
     0
  0
LTYPE
  5
49
330
5
100
AcDbSymbolTableRecord
100
AcDbLinetypeTableRecord
  2
DASHDOT
 70
     0
  3
Dash dot __ . __ . __ . __ . __ . __ . __ . __
 72
    65
 73
     4
 40
25.4
 49
12.7
 74
     0
 49
-6.35
 74
     0
 49
0.0
 74
     0
 49
-6.35
 74
     0
  0
LTYPE
  5
4A
330
5
100
AcDbSymbolTableRecord
100
AcDbLinetypeTableRecord
  2
DASHDOT2
 70
     0
  3
Dash dot (.5x) _._._._._._._._._._._._._._._.
 72
    65
 73
     4
 40
12.7
 49
6.35
 74
     0
 49
-3.175
 74
     0
 49
0.0
 74
     0
 49
-3.175
 74
     0
  0
LTYPE
  5
4B
330
5
100
AcDbSymbolTableRecord
100
AcDbLinetypeTableRecord
  2
DIVIDEX2
 70
     0
  3
Divide (2x) ________  .  .  ________  .  .  _
 72
    65
 73
     6
 40
63.5
 49
25.4
 74
     0
 49
-12.7
 74
     0
 49
0.0
 74
     0
 49
-12.7
 74
     0
 49
0.0
 74
     0
 49
-12.7
 74
     0
  0
LTYPE
  5
4C
330
5
100
AcDbSymbolTableRecord
100
AcDbLinetypeTableRecord
  2
DIVIDE
 70
     0
  3
Divide ____ . . ____ . . ____ . . ____ . . ____
 72
    65
 73
     6
 40
31.75
 49
12.7
 74
     0
 49
-6.35
 74
     0
 49
0.0
 74
     0
 49
-6.35
 74
     0
 49
0.0
 74
     0
 49
-6.35
 74
     0
  0
LTYPE
  5
4D
330
5
100
AcDbSymbolTableRecord
100
AcDbLinetypeTableRecord
  2
DIVIDE2
 70
     0
  3
Divide (.5x) __..__..__..__..__..__..__..__.._
 72
    65
 73
     6
 40
15.875
 49
6.35
 74
     0
 49
-3.175
 74
     0
 49
0.0
 74
     0
 49
-3.175
 74
     0
 49
0.0
 74
     0
 49
-3.175
 74
     0
  0
LTYPE
  5
4E
330
5
100
AcDbSymbolTableRecord
100
AcDbLinetypeTableRecord
  2
BORDERX2
 70
     0
  3
Border (2x) ____  ____  .  ____  ____  .  ___
 72
    65
 73
     6
 40
88.89999999999999
 49
25.4
 74
     0
 49
-12.7
 74
     0
 49
25.4
 74
     0
 49
-12.7
 74
     0
 49
0.0
 74
     0
 49
-12.7
 74
     0
  0
LTYPE
  5
4F
330
5
100
AcDbSymbolTableRecord
100
AcDbLinetypeTableRecord
  2
BORDER
 70
     0
  3
Border __ __ . __ __ . __ __ . __ __ . __ __ .
 72
    65
 73
     6
 40
44.45
 49
12.7
 74
     0
 49
-6.35
 74
     0
 49
12.7
 74
     0
 49
-6.35
 74
     0
 49
0.0
 74
     0
 49
-6.35
 74
     0
  0
LTYPE
  5
50
330
5
100
AcDbSymbolTableRecord
100
AcDbLinetypeTableRecord
  2
BORDER2
 70
     0
  3
Border (.5x) __.__.__.__.__.__.__.__.__.__.__.
 72
    65
 73
     6
 40
22.225
 49
6.35
 74
     0
 49
-3.175
 74
     0
 49
6.35
 74
     0
 49
-3.175
 74
     0
 49
0.0
 74
     0
 49
-3.175
 74
     0
  0
LTYPE
  5
51
330
5
100
AcDbSymbolTableRecord
100
AcDbLinetypeTableRecord
  2
PHANTOMX2
 70
     0
  3
Phantom (2x) ____________    ____    ____   _
 72
    65
 73
     6
 40
127.0
 49
63.5
 74
     0
 49
-12.7
 74
     0
 49
12.7
 74
     0
 49
-12.7
 74
     0
 49
12.7
 74
     0
 49
-12.7
 74
     0
  0
LTYPE
  5
52
330
5
100
AcDbSymbolTableRecord
100
AcDbLinetypeTableRecord
  2
PHANTOM
 70
     0
  3
Phantom ______  __  __  ______  __  __  ______ 
 72
    65
 73
     6
 40
63.5
 49
31.75
 74
     0
 49
-6.35
 74
     0
 49
6.35
 74
     0
 49
-6.35
 74
     0
 49
6.35
 74
     0
 49
-6.35
 74
     0
  0
LTYPE
  5
53
330
5
100
AcDbSymbolTableRecord
100
AcDbLinetypeTableRecord
  2
PHANTOM2
 70
     0
  3
Phantom (.5x) ___ _ _ ___ _ _ ___ _ _ ___ _ _
 72
    65
 73
     6
 40
31.75
 49
15.875
 74
     0
 49
-3.175
 74
     0
 49
3.175
 74
     0
 49
-3.175
 74
     0
 49
3.175
 74
     0
 49
-3.175
 74
     0
  0
LTYPE
  5
54
330
5
100
AcDbSymbolTableRecord
100
AcDbLinetypeTableRecord
  2
ACAD_ISO06W100
 70
     0
  3
ISO long-dash triple-dot ____ ... ____ ... ____
 72
    65
 73
     8
 40
36.0
 49
24.0
 74
     0
 49
-3.0
 74
     0
 49
0.0
 74
     0
 49
-3.0
 74
     0
 49
0.0
 74
     0
 49
-3.0
 74
     0
 49
0.0
 74
     0
 49
-3.0
 74
     0
  0
LTYPE
  5
55
330
5
100
AcDbSymbolTableRecord
100
AcDbLinetypeTableRecord
  2
ACAD_ISO13W100
 70
     0
  3
ISO double-dash double-dot __ __ . . __ __ . . _
 72
    65
 73
     8
 40
36.0
 49
12.0
 74
     0
 49
-3.0
 74
     0
 49
12.0
 74
     0
 49
-3.0
 74
     0
 49
0.0
 74
     0
 49
-3.0
 74
     0
 49
0.0
 74
     0
 49
-3.0
 74
     0
  0
LTYPE
  5
56
330
5
100
AcDbSymbolTableRecord
100
AcDbLinetypeTableRecord
  2
ACAD_ISO14W100
 70
     0
  3
ISO dash triple-dot __ . . . __ . . . __ . . . _
 72
    65
 73
     8
 40
24.0
 49
12.0
 74
     0
 49
-3.0
 74
     0
 49
0.0
 74
     0
 49
-3.0
 74
     0
 49
0.0
 74
     0
 49
-3.0
 74
     0
 49
0.0
 74
     0
 49
-3.0
 74
     0
  0
LTYPE
  5
57
330
5
100
AcDbSymbolTableRecord
100
AcDbLinetypeTableRecord
  2
ACAD_ISO02W100
 70
     0
  3
ISO dash __ __ __ __ __ __ __ __ __ __ __ __ __
 72
    65
 73
     2
 40
15.0
 49
12.0
 74
     0
 49
-3.0
 74
     0
  0
LTYPE
  5
58
330
5
100
AcDbSymbolTableRecord
100
AcDbLinetypeTableRecord
  2
ACAD_ISO03W100
 70
     0
  3
ISO dash space __    __    __    __    __    __
 72
    65
 73
     2
 40
30.0
 49
12.0
 74
     0
 49
-18.0
 74
     0
  0
LTYPE
  5
59
330
5
100
AcDbSymbolTableRecord
100
AcDbLinetypeTableRecord
  2
ACAD_ISO04W100
 70
     0
  3
ISO long-dash dot ____ . ____ . ____ . ____ . _
 72
    65
 73
     4
 40
30.0
 49
24.0
 74
     0
 49
-3.0
 74
     0
 49
0.0
 74
     0
 49
-3.0
 74
     0
  0
LTYPE
  5
5A
330
5
100
AcDbSymbolTableRecord
100
AcDbLinetypeTableRecord
  2
ACAD_ISO05W100
 70
     0
  3
ISO long-dash double-dot ____ .. ____ .. ____ . 
 72
    65
 73
     6
 40
33.0
 49
24.0
 74
     0
 49
-3.0
 74
     0
 49
0.0
 74
     0
 49
-3.0
 74
     0
 49
0.0
 74
     0
 49
-3.0
 74
     0
  0
LTYPE
  5
5B
330
5
100
AcDbSymbolTableRecord
100
AcDbLinetypeTableRecord
  2
ACAD_ISO07W100
 70
     0
  3
ISO dot . . . . . . . . . . . . . . . . . . . . 
 72
    65
 73
     2
 40
3.0
 49
0.0
 74
     0
 49
-3.0
 74
     0
  0
LTYPE
  5
5C
330
5
100
AcDbSymbolTableRecord
100
AcDbLinetypeTableRecord
  2
ACAD_ISO08W100
 70
     0
  3
ISO long-dash short-dash ____ __ ____ __ ____ _
 72
    65
 73
     4
 40
36.0
 49
24.0
 74
     0
 49
-3.0
 74
     0
 49
6.0
 74
     0
 49
-3.0
 74
     0
  0
LTYPE
  5
5D
330
5
100
AcDbSymbolTableRecord
100
AcDbLinetypeTableRecord
  2
ACAD_ISO09W100
 70
     0
  3
ISO long-dash double-short-dash ____ __ __ ____
 72
    65
 73
     6
 40
45.0
 49
24.0
 74
     0
 49
-3.0
 74
     0
 49
6.0
 74
     0
 49
-3.0
 74
     0
 49
6.0
 74
     0
 49
-3.0
 74
     0
  0
LTYPE
  5
5E
330
5
100
AcDbSymbolTableRecord
100
AcDbLinetypeTableRecord
  2
ACAD_ISO10W100
 70
     0
  3
ISO dash dot __ . __ . __ . __ . __ . __ . __ . 
 72
    65
 73
     4
 40
18.0
 49
12.0
 74
     0
 49
-3.0
 74
     0
 49
0.0
 74
     0
 49
-3.0
 74
     0
  0
LTYPE
  5
5F
330
5
100
AcDbSymbolTableRecord
100
AcDbLinetypeTableRecord
  2
ACAD_ISO11W100
 70
     0
  3
ISO double-dash dot __ __ . __ __ . __ __ . __ _
 72
    65
 73
     6
 40
33.0
 49
12.0
 74
     0
 49
-3.0
 74
     0
 49
12.0
 74
     0
 49
-3.0
 74
     0
 49
0.0
 74
     0
 49
-3.0
 74
     0
  0
LTYPE
  5
60
330
5
100
AcDbSymbolTableRecord
100
AcDbLinetypeTableRecord
  2
ACAD_ISO12W100
 70
     0
  3
ISO dash double-dot __ . . __ . . __ . . __ . . 
 72
    65
 73
     6
 40
21.0
 49
12.0
 74
     0
 49
-3.0
 74
     0
 49
0.0
 74
     0
 49
-3.0
 74
     0
 49
0.0
 74
     0
 49
-3.0
 74
     0
  0
LTYPE
  5
61
330
5
100
AcDbSymbolTableRecord
100
AcDbLinetypeTableRecord
  2
ACAD_ISO15W100
 70
     0
  3
ISO double-dash triple-dot __ __ . . . __ __ . .
 72
    65
 73
    10
 40
39.0
 49
12.0
 74
     0
 49
-3.0
 74
     0
 49
12.0
 74
     0
 49
-3.0
 74
     0
 49
0.0
 74
     0
 49
-3.0
 74
     0
 49
0.0
 74
     0
 49
-3.0
 74
     0
 49
0.0
 74
     0
 49
-3.0
 74
     0
  0
LTYPE
  5
62
330
5
100
AcDbSymbolTableRecord
100
AcDbLinetypeTableRecord
  2
JIS_02_0.7
 70
     0
  3
HIDDEN0.75 _ _ _ _ _ _ _ _ _ _ _ _ _ _ _ _ _ 
 72
    65
 73
     2
 40
1.35
 49
0.75
 74
     0
 49
-0.6
 74
     0
  0
LTYPE
  5
63
330
5
100
AcDbSymbolTableRecord
100
AcDbLinetypeTableRecord
  2
JIS_02_1.0
 70
     0
  3
HIDDEN01 _ _ _ _ _ _ _ _ _ _ _ _ _ _ _ _ _ 
 72
    65
 73
     2
 40
2.0
 49
1.0
 74
     0
 49
-1.0
 74
     0
  0
LTYPE
  5
64
330
5
100
AcDbSymbolTableRecord
100
AcDbLinetypeTableRecord
  2
JIS_02_1.2
 70
     0
  3
HIDDEN01.25  _ _ _ _ _ _ _ _ _ _ _ _ _ _ _ _ _ 
 72
    65
 73
     2
 40
2.5
 49
1.25
 74
     0
 49
-1.25
 74
     0
  0
LTYPE
  5
65
330
5
100
AcDbSymbolTableRecord
100
AcDbLinetypeTableRecord
  2
JIS_02_2.0
 70
     0
  3
HIDDEN02 __ __ __ __ __ __ __ __ __ __ __ 
 72
    65
 73
     2
 40
3.0
 49
2.0
 74
     0
 49
-1.0
 74
     0
  0
LTYPE
  5
66
330
5
100
AcDbSymbolTableRecord
100
AcDbLinetypeTableRecord
  2
JIS_02_4.0
 70
     0
  3
HIDDEN04 ____ ____ ____ ____ ____ ____ ____ 
 72
    65
 73
     2
 40
5.5
 49
4.0
 74
     0
 49
-1.5
 74
     0
  0
LTYPE
  5
67
330
5
100
AcDbSymbolTableRecord
100
AcDbLinetypeTableRecord
  2
JIS_08_11
 70
     0
  3
1SASEN11 ___ _ ___ _ ___ _ ___ _ ___ _ ___
 72
    65
 73
     4
 40
12.8
 49
11.0
 74
     0
 49
-0.6
 74
     0
 49
0.6
 74
     0
 49
-0.6
 74
     0
  0
LTYPE
  5
68
330
5
100
AcDbSymbolTableRecord
100
AcDbLinetypeTableRecord
  2
JIS_08_15
 70
     0
  3
1SASEN15 ____ _ ____ _ ____ _ ____ _ ____ 
 72
    65
 73
     4
 40
17.25
 49
15.0
 74
     0
 49
-0.75
 74
     0
 49
0.75
 74
     0
 49
-0.75
 74
     0
  0
LTYPE
  5
69
330
5
100
AcDbSymbolTableRecord
100
AcDbLinetypeTableRecord
  2
JIS_08_25
 70
     0
  3
1SASEN25 ________  __  ________  __  _____
 72
    65
 73
     4
 40
28.0
 49
25.0
 74
     0
 49
-1.125
 74
     0
 49
0.75
 74
     0
 49
-1.125
 74
     0
  0
LTYPE
  5
6A
330
5
100
AcDbSymbolTableRecord
100
AcDbLinetypeTableRecord
  2
JIS_08_37
 70
     0
  3
1SASEN37 ________  __  ________  __  _____
 72
    65
 73
     4
 40
40.5
 49
37.5
 74
     0
 49
-1.125
 74
     0
 49
0.75
 74
     0
 49
-1.125
 74
     0
  0
LTYPE
  5
6B
330
5
100
AcDbSymbolTableRecord
100
AcDbLinetypeTableRecord
  2
JIS_08_50
 70
     0
  3
1SASEN50 _______________  __  ____________
 72
    65
 73
     4
 40
53.0
 49
50.0
 74
     0
 49
-1.125
 74
     0
 49
0.75
 74
     0
 49
-1.125
 74
     0
  0
LTYPE
  5
6C
330
5
100
AcDbSymbolTableRecord
100
AcDbLinetypeTableRecord
  2
JIS_09_08
 70
     0
  3
2SASEN8 __ _ _ __ _ _ __ _ _ __ _ _ __ _ _ 
 72
    65
 73
     6
 40
10.75
 49
8.0
 74
     0
 49
-0.55
 74
     0
 49
0.55
 74
     0
 49
-0.55
 74
     0
 49
0.55
 74
     0
 49
-0.55
 74
     0
  0
LTYPE
  5
6D
330
5
100
AcDbSymbolTableRecord
100
AcDbLinetypeTableRecord
  2
JIS_09_15
 70
     0
  3
2SASEN15 ___ _ _ ___ _ _ ___ _ _ ___ _ _ ___ 
 72
    65
 73
     6
 40
18.9
 49
15.0
 74
     0
 49
-0.9
 74
     0
 49
0.6
 74
     0
 49
-0.9
 74
     0
 49
0.6
 74
     0
 49
-0.9
 74
     0
  0
LTYPE
  5
6E
330
5
100
AcDbSymbolTableRecord
100
AcDbLinetypeTableRecord
  2
JIS_09_29
 70
     0
  3
2SASEN29 ______　__  __  ______　__  __  ___
 72
    65
 73
     6
 40
34.0
 49
29.0
 74
     0
 49
-1.2
 74
     0
 49
0.7
 74
     0
 49
-1.2
 74
     0
 49
0.7
 74
     0
 49
-1.2
 74
     0
  0
LTYPE
  5
6F
330
5
100
AcDbSymbolTableRecord
100
AcDbLinetypeTableRecord
  2
JIS_09_50
 70
     0
  3
2SASEN50 ____________　__  __  _____________
 72
    65
 73
     6
 40
55.0
 49
50.0
 74
     0
 49
-1.2
 74
     0
 49
0.7
 74
     0
 49
-1.2
 74
     0
 49
0.7
 74
     0
 49
-1.2
 74
     0
  0
ENDTAB
  0
TABLE
  2
LAYER
  5
2
330
0
100
AcDbSymbolTable
 70
     6
  0
LAYER
  5
10
330
2
100
AcDbSymbolTableRecord
100
AcDbLayerTableRecord
  2
0
 70
     0
 62
     7
  6
Continuous
370
    -3
390
F
  0
LAYER
  5
70
330
2
100
AcDbSymbolTableRecord
100
AcDbLayerTableRecord
  2
Layer0000
 70
     0
 62
     7
  6
Continuous
370
    -3
390
F
  0
LAYER
  5
71
330
2
100
AcDbSymbolTableRecord
100
AcDbLayerTableRecord
  2
Layer0001
 70
     0
 62
     7
  6
Continuous
370
    -3
390
F
  0
LAYER
  5
72
330
2
100
AcDbSymbolTableRecord
100
AcDbLayerTableRecord
  2
Layer0004
 70
     0
 62
     7
  6
Continuous
370
    -3
390
F
  0
LAYER
  5
73
330
2
100
AcDbSymbolTableRecord
100
AcDbLayerTableRecord
  2
Layer0014
 70
     0
 62
     7
  6
Continuous
370
    -3
390
F
  0
LAYER
  5
74
330
2
100
AcDbSymbolTableRecord
100
AcDbLayerTableRecord
  2
Layer0015
 70
     0
 62
     7
  6
Continuous
370
    -3
390
F
  0
ENDTAB
  0
TABLE
  2
STYLE
  5
3
330
0
100
AcDbSymbolTable
 70
     2
  0
STYLE
  5
11
330
3
100
AcDbSymbolTableRecord
100
AcDbTextStyleTableRecord
  2
Standard
 70
     0
 40
0.0
 41
1.0
 50
0.0
 71
     0
 42
0.2
  3
txt
  4

  0
STYLE
  5
102
330
3
100
AcDbSymbolTableRecord
100
AcDbTextStyleTableRecord
  2
dcStyle0
 70
     0
 40
0.0
 41
0.8
 50
0.0
 71
     0
 42
0.2
  3
txt.shx
  4
bigfont
  0
ENDTAB
  0
TABLE
  2
VIEW
  5
6
330
0
100
AcDbSymbolTable
 70
     0
  0
ENDTAB
  0
TABLE
  2
UCS
  5
7
330
0
100
AcDbSymbolTable
 70
     0
  0
ENDTAB
  0
TABLE
  2
APPID
  5
9
330
0
100
AcDbSymbolTable
 70
     2
  0
APPID
  5
12
330
9
100
AcDbSymbolTableRecord
100
AcDbRegAppTableRecord
  2
ACAD
 70
     0
  0
APPID
  5
3B
330
9
100
AcDbSymbolTableRecord
100
AcDbRegAppTableRecord
  2
DaFusionOut
 70
     0
  0
ENDTAB
  0
TABLE
  2
DIMSTYLE
  5
A
330
0
100
AcDbSymbolTable
 70
     2
100
AcDbDimStyleTable
  0
DIMSTYLE
105
27
330
A
100
AcDbSymbolTableRecord
100
AcDbDimStyleTableRecord
  2
Standard
 70
     0
340
11
  0
DIMSTYLE
105
4CA
102
{ACAD_REACTORS
330
4C9
330
4CB
330
4CC
330
4CD
330
4CE
330
4CF
330
4D0
330
4D1
330
4D2
330
4D4
330
4D5
330
4D6
330
4D7
330
4D8
330
4D9
330
4DA
330
4DB
330
4DC
330
4DD
330
4DE
330
4DF
330
4E1
330
4E2
330
4E4
330
4E5
330
4E6
330
4E7
330
4E8
330
4EA
102
}
330
A
100
AcDbSymbolTableRecord
100
AcDbDimStyleTableRecord
  2
DaDimRotatedStyle
 70
     0
 41
2.999996871569202
 42
1.0
 44
0.8
 73
     0
 74
     0
 77
     3
 78
     8
 79
     2
140
5.0
147
1.0
172
     1
173
     1
176
     2
177
     2
178
     2
271
     3
274
     4
283
     0
284
     8
288
     1
289
     0
340
102
343
F8
344
F8
  0
ENDTAB
  0
TABLE
  2
BLOCK_RECORD
  5
1
330
0
100
AcDbSymbolTable
 70
    45
  0
BLOCK_RECORD
  5
1F
330
1
100
AcDbSymbolTableRecord
100
AcDbBlockTableRecord
  2
*Model_Space
340
22
  0
BLOCK_RECORD
  5
1B
330
1
100
AcDbSymbolTableRecord
100
AcDbBlockTableRecord
  2
*Paper_Space
340
1E
  0
BLOCK_RECORD
  5
23
330
1
100
AcDbSymbolTableRecord
100
AcDbBlockTableRecord
  2
*Paper_Space0
340
26
  0
BLOCK_RECORD
  5
76
330
1
100
AcDbSymbolTableRecord
100
AcDbBlockTableRecord
  2
*D1
340
0
  0
BLOCK_RECORD
  5
79
330
1
100
AcDbSymbolTableRecord
100
AcDbBlockTableRecord
  2
*D2
340
0
  0
BLOCK_RECORD
  5
7C
330
1
100
AcDbSymbolTableRecord
100
AcDbBlockTableRecord
  2
*D3
340
0
  0
BLOCK_RECORD
  5
7F
330
1
100
AcDbSymbolTableRecord
100
AcDbBlockTableRecord
  2
*D4
340
0
  0
BLOCK_RECORD
  5
82
330
1
100
AcDbSymbolTableRecord
100
AcDbBlockTableRecord
  2
*D5
340
0
  0
BLOCK_RECORD
  5
85
330
1
100
AcDbSymbolTableRecord
100
AcDbBlockTableRecord
  2
*D6
340
0
  0
BLOCK_RECORD
  5
88
330
1
100
AcDbSymbolTableRecord
100
AcDbBlockTableRecord
  2
*D7
340
0
  0
BLOCK_RECORD
  5
8B
330
1
100
AcDbSymbolTableRecord
100
AcDbBlockTableRecord
  2
*D8
340
0
  0
BLOCK_RECORD
  5
8E
330
1
100
AcDbSymbolTableRecord
100
AcDbBlockTableRecord
  2
*D9
340
0
  0
BLOCK_RECORD
  5
91
330
1
100
AcDbSymbolTableRecord
100
AcDbBlockTableRecord
  2
DA_IMAGEDIMGROUP_1
340
0
102
{BLKREFS
331
4D3
102
}
  0
BLOCK_RECORD
  5
94
330
1
100
AcDbSymbolTableRecord
100
AcDbBlockTableRecord
  2
*D11
340
0
  0
BLOCK_RECORD
  5
97
330
1
100
AcDbSymbolTableRecord
100
AcDbBlockTableRecord
  2
*D12
340
0
  0
BLOCK_RECORD
  5
9A
330
1
100
AcDbSymbolTableRecord
100
AcDbBlockTableRecord
  2
*D13
340
0
  0
BLOCK_RECORD
  5
9D
330
1
100
AcDbSymbolTableRecord
100
AcDbBlockTableRecord
  2
*D14
340
0
  0
BLOCK_RECORD
  5
A0
330
1
100
AcDbSymbolTableRecord
100
AcDbBlockTableRecord
  2
*D15
340
0
  0
BLOCK_RECORD
  5
A3
330
1
100
AcDbSymbolTableRecord
100
AcDbBlockTableRecord
  2
*D16
340
0
  0
BLOCK_RECORD
  5
A6
330
1
100
AcDbSymbolTableRecord
100
AcDbBlockTableRecord
  2
*D17
340
0
  0
BLOCK_RECORD
  5
A9
330
1
100
AcDbSymbolTableRecord
100
AcDbBlockTableRecord
  2
*D18
340
0
  0
BLOCK_RECORD
  5
AC
330
1
100
AcDbSymbolTableRecord
100
AcDbBlockTableRecord
  2
*D19
340
0
  0
BLOCK_RECORD
  5
AF
330
1
100
AcDbSymbolTableRecord
100
AcDbBlockTableRecord
  2
*D20
340
0
  0
BLOCK_RECORD
  5
B2
330
1
100
AcDbSymbolTableRecord
100
AcDbBlockTableRecord
  2
*D21
340
0
  0
BLOCK_RECORD
  5
B5
330
1
100
AcDbSymbolTableRecord
100
AcDbBlockTableRecord
  2
*D22
340
0
  0
BLOCK_RECORD
  5
B8
330
1
100
AcDbSymbolTableRecord
100
AcDbBlockTableRecord
  2
DA_IMAGEDIMGROUP_2
340
0
102
{BLKREFS
331
4E0
102
}
  0
BLOCK_RECORD
  5
BB
330
1
100
AcDbSymbolTableRecord
100
AcDbBlockTableRecord
  2
*D24
340
0
  0
BLOCK_RECORD
  5
BE
330
1
100
AcDbSymbolTableRecord
100
AcDbBlockTableRecord
  2
*D25
340
0
  0
BLOCK_RECORD
  5
C1
330
1
100
AcDbSymbolTableRecord
100
AcDbBlockTableRecord
  2
DC_GROUP_ACE125_1
340
0
102
{BLKREFS
331
4E3
102
}
  0
BLOCK_RECORD
  5
C4
330
1
100
AcDbSymbolTableRecord
100
AcDbBlockTableRecord
  2
*D27
340
0
  0
BLOCK_RECORD
  5
C7
330
1
100
AcDbSymbolTableRecord
100
AcDbBlockTableRecord
  2
*D28
340
0
  0
BLOCK_RECORD
  5
CA
330
1
100
AcDbSymbolTableRecord
100
AcDbBlockTableRecord
  2
*D29
340
0
  0
BLOCK_RECORD
  5
CD
330
1
100
AcDbSymbolTableRecord
100
AcDbBlockTableRecord
  2
*D30
340
0
  0
BLOCK_RECORD
  5
D0
330
1
100
AcDbSymbolTableRecord
100
AcDbBlockTableRecord
  2
*D31
340
0
  0
BLOCK_RECORD
  5
D3
330
1
100
AcDbSymbolTableRecord
100
AcDbBlockTableRecord
  2
DC_GROUP_ACE125_2
340
0
102
{BLKREFS
331
4E9
102
}
  0
BLOCK_RECORD
  5
D6
330
1
100
AcDbSymbolTableRecord
100
AcDbBlockTableRecord
  2
*D33
340
0
  0
BLOCK_RECORD
  5
D9
330
1
100
AcDbSymbolTableRecord
100
AcDbBlockTableRecord
  2
DC_GROUP_ACE125_3
340
0
102
{BLKREFS
331
4EB
102
}
  0
BLOCK_RECORD
  5
DC
330
1
100
AcDbSymbolTableRecord
100
AcDbBlockTableRecord
  2
DC_GROUP_ACE125_4
340
0
102
{BLKREFS
331
4EE
102
}
  0
BLOCK_RECORD
  5
DF
330
1
100
AcDbSymbolTableRecord
100
AcDbBlockTableRecord
  2
DC_GROUP_ACE125_5
340
0
102
{BLKREFS
331
4EF
102
}
  0
BLOCK_RECORD
  5
E2
330
1
100
AcDbSymbolTableRecord
100
AcDbBlockTableRecord
  2
DC_GROUP_ACE125_6
340
0
102
{BLKREFS
331
4F0
102
}
  0
BLOCK_RECORD
  5
E5
330
1
100
AcDbSymbolTableRecord
100
AcDbBlockTableRecord
  2
DC_GROUP_ACE125_7
340
0
102
{BLKREFS
331
4EC
102
}
  0
BLOCK_RECORD
  5
E8
330
1
100
AcDbSymbolTableRecord
100
AcDbBlockTableRecord
  2
DC_GROUP_ACE125_8
340
0
102
{BLKREFS
331
4F1
102
}
  0
BLOCK_RECORD
  5
EB
330
1
100
AcDbSymbolTableRecord
100
AcDbBlockTableRecord
  2
DC_GROUP_ACE125_9
340
0
102
{BLKREFS
331
4ED
102
}
  0
BLOCK_RECORD
  5
EE
330
1
100
AcDbSymbolTableRecord
100
AcDbBlockTableRecord
  2
DC_GROUP_ACE125_10
340
0
102
{BLKREFS
331
4F2
102
}
  0
BLOCK_RECORD
  5
F1
330
1
100
AcDbSymbolTableRecord
100
AcDbBlockTableRecord
  2
DC_GROUP_ACE125_11
340
0
102
{BLKREFS
331
4F3
102
}
  0
BLOCK_RECORD
  5
F4
330
1
100
AcDbSymbolTableRecord
100
AcDbBlockTableRecord
  2
DC_GROUP_ACE125_12
340
0
102
{BLKREFS
331
4F4
102
}
  0
BLOCK_RECORD
  5
F8
330
1
100
AcDbSymbolTableRecord
100
AcDbBlockTableRecord
  2
_OPEN30
340
0
102
{BLKREFS
331
FE
331
FF
331
105
331
106
331
109
331
10A
331
10D
331
10E
331
113
331
114
331
119
331
11A
331
11F
331
120
331
125
331
126
331
12B
331
12C
331
134
331
136
331
139
331
13A
331
13F
331
140
331
145
331
146
331
14B
331
14C
331
151
331
152
331
157
331
158
331
15D
331
15E
331
162
331
163
331
167
331
168
331
16D
331
16E
331
173
331
174
331
179
331
17A
331
181
331
183
331
186
331
187
331
18C
331
18D
331
194
331
195
331
19A
331
19B
331
1A0
331
1A1
331
1A6
331
1A7
331
1AC
331
1AD
331
1B4
331
1B5
331
1BA
331
1C2
331
1C7
102
}
  0
ENDTAB
  0
ENDSEC
  0
SECTION
  2
BLOCKS
  0
BLOCK
  5
20
330
1F
100
AcDbEntity
  8
0
100
AcDbBlockBegin
  2
*Model_Space
 70
     0
 10
0.0
 20
0.0
 30
0.0
  3
*Model_Space
  1

  0
ENDBLK
  5
21
330
1F
100
AcDbEntity
  8
0
100
AcDbBlockEnd
  0
BLOCK
  5
1C
330
1B
100
AcDbEntity
 67
     1
  8
0
100
AcDbBlockBegin
  2
*Paper_Space
 70
     0
 10
0.0
 20
0.0
 30
0.0
  3
*Paper_Space
  1

  0
ENDBLK
  5
1D
330
1B
100
AcDbEntity
 67
     1
  8
0
100
AcDbBlockEnd
  0
BLOCK
  5
24
330
23
100
AcDbEntity
  8
0
100
AcDbBlockBegin
  2
*Paper_Space0
 70
     0
 10
0.0
 20
0.0
 30
0.0
  3
*Paper_Space0
  1

  0
ENDBLK
  5
25
330
23
100
AcDbEntity
  8
0
100
AcDbBlockEnd
  0
BLOCK
  5
77
330
76
100
AcDbEntity
  8
0
100
AcDbBlockBegin
  2
*D1
 70
     1
 10
0.0
 20
0.0
 30
0.0
  3
*D1
  1

  0
LINE
  5
F7
330
76
100
AcDbEntity
  8
Layer0015
  6
Continuous
 62
     2
370
    25
100
AcDbLine
 10
-380.9594771241829
 20
93.3204339919119
 30
0.0
 11
-380.9594771241829
 21
218.3204339919119
 31
0.0
  0
INSERT
  5
FE
330
76
100
AcDbEntity
  8
Layer0015
 62
     2
100
AcDbBlockReference
  2
_OPEN30
 10
-380.9594771241829
 20
93.3204339919119
 30
0.0
 41
3.058640732435014
 42
2.01277523548278
 50
270.0
  0
INSERT
  5
FF
330
76
100
AcDbEntity
  8
Layer0015
 62
     2
100
AcDbBlockReference
  2
_OPEN30
 10
-380.9594771241829
 20
218.3204339919119
 30
0.0
 41
3.058640732435014
 42
2.01277523548278
 50
90.0
  0
LINE
  5
100
330
76
100
AcDbEntity
  8
Layer0015
  6
Continuous
 62
     2
370
    25
100
AcDbLine
 10
-372.5858573216526
 20
93.3204339919119
 30
0.0
 11
-381.7594771241829
 21
93.3204339919119
 31
0.0
  0
LINE
  5
101
330
76
100
AcDbEntity
  8
Layer0015
  6
Continuous
 62
     2
370
    25
100
AcDbLine
 10
-372.5858573216526
 20
218.3204339919119
 30
0.0
 11
-381.7594771241829
 21
218.3204339919119
 31
0.0
  0
MTEXT
  5
103
330
76
100
AcDbEntity
  8
Layer0015
 62
     2
100
AcDbMText
 10
-381.9594771241829
 20
155.8204339919119
 30
0.0
 40
5.0
 41
21.25
 71
     8
 72
     1
  1
\T1.00;125
  7
dcStyle0
 11
6.123031769111886E-17
 21
1.0
 31
0.0
 73
     1
 44
1.0
  0
ENDBLK
  5
78
330
76
100
AcDbEntity
  8
0
100
AcDbBlockEnd
  0
BLOCK
  5
7A
330
79
100
AcDbEntity
  8
0
100
AcDbBlockBegin
  2
*D2
 70
     1
 10
0.0
 20
0.0
 30
0.0
  3
*D2
  1

  0
LINE
  5
104
330
79
100
AcDbEntity
  8
Layer0015
  6
Continuous
 62
     2
370
    25
100
AcDbLine
 10
-244.4811720171687
 20
133.3204339919119
 30
0.0
 11
-244.4811720171687
 21
178.3204339919119
 31
0.0
  0
INSERT
  5
105
330
79
100
AcDbEntity
  8
Layer0015
 62
     2
100
AcDbBlockReference
  2
_OPEN30
 10
-244.4811720171687
 20
133.3204339919119
 30
0.0
 41
3.058640732435014
 42
2.01277523548278
 50
270.0
  0
INSERT
  5
106
330
79
100
AcDbEntity
  8
Layer0015
 62
     2
100
AcDbBlockReference
  2
_OPEN30
 10
-244.4811720171687
 20
178.3204339919119
 30
0.0
 41
3.058640732435014
 42
2.01277523548278
 50
90.0
  0
MTEXT
  5
107
330
79
100
AcDbEntity
  8
Layer0015
 62
     2
100
AcDbMText
 10
-245.4811720171687
 20
162.2341361248095
 30
0.0
 40
5.0
 41
16.25
 71
     8
 72
     1
  1
\T1.00;45
  7
dcStyle0
 11
6.123031769111886E-17
 21
1.0
 31
0.0
 73
     1
 44
1.0
  0
ENDBLK
  5
7B
330
79
100
AcDbEntity
  8
0
100
AcDbBlockEnd
  0
BLOCK
  5
7D
330
7C
100
AcDbEntity
  8
0
100
AcDbBlockBegin
  2
*D3
 70
     1
 10
0.0
 20
0.0
 30
0.0
  3
*D3
  1

  0
LINE
  5
108
330
7C
100
AcDbEntity
  8
Layer0015
  6
Continuous
 62
     2
370
    25
100
AcDbLine
 10
-232.3188648387171
 20
106.8204339919119
 30
0.0
 11
-232.3188648387171
 21
204.8204339919119
 31
0.0
  0
INSERT
  5
109
330
7C
100
AcDbEntity
  8
Layer0015
 62
     2
100
AcDbBlockReference
  2
_OPEN30
 10
-232.3188648387171
 20
106.8204339919119
 30
0.0
 41
3.058640732435014
 42
2.01277523548278
 50
270.0
  0
INSERT
  5
10A
330
7C
100
AcDbEntity
  8
Layer0015
 62
     2
100
AcDbBlockReference
  2
_OPEN30
 10
-232.3188648387171
 20
204.8204339919119
 30
0.0
 41
3.058640732435014
 42
2.01277523548278
 50
90.0
  0
MTEXT
  5
10B
330
7C
100
AcDbEntity
  8
Layer0015
 62
     2
100
AcDbMText
 10
-233.3188648387171
 20
163.2917280533705
 30
0.0
 40
5.0
 41
16.25
 71
     8
 72
     1
  1
\T1.00;98
  7
dcStyle0
 11
6.123031769111886E-17
 21
1.0
 31
0.0
 73
     1
 44
1.0
  0
ENDBLK
  5
7E
330
7C
100
AcDbEntity
  8
0
100
AcDbBlockEnd
  0
BLOCK
  5
80
330
7F
100
AcDbEntity
  8
0
100
AcDbBlockBegin
  2
*D4
 70
     1
 10
0.0
 20
0.0
 30
0.0
  3
*D4
  1

  0
LINE
  5
10C
330
7F
100
AcDbEntity
  8
Layer0015
  6
Continuous
 62
     2
370
    25
100
AcDbLine
 10
366.180225281602
 20
47.32043399191178
 30
0.0
 11
366.180225281602
 21
93.3204339919119
 31
0.0
  0
INSERT
  5
10D
330
7F
100
AcDbEntity
  8
Layer0015
 62
     2
100
AcDbBlockReference
  2
_OPEN30
 10
366.180225281602
 20
47.32043399191178
 30
0.0
 41
3.058640732435014
 42
2.01277523548278
 50
270.0
  0
INSERT
  5
10E
330
7F
100
AcDbEntity
  8
Layer0015
 62
     2
100
AcDbBlockReference
  2
_OPEN30
 10
366.180225281602
 20
93.3204339919119
 30
0.0
 41
3.058640732435014
 42
2.01277523548278
 50
90.0
  0
LINE
  5
10F
330
7F
100
AcDbEntity
  8
Layer0015
  6
Continuous
 62
     2
370
    25
100
AcDbLine
 10
348.9292024122018
 20
47.32043399191178
 30
0.0
 11
366.980225281602
 21
47.32043399191178
 31
0.0
  0
LINE
  5
110
330
7F
100
AcDbEntity
  8
Layer0015
  6
Continuous
 62
     2
370
    25
100
AcDbLine
 10
349.0688360450564
 20
93.3204339919119
 30
0.0
 11
366.980225281602
 21
93.3204339919119
 31
0.0
  0
MTEXT
  5
111
330
7F
100
AcDbEntity
  8
Layer0015
 62
     2
100
AcDbMText
 10
365.180225281602
 20
67.32043399191184
 30
0.0
 40
5.0
 41
16.25
 71
     8
 72
     1
  1
\T1.00;46
  7
dcStyle0
 11
6.123031769111886E-17
 21
1.0
 31
0.0
 73
     1
 44
1.0
  0
ENDBLK
  5
81
330
7F
100
AcDbEntity
  8
0
100
AcDbBlockEnd
  0
BLOCK
  5
83
330
82
100
AcDbEntity
  8
0
100
AcDbBlockBegin
  2
*D5
 70
     1
 10
0.0
 20
0.0
 30
0.0
  3
*D5
  1

  0
LINE
  5
112
330
82
100
AcDbEntity
  8
Layer0015
  6
Continuous
 62
     2
370
    25
100
AcDbLine
 10
366.180225281602
 20
93.3204339919119
 30
0.0
 11
366.180225281602
 21
218.3204339919119
 31
0.0
  0
INSERT
  5
113
330
82
100
AcDbEntity
  8
Layer0015
 62
     2
100
AcDbBlockReference
  2
_OPEN30
 10
366.180225281602
 20
93.3204339919119
 30
0.0
 41
3.058640732435014
 42
2.01277523548278
 50
270.0
  0
INSERT
  5
114
330
82
100
AcDbEntity
  8
Layer0015
 62
     2
100
AcDbBlockReference
  2
_OPEN30
 10
366.180225281602
 20
218.3204339919119
 30
0.0
 41
3.058640732435014
 42
2.01277523548278
 50
90.0
  0
LINE
  5
115
330
82
100
AcDbEntity
  8
Layer0015
  6
Continuous
 62
     2
370
    25
100
AcDbLine
 10
349.0688360450564
 20
93.3204339919119
 30
0.0
 11
366.980225281602
 21
93.3204339919119
 31
0.0
  0
LINE
  5
116
330
82
100
AcDbEntity
  8
Layer0015
  6
Continuous
 62
     2
370
    25
100
AcDbLine
 10
349.0688360450564
 20
218.3204339919119
 30
0.0
 11
366.980225281602
 21
218.3204339919119
 31
0.0
  0
MTEXT
  5
117
330
82
100
AcDbEntity
  8
Layer0015
 62
     2
100
AcDbMText
 10
365.180225281602
 20
155.8204339919119
 30
0.0
 40
5.0
 41
21.25
 71
     8
 72
     1
  1
\T1.00;125
  7
dcStyle0
 11
6.123031769111886E-17
 21
1.0
 31
0.0
 73
     1
 44
1.0
  0
ENDBLK
  5
84
330
82
100
AcDbEntity
  8
0
100
AcDbBlockEnd
  0
BLOCK
  5
86
330
85
100
AcDbEntity
  8
0
100
AcDbBlockBegin
  2
*D6
 70
     1
 10
0.0
 20
0.0
 30
0.0
  3
*D6
  1

  0
LINE
  5
118
330
85
100
AcDbEntity
  8
Layer0015
  6
Continuous
 62
     2
370
    25
100
AcDbLine
 10
366.180225281602
 20
218.3204339919119
 30
0.0
 11
366.180225281602
 21
264.320433991912
 31
0.0
  0
INSERT
  5
119
330
85
100
AcDbEntity
  8
Layer0015
 62
     2
100
AcDbBlockReference
  2
_OPEN30
 10
366.180225281602
 20
218.3204339919119
 30
0.0
 41
3.058640732435014
 42
2.01277523548278
 50
270.0
  0
INSERT
  5
11A
330
85
100
AcDbEntity
  8
Layer0015
 62
     2
100
AcDbBlockReference
  2
_OPEN30
 10
366.180225281602
 20
264.320433991912
 30
0.0
 41
3.058640732435014
 42
2.01277523548278
 50
90.0
  0
LINE
  5
11B
330
85
100
AcDbEntity
  8
Layer0015
  6
Continuous
 62
     2
370
    25
100
AcDbLine
 10
349.0688360450564
 20
218.3204339919119
 30
0.0
 11
366.980225281602
 21
218.3204339919119
 31
0.0
  0
LINE
  5
11C
330
85
100
AcDbEntity
  8
Layer0015
  6
Continuous
 62
     2
370
    25
100
AcDbLine
 10
348.7946789938231
 20
264.320433991912
 30
0.0
 11
366.980225281602
 21
264.320433991912
 31
0.0
  0
MTEXT
  5
11D
330
85
100
AcDbEntity
  8
Layer0015
 62
     2
100
AcDbMText
 10
365.180225281602
 20
244.320433991912
 30
0.0
 40
5.0
 41
16.25
 71
     8
 72
     1
  1
\T1.00;46
  7
dcStyle0
 11
6.123031769111886E-17
 21
1.0
 31
0.0
 73
     1
 44
1.0
  0
ENDBLK
  5
87
330
85
100
AcDbEntity
  8
0
100
AcDbBlockEnd
  0
BLOCK
  5
89
330
88
100
AcDbEntity
  8
0
100
AcDbBlockBegin
  2
*D7
 70
     1
 10
0.0
 20
0.0
 30
0.0
  3
*D7
  1

  0
LINE
  5
11E
330
88
100
AcDbEntity
  8
Layer0015
  6
Continuous
 62
     2
370
    25
100
AcDbLine
 10
377.5695416817034
 20
47.32043399191178
 30
0.0
 11
377.5695416817034
 21
264.320433991912
 31
0.0
  0
INSERT
  5
11F
330
88
100
AcDbEntity
  8
Layer0015
 62
     2
100
AcDbBlockReference
  2
_OPEN30
 10
377.5695416817034
 20
47.32043399191178
 30
0.0
 41
3.058640732435014
 42
2.01277523548278
 50
270.0
  0
INSERT
  5
120
330
88
100
AcDbEntity
  8
Layer0015
 62
     2
100
AcDbBlockReference
  2
_OPEN30
 10
377.5695416817034
 20
264.320433991912
 30
0.0
 41
3.058640732435014
 42
2.01277523548278
 50
90.0
  0
LINE
  5
121
330
88
100
AcDbEntity
  8
Layer0015
  6
Continuous
 62
     2
370
    25
100
AcDbLine
 10
348.9292024122018
 20
47.32043399191178
 30
0.0
 11
378.3695416817034
 21
47.32043399191178
 31
0.0
  0
LINE
  5
122
330
88
100
AcDbEntity
  8
Layer0015
  6
Continuous
 62
     2
370
    25
100
AcDbLine
 10
348.7946789938231
 20
264.320433991912
 30
0.0
 11
378.3695416817034
 21
264.320433991912
 31
0.0
  0
MTEXT
  5
123
330
88
100
AcDbEntity
  8
Layer0015
 62
     2
100
AcDbMText
 10
376.5695416817034
 20
155.8204339919119
 30
0.0
 40
5.0
 41
21.25
 71
     8
 72
     1
  1
\T1.00;217
  7
dcStyle0
 11
6.123031769111886E-17
 21
1.0
 31
0.0
 73
     1
 44
1.0
  0
ENDBLK
  5
8A
330
88
100
AcDbEntity
  8
0
100
AcDbBlockEnd
  0
BLOCK
  5
8C
330
8B
100
AcDbEntity
  8
0
100
AcDbBlockBegin
  2
*D8
 70
     1
 10
0.0
 20
0.0
 30
0.0
  3
*D8
  1

  0
LINE
  5
124
330
8B
100
AcDbEntity
  8
Layer0015
  6
Continuous
 62
     2
370
    25
100
AcDbLine
 10
-380.6306176930864
 20
-204.9289983697221
 30
0.0
 11
-380.6306176930864
 21
-79.4289983697222
 31
0.0
  0
INSERT
  5
125
330
8B
100
AcDbEntity
  8
Layer0015
 62
     2
100
AcDbBlockReference
  2
_OPEN30
 10
-380.6306176930864
 20
-204.9289983697221
 30
0.0
 41
3.058640732435014
 42
2.01277523548278
 50
270.0
  0
INSERT
  5
126
330
8B
100
AcDbEntity
  8
Layer0015
 62
     2
100
AcDbBlockReference
  2
_OPEN30
 10
-380.6306176930864
 20
-79.4289983697222
 30
0.0
 41
3.058640732435014
 42
2.01277523548278
 50
90.0
  0
LINE
  5
127
330
8B
100
AcDbEntity
  8
Layer0015
  6
Continuous
 62
     2
370
    25
100
AcDbLine
 10
-372.5858573216526
 20
-204.9289983697221
 30
0.0
 11
-381.4306176930864
 21
-204.9289983697221
 31
0.0
  0
LINE
  5
128
330
8B
100
AcDbEntity
  8
Layer0015
  6
Continuous
 62
     2
370
    25
100
AcDbLine
 10
-373.0858573216526
 20
-79.4289983697222
 30
0.0
 11
-381.4306176930864
 21
-79.4289983697222
 31
0.0
  0
MTEXT
  5
129
330
8B
100
AcDbEntity
  8
Layer0015
 62
     2
100
AcDbMText
 10
-381.6306176930864
 20
-142.1789983697221
 30
0.0
 40
5.0
 41
31.25
 71
     8
 72
     1
  1
\T1.00;125.5
  7
dcStyle0
 11
6.123031769111886E-17
 21
1.0
 31
0.0
 73
     1
 44
1.0
  0
ENDBLK
  5
8D
330
8B
100
AcDbEntity
  8
0
100
AcDbBlockEnd
  0
BLOCK
  5
8F
330
8E
100
AcDbEntity
  8
0
100
AcDbBlockBegin
  2
*D9
 70
     1
 10
0.0
 20
0.0
 30
0.0
  3
*D9
  1

  0
LINE
  5
12A
330
8E
100
AcDbEntity
  8
Layer0015
  6
Continuous
 62
     2
370
    25
100
AcDbLine
 10
-389.6306176930864
 20
-204.9289983697221
 30
0.0
 11
-389.6306176930864
 21
-55.92899836972219
 31
0.0
  0
INSERT
  5
12B
330
8E
100
AcDbEntity
  8
Layer0015
 62
     2
100
AcDbBlockReference
  2
_OPEN30
 10
-389.6306176930864
 20
-204.9289983697221
 30
0.0
 41
3.058640732435014
 42
2.01277523548278
 50
270.0
  0
INSERT
  5
12C
330
8E
100
AcDbEntity
  8
Layer0015
 62
     2
100
AcDbBlockReference
  2
_OPEN30
 10
-389.6306176930864
 20
-55.92899836972219
 30
0.0
 41
3.058640732435014
 42
2.01277523548278
 50
90.0
  0
LINE
  5
12D
330
8E
100
AcDbEntity
  8
Layer0015
  6
Continuous
 62
     2
370
    25
100
AcDbLine
 10
-372.5858573216526
 20
-204.9289983697221
 30
0.0
 11
-390.4306176930864
 21
-204.9289983697221
 31
0.0
  0
LINE
  5
12E
330
8E
100
AcDbEntity
  8
Layer0015
  6
Continuous
 62
     2
370
    25
100
AcDbLine
 10
-357.5858573216527
 20
-55.92899836972219
 30
0.0
 11
-390.4306176930864
 21
-55.92899836972219
 31
0.0
  0
MTEXT
  5
12F
330
8E
100
AcDbEntity
  8
Layer0015
 62
     2
100
AcDbMText
 10
-390.6306176930864
 20
-130.4289983697221
 30
0.0
 40
5.0
 41
21.25
 71
     8
 72
     1
  1
\T1.00;149
  7
dcStyle0
 11
6.123031769111886E-17
 21
1.0
 31
0.0
 73
     1
 44
1.0
  0
ENDBLK
  5
90
330
8E
100
AcDbEntity
  8
0
100
AcDbBlockEnd
  0
BLOCK
  5
92
330
91
100
AcDbEntity
  8
0
100
AcDbBlockBegin
  2
DA_IMAGEDIMGROUP_1
 70
     0
 10
0.0
 20
0.0
 30
0.0
  3
DA_IMAGEDIMGROUP_1
  1

  0
LINE
  5
130
330
91
100
AcDbEntity
  8
Layer0015
  6
Continuous
 62
     2
370
    25
100
AcDbLine
 10
-216.5858573216526
 20
-223.2010085436994
 30
0.0
 11
-198.5858573216526
 21
-223.2010085436994
 31
0.0
  0
LINE
  5
131
330
91
100
AcDbEntity
  8
Layer0015
  6
Continuous
 62
     2
370
    25
100
AcDbLine
 10
-216.5858573216526
 20
-213.9289983697221
 30
0.0
 11
-216.5858573216526
 21
-223.8676755436994
 31
0.0
  0
LINE
  5
132
330
91
100
AcDbEntity
  8
Layer0015
  6
Continuous
 62
     2
370
    25
100
AcDbLine
 10
-198.5858573216526
 20
-213.9289983697221
 30
0.0
 11
-198.5858573216526
 21
-223.8676755436994
 31
0.0
  0
LINE
  5
133
330
91
100
AcDbEntity
  8
Layer0015
  6
Continuous
 62
     2
370
    25
100
AcDbLine
 10
-187.6314373216526
 20
-223.2010085436994
 30
0.0
 11
-198.5858573216526
 21
-223.2010085436994
 31
0.0
  0
INSERT
  5
134
330
91
100
AcDbEntity
  8
Layer0015
 62
     2
100
AcDbBlockReference
  2
_OPEN30
 10
-198.5858573216526
 20
-223.2010085436994
 30
0.0
 41
3.058640732435014
 42
2.01277523548278
 50
180.0
  0
LINE
  5
135
330
91
100
AcDbEntity
  8
Layer0015
  6
Continuous
 62
     2
370
    25
100
AcDbLine
 10
-220.5858573216526
 20
-223.2010085436994
 30
0.0
 11
-216.5858573216526
 21
-223.2010085436994
 31
0.0
  0
INSERT
  5
136
330
91
100
AcDbEntity
  8
Layer0015
 62
     2
100
AcDbBlockReference
  2
_OPEN30
 10
-216.5858573216526
 20
-223.2010085436994
 30
0.0
 41
3.058640732435014
 42
2.01277523548278
 50
360.0
  0
MTEXT
  5
137
330
91
100
AcDbEntity
  8
Layer0015
 62
     2
100
AcDbMText
 10
-195.6314373216526
 20
-222.2010085436994
 30
0.0
 40
5.0
 41
16.25
 71
     7
 72
     1
  1
\T1.00;18
  7
dcStyle0
 73
     1
 44
1.0
  0
ENDBLK
  5
93
330
91
100
AcDbEntity
  8
0
100
AcDbBlockEnd
  0
BLOCK
  5
95
330
94
100
AcDbEntity
  8
0
100
AcDbBlockBegin
  2
*D11
 70
     1
 10
0.0
 20
0.0
 30
0.0
  3
*D11
  1

  0
LINE
  5
138
330
94
100
AcDbEntity
  8
Layer0015
  6
Continuous
 62
     2
370
    25
100
AcDbLine
 10
-277.5858573216525
 20
-243.2010085436994
 30
0.0
 11
-207.5858573216526
 21
-243.2010085436994
 31
0.0
  0
INSERT
  5
139
330
94
100
AcDbEntity
  8
Layer0015
 62
     2
100
AcDbBlockReference
  2
_OPEN30
 10
-277.5858573216525
 20
-243.2010085436994
 30
0.0
 41
3.058640732435014
 42
2.01277523548278
 50
180.0
  0
INSERT
  5
13A
330
94
100
AcDbEntity
  8
Layer0015
 62
     2
100
AcDbBlockReference
  2
_OPEN30
 10
-207.5858573216526
 20
-243.2010085436994
 30
0.0
 41
3.058640732435014
 42
2.01277523548278
 50
360.0
  0
LINE
  5
13B
330
94
100
AcDbEntity
  8
Layer0015
  6
Continuous
 62
     2
370
    25
100
AcDbLine
 10
-277.5858573216525
 20
-125.9289983697222
 30
0.0
 11
-277.5858573216525
 21
-243.8676755436994
 31
0.0
  0
LINE
  5
13C
330
94
100
AcDbEntity
  8
Layer0015
  6
Continuous
 62
     2
370
    25
100
AcDbLine
 10
-207.5858573216526
 20
-215.189391563983
 30
0.0
 11
-207.5858573216526
 21
-243.8676755436994
 31
0.0
  0
MTEXT
  5
13D
330
94
100
AcDbEntity
  8
Layer0015
 62
     2
100
AcDbMText
 10
-242.5858573216526
 20
-242.2010085436994
 30
0.0
 40
5.0
 41
16.25
 71
     8
 72
     1
  1
\T1.00;70
  7
dcStyle0
 73
     1
 44
1.0
  0
ENDBLK
  5
96
330
94
100
AcDbEntity
  8
0
100
AcDbBlockEnd
  0
BLOCK
  5
98
330
97
100
AcDbEntity
  8
0
100
AcDbBlockBegin
  2
*D12
 70
     1
 10
0.0
 20
0.0
 30
0.0
  3
*D12
  1

  0
LINE
  5
13E
330
97
100
AcDbEntity
  8
Layer0015
  6
Continuous
 62
     2
370
    25
100
AcDbLine
 10
-257.5858573216526
 20
-233.2010085436994
 30
0.0
 11
-207.5858573216526
 21
-233.2010085436994
 31
0.0
  0
INSERT
  5
13F
330
97
100
AcDbEntity
  8
Layer0015
 62
     2
100
AcDbBlockReference
  2
_OPEN30
 10
-257.5858573216526
 20
-233.2010085436994
 30
0.0
 41
3.058640732435014
 42
2.01277523548278
 50
180.0
  0
INSERT
  5
140
330
97
100
AcDbEntity
  8
Layer0015
 62
     2
100
AcDbBlockReference
  2
_OPEN30
 10
-207.5858573216526
 20
-233.2010085436994
 30
0.0
 41
3.058640732435014
 42
2.01277523548278
 50
360.0
  0
LINE
  5
141
330
97
100
AcDbEntity
  8
Layer0015
  6
Continuous
 62
     2
370
    25
100
AcDbLine
 10
-257.5858573216526
 20
-205.9289983697221
 30
0.0
 11
-257.5858573216526
 21
-233.8676755436994
 31
0.0
  0
LINE
  5
142
330
97
100
AcDbEntity
  8
Layer0015
  6
Continuous
 62
     2
370
    25
100
AcDbLine
 10
-207.5858573216526
 20
-213.9289983697221
 30
0.0
 11
-207.5858573216526
 21
-233.8676755436994
 31
0.0
  0
MTEXT
  5
143
330
97
100
AcDbEntity
  8
Layer0015
 62
     2
100
AcDbMText
 10
-232.5858573216526
 20
-232.2010085436994
 30
0.0
 40
5.0
 41
16.25
 71
     8
 72
     1
  1
\T1.00;50
  7
dcStyle0
 73
     1
 44
1.0
  0
ENDBLK
  5
99
330
97
100
AcDbEntity
  8
0
100
AcDbBlockEnd
  0
BLOCK
  5
9B
330
9A
100
AcDbEntity
  8
0
100
AcDbBlockBegin
  2
*D13
 70
     1
 10
0.0
 20
0.0
 30
0.0
  3
*D13
  1

  0
LINE
  5
144
330
9A
100
AcDbEntity
  8
Layer0015
  6
Continuous
 62
     2
370
    25
100
AcDbLine
 10
-207.5858573216526
 20
-233.2010085436994
 30
0.0
 11
-157.5858573216526
 21
-233.2010085436994
 31
0.0
  0
INSERT
  5
145
330
9A
100
AcDbEntity
  8
Layer0015
 62
     2
100
AcDbBlockReference
  2
_OPEN30
 10
-207.5858573216526
 20
-233.2010085436994
 30
0.0
 41
3.058640732435014
 42
2.01277523548278
 50
180.0
  0
INSERT
  5
146
330
9A
100
AcDbEntity
  8
Layer0015
 62
     2
100
AcDbBlockReference
  2
_OPEN30
 10
-157.5858573216526
 20
-233.2010085436994
 30
0.0
 41
3.058640732435014
 42
2.01277523548278
 50
360.0
  0
LINE
  5
147
330
9A
100
AcDbEntity
  8
Layer0015
  6
Continuous
 62
     2
370
    25
100
AcDbLine
 10
-207.5858573216526
 20
-213.9289983697221
 30
0.0
 11
-207.5858573216526
 21
-233.8676755436994
 31
0.0
  0
LINE
  5
148
330
9A
100
AcDbEntity
  8
Layer0015
  6
Continuous
 62
     2
370
    25
100
AcDbLine
 10
-157.5858573216526
 20
-205.9289983697221
 30
0.0
 11
-157.5858573216526
 21
-233.8676755436994
 31
0.0
  0
MTEXT
  5
149
330
9A
100
AcDbEntity
  8
Layer0015
 62
     2
100
AcDbMText
 10
-182.5858573216526
 20
-232.2010085436994
 30
0.0
 40
5.0
 41
16.25
 71
     8
 72
     1
  1
\T1.00;50
  7
dcStyle0
 73
     1
 44
1.0
  0
ENDBLK
  5
9C
330
9A
100
AcDbEntity
  8
0
100
AcDbBlockEnd
  0
BLOCK
  5
9E
330
9D
100
AcDbEntity
  8
0
100
AcDbBlockBegin
  2
*D14
 70
     1
 10
0.0
 20
0.0
 30
0.0
  3
*D14
  1

  0
LINE
  5
14A
330
9D
100
AcDbEntity
  8
Layer0015
  6
Continuous
 62
     2
370
    13
100
AcDbLine
 10
-372.5858573216526
 20
-11.25672625976382
 30
0.0
 11
176.1141426783478
 21
-11.25672625976382
 31
0.0
  0
INSERT
  5
14B
330
9D
100
AcDbEntity
  8
Layer0015
 62
     2
100
AcDbBlockReference
  2
_OPEN30
 10
-372.5858573216526
 20
-11.25672625976382
 30
0.0
 41
3.058640732435014
 42
2.01277523548278
 50
180.0
  0
INSERT
  5
14C
330
9D
100
AcDbEntity
  8
Layer0015
 62
     2
100
AcDbBlockReference
  2
_OPEN30
 10
176.1141426783478
 20
-11.25672625976382
 30
0.0
 41
3.058640732435014
 42
2.01277523548278
 50
360.0
  0
LINE
  5
14D
330
9D
100
AcDbEntity
  8
Layer0015
  6
Continuous
 62
     2
370
    13
100
AcDbLine
 10
-372.5858573216526
 20
92.8204339919119
 30
0.0
 11
-372.5858573216526
 21
-12.05672625976382
 31
0.0
  0
LINE
  5
14E
330
9D
100
AcDbEntity
  8
Layer0015
  6
Continuous
 62
     2
370
    13
100
AcDbLine
 10
176.1141426783478
 20
148.0704339919119
 30
0.0
 11
176.1141426783478
 21
-12.05672625976382
 31
0.0
  0
MTEXT
  5
14F
330
9D
100
AcDbEntity
  8
Layer0015
 62
     2
100
AcDbMText
 10
-98.23585732165242
 20
-10.25672625976382
 30
0.0
 40
5.0
 41
21.25
 71
     8
 72
     1
  1
\T1.00;549
  7
dcStyle0
 73
     1
 44
1.0
  0
ENDBLK
  5
9F
330
9D
100
AcDbEntity
  8
0
100
AcDbBlockEnd
  0
BLOCK
  5
A1
330
A0
100
AcDbEntity
  8
0
100
AcDbBlockBegin
  2
*D15
 70
     1
 10
0.0
 20
0.0
 30
0.0
  3
*D15
  1

  0
LINE
  5
150
330
A0
100
AcDbEntity
  8
Layer0015
  6
Continuous
 62
     2
370
    13
100
AcDbLine
 10
-292.5858573216525
 20
-56.92287739990549
 30
0.0
 11
-277.5858573216525
 21
-56.92287739990549
 31
0.0
  0
INSERT
  5
151
330
A0
100
AcDbEntity
  8
Layer0015
 62
     2
100
AcDbBlockReference
  2
_OPEN30
 10
-292.5858573216525
 20
-56.92287739990549
 30
0.0
 41
3.058640732435014
 42
2.01277523548278
 50
180.0
  0
INSERT
  5
152
330
A0
100
AcDbEntity
  8
Layer0015
 62
     2
100
AcDbBlockReference
  2
_OPEN30
 10
-277.5858573216525
 20
-56.92287739990549
 30
0.0
 41
3.058640732435014
 42
2.01277523548278
 50
360.0
  0
LINE
  5
153
330
A0
100
AcDbEntity
  8
Layer0015
  6
Continuous
 62
     2
370
    13
100
AcDbLine
 10
-292.5858573216525
 20
-77.9289983697222
 30
0.0
 11
-292.5858573216525
 21
-56.12287739990548
 31
0.0
  0
LINE
  5
154
330
A0
100
AcDbEntity
  8
Layer0015
  6
Continuous
 62
     2
370
    13
100
AcDbLine
 10
-277.5858573216525
 20
-77.9289983697222
 30
0.0
 11
-277.5858573216525
 21
-56.12287739990548
 31
0.0
  0
MTEXT
  5
155
330
A0
100
AcDbEntity
  8
Layer0015
 62
     2
100
AcDbMText
 10
-285.0858573216525
 20
-55.92287739990549
 30
0.0
 40
5.0
 41
16.25
 71
     8
 72
     1
  1
\T1.00;15
  7
dcStyle0
 73
     1
 44
1.0
  0
ENDBLK
  5
A2
330
A0
100
AcDbEntity
  8
0
100
AcDbBlockEnd
  0
BLOCK
  5
A4
330
A3
100
AcDbEntity
  8
0
100
AcDbBlockBegin
  2
*D16
 70
     1
 10
0.0
 20
0.0
 30
0.0
  3
*D16
  1

  0
LINE
  5
156
330
A3
100
AcDbEntity
  8
Layer0015
  6
Continuous
 62
     2
370
    13
100
AcDbLine
 10
-185.7822584453033
 20
-212.9289983697221
 30
0.0
 11
-185.7822584453033
 21
-204.9289983697221
 31
0.0
  0
INSERT
  5
157
330
A3
100
AcDbEntity
  8
Layer0015
 62
     2
100
AcDbBlockReference
  2
_OPEN30
 10
-185.7822584453033
 20
-212.9289983697221
 30
0.0
 41
3.058640732435014
 42
2.01277523548278
 50
270.0
  0
INSERT
  5
158
330
A3
100
AcDbEntity
  8
Layer0015
 62
     2
100
AcDbBlockReference
  2
_OPEN30
 10
-185.7822584453033
 20
-204.9289983697221
 30
0.0
 41
3.058640732435014
 42
2.01277523548278
 50
90.0
  0
LINE
  5
159
330
A3
100
AcDbEntity
  8
Layer0015
  6
Continuous
 62
     2
370
    13
100
AcDbLine
 10
-197.5858573216526
 20
-212.9289983697221
 30
0.0
 11
-184.9822584453032
 21
-212.9289983697221
 31
0.0
  0
LINE
  5
15A
330
A3
100
AcDbEntity
  8
Layer0015
  6
Continuous
 62
     2
370
    13
100
AcDbLine
 10
-215.5858573216526
 20
-204.9289983697221
 30
0.0
 11
-184.9822584453032
 21
-204.9289983697221
 31
0.0
  0
MTEXT
  5
15B
330
A3
100
AcDbEntity
  8
Layer0015
 62
     2
100
AcDbMText
 10
-186.7822584453033
 20
-208.9289983697221
 30
0.0
 40
5.0
 41
11.25
 71
     8
 72
     1
  1
\T1.00;8
  7
dcStyle0
 11
6.123031769111886E-17
 21
1.0
 31
0.0
 73
     1
 44
1.0
  0
ENDBLK
  5
A5
330
A3
100
AcDbEntity
  8
0
100
AcDbBlockEnd
  0
BLOCK
  5
A7
330
A6
100
AcDbEntity
  8
0
100
AcDbBlockBegin
  2
*D17
 70
     1
 10
0.0
 20
0.0
 30
0.0
  3
*D17
  1

  0
LINE
  5
15C
330
A6
100
AcDbEntity
  8
Layer0015
  6
Continuous
 62
     2
370
    13
100
AcDbLine
 10
-185.7822584453033
 20
-204.9289983697221
 30
0.0
 11
-185.7822584453033
 21
-124.9289983697222
 31
0.0
  0
INSERT
  5
15D
330
A6
100
AcDbEntity
  8
Layer0015
 62
     2
100
AcDbBlockReference
  2
_OPEN30
 10
-185.7822584453033
 20
-204.9289983697221
 30
0.0
 41
3.058640732435014
 42
2.01277523548278
 50
270.0
  0
INSERT
  5
15E
330
A6
100
AcDbEntity
  8
Layer0015
 62
     2
100
AcDbBlockReference
  2
_OPEN30
 10
-185.7822584453033
 20
-124.9289983697222
 30
0.0
 41
3.058640732435014
 42
2.01277523548278
 50
90.0
  0
LINE
  5
15F
330
A6
100
AcDbEntity
  8
Layer0015
  6
Continuous
 62
     2
370
    13
100
AcDbLine
 10
-215.5858573216526
 20
-204.9289983697221
 30
0.0
 11
-184.9822584453032
 21
-204.9289983697221
 31
0.0
  0
MTEXT
  5
160
330
A6
100
AcDbEntity
  8
Layer0015
 62
     2
100
AcDbMText
 10
-186.7822584453033
 20
-164.9289983697221
 30
0.0
 40
5.0
 41
16.25
 71
     8
 72
     1
  1
\T1.00;80
  7
dcStyle0
 11
6.123031769111886E-17
 21
1.0
 31
0.0
 73
     1
 44
1.0
  0
ENDBLK
  5
A8
330
A6
100
AcDbEntity
  8
0
100
AcDbBlockEnd
  0
BLOCK
  5
AA
330
A9
100
AcDbEntity
  8
0
100
AcDbBlockBegin
  2
*D18
 70
     1
 10
0.0
 20
0.0
 30
0.0
  3
*D18
  1

  0
LINE
  5
161
330
A9
100
AcDbEntity
  8
Layer0015
  6
Continuous
 62
     2
370
    13
100
AcDbLine
 10
-185.7822584453033
 20
-124.9289983697222
 30
0.0
 11
-185.7822584453033
 21
-78.9289983697222
 31
0.0
  0
INSERT
  5
162
330
A9
100
AcDbEntity
  8
Layer0015
 62
     2
100
AcDbBlockReference
  2
_OPEN30
 10
-185.7822584453033
 20
-124.9289983697222
 30
0.0
 41
3.058640732435014
 42
2.01277523548278
 50
270.0
  0
INSERT
  5
163
330
A9
100
AcDbEntity
  8
Layer0015
 62
     2
100
AcDbBlockReference
  2
_OPEN30
 10
-185.7822584453033
 20
-78.9289983697222
 30
0.0
 41
3.058640732435014
 42
2.01277523548278
 50
90.0
  0
LINE
  5
164
330
A9
100
AcDbEntity
  8
Layer0015
  6
Continuous
 62
     2
370
    13
100
AcDbLine
 10
-284.0858573216525
 20
-78.9289983697222
 30
0.0
 11
-184.9822584453032
 21
-78.9289983697222
 31
0.0
  0
MTEXT
  5
165
330
A9
100
AcDbEntity
  8
Layer0015
 62
     2
100
AcDbMText
 10
-186.7822584453033
 20
-101.9289983697222
 30
0.0
 40
5.0
 41
16.25
 71
     8
 72
     1
  1
\T1.00;46
  7
dcStyle0
 11
6.123031769111886E-17
 21
1.0
 31
0.0
 73
     1
 44
1.0
  0
ENDBLK
  5
AB
330
A9
100
AcDbEntity
  8
0
100
AcDbBlockEnd
  0
BLOCK
  5
AD
330
AC
100
AcDbEntity
  8
0
100
AcDbBlockBegin
  2
*D19
 70
     1
 10
0.0
 20
0.0
 30
0.0
  3
*D19
  1

  0
LINE
  5
166
330
AC
100
AcDbEntity
  8
Layer0015
  6
Continuous
 62
     2
370
    13
100
AcDbLine
 10
-372.5858573216526
 20
-41.35418475750299
 30
0.0
 11
-277.5858573216525
 21
-41.35418475750299
 31
0.0
  0
INSERT
  5
167
330
AC
100
AcDbEntity
  8
Layer0015
 62
     2
100
AcDbBlockReference
  2
_OPEN30
 10
-372.5858573216526
 20
-41.35418475750299
 30
0.0
 41
3.058640732435014
 42
2.01277523548278
 50
180.0
  0
INSERT
  5
168
330
AC
100
AcDbEntity
  8
Layer0015
 62
     2
100
AcDbBlockReference
  2
_OPEN30
 10
-277.5858573216525
 20
-41.35418475750299
 30
0.0
 41
3.058640732435014
 42
2.01277523548278
 50
360.0
  0
LINE
  5
169
330
AC
100
AcDbEntity
  8
Layer0015
  6
Continuous
 62
     2
370
    13
100
AcDbLine
 10
-372.5858573216526
 20
-78.9289983697222
 30
0.0
 11
-372.5858573216526
 21
-40.55418475750299
 31
0.0
  0
LINE
  5
16A
330
AC
100
AcDbEntity
  8
Layer0015
  6
Continuous
 62
     2
370
    13
100
AcDbLine
 10
-277.5858573216525
 20
-77.9289983697222
 30
0.0
 11
-277.5858573216525
 21
-40.55418475750299
 31
0.0
  0
MTEXT
  5
16B
330
AC
100
AcDbEntity
  8
Layer0015
 62
     2
100
AcDbMText
 10
-325.0858573216526
 20
-40.35418475750299
 30
0.0
 40
5.0
 41
16.25
 71
     8
 72
     1
  1
\T1.00;95
  7
dcStyle0
 73
     1
 44
1.0
  0
ENDBLK
  5
AE
330
AC
100
AcDbEntity
  8
0
100
AcDbBlockEnd
  0
BLOCK
  5
B0
330
AF
100
AcDbEntity
  8
0
100
AcDbBlockBegin
  2
*D20
 70
     1
 10
0.0
 20
0.0
 30
0.0
  3
*D20
  1

  0
LINE
  5
16C
330
AF
100
AcDbEntity
  8
Layer0015
  6
Continuous
 62
     2
370
    13
100
AcDbLine
 10
-277.5858573216525
 20
-41.35418475750299
 30
0.0
 11
-52.5858573216525
 21
-41.35418475750299
 31
0.0
  0
INSERT
  5
16D
330
AF
100
AcDbEntity
  8
Layer0015
 62
     2
100
AcDbBlockReference
  2
_OPEN30
 10
-277.5858573216525
 20
-41.35418475750299
 30
0.0
 41
3.058640732435014
 42
2.01277523548278
 50
180.0
  0
INSERT
  5
16E
330
AF
100
AcDbEntity
  8
Layer0015
 62
     2
100
AcDbBlockReference
  2
_OPEN30
 10
-52.5858573216525
 20
-41.35418475750299
 30
0.0
 41
3.058640732435014
 42
2.01277523548278
 50
360.0
  0
LINE
  5
16F
330
AF
100
AcDbEntity
  8
Layer0015
  6
Continuous
 62
     2
370
    13
100
AcDbLine
 10
-277.5858573216525
 20
-77.9289983697222
 30
0.0
 11
-277.5858573216525
 21
-40.55418475750299
 31
0.0
  0
LINE
  5
170
330
AF
100
AcDbEntity
  8
Layer0015
  6
Continuous
 62
     2
370
    13
100
AcDbLine
 10
-52.5858573216525
 20
-77.9289983697222
 30
0.0
 11
-52.5858573216525
 21
-40.55418475750299
 31
0.0
  0
MTEXT
  5
171
330
AF
100
AcDbEntity
  8
Layer0015
 62
     2
100
AcDbMText
 10
-165.0858573216525
 20
-40.35418475750299
 30
0.0
 40
5.0
 41
31.25
 71
     8
 72
     1
  1
\T1.00;0～225
  7
dcStyle0
 73
     1
 44
1.0
  0
ENDBLK
  5
B1
330
AF
100
AcDbEntity
  8
0
100
AcDbBlockEnd
  0
BLOCK
  5
B3
330
B2
100
AcDbEntity
  8
0
100
AcDbBlockBegin
  2
*D21
 70
     1
 10
0.0
 20
0.0
 30
0.0
  3
*D21
  1

  0
LINE
  5
172
330
B2
100
AcDbEntity
  8
Layer0015
  6
Continuous
 62
     2
370
    13
100
AcDbLine
 10
-52.5858573216525
 20
-41.35418475750299
 30
0.0
 11
176.1141426783478
 21
-41.35418475750299
 31
0.0
  0
INSERT
  5
173
330
B2
100
AcDbEntity
  8
Layer0015
 62
     2
100
AcDbBlockReference
  2
_OPEN30
 10
-52.5858573216525
 20
-41.35418475750299
 30
0.0
 41
3.058640732435014
 42
2.01277523548278
 50
180.0
  0
INSERT
  5
174
330
B2
100
AcDbEntity
  8
Layer0015
 62
     2
100
AcDbBlockReference
  2
_OPEN30
 10
176.1141426783478
 20
-41.35418475750299
 30
0.0
 41
3.058640732435014
 42
2.01277523548278
 50
360.0
  0
LINE
  5
175
330
B2
100
AcDbEntity
  8
Layer0015
  6
Continuous
 62
     2
370
    13
100
AcDbLine
 10
-52.5858573216525
 20
-77.9289983697222
 30
0.0
 11
-52.5858573216525
 21
-40.55418475750299
 31
0.0
  0
LINE
  5
176
330
B2
100
AcDbEntity
  8
Layer0015
  6
Continuous
 62
     2
370
    13
100
AcDbLine
 10
176.1141426783478
 20
-100.9289983697222
 30
0.0
 11
176.1141426783478
 21
-40.55418475750299
 31
0.0
  0
MTEXT
  5
177
330
B2
100
AcDbEntity
  8
Layer0015
 62
     2
100
AcDbMText
 10
61.76414267834764
 20
-40.35418475750299
 30
0.0
 40
5.0
 41
21.25
 71
     8
 72
     1
  1
\T1.00;229
  7
dcStyle0
 73
     1
 44
1.0
  0
ENDBLK
  5
B4
330
B2
100
AcDbEntity
  8
0
100
AcDbBlockEnd
  0
BLOCK
  5
B6
330
B5
100
AcDbEntity
  8
0
100
AcDbBlockBegin
  2
*D22
 70
     1
 10
0.0
 20
0.0
 30
0.0
  3
*D22
  1

  0
LINE
  5
178
330
B5
100
AcDbEntity
  8
Layer0015
  6
Continuous
 62
     2
370
    13
100
AcDbLine
 10
-137.6771067261782
 20
-204.9289983697221
 30
0.0
 11
-137.6771067261782
 21
-60.92899836972219
 31
0.0
  0
INSERT
  5
179
330
B5
100
AcDbEntity
  8
Layer0015
 62
     2
100
AcDbBlockReference
  2
_OPEN30
 10
-137.6771067261782
 20
-204.9289983697221
 30
0.0
 41
3.058640732435014
 42
2.01277523548278
 50
270.0
  0
INSERT
  5
17A
330
B5
100
AcDbEntity
  8
Layer0015
 62
     2
100
AcDbBlockReference
  2
_OPEN30
 10
-137.6771067261782
 20
-60.92899836972219
 30
0.0
 41
3.058640732435014
 42
2.01277523548278
 50
90.0
  0
LINE
  5
17B
330
B5
100
AcDbEntity
  8
Layer0015
  6
Continuous
 62
     2
370
    13
100
AcDbLine
 10
-302.5858573216526
 20
-60.92899836972219
 30
0.0
 11
-136.8771067261781
 21
-60.92899836972219
 31
0.0
  0
MTEXT
  5
17C
330
B5
100
AcDbEntity
  8
Layer0015
 62
     2
100
AcDbMText
 10
-138.6771067261782
 20
-148.3261257837404
 30
0.0
 40
5.0
 41
21.25
 71
     8
 72
     1
  1
\T1.00;144
  7
dcStyle0
 11
6.123031769111886E-17
 21
1.0
 31
0.0
 73
     1
 44
1.0
  0
ENDBLK
  5
B7
330
B5
100
AcDbEntity
  8
0
100
AcDbBlockEnd
  0
BLOCK
  5
B9
330
B8
100
AcDbEntity
  8
0
100
AcDbBlockBegin
  2
DA_IMAGEDIMGROUP_2
 70
     0
 10
0.0
 20
0.0
 30
0.0
  3
DA_IMAGEDIMGROUP_2
  1

  0
LINE
  5
17D
330
B8
100
AcDbEntity
  8
Layer0015
  6
Continuous
 62
     2
370
    13
100
AcDbLine
 10
206.7909936010486
 20
-19.33648802379124
 30
0.0
 11
206.7909936010486
 21
-30.98794837519241
 31
0.0
  0
LINE
  5
17E
330
B8
100
AcDbEntity
  8
Layer0015
  6
Continuous
 62
     2
370
    13
100
AcDbLine
 10
212.7909936010486
 20
-16.83648802379124
 30
0.0
 11
212.7909936010486
 21
-30.98794837519241
 31
0.0
  0
LINE
  5
17F
330
B8
100
AcDbEntity
  8
Layer0015
  6
Continuous
 62
     2
370
    13
100
AcDbLine
 10
206.7909936010486
 20
-30.1879483751924
 30
0.0
 11
212.7909936010486
 21
-30.1879483751924
 31
0.0
  0
LINE
  5
180
330
B8
100
AcDbEntity
  8
Layer0015
  6
Continuous
 62
     2
370
    13
100
AcDbLine
 10
219.7454136010487
 20
-30.1879483751924
 30
0.0
 11
212.7909936010486
 21
-30.1879483751924
 31
0.0
  0
INSERT
  5
181
330
B8
100
AcDbEntity
  8
Layer0015
 62
     2
100
AcDbBlockReference
  2
_OPEN30
 10
212.7909936010486
 20
-30.1879483751924
 30
0.0
 41
3.058640732435014
 42
2.01277523548278
 50
180.0
  0
LINE
  5
182
330
B8
100
AcDbEntity
  8
Layer0015
  6
Continuous
 62
     2
370
    13
100
AcDbLine
 10
202.7909936010486
 20
-30.1879483751924
 30
0.0
 11
206.7909936010486
 21
-30.1879483751924
 31
0.0
  0
INSERT
  5
183
330
B8
100
AcDbEntity
  8
Layer0015
 62
     2
100
AcDbBlockReference
  2
_OPEN30
 10
206.7909936010486
 20
-30.1879483751924
 30
0.0
 41
3.058640732435014
 42
2.01277523548278
 50
360.0
  0
MTEXT
  5
184
330
B8
100
AcDbEntity
  8
Layer0015
 62
     2
100
AcDbMText
 10
215.7454136010487
 20
-29.1879483751924
 30
0.0
 40
5.0
 41
11.25
 71
     7
 72
     1
  1
\T1.00;6
  7
dcStyle0
 73
     1
 44
1.0
  0
ENDBLK
  5
BA
330
B8
100
AcDbEntity
  8
0
100
AcDbBlockEnd
  0
BLOCK
  5
BC
330
BB
100
AcDbEntity
  8
0
100
AcDbBlockBegin
  2
*D24
 70
     1
 10
0.0
 20
0.0
 30
0.0
  3
*D24
  1

  0
LINE
  5
185
330
BB
100
AcDbEntity
  8
Layer0015
  6
Continuous
 62
     2
370
    13
100
AcDbLine
 10
354.7909936010486
 20
-29.22766267393623
 30
0.0
 11
371.7909936010486
 21
-29.22766267393623
 31
0.0
  0
INSERT
  5
186
330
BB
100
AcDbEntity
  8
Layer0015
 62
     2
100
AcDbBlockReference
  2
_OPEN30
 10
354.7909936010486
 20
-29.22766267393623
 30
0.0
 41
3.058640732435014
 42
2.01277523548278
 50
180.0
  0
INSERT
  5
187
330
BB
100
AcDbEntity
  8
Layer0015
 62
     2
100
AcDbBlockReference
  2
_OPEN30
 10
371.7909936010486
 20
-29.22766267393623
 30
0.0
 41
3.058640732435014
 42
2.01277523548278
 50
360.0
  0
LINE
  5
188
330
BB
100
AcDbEntity
  8
Layer0015
  6
Continuous
 62
     2
370
    13
100
AcDbLine
 10
354.7909936010486
 20
-16.83648802379124
 30
0.0
 11
354.7909936010486
 21
-30.02766267393624
 31
0.0
  0
LINE
  5
189
330
BB
100
AcDbEntity
  8
Layer0015
  6
Continuous
 62
     2
370
    13
100
AcDbLine
 10
371.7909936010486
 20
-14.33648802379118
 30
0.0
 11
371.7909936010486
 21
-30.02766267393624
 31
0.0
  0
MTEXT
  5
18A
330
BB
100
AcDbEntity
  8
Layer0015
 62
     2
100
AcDbMText
 10
363.420203913625
 20
-28.22766267393623
 30
0.0
 40
5.0
 41
16.25
 71
     8
 72
     1
  1
\T1.00;17
  7
dcStyle0
 73
     1
 44
1.0
  0
ENDBLK
  5
BD
330
BB
100
AcDbEntity
  8
0
100
AcDbBlockEnd
  0
BLOCK
  5
BF
330
BE
100
AcDbEntity
  8
0
100
AcDbBlockBegin
  2
*D25
 70
     1
 10
0.0
 20
0.0
 30
0.0
  3
*D25
  1

  0
LINE
  5
18B
330
BE
100
AcDbEntity
  8
Layer0015
  6
Continuous
 62
     2
370
    13
100
AcDbLine
 10
206.7909936010486
 20
-37.44192881217733
 30
0.0
 11
371.7909936010486
 21
-37.44192881217733
 31
0.0
  0
INSERT
  5
18C
330
BE
100
AcDbEntity
  8
Layer0015
 62
     2
100
AcDbBlockReference
  2
_OPEN30
 10
206.7909936010486
 20
-37.44192881217733
 30
0.0
 41
3.058640732435014
 42
2.01277523548278
 50
180.0
  0
INSERT
  5
18D
330
BE
100
AcDbEntity
  8
Layer0015
 62
     2
100
AcDbBlockReference
  2
_OPEN30
 10
371.7909936010486
 20
-37.44192881217733
 30
0.0
 41
3.058640732435014
 42
2.01277523548278
 50
360.0
  0
LINE
  5
18E
330
BE
100
AcDbEntity
  8
Layer0015
  6
Continuous
 62
     2
370
    13
100
AcDbLine
 10
206.7909936010486
 20
-19.33648802379124
 30
0.0
 11
206.7909936010486
 21
-38.24192881217729
 31
0.0
  0
LINE
  5
18F
330
BE
100
AcDbEntity
  8
Layer0015
  6
Continuous
 62
     2
370
    13
100
AcDbLine
 10
371.7909936010486
 20
-14.33648802379118
 30
0.0
 11
371.7909936010486
 21
-38.24192881217729
 31
0.0
  0
MTEXT
  5
190
330
BE
100
AcDbEntity
  8
Layer0015
 62
     2
100
AcDbMText
 10
289.2909936010486
 20
-36.44192881217733
 30
0.0
 40
5.0
 41
21.25
 71
     8
 72
     1
  1
\T1.00;165
  7
dcStyle0
 73
     1
 44
1.0
  0
ENDBLK
  5
C0
330
BE
100
AcDbEntity
  8
0
100
AcDbBlockEnd
  0
BLOCK
  5
C2
330
C1
100
AcDbEntity
  8
0
100
AcDbBlockBegin
  2
DC_GROUP_ACE125_1
 70
     0
 10
0.0
 20
0.0
 30
0.0
  3
DC_GROUP_ACE125_1
  1

  0
TEXT
  5
191
330
C1
100
AcDbEntity
  8
Layer0015
 62
     2
100
AcDbText
 10
271.2909936010486
 20
-47.44192881217733
 30
0.0
 40
5.0
  1
ハンドルジョイント
 41
0.6666666666666666
  7
dcStyle0
 72
     5
 11
307.2909936010486
 21
-47.44192881217733
 31
0.0
100
AcDbText
  0
LINE
  5
192
330
C1
100
AcDbEntity
  8
Layer0015
  6
Continuous
 62
     2
370
    18
100
AcDbLine
 10
264.7909936010486
 20
-47.94192881217733
 30
0.0
 11
313.7909936010486
 21
-47.94192881217733
 31
0.0
  0
ENDBLK
  5
C3
330
C1
100
AcDbEntity
  8
0
100
AcDbBlockEnd
  0
BLOCK
  5
C5
330
C4
100
AcDbEntity
  8
0
100
AcDbBlockBegin
  2
*D27
 70
     1
 10
0.0
 20
0.0
 30
0.0
  3
*D27
  1

  0
LINE
  5
193
330
C4
100
AcDbEntity
  8
Layer0015
  6
Continuous
 62
     2
370
    13
100
AcDbLine
 10
-372.5858573216526
 20
-253.2536534246165
 30
0.0
 11
67.41414267834742
 21
-253.2536534246165
 31
0.0
  0
INSERT
  5
194
330
C4
100
AcDbEntity
  8
Layer0015
 62
     2
100
AcDbBlockReference
  2
_OPEN30
 10
-372.5858573216526
 20
-253.2536534246165
 30
0.0
 41
3.058640732435014
 42
2.01277523548278
 50
180.0
  0
INSERT
  5
195
330
C4
100
AcDbEntity
  8
Layer0015
 62
     2
100
AcDbBlockReference
  2
_OPEN30
 10
67.41414267834742
 20
-253.2536534246165
 30
0.0
 41
3.058640732435014
 42
2.01277523548278
 50
360.0
  0
LINE
  5
196
330
C4
100
AcDbEntity
  8
Layer0015
  6
Continuous
 62
     2
370
    13
100
AcDbLine
 10
-372.5858573216526
 20
-204.9289983697221
 30
0.0
 11
-372.5858573216526
 21
-254.0536534246165
 31
0.0
  0
LINE
  5
197
330
C4
100
AcDbEntity
  8
Layer0015
  6
Continuous
 62
     2
370
    13
100
AcDbLine
 10
67.41414267834742
 20
-204.9289983697221
 30
0.0
 11
67.41414267834742
 21
-254.0536534246165
 31
0.0
  0
MTEXT
  5
198
330
C4
100
AcDbEntity
  8
Layer0015
 62
     2
100
AcDbMText
 10
-152.5858573216526
 20
-252.2536534246165
 30
0.0
 40
5.0
 41
21.25
 71
     8
 72
     1
  1
\T1.00;440
  7
dcStyle0
 73
     1
 44
1.0
  0
ENDBLK
  5
C6
330
C4
100
AcDbEntity
  8
0
100
AcDbBlockEnd
  0
BLOCK
  5
C8
330
C7
100
AcDbEntity
  8
0
100
AcDbBlockBegin
  2
*D28
 70
     1
 10
0.0
 20
0.0
 30
0.0
  3
*D28
  1

  0
LINE
  5
199
330
C7
100
AcDbEntity
  8
Layer0015
  6
Continuous
 62
     2
370
    13
100
AcDbLine
 10
67.41414267834742
 20
-253.2536534246165
 30
0.0
 11
176.1141426783478
 21
-253.2536534246165
 31
0.0
  0
INSERT
  5
19A
330
C7
100
AcDbEntity
  8
Layer0015
 62
     2
100
AcDbBlockReference
  2
_OPEN30
 10
67.41414267834742
 20
-253.2536534246165
 30
0.0
 41
3.058640732435014
 42
2.01277523548278
 50
180.0
  0
INSERT
  5
19B
330
C7
100
AcDbEntity
  8
Layer0015
 62
     2
100
AcDbBlockReference
  2
_OPEN30
 10
176.1141426783478
 20
-253.2536534246165
 30
0.0
 41
3.058640732435014
 42
2.01277523548278
 50
360.0
  0
LINE
  5
19C
330
C7
100
AcDbEntity
  8
Layer0015
  6
Continuous
 62
     2
370
    13
100
AcDbLine
 10
67.41414267834742
 20
-204.9289983697221
 30
0.0
 11
67.41414267834742
 21
-254.0536534246165
 31
0.0
  0
LINE
  5
19D
330
C7
100
AcDbEntity
  8
Layer0015
  6
Continuous
 62
     2
370
    13
100
AcDbLine
 10
176.1141426783478
 20
-118.9289983697222
 30
0.0
 11
176.1141426783478
 21
-254.0536534246165
 31
0.0
  0
MTEXT
  5
19E
330
C7
100
AcDbEntity
  8
Layer0015
 62
     2
100
AcDbMText
 10
121.7641426783476
 20
-252.2536534246165
 30
0.0
 40
5.0
 41
21.25
 71
     8
 72
     1
  1
\T1.00;109
  7
dcStyle0
 73
     1
 44
1.0
  0
ENDBLK
  5
C9
330
C7
100
AcDbEntity
  8
0
100
AcDbBlockEnd
  0
BLOCK
  5
CB
330
CA
100
AcDbEntity
  8
0
100
AcDbBlockBegin
  2
*D29
 70
     1
 10
0.0
 20
0.0
 30
0.0
  3
*D29
  1

  0
LINE
  5
19F
330
CA
100
AcDbEntity
  8
Layer0015
  6
Continuous
 62
     2
370
    13
100
AcDbLine
 10
176.1141426783478
 20
-253.2536534246165
 30
0.0
 11
255.1141426783478
 21
-253.2536534246165
 31
0.0
  0
INSERT
  5
1A0
330
CA
100
AcDbEntity
  8
Layer0015
 62
     2
100
AcDbBlockReference
  2
_OPEN30
 10
176.1141426783478
 20
-253.2536534246165
 30
0.0
 41
3.058640732435014
 42
2.01277523548278
 50
180.0
  0
INSERT
  5
1A1
330
CA
100
AcDbEntity
  8
Layer0015
 62
     2
100
AcDbBlockReference
  2
_OPEN30
 10
255.1141426783478
 20
-253.2536534246165
 30
0.0
 41
3.058640732435014
 42
2.01277523548278
 50
360.0
  0
LINE
  5
1A2
330
CA
100
AcDbEntity
  8
Layer0015
  6
Continuous
 62
     2
370
    13
100
AcDbLine
 10
176.1141426783478
 20
-118.9289983697222
 30
0.0
 11
176.1141426783478
 21
-254.0536534246165
 31
0.0
  0
LINE
  5
1A3
330
CA
100
AcDbEntity
  8
Layer0015
  6
Continuous
 62
     2
370
    13
100
AcDbLine
 10
255.1141426783478
 20
-221.4289983697209
 30
0.0
 11
255.1141426783478
 21
-254.0536534246165
 31
0.0
  0
MTEXT
  5
1A4
330
CA
100
AcDbEntity
  8
Layer0015
 62
     2
100
AcDbMText
 10
215.6141426783478
 20
-252.2536534246165
 30
0.0
 40
5.0
 41
16.25
 71
     8
 72
     1
  1
\T1.00;79
  7
dcStyle0
 73
     1
 44
1.0
  0
ENDBLK
  5
CC
330
CA
100
AcDbEntity
  8
0
100
AcDbBlockEnd
  0
BLOCK
  5
CE
330
CD
100
AcDbEntity
  8
0
100
AcDbBlockBegin
  2
*D30
 70
     1
 10
0.0
 20
0.0
 30
0.0
  3
*D30
  1

  0
LINE
  5
1A5
330
CD
100
AcDbEntity
  8
Layer0015
  6
Continuous
 62
     2
370
    13
100
AcDbLine
 10
364.1369354169394
 20
-139.4518447132748
 30
0.0
 11
264.1369354169394
 21
-139.4518447132748
 31
0.0
  0
INSERT
  5
1A6
330
CD
100
AcDbEntity
  8
Layer0015
 62
     2
100
AcDbBlockReference
  2
_OPEN30
 10
364.1369354169394
 20
-139.4518447132748
 30
0.0
 41
3.058640732435014
 42
2.01277523548278
 50
360.0
  0
INSERT
  5
1A7
330
CD
100
AcDbEntity
  8
Layer0015
 62
     2
100
AcDbBlockReference
  2
_OPEN30
 10
264.1369354169394
 20
-139.4518447132748
 30
0.0
 41
3.058640732435014
 42
2.01277523548278
 50
180.0
  0
LINE
  5
1A8
330
CD
100
AcDbEntity
  8
Layer0015
  6
Continuous
 62
     2
370
    13
100
AcDbLine
 10
364.1369354169394
 20
-118.8063568936942
 30
0.0
 11
364.1369354169394
 21
-140.2518447132747
 31
0.0
  0
LINE
  5
1A9
330
CD
100
AcDbEntity
  8
Layer0015
  6
Continuous
 62
     2
370
    13
100
AcDbLine
 10
264.1369354169394
 20
-129.6053949993707
 30
0.0
 11
264.1369354169394
 21
-140.2518447132747
 31
0.0
  0
TEXT
  5
1AA
330
CD
100
AcDbEntity
  8
Layer0015
 62
     2
100
AcDbText
 10
308.1369354169394
 20
-138.4518447132748
 30
0.0
 40
5.0
  1
100
 41
0.8
  7
dcStyle0
 72
     5
 11
320.1369354169394
 21
-138.4518447132748
 31
0.0
100
AcDbText
  0
ENDBLK
  5
CF
330
CD
100
AcDbEntity
  8
0
100
AcDbBlockEnd
  0
BLOCK
  5
D1
330
D0
100
AcDbEntity
  8
0
100
AcDbBlockBegin
  2
*D31
 70
     1
 10
0.0
 20
0.0
 30
0.0
  3
*D31
  1

  0
LINE
  5
1AB
330
D0
100
AcDbEntity
  8
Layer0015
  6
Continuous
 62
     2
370
    13
100
AcDbLine
 10
364.1369354169394
 20
-131.9650116001348
 30
0.0
 11
347.1369354169394
 21
-131.9650116001348
 31
0.0
  0
INSERT
  5
1AC
330
D0
100
AcDbEntity
  8
Layer0015
 62
     2
100
AcDbBlockReference
  2
_OPEN30
 10
364.1369354169394
 20
-131.9650116001348
 30
0.0
 41
3.058640732435014
 42
2.01277523548278
 50
360.0
  0
INSERT
  5
1AD
330
D0
100
AcDbEntity
  8
Layer0015
 62
     2
100
AcDbBlockReference
  2
_OPEN30
 10
347.1369354169394
 20
-131.9650116001348
 30
0.0
 41
3.058640732435014
 42
2.01277523548278
 50
180.0
  0
LINE
  5
1AE
330
D0
100
AcDbEntity
  8
Layer0015
  6
Continuous
 62
     2
370
    13
100
AcDbLine
 10
364.1369354169394
 20
-118.8063568936942
 30
0.0
 11
364.1369354169394
 21
-132.7650116001348
 31
0.0
  0
LINE
  5
1AF
330
D0
100
AcDbEntity
  8
Layer0015
  6
Continuous
 62
     2
370
    13
100
AcDbLine
 10
347.1369354169394
 20
-120.1053949993707
 30
0.0
 11
347.1369354169394
 21
-132.7650116001348
 31
0.0
  0
MTEXT
  5
1B0
330
D0
100
AcDbEntity
  8
Layer0015
 62
     2
100
AcDbMText
 10
355.6369354169394
 20
-130.9650116001348
 30
0.0
 40
5.0
 41
16.25
 71
     8
 72
     1
  1
\T1.00;17
  7
dcStyle0
 73
     1
 44
1.0
  0
ENDBLK
  5
D2
330
D0
100
AcDbEntity
  8
0
100
AcDbBlockEnd
  0
BLOCK
  5
D4
330
D3
100
AcDbEntity
  8
0
100
AcDbBlockBegin
  2
DC_GROUP_ACE125_2
 70
     0
 10
0.0
 20
0.0
 30
0.0
  3
DC_GROUP_ACE125_2
  1

  0
TEXT
  5
1B1
330
D3
100
AcDbEntity
  8
Layer0015
 62
     2
100
AcDbText
 10
301.0488854236228
 20
-149.3390772386876
 30
0.0
 40
5.0
  1
ハンドルソケット
 41
0.6666666666666666
  7
dcStyle0
 72
     5
 11
333.0488854236228
 21
-149.3390772386876
 31
0.0
100
AcDbText
  0
LINE
  5
1B2
330
D3
100
AcDbEntity
  8
Layer0015
  6
Continuous
 62
     2
370
    18
100
AcDbLine
 10
343.5488854236228
 20
-149.8390772386875
 30
0.0
 11
290.5488854236228
 21
-149.8390772386875
 31
0.0
  0
ENDBLK
  5
D5
330
D3
100
AcDbEntity
  8
0
100
AcDbBlockEnd
  0
BLOCK
  5
D7
330
D6
100
AcDbEntity
  8
0
100
AcDbBlockBegin
  2
*D33
 70
     1
 10
0.0
 20
0.0
 30
0.0
  3
*D33
  1

  0
LINE
  5
1B3
330
D6
100
AcDbEntity
  8
Layer0015
  6
Continuous
 62
     2
370
    13
100
AcDbLine
 10
-277.5858573216525
 20
-52.10482392416455
 30
0.0
 11
-69.58585732165234
 21
-52.10482392416455
 31
0.0
  0
INSERT
  5
1B4
330
D6
100
AcDbEntity
  8
Layer0015
 62
     2
100
AcDbBlockReference
  2
_OPEN30
 10
-277.5858573216525
 20
-52.10482392416455
 30
0.0
 41
3.058640732435014
 42
2.01277523548278
 50
180.0
  0
INSERT
  5
1B5
330
D6
100
AcDbEntity
  8
Layer0015
 62
     2
100
AcDbBlockReference
  2
_OPEN30
 10
-69.58585732165234
 20
-52.10482392416455
 30
0.0
 41
3.058640732435014
 42
2.01277523548278
 50
360.0
  0
LINE
  5
1B6
330
D6
100
AcDbEntity
  8
Layer0015
  6
Continuous
 62
     2
370
    13
100
AcDbLine
 10
-277.5858573216525
 20
-77.9289983697222
 30
0.0
 11
-277.5858573216525
 21
-51.30482392416455
 31
0.0
  0
LINE
  5
1B7
330
D6
100
AcDbEntity
  8
Layer0015
  6
Continuous
 62
     2
370
    13
100
AcDbLine
 10
-69.58585732165234
 20
-78.42899836972225
 30
0.0
 11
-69.58585732165234
 21
-51.30482392416455
 31
0.0
  0
MTEXT
  5
1B8
330
D6
100
AcDbEntity
  8
Layer0015
 62
     2
100
AcDbMText
 10
-173.5858573216524
 20
-51.10482392416455
 30
0.0
 40
5.0
 41
31.25
 71
     8
 72
     1
  1
\T1.00;0～208
  7
dcStyle0
 73
     1
 44
1.0
  0
ENDBLK
  5
D8
330
D6
100
AcDbEntity
  8
0
100
AcDbBlockEnd
  0
BLOCK
  5
DA
330
D9
100
AcDbEntity
  8
0
100
AcDbBlockBegin
  2
DC_GROUP_ACE125_3
 70
     0
 10
0.0
 20
0.0
 30
0.0
  3
DC_GROUP_ACE125_3
  1

  0
LINE
  5
1B9
330
D9
100
AcDbEntity
  8
Layer0014
  6
Continuous
 62
     2
370
    18
100
AcDbLine
 10
40.89583063483111
 20
54.7767932411994
 30
0.0
 11
54.49199675562536
 21
31.22754273183712
 31
0.0
  0
INSERT
  5
1BA
330
D9
100
AcDbEntity
  8
Layer0014
 62
     2
100
AcDbBlockReference
  2
_OPEN30
 10
40.89583063483111
 20
54.7767932411994
 30
0.0
 41
3.058640732435014
 42
2.01277523548278
 50
120.0
  0
LINE
  5
1BB
330
D9
100
AcDbEntity
  8
Layer0014
  6
Continuous
 62
     2
370
    18
100
AcDbLine
 10
54.49199675562536
 20
31.22754273183712
 30
0.0
 11
111.9919967556254
 21
31.22754273183712
 31
0.0
  0
TEXT
  5
1BC
330
D9
100
AcDbEntity
  8
Layer0014
 62
     2
100
AcDbText
 10
55.49199675562536
 20
31.42754273183712
 30
0.0
 40
5.0
  1
クランピングブロック
 41
0.6666666666666667
  7
dcStyle0
 72
     5
 11
95.49199675562537
 21
31.42754273183712
 31
0.0
100
AcDbText
  0
ENDBLK
  5
DB
330
D9
100
AcDbEntity
  8
0
100
AcDbBlockEnd
  0
BLOCK
  5
DD
330
DC
100
AcDbEntity
  8
0
100
AcDbBlockBegin
  2
DC_GROUP_ACE125_4
 70
     0
 10
0.0
 20
0.0
 30
0.0
  3
DC_GROUP_ACE125_4
  1

  0
TEXT
  5
1BD
330
DC
100
AcDbEntity
  8
Layer0004
 62
     2
100
AcDbText
 10
55.49199675562536
 20
25.75352225730278
 30
0.0
 40
5.0
  1
CLAMPING BLOCK
 41
0.8000000000000002
  7
dcStyle0
 72
     5
 11
111.4919967556254
 21
25.75352225730278
 31
0.0
100
AcDbText
  0
ENDBLK
  5
DE
330
DC
100
AcDbEntity
  8
0
100
AcDbBlockEnd
  0
BLOCK
  5
E0
330
DF
100
AcDbEntity
  8
0
100
AcDbBlockBegin
  2
DC_GROUP_ACE125_5
 70
     0
 10
0.0
 20
0.0
 30
0.0
  3
DC_GROUP_ACE125_5
  1

  0
TEXT
  5
1BE
330
DF
100
AcDbEntity
  8
Layer0004
 62
     2
100
AcDbText
 10
-294.3451733093107
 20
12.27277353635079
 30
0.0
 40
5.0
  1
ワークストッパー
 41
0.6666666666666666
  7
dcStyle0
 72
     5
 11
-262.3451733093107
 21
12.27277353635079
 31
0.0
100
AcDbText
  0
LINE
  5
1BF
330
DF
100
AcDbEntity
  8
Layer0004
  6
Continuous
 62
     2
370
    18
100
AcDbLine
 10
-302.8451733093107
 20
11.77277353635079
 30
0.0
 11
-253.8451733093107
 21
11.77277353635079
 31
0.0
  0
ENDBLK
  5
E1
330
DF
100
AcDbEntity
  8
0
100
AcDbBlockEnd
  0
BLOCK
  5
E3
330
E2
100
AcDbEntity
  8
0
100
AcDbBlockBegin
  2
DC_GROUP_ACE125_6
 70
     0
 10
0.0
 20
0.0
 30
0.0
  3
DC_GROUP_ACE125_6
  1

  0
TEXT
  5
1C0
330
E2
100
AcDbEntity
  8
Layer0004
 62
     2
100
AcDbText
 10
-302.3451733093107
 20
6.218976856133036
 30
0.0
 40
5.0
  1
WORK STOPPER
 41
0.8
  7
dcStyle0
 72
     5
 11
-254.3451733093107
 21
6.218976856133036
 31
0.0
100
AcDbText
  0
ENDBLK
  5
E4
330
E2
100
AcDbEntity
  8
0
100
AcDbBlockEnd
  0
BLOCK
  5
E6
330
E5
100
AcDbEntity
  8
0
100
AcDbBlockBegin
  2
DC_GROUP_ACE125_7
 70
     0
 10
0.0
 20
0.0
 30
0.0
  3
DC_GROUP_ACE125_7
  1

  0
LINE
  5
1C1
330
E5
100
AcDbEntity
  8
Layer0014
  6
Continuous
 62
     2
370
    18
100
AcDbLine
 10
-62.82136205603787
 20
-96.92369382892153
 30
0.0
 11
-75.98924542055526
 21
-74.11625081343638
 31
0.0
  0
INSERT
  5
1C2
330
E5
100
AcDbEntity
  8
Layer0014
 62
     2
100
AcDbBlockReference
  2
_OPEN30
 10
-62.82136205603787
 20
-96.92369382892153
 30
0.0
 41
3.058640732435014
 42
2.01277523548278
 50
300.0
  0
LINE
  5
1C3
330
E5
100
AcDbEntity
  8
Layer0014
  6
Continuous
 62
     2
370
    18
100
AcDbLine
 10
-75.98924542055526
 20
-74.11625081343638
 30
0.0
 11
-129.4892454205553
 21
-74.11625081343638
 31
0.0
  0
TEXT
  5
1C4
330
E5
100
AcDbEntity
  8
Layer0014
 62
     2
100
AcDbText
 10
-108.9892454205553
 20
-73.91625081343638
 30
0.0
 40
5.0
  1
アンチリフト口金
 41
0.6666666666666666
  7
dcStyle0
 72
     5
 11
-76.98924542055526
 21
-73.91625081343638
 31
0.0
100
AcDbText
  0
ENDBLK
  5
E7
330
E5
100
AcDbEntity
  8
0
100
AcDbBlockEnd
  0
BLOCK
  5
E9
330
E8
100
AcDbEntity
  8
0
100
AcDbBlockBegin
  2
DC_GROUP_ACE125_8
 70
     0
 10
0.0
 20
0.0
 30
0.0
  3
DC_GROUP_ACE125_8
  1

  0
TEXT
  5
1C5
330
E8
100
AcDbEntity
  8
Layer0004
 62
     2
100
AcDbText
 10
-128.9892454205553
 20
-79.91625081343636
 30
0.0
 40
5.0
  1
ANTI-LIFT JAW
 41
0.8000000000000003
  7
dcStyle0
 72
     5
 11
-76.98924542055526
 21
-79.91625081343636
 31
0.0
100
AcDbText
  0
ENDBLK
  5
EA
330
E8
100
AcDbEntity
  8
0
100
AcDbBlockEnd
  0
BLOCK
  5
EC
330
EB
100
AcDbEntity
  8
0
100
AcDbBlockBegin
  2
DC_GROUP_ACE125_9
 70
     0
 10
0.0
 20
0.0
 30
0.0
  3
DC_GROUP_ACE125_9
  1

  0
LINE
  5
1C6
330
EB
100
AcDbEntity
  8
Layer0014
  6
Continuous
 62
     2
370
    18
100
AcDbLine
 10
17.24685972182206
 20
-66.53115785541624
 30
0.0
 11
33.0009705752104
 21
-50.77704700202791
 31
0.0
  0
INSERT
  5
1C7
330
EB
100
AcDbEntity
  8
Layer0014
 62
     2
100
AcDbBlockReference
  2
_OPEN30
 10
17.24685972182206
 20
-66.53115785541624
 30
0.0
 41
3.058640732435014
 42
2.01277523548278
 50
225.0
  0
LINE
  5
1C8
330
EB
100
AcDbEntity
  8
Layer0014
  6
Continuous
 62
     2
370
    18
100
AcDbLine
 10
33.0009705752104
 20
-50.77704700202791
 30
0.0
 11
70.5009705752104
 21
-50.77704700202791
 31
0.0
  0
TEXT
  5
1C9
330
EB
100
AcDbEntity
  8
Layer0014
 62
     2
100
AcDbText
 10
34.0009705752104
 20
-50.57704700202791
 30
0.0
 40
5.0
  1
上口金
 41
0.6666666666666666
  7
dcStyle0
 72
     5
 11
46.0009705752104
 21
-50.57704700202791
 31
0.0
100
AcDbText
  0
ENDBLK
  5
ED
330
EB
100
AcDbEntity
  8
0
100
AcDbBlockEnd
  0
BLOCK
  5
EF
330
EE
100
AcDbEntity
  8
0
100
AcDbBlockBegin
  2
DC_GROUP_ACE125_10
 70
     0
 10
0.0
 20
0.0
 30
0.0
  3
DC_GROUP_ACE125_10
  1

  0
TEXT
  5
1CA
330
EE
100
AcDbEntity
  8
Layer0004
 62
     2
100
AcDbText
 10
34.0009705752104
 20
-56.57704700202791
 30
0.0
 40
5.0
  1
UPPER JAW
 41
0.8000000000000002
  7
dcStyle0
 72
     5
 11
70.0009705752104
 21
-56.57704700202791
 31
0.0
100
AcDbText
  0
ENDBLK
  5
F0
330
EE
100
AcDbEntity
  8
0
100
AcDbBlockEnd
  0
BLOCK
  5
F2
330
F1
100
AcDbEntity
  8
0
100
AcDbBlockBegin
  2
DC_GROUP_ACE125_11
 70
     0
 10
0.0
 20
0.0
 30
0.0
  3
DC_GROUP_ACE125_11
  1

  0
TEXT
  5
1CB
330
F1
100
AcDbEntity
  8
Layer0004
 62
     2
100
AcDbText
 10
265.2909936010486
 20
-53.33928180699471
 30
0.0
 40
5.0
  1
HANDLE JOINT
 41
0.8
  7
dcStyle0
 72
     5
 11
313.2909936010486
 21
-53.33928180699471
 31
0.0
100
AcDbText
  0
ENDBLK
  5
F3
330
F1
100
AcDbEntity
  8
0
100
AcDbBlockEnd
  0
BLOCK
  5
F5
330
F4
100
AcDbEntity
  8
0
100
AcDbBlockBegin
  2
DC_GROUP_ACE125_12
 70
     0
 10
0.0
 20
0.0
 30
0.0
  3
DC_GROUP_ACE125_12
  1

  0
TEXT
  5
1CC
330
F4
100
AcDbEntity
  8
Layer0004
 62
     2
100
AcDbText
 10
291.0488854236228
 20
-155.236430233505
 30
0.0
 40
5.0
  1
HANDLE SOCKET
 41
0.8
  7
dcStyle0
 72
     5
 11
343.0488854236228
 21
-155.236430233505
 31
0.0
100
AcDbText
  0
ENDBLK
  5
F6
330
F4
100
AcDbEntity
  8
0
100
AcDbBlockEnd
  0
BLOCK
  5
F9
330
F8
100
AcDbEntity
  8
0
100
AcDbBlockBegin
  2
_OPEN30
 70
     0
 10
0.0
 20
0.0
 30
0.0
  3
_OPEN30
  1

  0
LINE
  5
FB
330
F8
100
AcDbEntity
  8
0
  6
ByBlock
 62
     0
370
    -2
100
AcDbLine
 10
-1.0
 20
0.267949
 30
0.0
 11
0.0
 21
0.0
 31
0.0
  0
LINE
  5
FC
330
F8
100
AcDbEntity
  8
0
  6
ByBlock
 62
     0
370
    -2
100
AcDbLine
 10
0.0
 20
0.0
 30
0.0
 11
-1.0
 21
-0.267949
 31
0.0
  0
LINE
  5
FD
330
F8
100
AcDbEntity
  8
0
  6
ByBlock
 62
     0
370
    -2
100
AcDbLine
 10
0.0
 20
0.0
 30
0.0
 11
-1.0
 21
0.0
 31
0.0
  0
ENDBLK
  5
FA
330
F8
100
AcDbEntity
  8
0
100
AcDbBlockEnd
  0
ENDSEC
  0
SECTION
  2
ENTITIES
  0
LINE
  5
1CD
330
1F
100
AcDbEntity
  8
Layer0000
  6
CENTER
 62
     2
370
    25
100
AcDbLine
 10
-372.5858573216526
 20
155.8204339919119
 30
0.0
 11
176.1141426783478
 21
155.8204339919119
 31
0.0
  0
LINE
  5
1CE
330
1F
100
AcDbEntity
  8
Layer0000
  6
CENTER
 62
     2
370
    25
100
AcDbLine
 10
-100.5858573216526
 20
-155.9289983697222
 30
0.0
 11
-120.5858573216526
 21
-155.9289983697222
 31
0.0
  0
LINE
  5
1CF
330
1F
100
AcDbEntity
  8
Layer0000
  6
CENTER
 62
     2
370
    25
100
AcDbLine
 10
-110.5858573216526
 20
-145.9289983697222
 30
0.0
 11
-110.5858573216526
 21
-165.9289983697222
 31
0.0
  0
LINE
  5
1D0
330
1F
100
AcDbEntity
  8
Layer0000
  6
CENTER
 62
     2
370
    25
100
AcDbLine
 10
-40.58585732165259
 20
-155.9289983697222
 30
0.0
 11
-60.58585732165258
 21
-155.9289983697222
 31
0.0
  0
LINE
  5
1D1
330
1F
100
AcDbEntity
  8
Layer0000
  6
CENTER
 62
     2
370
    25
100
AcDbLine
 10
-50.58585732165258
 20
-145.9289983697222
 30
0.0
 11
-50.58585732165258
 21
-165.9289983697222
 31
0.0
  0
LINE
  5
1D2
330
1F
100
AcDbEntity
  8
Layer0000
  6
CENTER
 62
     2
370
    25
100
AcDbLine
 10
-157.5858573216526
 20
-197.9124875533626
 30
0.0
 11
-157.5858573216526
 21
-206.9289983697221
 31
0.0
  0
LINE
  5
1D3
330
1F
100
AcDbEntity
  8
Layer0000
  6
CENTER
 62
     2
370
    25
100
AcDbLine
 10
-160.5858573216526
 20
-155.9289983697222
 30
0.0
 11
-180.5858573216526
 21
-155.9289983697222
 31
0.0
  0
LINE
  5
1D4
330
1F
100
AcDbEntity
  8
Layer0000
  6
CENTER
 62
     2
370
    25
100
AcDbLine
 10
-170.5858573216526
 20
-145.9289983697222
 30
0.0
 11
-170.5858573216526
 21
-165.9289983697222
 31
0.0
  0
LINE
  5
1D5
330
1F
100
AcDbEntity
  8
Layer0000
  6
CENTER
 62
     2
370
    25
100
AcDbLine
 10
-220.5858573216526
 20
-155.9289983697222
 30
0.0
 11
-240.5858573216526
 21
-155.9289983697222
 31
0.0
  0
LINE
  5
1D6
330
1F
100
AcDbEntity
  8
Layer0000
  6
CENTER
 62
     2
370
    25
100
AcDbLine
 10
-230.5858573216526
 20
-145.9289983697222
 30
0.0
 11
-230.5858573216526
 21
-165.9289983697222
 31
0.0
  0
LINE
  5
1D7
330
1F
100
AcDbEntity
  8
Layer0000
  6
CENTER
 62
     2
370
    25
100
AcDbLine
 10
-207.5858573216526
 20
-197.9124875533626
 30
0.0
 11
-207.5858573216526
 21
-214.9289983697221
 31
0.0
  0
LINE
  5
1D8
330
1F
100
AcDbEntity
  8
Layer0000
  6
CENTER
 62
     2
370
    25
100
AcDbLine
 10
-257.5858573216526
 20
-197.9124875533626
 30
0.0
 11
-257.5858573216526
 21
-206.9289983697221
 31
0.0
  0
LINE
  5
1D9
330
1F
100
AcDbEntity
  8
Layer0000
  6
CENTER
 62
     2
370
    25
100
AcDbLine
 10
-326.5858573216525
 20
-99.4289983697222
 30
0.0
 11
-346.5858573216525
 21
-99.4289983697222
 31
0.0
  0
LINE
  5
1DA
330
1F
100
AcDbEntity
  8
Layer0000
  6
CENTER
 62
     2
370
    25
100
AcDbLine
 10
-336.5858573216525
 20
-89.4289983697222
 30
0.0
 11
-336.5858573216525
 21
-109.4289983697222
 31
0.0
  0
LINE
  5
1DB
330
1F
100
AcDbEntity
  8
Layer0000
  6
CENTER
 62
     2
370
    25
100
AcDbLine
 10
299.0688360450564
 20
81.82043399191193
 30
0.0
 11
299.0688360450564
 21
207.8204339919119
 31
0.0
  0
LINE
  5
1DC
330
1F
100
AcDbEntity
  8
Layer0000
  6
CENTER
 62
     2
370
    25
100
AcDbLine
 10
281.8188360450564
 20
155.8204339919119
 30
0.0
 11
224.3188360450564
 21
155.8204339919119
 31
0.0
  0
LINE
  5
1DD
330
1F
100
AcDbEntity
  8
Layer0000
  6
CENTER
 62
     2
370
    25
100
AcDbLine
 10
253.0688360450564
 20
184.5704339919119
 30
0.0
 11
253.0688360450564
 21
127.0704339919119
 31
0.0
  0
CIRCLE
  5
1DE
330
1F
100
AcDbEntity
  8
Layer0000
  6
CENTER
 62
     2
370
    25
100
AcDbCircle
 10
253.0688360450564
 20
155.8204339919119
 30
0.0
 40
24.0
  0
LINE
  5
1DF
330
1F
100
AcDbEntity
  8
Layer0000
  6
CENTER
 62
     2
370
    25
100
AcDbLine
 10
119.4141426783476
 20
-109.9289983697222
 30
0.0
 11
181.1141426783478
 21
-109.9289983697222
 31
0.0
  0
LINE
  5
1E0
330
1F
100
AcDbEntity
  8
Layer0000
  6
CENTER
 62
     2
370
    25
100
AcDbLine
 10
86.41414267834756
 20
200.8204339919119
 30
0.0
 11
78.41414267834756
 21
200.8204339919119
 31
0.0
  0
LINE
  5
1E1
330
1F
100
AcDbEntity
  8
Layer0000
  6
CENTER
 62
     2
370
    25
100
AcDbLine
 10
82.41414267834756
 20
204.8204339919119
 30
0.0
 11
82.41414267834756
 21
196.8204339919119
 31
0.0
  0
LINE
  5
1E2
330
1F
100
AcDbEntity
  8
Layer0000
  6
CENTER
 62
     2
370
    25
100
AcDbLine
 10
86.41414267834757
 20
110.8204339919119
 30
0.0
 11
78.41414267834757
 21
110.8204339919119
 31
0.0
  0
LINE
  5
1E3
330
1F
100
AcDbEntity
  8
Layer0000
  6
CENTER
 62
     2
370
    25
100
AcDbLine
 10
82.41414267834757
 20
106.8204339919119
 30
0.0
 11
82.41414267834757
 21
114.8204339919119
 31
0.0
  0
LINE
  5
1E4
330
1F
100
AcDbEntity
  8
Layer0000
  6
CENTER
 62
     2
370
    25
100
AcDbLine
 10
206.7909936010486
 20
-6.836488023791183
 30
0.0
 11
371.7909936010486
 21
-6.836488023791183
 31
0.0
  0
LINE
  5
1E5
330
1F
100
AcDbEntity
  8
Layer0000
  6
CENTER
 62
     2
370
    25
100
AcDbLine
 10
-3.585857321652419
 20
110.8204339919119
 30
0.0
 11
-11.58585732165243
 21
110.8204339919119
 31
0.0
  0
LINE
  5
1E6
330
1F
100
AcDbEntity
  8
Layer0000
  6
CENTER
 62
     2
370
    25
100
AcDbLine
 10
-7.585857321652426
 20
106.8204339919119
 30
0.0
 11
-7.585857321652426
 21
114.8204339919119
 31
0.0
  0
LINE
  5
1E7
330
1F
100
AcDbEntity
  8
Layer0000
  6
CENTER
 62
     2
370
    25
100
AcDbLine
 10
-3.585857321652412
 20
200.8204339919119
 30
0.0
 11
-11.58585732165241
 21
200.8204339919119
 31
0.0
  0
LINE
  5
1E8
330
1F
100
AcDbEntity
  8
Layer0000
  6
CENTER
 62
     2
370
    25
100
AcDbLine
 10
-7.585857321652412
 20
204.8204339919119
 30
0.0
 11
-7.585857321652412
 21
196.8204339919119
 31
0.0
  0
LINE
  5
1E9
330
1F
100
AcDbEntity
  8
Layer0000
  6
CENTER
 62
     2
370
    25
100
AcDbLine
 10
-346.0858573216526
 20
189.3204339919119
 30
0.0
 11
-369.0858573216526
 21
189.3204339919119
 31
0.0
  0
LINE
  5
1EA
330
1F
100
AcDbEntity
  8
Layer0000
  6
CENTER
 62
     2
370
    25
100
AcDbLine
 10
-357.5858573216526
 20
177.8204339919119
 30
0.0
 11
-357.5858573216526
 21
200.8204339919119
 31
0.0
  0
LINE
  5
1EB
330
1F
100
AcDbEntity
  8
Layer0000
  6
CENTER
 62
     2
370
    25
100
AcDbLine
 10
-322.5858573216526
 20
206.3204339919119
 30
0.0
 11
-322.5858573216526
 21
195.3204339919119
 31
0.0
  0
LINE
  5
1EC
330
1F
100
AcDbEntity
  8
Layer0000
  6
CENTER
 62
     2
370
    25
100
AcDbLine
 10
-317.0858573216526
 20
200.8204339919119
 30
0.0
 11
-328.0858573216526
 21
200.8204339919119
 31
0.0
  0
LINE
  5
1ED
330
1F
100
AcDbEntity
  8
Layer0000
  6
CENTER
 62
     2
370
    25
100
AcDbLine
 10
-296.0858573216526
 20
189.3204339919119
 30
0.0
 11
-319.0858573216526
 21
189.3204339919119
 31
0.0
  0
LINE
  5
1EE
330
1F
100
AcDbEntity
  8
Layer0000
  6
CENTER
 62
     2
370
    25
100
AcDbLine
 10
-307.5858573216526
 20
177.8204339919119
 30
0.0
 11
-307.5858573216526
 21
200.8204339919119
 31
0.0
  0
LINE
  5
1EF
330
1F
100
AcDbEntity
  8
Layer0000
  6
CENTER
 62
     2
370
    25
100
AcDbLine
 10
-322.5858573216526
 20
160.8204339919119
 30
0.0
 11
-322.5858573216526
 21
150.8204339919119
 31
0.0
  0
LINE
  5
1F0
330
1F
100
AcDbEntity
  8
Layer0000
  6
CENTER
 62
     2
370
    25
100
AcDbLine
 10
-357.5858573216526
 20
133.8204339919119
 30
0.0
 11
-357.5858573216526
 21
110.8204339919119
 31
0.0
  0
LINE
  5
1F1
330
1F
100
AcDbEntity
  8
Layer0000
  6
CENTER
 62
     2
370
    25
100
AcDbLine
 10
-346.0858573216526
 20
122.3204339919119
 30
0.0
 11
-369.0858573216526
 21
122.3204339919119
 31
0.0
  0
LINE
  5
1F2
330
1F
100
AcDbEntity
  8
Layer0000
  6
CENTER
 62
     2
370
    25
100
AcDbLine
 10
-322.5858573216526
 20
105.3204339919119
 30
0.0
 11
-322.5858573216526
 21
116.3204339919119
 31
0.0
  0
LINE
  5
1F3
330
1F
100
AcDbEntity
  8
Layer0000
  6
CENTER
 62
     2
370
    25
100
AcDbLine
 10
-317.0858573216526
 20
110.8204339919119
 30
0.0
 11
-328.0858573216526
 21
110.8204339919119
 31
0.0
  0
LINE
  5
1F4
330
1F
100
AcDbEntity
  8
Layer0000
  6
CENTER
 62
     2
370
    25
100
AcDbLine
 10
-296.0858573216526
 20
122.3204339919119
 30
0.0
 11
-319.0858573216526
 21
122.3204339919119
 31
0.0
  0
LINE
  5
1F5
330
1F
100
AcDbEntity
  8
Layer0000
  6
CENTER
 62
     2
370
    25
100
AcDbLine
 10
-307.5858573216526
 20
133.8204339919119
 30
0.0
 11
-307.5858573216526
 21
110.8204339919119
 31
0.0
  0
LINE
  5
1F6
330
1F
100
AcDbEntity
  8
Layer0000
  6
Continuous
 62
     3
370
    25
100
AcDbLine
 10
-277.5858573216525
 20
178.3204339919119
 30
0.0
 11
-52.5858573216525
 21
178.3204339919119
 31
0.0
  0
LINE
  5
1F7
330
1F
100
AcDbEntity
  8
Layer0000
  6
Continuous
 62
     3
370
    25
100
AcDbLine
 10
-277.5858573216525
 20
204.8204339919119
 30
0.0
 11
-52.5858573216525
 21
204.8204339919119
 31
0.0
  0
LINE
  5
1F8
330
1F
100
AcDbEntity
  8
Layer0000
  6
Continuous
 62
     3
370
    25
100
AcDbLine
 10
67.41414267834742
 20
-136.9289983697222
 30
0.0
 11
67.41414267834742
 21
-203.9289983697221
 31
0.0
  0
LINE
  5
1F9
330
1F
100
AcDbEntity
  8
Layer0000
  6
Continuous
 62
     3
370
    25
100
AcDbLine
 10
-339.5858573216526
 20
-125.4289983697222
 30
0.0
 11
-339.5858573216526
 21
-132.9289983697222
 31
0.0
  0
LINE
  5
1FA
330
1F
100
AcDbEntity
  8
Layer0000
  6
Continuous
 62
     3
370
    25
100
AcDbLine
 10
-339.5858573216526
 20
-132.9289983697222
 30
0.0
 11
-319.5858573216526
 21
-132.9289983697222
 31
0.0
  0
LINE
  5
1FB
330
1F
100
AcDbEntity
  8
Layer0000
  6
Continuous
 62
     3
370
    25
100
AcDbLine
 10
-319.5858573216526
 20
-132.9289983697222
 30
0.0
 11
-319.5858573216526
 21
-125.4289983697222
 31
0.0
  0
LINE
  5
1FC
330
1F
100
AcDbEntity
  8
Layer0000
  6
Continuous
 62
     3
370
    25
100
AcDbLine
 10
-371.5858573216526
 20
-124.9289983697222
 30
0.0
 11
-340.0858573216526
 21
-124.9289983697222
 31
0.0
  0
LINE
  5
1FD
330
1F
100
AcDbEntity
  8
Layer0000
  6
Continuous
 62
     3
370
    25
100
AcDbLine
 10
-319.0858573216526
 20
-124.9289983697222
 30
0.0
 11
-37.5858573216525
 21
-124.9289983697222
 31
0.0
  0
LINE
  5
1FE
330
1F
100
AcDbEntity
  8
Layer0000
  6
Continuous
 62
     3
370
    25
100
AcDbLine
 10
121.4141426783476
 20
-136.9289983697222
 30
0.0
 11
-272.5858573216526
 21
-136.9289983697222
 31
0.0
  0
LINE
  5
1FF
330
1F
100
AcDbEntity
  8
Layer0000
  6
Continuous
 62
     3
370
    25
100
AcDbLine
 10
66.41414267834742
 20
-182.9289983697221
 30
0.0
 11
-371.5858573216526
 21
-182.9289983697221
 31
0.0
  0
LINE
  5
200
330
1F
100
AcDbEntity
  8
Layer0000
  6
Continuous
 62
     3
370
    25
100
AcDbLine
 10
67.41414267834742
 20
-174.4289983697221
 30
0.0
 11
-372.5858573216526
 21
-174.4289983697221
 31
0.0
  0
LINE
  5
201
330
1F
100
AcDbEntity
  8
Layer0000
  6
Continuous
 62
     3
370
    25
100
AcDbLine
 10
121.4141426783476
 20
218.3204339919119
 30
0.0
 11
-371.5858573216526
 21
218.3204339919119
 31
0.0
  0
LINE
  5
202
330
1F
100
AcDbEntity
  8
Layer0000
  6
Continuous
 62
     3
370
    25
100
AcDbLine
 10
-372.5858573216526
 20
-125.9289983697222
 30
0.0
 11
-372.5858573216526
 21
-203.9289983697221
 31
0.0
  0
LINE
  5
203
330
1F
100
AcDbEntity
  8
Layer0000
  6
Continuous
 62
     3
370
    25
100
AcDbLine
 10
-372.5858573216526
 20
217.3204339919119
 30
0.0
 11
-372.5858573216526
 21
94.3204339919119
 31
0.0
  0
LINE
  5
204
330
1F
100
AcDbEntity
  8
Layer0000
  6
Continuous
 62
     3
370
    25
100
AcDbLine
 10
-166.5858573216526
 20
-204.9289983697221
 30
0.0
 11
-166.5858573216526
 21
-200.9289983697221
 31
0.0
  0
LINE
  5
205
330
1F
100
AcDbEntity
  8
Layer0000
  6
Continuous
 62
     3
370
    25
100
AcDbLine
 10
-166.5858573216526
 20
-200.9289983697221
 30
0.0
 11
-148.5858573216526
 21
-200.9289983697221
 31
0.0
  0
LINE
  5
206
330
1F
100
AcDbEntity
  8
Layer0000
  6
Continuous
 62
     3
370
    25
100
AcDbLine
 10
-148.5858573216526
 20
-200.9289983697221
 30
0.0
 11
-148.5858573216526
 21
-204.9289983697221
 31
0.0
  0
CIRCLE
  5
207
330
1F
100
AcDbEntity
  8
Layer0000
  6
Continuous
 62
     3
370
    25
100
AcDbCircle
 10
-50.58585732165258
 20
-155.9289983697222
 30
0.0
 40
8.0
  0
CIRCLE
  5
208
330
1F
100
AcDbEntity
  8
Layer0000
  6
Continuous
 62
     3
370
    25
100
AcDbCircle
 10
-110.5858573216526
 20
-155.9289983697222
 30
0.0
 40
8.0
  0
CIRCLE
  5
209
330
1F
100
AcDbEntity
  8
Layer0000
  6
Continuous
 62
     3
370
    25
100
AcDbCircle
 10
-170.5858573216526
 20
-155.9289983697222
 30
0.0
 40
8.0
  0
CIRCLE
  5
20A
330
1F
100
AcDbEntity
  8
Layer0000
  6
Continuous
 62
     3
370
    25
100
AcDbCircle
 10
-230.5858573216526
 20
-155.9289983697222
 30
0.0
 40
8.0
  0
LINE
  5
20B
330
1F
100
AcDbEntity
  8
Layer0000
  6
Continuous
 62
     3
370
    25
100
AcDbLine
 10
-277.5858573216525
 20
133.3204339919119
 30
0.0
 11
-52.5858573216525
 21
133.3204339919119
 31
0.0
  0
LINE
  5
20C
330
1F
100
AcDbEntity
  8
Layer0000
  6
Continuous
 62
     3
370
    25
100
AcDbLine
 10
-277.5858573216525
 20
106.8204339919119
 30
0.0
 11
-52.5858573216525
 21
106.8204339919119
 31
0.0
  0
LINE
  5
20D
330
1F
100
AcDbEntity
  8
Layer0000
  6
Continuous
 62
     3
370
    25
100
AcDbLine
 10
121.4141426783476
 20
93.3204339919119
 30
0.0
 11
-371.5858573216526
 21
93.3204339919119
 31
0.0
  0
LINE
  5
20E
330
1F
100
AcDbEntity
  8
Layer0000
  6
Continuous
 62
     3
370
    25
100
AcDbLine
 10
-216.5858573216526
 20
-212.9289983697221
 30
0.0
 11
-216.5858573216526
 21
-200.9289983697221
 31
0.0
  0
LINE
  5
20F
330
1F
100
AcDbEntity
  8
Layer0000
  6
Continuous
 62
     3
370
    25
100
AcDbLine
 10
-216.5858573216526
 20
-200.9289983697221
 30
0.0
 11
-198.5858573216526
 21
-200.9289983697221
 31
0.0
  0
LINE
  5
210
330
1F
100
AcDbEntity
  8
Layer0000
  6
Continuous
 62
     3
370
    25
100
AcDbLine
 10
-198.5858573216526
 20
-200.9289983697221
 30
0.0
 11
-198.5858573216526
 21
-212.9289983697221
 31
0.0
  0
LINE
  5
211
330
1F
100
AcDbEntity
  8
Layer0000
  6
Continuous
 62
     3
370
    25
100
AcDbLine
 10
-266.5858573216526
 20
-204.9289983697221
 30
0.0
 11
-266.5858573216526
 21
-200.9289983697221
 31
0.0
  0
LINE
  5
212
330
1F
100
AcDbEntity
  8
Layer0000
  6
Continuous
 62
     3
370
    25
100
AcDbLine
 10
-266.5858573216526
 20
-200.9289983697221
 30
0.0
 11
-248.5858573216526
 21
-200.9289983697221
 31
0.0
  0
LINE
  5
213
330
1F
100
AcDbEntity
  8
Layer0000
  6
Continuous
 62
     3
370
    25
100
AcDbLine
 10
-248.5858573216526
 20
-200.9289983697221
 30
0.0
 11
-248.5858573216526
 21
-204.9289983697221
 31
0.0
  0
LINE
  5
214
330
1F
100
AcDbEntity
  8
Layer0000
  6
Continuous
 62
     3
370
    25
100
AcDbLine
 10
-339.5858573216526
 20
-125.4289983697222
 30
0.0
 11
-340.0858573216526
 21
-124.9289983697222
 31
0.0
  0
LINE
  5
215
330
1F
100
AcDbEntity
  8
Layer0000
  6
Continuous
 62
     3
370
    25
100
AcDbLine
 10
-319.5858573216526
 20
-125.4289983697222
 30
0.0
 11
-319.0858573216526
 21
-124.9289983697222
 31
0.0
  0
LINE
  5
216
330
1F
100
AcDbEntity
  8
Layer0000
  6
Continuous
 62
     3
370
    25
100
AcDbLine
 10
-371.5858573216526
 20
218.3204339919119
 30
0.0
 11
-372.5858573216526
 21
217.3204339919119
 31
0.0
  0
LINE
  5
217
330
1F
100
AcDbEntity
  8
Layer0000
  6
Continuous
 62
     3
370
    25
100
AcDbLine
 10
-372.5858573216526
 20
94.3204339919119
 30
0.0
 11
-371.5858573216526
 21
93.3204339919119
 31
0.0
  0
LINE
  5
218
330
1F
100
AcDbEntity
  8
Layer0000
  6
Continuous
 62
     3
370
    25
100
AcDbLine
 10
67.41414267834742
 20
-203.9289983697221
 30
0.0
 11
66.41414267834742
 21
-204.9289983697221
 31
0.0
  0
LINE
  5
219
330
1F
100
AcDbEntity
  8
Layer0000
  6
Continuous
 62
     3
370
    25
100
AcDbLine
 10
66.41414267834742
 20
-182.9289983697221
 30
0.0
 11
67.41414267834742
 21
-183.9289983697221
 31
0.0
  0
LINE
  5
21A
330
1F
100
AcDbEntity
  8
Layer0000
  6
Continuous
 62
     3
370
    25
100
AcDbLine
 10
-371.5858573216526
 20
-182.9289983697221
 30
0.0
 11
-372.5858573216526
 21
-183.9289983697221
 31
0.0
  0
LINE
  5
21B
330
1F
100
AcDbEntity
  8
Layer0000
  6
Continuous
 62
     3
370
    25
100
AcDbLine
 10
-371.5858573216526
 20
-204.9289983697221
 30
0.0
 11
-372.5858573216526
 21
-203.9289983697221
 31
0.0
  0
LINE
  5
21C
330
1F
100
AcDbEntity
  8
Layer0000
  6
Continuous
 62
     3
370
    25
100
AcDbLine
 10
-371.5858573216526
 20
-124.9289983697222
 30
0.0
 11
-372.5858573216526
 21
-125.9289983697222
 31
0.0
  0
LINE
  5
21D
330
1F
100
AcDbEntity
  8
Layer0000
  6
Continuous
 62
     3
370
    25
100
AcDbLine
 10
-292.7858573216525
 20
-124.4289983697222
 30
0.0
 11
-292.7858573216525
 21
-119.9289983697222
 31
0.0
  0
LINE
  5
21E
330
1F
100
AcDbEntity
  8
Layer0000
  6
Continuous
 62
     3
370
    25
100
AcDbLine
 10
-292.5858573216525
 20
-124.9289983697222
 30
0.0
 11
-292.5858573216525
 21
-78.9289983697222
 31
0.0
  0
LINE
  5
21F
330
1F
100
AcDbEntity
  8
Layer0000
  6
Continuous
 62
     3
370
    25
100
AcDbLine
 10
-293.0858573216525
 20
-79.4289983697222
 30
0.0
 11
-332.0858573216526
 21
-79.4289983697222
 31
0.0
  0
LINE
  5
220
330
1F
100
AcDbEntity
  8
Layer0000
  6
Continuous
 62
     3
370
    25
100
AcDbLine
 10
-332.5858573216526
 20
-79.9289983697222
 30
0.0
 11
-332.5858573216526
 21
-83.9289983697222
 31
0.0
  0
LINE
  5
221
330
1F
100
AcDbEntity
  8
Layer0000
  6
Continuous
 62
     3
370
    25
100
AcDbLine
 10
-332.5858573216526
 20
-83.9289983697222
 30
0.0
 11
-344.5858573216526
 21
-83.9289983697222
 31
0.0
  0
LINE
  5
222
330
1F
100
AcDbEntity
  8
Layer0000
  6
Continuous
 62
     3
370
    25
100
AcDbLine
 10
-344.5858573216526
 20
-83.9289983697222
 30
0.0
 11
-344.5858573216526
 21
-79.9289983697222
 31
0.0
  0
LINE
  5
223
330
1F
100
AcDbEntity
  8
Layer0000
  6
Continuous
 62
     3
370
    25
100
AcDbLine
 10
-345.0858573216526
 20
-79.4289983697222
 30
0.0
 11
-372.0858573216526
 21
-79.4289983697222
 31
0.0
  0
LINE
  5
224
330
1F
100
AcDbEntity
  8
Layer0000
  6
Continuous
 62
     3
370
    25
100
AcDbLine
 10
-372.5858573216526
 20
-79.9289983697222
 30
0.0
 11
-372.5858573216526
 21
-124.4289983697222
 31
0.0
  0
LINE
  5
225
330
1F
100
AcDbEntity
  8
Layer0000
  6
Continuous
 62
     3
370
    25
100
AcDbLine
 10
-339.5858573216526
 20
-126.4165628044238
 30
0.0
 11
-339.5858573216526
 21
-131.9289983697222
 31
0.0
  0
LINE
  5
226
330
1F
100
AcDbEntity
  8
Layer0000
  6
Continuous
 62
     3
370
    25
100
AcDbLine
 10
-339.0858573216526
 20
-132.4289983697222
 30
0.0
 11
-320.0858573216525
 21
-132.4289983697222
 31
0.0
  0
LINE
  5
227
330
1F
100
AcDbEntity
  8
Layer0000
  6
Continuous
 62
     3
370
    25
100
AcDbLine
 10
-319.5858573216525
 20
-131.9289983697222
 30
0.0
 11
-319.5858573216525
 21
-126.4165628044239
 31
0.0
  0
LINE
  5
228
330
1F
100
AcDbEntity
  8
Layer0000
  6
Continuous
 62
     3
370
    25
100
AcDbLine
 10
-293.0858573216525
 20
93.3204339919119
 30
0.0
 11
-372.0858573216526
 21
93.3204339919119
 31
0.0
  0
LINE
  5
229
330
1F
100
AcDbEntity
  8
Layer0000
  6
Continuous
 62
     3
370
    25
100
AcDbLine
 10
-372.5858573216526
 20
93.8204339919119
 30
0.0
 11
-372.5858573216526
 21
217.8204339919119
 31
0.0
  0
LINE
  5
22A
330
1F
100
AcDbEntity
  8
Layer0000
  6
Continuous
 62
     3
370
    25
100
AcDbLine
 10
-293.0858573216525
 20
218.3204339919119
 30
0.0
 11
-372.0858573216526
 21
218.3204339919119
 31
0.0
  0
LINE
  5
22B
330
1F
100
AcDbEntity
  8
Layer0000
  6
Continuous
 62
     3
370
    25
100
AcDbLine
 10
-292.7858573216525
 20
-119.9289983697222
 30
0.0
 11
-292.5858573216525
 21
-119.9289983697222
 31
0.0
  0
LINE
  5
22C
330
1F
100
AcDbEntity
  8
Layer0000
  6
Continuous
 62
     3
370
    25
100
AcDbLine
 10
-339.4198319178682
 20
-126.1289983697222
 30
0.0
 11
-339.5858573216526
 21
-126.4165628044238
 31
0.0
  0
LINE
  5
22D
330
1F
100
AcDbEntity
  8
Layer0000
  6
Continuous
 62
     3
370
    25
100
AcDbLine
 10
-340.7858573216525
 20
-124.7629729659377
 30
0.0
 11
-341.0734217563544
 21
-124.9289983697222
 31
0.0
  0
ARC
  5
22E
330
1F
100
AcDbEntity
  8
Layer0000
  6
Continuous
 62
     3
370
    25
100
AcDbCircle
 10
-340.2858573216527
 20
-125.6289983697222
 30
0.0
 40
1.0
100
AcDbArc
 50
329.9999999999999
 51
119.9999999999965
  0
LINE
  5
22F
330
1F
100
AcDbEntity
  8
Layer0000
  6
Continuous
 62
     3
370
    25
100
AcDbLine
 10
-319.7518827254369
 20
-126.1289983697222
 30
0.0
 11
-319.5858573216526
 21
-126.4165628044238
 31
0.0
  0
LINE
  5
230
330
1F
100
AcDbEntity
  8
Layer0000
  6
Continuous
 62
     3
370
    25
100
AcDbLine
 10
-318.3858573216526
 20
-124.7629729659377
 30
0.0
 11
-318.0982928869507
 21
-124.9289983697222
 31
0.0
  0
ARC
  5
231
330
1F
100
AcDbEntity
  8
Layer0000
  6
Continuous
 62
     3
370
    25
100
AcDbCircle
 10
-318.8858573216525
 20
-125.6289983697222
 30
0.0
 40
1.0
100
AcDbArc
 50
60.0000000000035
 51
210.0000000000001
  0
LINE
  5
232
330
1F
100
AcDbEntity
  8
Layer0000
  6
Continuous
 62
     3
370
    25
100
AcDbLine
 10
-318.0982928869507
 20
-124.9289983697222
 30
0.0
 11
-293.2858573216525
 21
-124.9289983697222
 31
0.0
  0
LINE
  5
233
330
1F
100
AcDbEntity
  8
Layer0000
  6
Continuous
 62
     3
370
    25
100
AcDbLine
 10
-372.0858573216526
 20
-124.9289983697222
 30
0.0
 11
-341.0734217563544
 21
-124.9289983697222
 31
0.0
  0
LINE
  5
234
330
1F
100
AcDbEntity
  8
Layer0000
  6
Continuous
 62
     3
370
    25
100
AcDbLine
 10
-339.5717144787983
 20
-124.9289983697222
 30
0.0
 11
-319.6000001645068
 21
-124.9289983697222
 31
0.0
  0
LINE
  5
235
330
1F
100
AcDbEntity
  8
Layer0000
  6
Continuous
 62
     3
370
    25
100
AcDbLine
 10
-339.5858573216526
 20
-131.9289983697222
 30
0.0
 11
-339.0858573216526
 21
-132.4289983697222
 31
0.0
  0
LINE
  5
236
330
1F
100
AcDbEntity
  8
Layer0000
  6
Continuous
 62
     3
370
    25
100
AcDbLine
 10
-320.0858573216525
 20
-132.4289983697222
 30
0.0
 11
-319.5858573216525
 21
-131.9289983697222
 31
0.0
  0
LINE
  5
237
330
1F
100
AcDbEntity
  8
Layer0000
  6
Continuous
 62
     3
370
    25
100
AcDbLine
 10
-372.0858573216526
 20
-79.4289983697222
 30
0.0
 11
-372.5858573216526
 21
-79.9289983697222
 31
0.0
  0
LINE
  5
238
330
1F
100
AcDbEntity
  8
Layer0000
  6
Continuous
 62
     3
370
    25
100
AcDbLine
 10
-372.5858573216526
 20
-124.4289983697222
 30
0.0
 11
-372.0858573216526
 21
-124.9289983697222
 31
0.0
  0
LINE
  5
239
330
1F
100
AcDbEntity
  8
Layer0000
  6
Continuous
 62
     3
370
    25
100
AcDbLine
 10
-292.7858573216525
 20
-124.4289983697222
 30
0.0
 11
-293.2858573216525
 21
-124.9289983697222
 31
0.0
  0
LINE
  5
23A
330
1F
100
AcDbEntity
  8
Layer0000
  6
Continuous
 62
     3
370
    25
100
AcDbLine
 10
-292.5858573216525
 20
-79.9289983697222
 30
0.0
 11
-293.0858573216525
 21
-79.4289983697222
 31
0.0
  0
LINE
  5
23B
330
1F
100
AcDbEntity
  8
Layer0000
  6
Continuous
 62
     3
370
    25
100
AcDbLine
 10
-372.5858573216526
 20
217.8204339919119
 30
0.0
 11
-372.0858573216526
 21
218.3204339919119
 31
0.0
  0
LINE
  5
23C
330
1F
100
AcDbEntity
  8
Layer0000
  6
Continuous
 62
     3
370
    25
100
AcDbLine
 10
-372.0858573216526
 20
93.3204339919119
 30
0.0
 11
-372.5858573216526
 21
93.8204339919119
 31
0.0
  0
CIRCLE
  5
23D
330
1F
100
AcDbEntity
  8
Layer0000
  6
Continuous
 62
     3
370
    25
100
AcDbCircle
 10
-336.5858573216525
 20
-99.4289983697222
 30
0.0
 40
7.189999999999998
  0
LINE
  5
23E
330
1F
100
AcDbEntity
  8
Layer0000
  6
Continuous
 62
     3
370
    25
100
AcDbLine
 10
-37.5858573216525
 20
-78.9289983697222
 30
0.0
 11
-37.5858573216525
 21
-136.9289983697222
 31
0.0
  0
LINE
  5
23F
330
1F
100
AcDbEntity
  8
Layer0000
  6
Continuous
 62
     3
370
    25
100
AcDbLine
 10
121.4141426783476
 20
-79.4289983697222
 30
0.0
 11
121.4141426783476
 21
-136.9289983697222
 31
0.0
  0
LINE
  5
240
330
1F
100
AcDbEntity
  8
Layer0000
  6
Continuous
 62
     3
370
    25
100
AcDbLine
 10
2.414142678347559
 20
-79.4289983697222
 30
0.0
 11
2.414142678347559
 21
-83.9289983697222
 31
0.0
  0
LINE
  5
241
330
1F
100
AcDbEntity
  8
Layer0000
  6
Continuous
 62
     3
370
    25
100
AcDbLine
 10
2.414142678347559
 20
-83.9289983697222
 30
0.0
 11
14.4141426783475
 21
-83.9289983697222
 31
0.0
  0
LINE
  5
242
330
1F
100
AcDbEntity
  8
Layer0000
  6
Continuous
 62
     3
370
    25
100
AcDbLine
 10
14.4141426783475
 20
-83.9289983697222
 30
0.0
 11
14.4141426783475
 21
-79.4289983697222
 31
0.0
  0
LINE
  5
243
330
1F
100
AcDbEntity
  8
Layer0000
  6
Continuous
 62
     3
370
    25
100
AcDbLine
 10
92.42828552120179
 20
-83.9289983697222
 30
0.0
 11
104.4141426783475
 21
-83.9289983697222
 31
0.0
  0
LINE
  5
244
330
1F
100
AcDbEntity
  8
Layer0000
  6
Continuous
 62
     3
370
    25
100
AcDbLine
 10
-292.5858573216525
 20
-78.9289983697222
 30
0.0
 11
-277.5858573216525
 21
-78.9289983697222
 31
0.0
  0
LINE
  5
245
330
1F
100
AcDbEntity
  8
Layer0000
  6
Continuous
 62
     3
370
    25
100
AcDbLine
 10
-277.5858573216525
 20
-78.9289983697222
 30
0.0
 11
-277.5858573216525
 21
-124.9289983697222
 31
0.0
  0
LINE
  5
246
330
1F
100
AcDbEntity
  8
Layer0000
  6
Continuous
 62
     3
370
    25
100
AcDbLine
 10
-37.5858573216525
 20
-78.9289983697222
 30
0.0
 11
-52.5858573216525
 21
-78.9289983697222
 31
0.0
  0
LINE
  5
247
330
1F
100
AcDbEntity
  8
Layer0000
  6
Continuous
 62
     3
370
    25
100
AcDbLine
 10
-52.5858573216525
 20
-78.9289983697222
 30
0.0
 11
-52.5858573216525
 21
-124.9289983697222
 31
0.0
  0
LINE
  5
248
330
1F
100
AcDbEntity
  8
Layer0000
  6
Continuous
 62
     3
370
    25
100
AcDbLine
 10
-277.5858573216525
 20
93.3204339919119
 30
0.0
 11
-277.5858573216525
 21
218.3204339919119
 31
0.0
  0
LINE
  5
249
330
1F
100
AcDbEntity
  8
Layer0000
  6
Continuous
 62
     3
370
    25
100
AcDbLine
 10
-52.5858573216525
 20
93.3204339919119
 30
0.0
 11
-52.5858573216525
 21
218.3204339919119
 31
0.0
  0
LINE
  5
24A
330
1F
100
AcDbEntity
  8
Layer0000
  6
Continuous
 62
     3
370
    25
100
AcDbLine
 10
-37.5858573216525
 20
93.3204339919119
 30
0.0
 11
-37.5858573216525
 21
218.3204339919119
 31
0.0
  0
LINE
  5
24B
330
1F
100
AcDbEntity
  8
Layer0000
  6
Continuous
 62
     3
370
    25
100
AcDbLine
 10
121.4141426783476
 20
93.3204339919119
 30
0.0
 11
121.4141426783476
 21
218.3204339919119
 31
0.0
  0
LINE
  5
24C
330
1F
100
AcDbEntity
  8
Layer0000
  6
Continuous
 62
     3
370
    25
100
AcDbLine
 10
348.0688360450564
 20
93.3204339919119
 30
0.0
 11
348.0688360450564
 21
218.3204339919119
 31
0.0
  0
LINE
  5
24D
330
1F
100
AcDbEntity
  8
Layer0000
  6
Continuous
 62
     3
370
    25
100
AcDbLine
 10
348.0688360450564
 20
218.3204339919119
 30
0.0
 11
326.0688360450564
 21
218.3204339919119
 31
0.0
  0
LINE
  5
24E
330
1F
100
AcDbEntity
  8
Layer0000
  6
Continuous
 62
     3
370
    25
100
AcDbLine
 10
268.0688360450564
 20
178.3204339919119
 30
0.0
 11
268.0688360450564
 21
204.8204339919119
 31
0.0
  0
LINE
  5
24F
330
1F
100
AcDbEntity
  8
Layer0000
  6
Continuous
 62
     3
370
    25
100
AcDbLine
 10
268.0688360450564
 20
204.8204339919119
 30
0.0
 11
280.0688360450564
 21
204.8204339919119
 31
0.0
  0
LINE
  5
250
330
1F
100
AcDbEntity
  8
Layer0000
  6
Continuous
 62
     3
370
    25
100
AcDbLine
 10
280.0688360450564
 20
204.8204339919119
 30
0.0
 11
280.0688360450564
 21
198.8204339919119
 31
0.0
  0
LINE
  5
251
330
1F
100
AcDbEntity
  8
Layer0000
  6
Continuous
 62
     3
370
    25
100
AcDbLine
 10
326.0688360450564
 20
218.3204339919119
 30
0.0
 11
326.0688360450564
 21
203.8204339919119
 31
0.0
  0
LINE
  5
252
330
1F
100
AcDbEntity
  8
Layer0000
  6
Continuous
 62
     3
370
    25
100
AcDbLine
 10
317.5688360450564
 20
198.8204339919119
 30
0.0
 11
317.5688360450564
 21
197.8204339919119
 31
0.0
  0
LINE
  5
253
330
1F
100
AcDbEntity
  8
Layer0000
  6
Continuous
 62
     3
370
    25
100
AcDbLine
 10
317.5688360450564
 20
197.8204339919119
 30
0.0
 11
282.5688360450564
 21
197.8204339919119
 31
0.0
  0
LINE
  5
254
330
1F
100
AcDbEntity
  8
Layer0000
  6
Continuous
 62
     3
370
    25
100
AcDbLine
 10
282.5688360450564
 20
197.8204339919119
 30
0.0
 11
282.5688360450564
 21
198.8204339919119
 31
0.0
  0
LINE
  5
255
330
1F
100
AcDbEntity
  8
Layer0000
  6
Continuous
 62
     3
370
    25
100
AcDbLine
 10
280.0688360450564
 20
198.8204339919119
 30
0.0
 11
282.5688360450564
 21
198.8204339919119
 31
0.0
  0
LINE
  5
256
330
1F
100
AcDbEntity
  8
Layer0000
  6
Continuous
 62
     3
370
    25
100
AcDbLine
 10
321.0688360450564
 20
198.8204339919119
 30
0.0
 11
317.5688360450564
 21
198.8204339919119
 31
0.0
  0
LINE
  5
257
330
1F
100
AcDbEntity
  8
Layer0000
  6
Continuous
 62
     3
370
    25
100
AcDbLine
 10
268.0688360450564
 20
178.3204339919119
 30
0.0
 11
313.0688360450564
 21
178.3204339919119
 31
0.0
  0
LINE
  5
258
330
1F
100
AcDbEntity
  8
Layer0000
  6
Continuous
 62
     3
370
    25
100
AcDbLine
 10
315.0688360450564
 20
176.3204339919119
 30
0.0
 11
315.0688360450564
 21
135.3204339919119
 31
0.0
  0
ARC
  5
259
330
1F
100
AcDbEntity
  8
Layer0000
  6
Continuous
 62
     3
370
    25
100
AcDbCircle
 10
321.0688360450564
 20
203.8204339919119
 30
0.0
 40
5.0
100
AcDbArc
 50
270.0
 51
0.0
  0
LINE
  5
25A
330
1F
100
AcDbEntity
  8
Layer0000
  6
Continuous
 62
     3
370
    25
100
AcDbLine
 10
222.0688360450564
 20
93.3204339919119
 30
0.0
 11
222.0688360450564
 21
218.3204339919119
 31
0.0
  0
LINE
  5
25B
330
1F
100
AcDbEntity
  8
Layer0000
  6
Continuous
 62
     3
370
    25
100
AcDbLine
 10
290.0688360450564
 20
113.8204339919119
 30
0.0
 11
290.0688360450563
 21
95.3204339919119
 31
0.0
  0
LINE
  5
25C
330
1F
100
AcDbEntity
  8
Layer0000
  6
Continuous
 62
     3
370
    25
100
AcDbLine
 10
308.0688360450564
 20
95.32043399191195
 30
0.0
 11
308.0688360450564
 21
113.8204339919119
 31
0.0
  0
LINE
  5
25D
330
1F
100
AcDbEntity
  8
Layer0000
  6
Continuous
 62
     3
370
    25
100
AcDbLine
 10
290.0688360450564
 20
113.8204339919119
 30
0.0
 11
308.0688360450564
 21
113.8204339919119
 31
0.0
  0
LINE
  5
25E
330
1F
100
AcDbEntity
  8
Layer0000
  6
Continuous
 62
     3
370
    25
100
AcDbLine
 10
292.4085820072119
 20
205.8204339919118
 30
0.0
 11
305.7290900829008
 21
205.820433991912
 31
0.0
  0
LINE
  5
25F
330
1F
100
AcDbEntity
  8
Layer0000
  6
Continuous
 62
     3
370
    25
100
AcDbLine
 10
291.0688360450564
 20
200.8204339919119
 30
0.0
 11
307.0688360450564
 21
200.8204339919119
 31
0.0
  0
LINE
  5
260
330
1F
100
AcDbEntity
  8
Layer0000
  6
Continuous
 62
     3
370
    25
100
AcDbLine
 10
222.5688360450564
 20
218.0704339919119
 30
0.0
 11
280.0688360450564
 21
218.0704339919119
 31
0.0
  0
LINE
  5
261
330
1F
100
AcDbEntity
  8
Layer0000
  6
Continuous
 62
     3
370
    25
100
AcDbLine
 10
280.0688360450564
 20
218.0704339919119
 30
0.0
 11
280.0688360450564
 21
204.8204339919119
 31
0.0
  0
LINE
  5
262
330
1F
100
AcDbEntity
  8
Layer0000
  6
Continuous
 62
     3
370
    25
100
AcDbLine
 10
280.0688360450564
 20
204.8204339919119
 30
0.0
 11
268.0688360450564
 21
204.8204339919119
 31
0.0
  0
LINE
  5
263
330
1F
100
AcDbEntity
  8
Layer0000
  6
Continuous
 62
     3
370
    25
100
AcDbLine
 10
268.0688360450564
 20
204.8204339919119
 30
0.0
 11
268.0688360450564
 21
177.3204339919119
 31
0.0
  0
LINE
  5
264
330
1F
100
AcDbEntity
  8
Layer0000
  6
Continuous
 62
     3
370
    25
100
AcDbLine
 10
280.0688360450564
 20
218.0704339919119
 30
0.0
 11
289.0688360450564
 21
218.0704339919119
 31
0.0
  0
LINE
  5
265
330
1F
100
AcDbEntity
  8
Layer0000
  6
Continuous
 62
     3
370
    25
100
AcDbLine
 10
289.0688360450564
 20
218.0704339919119
 30
0.0
 11
289.0688360450564
 21
199.0704339919119
 31
0.0
  0
LINE
  5
266
330
1F
100
AcDbEntity
  8
Layer0000
  6
Continuous
 62
     3
370
    25
100
AcDbLine
 10
289.0688360450564
 20
199.0704339919119
 30
0.0
 11
280.0688360450564
 21
199.0704339919119
 31
0.0
  0
LINE
  5
267
330
1F
100
AcDbEntity
  8
Layer0000
  6
Continuous
 62
     3
370
    25
100
AcDbLine
 10
326.0688360450564
 20
135.8204339919119
 30
0.0
 11
326.0688360450564
 21
175.8204339919119
 31
0.0
  0
LINE
  5
268
330
1F
100
AcDbEntity
  8
Layer0000
  6
Continuous
 62
     3
370
    25
100
AcDbLine
 10
326.0688360450564
 20
175.8204339919119
 30
0.0
 11
315.0688360450564
 21
175.8204339919119
 31
0.0
  0
LINE
  5
269
330
1F
100
AcDbEntity
  8
Layer0000
  6
Continuous
 62
     3
370
    25
100
AcDbLine
 10
307.0688360450564
 20
200.8204339919121
 30
0.0
 11
305.7290900829008
 21
205.820433991912
 31
0.0
  0
LINE
  5
26A
330
1F
100
AcDbEntity
  8
Layer0000
  6
Continuous
 62
     3
370
    25
100
AcDbLine
 10
291.0688360450564
 20
200.8204339919121
 30
0.0
 11
292.4085820072119
 21
205.8204339919118
 31
0.0
  0
LINE
  5
26B
330
1F
100
AcDbEntity
  8
Layer0000
  6
Continuous
 62
     3
370
    25
100
AcDbLine
 10
290.0688360450563
 20
95.3204339919119
 30
0.0
 11
290.5688360450563
 21
94.8204339919119
 31
0.0
  0
LINE
  5
26C
330
1F
100
AcDbEntity
  8
Layer0000
  6
Continuous
 62
     3
370
    25
100
AcDbLine
 10
290.0688360450563
 20
84.8204339919119
 30
0.0
 11
290.0688360450563
 21
87.3204339919119
 31
0.0
  0
LINE
  5
26D
330
1F
100
AcDbEntity
  8
Layer0000
  6
Continuous
 62
     3
370
    25
100
AcDbLine
 10
290.0688360450563
 20
87.3204339919119
 30
0.0
 11
290.5688360450563
 21
87.8204339919119
 31
0.0
  0
LINE
  5
26E
330
1F
100
AcDbEntity
  8
Layer0000
  6
Continuous
 62
     3
370
    25
100
AcDbLine
 10
290.0688360450563
 20
84.8204339919119
 30
0.0
 11
291.0688360450563
 21
83.8204339919119
 31
0.0
  0
LINE
  5
26F
330
1F
100
AcDbEntity
  8
Layer0000
  6
Continuous
 62
     3
370
    25
100
AcDbLine
 10
291.0688360450563
 20
83.8204339919119
 30
0.0
 11
307.0688360450563
 21
83.8204339919119
 31
0.0
  0
LINE
  5
270
330
1F
100
AcDbEntity
  8
Layer0000
  6
Continuous
 62
     3
370
    25
100
AcDbLine
 10
307.0688360450563
 20
83.8204339919119
 30
0.0
 11
308.0688360450563
 21
84.8204339919119
 31
0.0
  0
LINE
  5
271
330
1F
100
AcDbEntity
  8
Layer0000
  6
Continuous
 62
     3
370
    25
100
AcDbLine
 10
308.0688360450563
 20
95.3204339919119
 30
0.0
 11
307.5688360450563
 21
94.8204339919119
 31
0.0
  0
LINE
  5
272
330
1F
100
AcDbEntity
  8
Layer0000
  6
Continuous
 62
     3
370
    25
100
AcDbLine
 10
308.0688360450563
 20
84.8204339919119
 30
0.0
 11
308.0688360450563
 21
87.3204339919119
 31
0.0
  0
LINE
  5
273
330
1F
100
AcDbEntity
  8
Layer0000
  6
Continuous
 62
     3
370
    25
100
AcDbLine
 10
308.0688360450563
 20
87.3204339919119
 30
0.0
 11
307.5688360450564
 21
87.8204339919119
 31
0.0
  0
LINE
  5
274
330
1F
100
AcDbEntity
  8
Layer0000
  6
Continuous
 62
     3
370
    25
100
AcDbLine
 10
290.0688360450563
 20
84.8204339919119
 30
0.0
 11
308.0688360450563
 21
84.8204339919119
 31
0.0
  0
LINE
  5
275
330
1F
100
AcDbEntity
  8
Layer0000
  6
Continuous
 62
     3
370
    25
100
AcDbLine
 10
290.5688360450563
 20
87.8204339919119
 30
0.0
 11
307.5688360450564
 21
87.8204339919119
 31
0.0
  0
LINE
  5
276
330
1F
100
AcDbEntity
  8
Layer0000
  6
Continuous
 62
     3
370
    25
100
AcDbLine
 10
290.5688360450563
 20
94.8204339919119
 30
0.0
 11
307.5688360450563
 21
94.8204339919119
 31
0.0
  0
LINE
  5
277
330
1F
100
AcDbEntity
  8
Layer0000
  6
Continuous
 62
     3
370
    25
100
AcDbLine
 10
290.0688360450563
 20
95.3204339919119
 30
0.0
 11
308.0688360450563
 21
95.3204339919119
 31
0.0
  0
LINE
  5
278
330
1F
100
AcDbEntity
  8
Layer0000
  6
Continuous
 62
     3
370
    25
100
AcDbLine
 10
290.0688360450563
 20
87.3204339919119
 30
0.0
 11
308.0688360450563
 21
87.3204339919119
 31
0.0
  0
ARC
  5
279
330
1F
100
AcDbEntity
  8
Layer0000
  6
Continuous
 62
     3
370
    25
100
AcDbCircle
 10
289.3688360450564
 20
91.3204339919119
 30
0.0
 40
3.700000000000005
100
AcDbArc
 50
288.9246444160511
 51
71.07535558394896
  0
ARC
  5
27A
330
1F
100
AcDbEntity
  8
Layer0000
  6
Continuous
 62
     3
370
    25
100
AcDbCircle
 10
308.7688360450564
 20
91.3204339919119
 30
0.0
 40
3.700000000000006
100
AcDbArc
 50
108.9246444160512
 51
251.0753555839489
  0
LINE
  5
27B
330
1F
100
AcDbEntity
  8
Layer0000
  6
Continuous
 62
     3
370
    25
100
AcDbLine
 10
275.5688360450564
 20
106.8204339919119
 30
0.0
 11
268.0688360450564
 21
106.8204339919119
 31
0.0
  0
ARC
  5
27C
330
1F
100
AcDbEntity
  8
Layer0000
  6
Continuous
 62
     3
370
    25
100
AcDbCircle
 10
313.0688360450564
 20
176.3204339919119
 30
0.0
 40
2.0
100
AcDbArc
 50
0.0
 51
90.0
  0
LINE
  5
27D
330
1F
100
AcDbEntity
  8
Layer0000
  6
Continuous
 62
     3
370
    25
100
AcDbLine
 10
222.5688360450564
 20
93.5704339919119
 30
0.0
 11
280.0688360450564
 21
93.5704339919119
 31
0.0
  0
LINE
  5
27E
330
1F
100
AcDbEntity
  8
Layer0000
  6
Continuous
 62
     3
370
    25
100
AcDbLine
 10
348.0688360450564
 20
93.3204339919119
 30
0.0
 11
326.0688360450564
 21
93.3204339919119
 31
0.0
  0
LINE
  5
27F
330
1F
100
AcDbEntity
  8
Layer0000
  6
Continuous
 62
     3
370
    25
100
AcDbLine
 10
268.0688360450564
 20
133.3204339919119
 30
0.0
 11
268.0688360450564
 21
106.8204339919119
 31
0.0
  0
LINE
  5
280
330
1F
100
AcDbEntity
  8
Layer0000
  6
Continuous
 62
     3
370
    25
100
AcDbLine
 10
268.0688360450564
 20
106.8204339919119
 30
0.0
 11
280.0688360450564
 21
106.8204339919119
 31
0.0
  0
LINE
  5
281
330
1F
100
AcDbEntity
  8
Layer0000
  6
Continuous
 62
     3
370
    25
100
AcDbLine
 10
280.0688360450564
 20
106.8204339919119
 30
0.0
 11
280.0688360450564
 21
112.8204339919119
 31
0.0
  0
LINE
  5
282
330
1F
100
AcDbEntity
  8
Layer0000
  6
Continuous
 62
     3
370
    25
100
AcDbLine
 10
326.0688360450564
 20
93.3204339919119
 30
0.0
 11
326.0688360450564
 21
107.8204339919119
 31
0.0
  0
LINE
  5
283
330
1F
100
AcDbEntity
  8
Layer0000
  6
Continuous
 62
     3
370
    25
100
AcDbLine
 10
317.5688360450564
 20
112.8204339919119
 30
0.0
 11
317.5688360450564
 21
113.8204339919119
 31
0.0
  0
LINE
  5
284
330
1F
100
AcDbEntity
  8
Layer0000
  6
Continuous
 62
     3
370
    25
100
AcDbLine
 10
317.5688360450564
 20
113.8204339919119
 30
0.0
 11
282.5688360450564
 21
113.8204339919119
 31
0.0
  0
LINE
  5
285
330
1F
100
AcDbEntity
  8
Layer0000
  6
Continuous
 62
     3
370
    25
100
AcDbLine
 10
282.5688360450564
 20
113.8204339919119
 30
0.0
 11
282.5688360450564
 21
112.8204339919119
 31
0.0
  0
LINE
  5
286
330
1F
100
AcDbEntity
  8
Layer0000
  6
Continuous
 62
     3
370
    25
100
AcDbLine
 10
280.0688360450564
 20
112.8204339919119
 30
0.0
 11
282.5688360450564
 21
112.8204339919119
 31
0.0
  0
LINE
  5
287
330
1F
100
AcDbEntity
  8
Layer0000
  6
Continuous
 62
     3
370
    25
100
AcDbLine
 10
321.0688360450564
 20
112.8204339919119
 30
0.0
 11
317.5688360450564
 21
112.8204339919119
 31
0.0
  0
LINE
  5
288
330
1F
100
AcDbEntity
  8
Layer0000
  6
Continuous
 62
     3
370
    25
100
AcDbLine
 10
268.0688360450564
 20
133.3204339919119
 30
0.0
 11
313.0688360450564
 21
133.3204339919119
 31
0.0
  0
ARC
  5
289
330
1F
100
AcDbEntity
  8
Layer0000
  6
Continuous
 62
     3
370
    25
100
AcDbCircle
 10
321.0688360450564
 20
107.8204339919119
 30
0.0
 40
5.0
100
AcDbArc
 50
0.0
 51
90.0
  0
LINE
  5
28A
330
1F
100
AcDbEntity
  8
Layer0000
  6
Continuous
 62
     3
370
    25
100
AcDbLine
 10
280.0688360450564
 20
93.5704339919119
 30
0.0
 11
280.0688360450564
 21
106.8204339919119
 31
0.0
  0
LINE
  5
28B
330
1F
100
AcDbEntity
  8
Layer0000
  6
Continuous
 62
     3
370
    25
100
AcDbLine
 10
280.0688360450564
 20
106.8204339919119
 30
0.0
 11
268.0688360450564
 21
106.8204339919119
 31
0.0
  0
LINE
  5
28C
330
1F
100
AcDbEntity
  8
Layer0000
  6
Continuous
 62
     3
370
    25
100
AcDbLine
 10
268.0688360450564
 20
106.8204339919119
 30
0.0
 11
268.0688360450564
 21
134.3204339919119
 31
0.0
  0
LINE
  5
28D
330
1F
100
AcDbEntity
  8
Layer0000
  6
Continuous
 62
     3
370
    25
100
AcDbLine
 10
280.0688360450564
 20
93.5704339919119
 30
0.0
 11
289.0688360450564
 21
93.5704339919119
 31
0.0
  0
LINE
  5
28E
330
1F
100
AcDbEntity
  8
Layer0000
  6
Continuous
 62
     3
370
    25
100
AcDbLine
 10
289.0688360450564
 20
93.5704339919119
 30
0.0
 11
289.0688360450564
 21
112.5704339919119
 31
0.0
  0
LINE
  5
28F
330
1F
100
AcDbEntity
  8
Layer0000
  6
Continuous
 62
     3
370
    25
100
AcDbLine
 10
289.0688360450564
 20
112.5704339919119
 30
0.0
 11
280.0688360450564
 21
112.5704339919119
 31
0.0
  0
LINE
  5
290
330
1F
100
AcDbEntity
  8
Layer0000
  6
Continuous
 62
     3
370
    25
100
AcDbLine
 10
326.0688360450564
 20
135.8204339919119
 30
0.0
 11
315.0688360450564
 21
135.8204339919119
 31
0.0
  0
ARC
  5
291
330
1F
100
AcDbEntity
  8
Layer0000
  6
Continuous
 62
     3
370
    25
100
AcDbCircle
 10
313.0688360450564
 20
135.3204339919119
 30
0.0
 40
2.0
100
AcDbArc
 50
270.0
 51
0.0
  0
CIRCLE
  5
292
330
1F
100
AcDbEntity
  8
Layer0000
  6
Continuous
 62
     3
370
    25
100
AcDbCircle
 10
253.0688360450564
 20
155.8204339919119
 30
0.0
 40
15.0
  0
LINE
  5
293
330
1F
100
AcDbEntity
  8
Layer0000
  6
Continuous
 62
     3
370
    25
100
AcDbLine
 10
261.4910047884907
 20
143.4080581654588
 30
0.0
 11
268.0293532038018
 21
154.732809818365
 31
0.0
  0
LINE
  5
294
330
1F
100
AcDbEntity
  8
Layer0000
  6
Continuous
 62
     3
370
    25
100
AcDbLine
 10
268.0293532038018
 20
156.9080581654588
 30
0.0
 11
261.4910047884908
 21
168.232809818365
 31
0.0
  0
LINE
  5
295
330
1F
100
AcDbEntity
  8
Layer0000
  6
Continuous
 62
     3
370
    25
100
AcDbLine
 10
259.6071844603674
 20
169.3204339919119
 30
0.0
 11
246.5304876297454
 21
169.3204339919119
 31
0.0
  0
LINE
  5
296
330
1F
100
AcDbEntity
  8
Layer0000
  6
Continuous
 62
     3
370
    25
100
AcDbLine
 10
244.646667301622
 20
168.232809818365
 30
0.0
 11
238.108318886311
 21
156.9080581654588
 31
0.0
  0
LINE
  5
297
330
1F
100
AcDbEntity
  8
Layer0000
  6
Continuous
 62
     3
370
    25
100
AcDbLine
 10
238.1083188863109
 20
154.732809818365
 30
0.0
 11
244.646667301622
 21
143.4080581654589
 31
0.0
  0
LINE
  5
298
330
1F
100
AcDbEntity
  8
Layer0000
  6
Continuous
 62
     3
370
    25
100
AcDbLine
 10
246.5304876297454
 20
142.3204339919119
 30
0.0
 11
259.6071844603674
 21
142.3204339919119
 31
0.0
  0
LINE
  5
299
330
1F
100
AcDbEntity
  8
Layer0000
  6
Continuous
 62
     3
370
    25
100
AcDbLine
 10
310.0688360450564
 20
178.3204339919119
 30
0.0
 11
275.0688360450564
 21
178.3204339919119
 31
0.0
  0
LINE
  5
29A
330
1F
100
AcDbEntity
  8
Layer0000
  6
Continuous
 62
     3
370
    25
100
AcDbLine
 10
315.0688360450564
 20
173.3204339919119
 30
0.0
 11
315.0688360450564
 21
138.3204339919119
 31
0.0
  0
LINE
  5
29B
330
1F
100
AcDbEntity
  8
Layer0000
  6
Continuous
 62
     3
370
    25
100
AcDbLine
 10
310.0688360450564
 20
178.3204339919119
 30
0.0
 11
315.0688360450564
 21
173.3204339919119
 31
0.0
  0
ARC
  5
29C
330
1F
100
AcDbEntity
  8
Layer0000
  6
Continuous
 62
     3
370
    25
100
AcDbCircle
 10
272.0688360450564
 20
178.3204339919119
 30
0.0
 40
3.0
100
AcDbArc
 50
270.0
 51
0.0
  0
LINE
  5
29D
330
1F
100
AcDbEntity
  8
Layer0000
  6
Continuous
 62
     3
370
    25
100
AcDbLine
 10
310.0688360450564
 20
133.3204339919119
 30
0.0
 11
275.0688360450564
 21
133.3204339919119
 31
0.0
  0
ARC
  5
29E
330
1F
100
AcDbEntity
  8
Layer0000
  6
Continuous
 62
     3
370
    25
100
AcDbCircle
 10
272.0688360450564
 20
133.3204339919119
 30
0.0
 40
3.0
100
AcDbArc
 50
0.0
 51
90.0
  0
LINE
  5
29F
330
1F
100
AcDbEntity
  8
Layer0000
  6
Continuous
 62
     3
370
    25
100
AcDbLine
 10
310.0688360450564
 20
133.3204339919119
 30
0.0
 11
315.0688360450564
 21
138.3204339919119
 31
0.0
  0
CIRCLE
  5
2A0
330
1F
100
AcDbEntity
  8
Layer0000
  6
Continuous
 62
     3
370
    25
100
AcDbCircle
 10
253.0688360450564
 20
155.8204339919119
 30
0.0
 40
9.0
  0
CIRCLE
  5
2A1
330
1F
100
AcDbEntity
  8
Layer0000
  6
Continuous
 62
     3
370
    25
100
AcDbCircle
 10
253.0688360450564
 20
155.8204339919119
 30
0.0
 40
12.0
  0
LINE
  5
2A2
330
1F
100
AcDbEntity
  8
Layer0000
  6
Continuous
 62
     3
370
    25
100
AcDbLine
 10
272.0688360450564
 20
177.3204339919119
 30
0.0
 11
268.0688360450564
 21
177.3204339919119
 31
0.0
  0
CIRCLE
  5
2A3
330
1F
100
AcDbEntity
  8
Layer0000
  6
Continuous
 62
     3
370
    25
100
AcDbCircle
 10
253.0688360450564
 20
179.8204339919119
 30
0.0
 40
2.807179676972453
  0
CIRCLE
  5
2A4
330
1F
100
AcDbEntity
  8
Layer0000
  6
Continuous
 62
     3
370
    25
100
AcDbCircle
 10
253.0688360450564
 20
179.8204339919119
 30
0.0
 40
3.5
  0
LINE
  5
2A5
330
1F
100
AcDbEntity
  8
Layer0000
  6
Continuous
 62
     3
370
    25
100
AcDbLine
 10
251.3367852374875
 20
179.8204339919119
 30
0.0
 11
252.202810641272
 21
178.3204339919119
 31
0.0
  0
LINE
  5
2A6
330
1F
100
AcDbEntity
  8
Layer0000
  6
Continuous
 62
     3
370
    25
100
AcDbLine
 10
252.202810641272
 20
178.3204339919119
 30
0.0
 11
253.9348614488408
 21
178.3204339919119
 31
0.0
  0
LINE
  5
2A7
330
1F
100
AcDbEntity
  8
Layer0000
  6
Continuous
 62
     3
370
    25
100
AcDbLine
 10
253.9348614488408
 20
178.3204339919119
 30
0.0
 11
254.8008868526253
 21
179.8204339919119
 31
0.0
  0
LINE
  5
2A8
330
1F
100
AcDbEntity
  8
Layer0000
  6
Continuous
 62
     3
370
    25
100
AcDbLine
 10
254.8008868526253
 20
179.8204339919119
 30
0.0
 11
253.9348614488408
 21
181.3204339919119
 31
0.0
  0
LINE
  5
2A9
330
1F
100
AcDbEntity
  8
Layer0000
  6
Continuous
 62
     3
370
    25
100
AcDbLine
 10
253.9348614488408
 20
181.3204339919119
 30
0.0
 11
252.202810641272
 21
181.3204339919119
 31
0.0
  0
LINE
  5
2AA
330
1F
100
AcDbEntity
  8
Layer0000
  6
Continuous
 62
     3
370
    25
100
AcDbLine
 10
252.202810641272
 20
181.3204339919119
 30
0.0
 11
251.3367852374875
 21
179.8204339919119
 31
0.0
  0
CIRCLE
  5
2AB
330
1F
100
AcDbEntity
  8
Layer0000
  6
Continuous
 62
     3
370
    25
100
AcDbCircle
 10
229.0688360450564
 20
155.8204339919119
 30
0.0
 40
2.807179676972453
  0
CIRCLE
  5
2AC
330
1F
100
AcDbEntity
  8
Layer0000
  6
Continuous
 62
     3
370
    25
100
AcDbCircle
 10
229.0688360450564
 20
155.8204339919119
 30
0.0
 40
3.5
  0
LINE
  5
2AD
330
1F
100
AcDbEntity
  8
Layer0000
  6
Continuous
 62
     3
370
    25
100
AcDbLine
 10
227.3367852374876
 20
155.8204339919119
 30
0.0
 11
228.202810641272
 21
154.3204339919119
 31
0.0
  0
LINE
  5
2AE
330
1F
100
AcDbEntity
  8
Layer0000
  6
Continuous
 62
     3
370
    25
100
AcDbLine
 10
228.202810641272
 20
154.3204339919119
 30
0.0
 11
229.9348614488408
 21
154.3204339919119
 31
0.0
  0
LINE
  5
2AF
330
1F
100
AcDbEntity
  8
Layer0000
  6
Continuous
 62
     3
370
    25
100
AcDbLine
 10
229.9348614488408
 20
154.3204339919119
 30
0.0
 11
230.8008868526252
 21
155.8204339919119
 31
0.0
  0
LINE
  5
2B0
330
1F
100
AcDbEntity
  8
Layer0000
  6
Continuous
 62
     3
370
    25
100
AcDbLine
 10
230.8008868526252
 20
155.8204339919119
 30
0.0
 11
229.9348614488408
 21
157.3204339919119
 31
0.0
  0
LINE
  5
2B1
330
1F
100
AcDbEntity
  8
Layer0000
  6
Continuous
 62
     3
370
    25
100
AcDbLine
 10
229.9348614488408
 20
157.3204339919119
 30
0.0
 11
228.202810641272
 21
157.3204339919119
 31
0.0
  0
LINE
  5
2B2
330
1F
100
AcDbEntity
  8
Layer0000
  6
Continuous
 62
     3
370
    25
100
AcDbLine
 10
228.202810641272
 20
157.3204339919119
 30
0.0
 11
227.3367852374876
 21
155.8204339919119
 31
0.0
  0
CIRCLE
  5
2B3
330
1F
100
AcDbEntity
  8
Layer0000
  6
Continuous
 62
     3
370
    25
100
AcDbCircle
 10
253.0688360450564
 20
131.8204339919119
 30
0.0
 40
2.807179676972453
  0
CIRCLE
  5
2B4
330
1F
100
AcDbEntity
  8
Layer0000
  6
Continuous
 62
     3
370
    25
100
AcDbCircle
 10
253.0688360450564
 20
131.8204339919119
 30
0.0
 40
3.5
  0
LINE
  5
2B5
330
1F
100
AcDbEntity
  8
Layer0000
  6
Continuous
 62
     3
370
    25
100
AcDbLine
 10
251.3367852374875
 20
131.8204339919119
 30
0.0
 11
252.202810641272
 21
130.3204339919119
 31
0.0
  0
LINE
  5
2B6
330
1F
100
AcDbEntity
  8
Layer0000
  6
Continuous
 62
     3
370
    25
100
AcDbLine
 10
252.202810641272
 20
130.3204339919119
 30
0.0
 11
253.9348614488408
 21
130.3204339919119
 31
0.0
  0
LINE
  5
2B7
330
1F
100
AcDbEntity
  8
Layer0000
  6
Continuous
 62
     3
370
    25
100
AcDbLine
 10
253.9348614488408
 20
130.3204339919119
 30
0.0
 11
254.8008868526253
 21
131.8204339919119
 31
0.0
  0
LINE
  5
2B8
330
1F
100
AcDbEntity
  8
Layer0000
  6
Continuous
 62
     3
370
    25
100
AcDbLine
 10
254.8008868526253
 20
131.8204339919119
 30
0.0
 11
253.9348614488408
 21
133.3204339919119
 31
0.0
  0
LINE
  5
2B9
330
1F
100
AcDbEntity
  8
Layer0000
  6
Continuous
 62
     3
370
    25
100
AcDbLine
 10
253.9348614488408
 20
133.3204339919119
 30
0.0
 11
252.202810641272
 21
133.3204339919119
 31
0.0
  0
LINE
  5
2BA
330
1F
100
AcDbEntity
  8
Layer0000
  6
Continuous
 62
     3
370
    25
100
AcDbLine
 10
252.202810641272
 20
133.3204339919119
 30
0.0
 11
251.3367852374875
 21
131.8204339919119
 31
0.0
  0
CIRCLE
  5
2BB
330
1F
100
AcDbEntity
  8
Layer0000
  6
Continuous
 62
     3
370
    25
100
AcDbCircle
 10
277.0688360450564
 20
155.8204339919119
 30
0.0
 40
2.807179676972453
  0
CIRCLE
  5
2BC
330
1F
100
AcDbEntity
  8
Layer0000
  6
Continuous
 62
     3
370
    25
100
AcDbCircle
 10
277.0688360450564
 20
155.8204339919119
 30
0.0
 40
3.5
  0
LINE
  5
2BD
330
1F
100
AcDbEntity
  8
Layer0000
  6
Continuous
 62
     3
370
    25
100
AcDbLine
 10
275.3367852374875
 20
155.8204339919119
 30
0.0
 11
276.202810641272
 21
154.3204339919119
 31
0.0
  0
LINE
  5
2BE
330
1F
100
AcDbEntity
  8
Layer0000
  6
Continuous
 62
     3
370
    25
100
AcDbLine
 10
276.202810641272
 20
154.3204339919119
 30
0.0
 11
277.9348614488408
 21
154.3204339919119
 31
0.0
  0
LINE
  5
2BF
330
1F
100
AcDbEntity
  8
Layer0000
  6
Continuous
 62
     3
370
    25
100
AcDbLine
 10
277.9348614488408
 20
154.3204339919119
 30
0.0
 11
278.8008868526253
 21
155.8204339919119
 31
0.0
  0
LINE
  5
2C0
330
1F
100
AcDbEntity
  8
Layer0000
  6
Continuous
 62
     3
370
    25
100
AcDbLine
 10
278.8008868526253
 20
155.8204339919119
 30
0.0
 11
277.9348614488408
 21
157.3204339919119
 31
0.0
  0
LINE
  5
2C1
330
1F
100
AcDbEntity
  8
Layer0000
  6
Continuous
 62
     3
370
    25
100
AcDbLine
 10
277.9348614488408
 20
157.3204339919119
 30
0.0
 11
276.202810641272
 21
157.3204339919119
 31
0.0
  0
LINE
  5
2C2
330
1F
100
AcDbEntity
  8
Layer0000
  6
Continuous
 62
     3
370
    25
100
AcDbLine
 10
276.202810641272
 20
157.3204339919119
 30
0.0
 11
275.3367852374875
 21
155.8204339919119
 31
0.0
  0
LINE
  5
2C3
330
1F
100
AcDbEntity
  8
Layer0000
  6
Continuous
 62
     3
370
    25
100
AcDbLine
 10
267.0688360450564
 20
180.9314375560867
 30
0.0
 11
267.0688360450564
 21
176.3204339919119
 31
0.0
  0
LINE
  5
2C4
330
1F
100
AcDbEntity
  8
Layer0000
  6
Continuous
 62
     3
370
    25
100
AcDbLine
 10
267.0688360450564
 20
176.3204339919119
 30
0.0
 11
273.2260307903575
 21
176.3204339919119
 31
0.0
  0
LINE
  5
2C5
330
1F
100
AcDbEntity
  8
Layer0000
  6
Continuous
 62
     3
370
    25
100
AcDbLine
 10
267.0688360450564
 20
130.7094304277371
 30
0.0
 11
267.0688360450564
 21
135.3204339919119
 31
0.0
  0
LINE
  5
2C6
330
1F
100
AcDbEntity
  8
Layer0000
  6
Continuous
 62
     3
370
    25
100
AcDbLine
 10
267.0688360450564
 20
135.3204339919119
 30
0.0
 11
273.2260307903575
 21
135.3204339919119
 31
0.0
  0
ARC
  5
2C7
330
1F
100
AcDbEntity
  8
Layer0000
  6
Continuous
 62
     3
370
    25
100
AcDbCircle
 10
253.0688360450564
 20
155.8204339919119
 30
0.0
 40
28.75
100
AcDbArc
 50
60.85926189758842
 51
299.1407381024115
  0
ARC
  5
2C8
330
1F
100
AcDbEntity
  8
Layer0000
  6
Continuous
 62
     3
370
    25
100
AcDbCircle
 10
253.0688360450564
 20
155.8204339919119
 30
0.0
 40
28.75
100
AcDbArc
 50
314.5169162804664
 51
45.4830837195336
  0
CIRCLE
  5
2C9
330
1F
100
AcDbEntity
  8
Layer0000
  6
Continuous
 62
     3
370
    25
100
AcDbCircle
 10
253.0688360450564
 20
155.8204339919119
 30
0.0
 40
15.0
  0
LINE
  5
2CA
330
1F
100
AcDbEntity
  8
Layer0000
  6
Continuous
 62
     3
370
    25
100
AcDbLine
 10
260.6395502593278
 20
160.6870844093785
 30
0.0
 11
253.498121830785
 21
164.8101900349962
 31
0.0
  0
LINE
  5
2CB
330
1F
100
AcDbEntity
  8
Layer0000
  6
Continuous
 62
     3
370
    25
100
AcDbLine
 10
252.6395502593278
 20
164.8101900349962
 30
0.0
 11
245.498121830785
 21
160.6870844093785
 31
0.0
  0
LINE
  5
2CC
330
1F
100
AcDbEntity
  8
Layer0000
  6
Continuous
 62
     3
370
    25
100
AcDbLine
 10
245.0688360450564
 20
159.9435396175296
 30
0.0
 11
245.0688360450564
 21
151.6973283662942
 31
0.0
  0
LINE
  5
2CD
330
1F
100
AcDbEntity
  8
Layer0000
  6
Continuous
 62
     3
370
    25
100
AcDbLine
 10
245.498121830785
 20
150.9537835744453
 30
0.0
 11
252.6395502593278
 21
146.8306779488275
 31
0.0
  0
LINE
  5
2CE
330
1F
100
AcDbEntity
  8
Layer0000
  6
Continuous
 62
     3
370
    25
100
AcDbLine
 10
253.498121830785
 20
146.8306779488275
 30
0.0
 11
260.6395502593278
 21
150.9537835744453
 31
0.0
  0
LINE
  5
2CF
330
1F
100
AcDbEntity
  8
Layer0000
  6
Continuous
 62
     3
370
    25
100
AcDbLine
 10
261.0688360450564
 20
151.6973283662942
 30
0.0
 11
261.0688360450564
 21
159.9435396175296
 31
0.0
  0
LINE
  5
2D0
330
1F
100
AcDbEntity
  8
Layer0000
  6
Continuous
 62
     3
370
    25
100
AcDbLine
 10
272.0688360450564
 20
134.3204339919119
 30
0.0
 11
268.0688360450564
 21
134.3204339919119
 31
0.0
  0
LINE
  5
2D1
330
1F
100
AcDbEntity
  8
Layer0000
  6
Continuous
 62
     3
370
    25
100
AcDbLine
 10
222.0688360450564
 20
218.3204339919119
 30
0.0
 11
268.0688360450564
 21
218.3204339919119
 31
0.0
  0
LINE
  5
2D2
330
1F
100
AcDbEntity
  8
Layer0000
  6
Continuous
 62
     3
370
    25
100
AcDbLine
 10
222.0688360450564
 20
93.3204339919119
 30
0.0
 11
268.0688360450564
 21
93.3204339919119
 31
0.0
  0
LINE
  5
2D3
330
1F
100
AcDbEntity
  8
Layer0000
  6
Continuous
 62
     3
370
    25
100
AcDbLine
 10
268.0688360450564
 20
93.3204339919119
 30
0.0
 11
268.0688360450564
 21
93.5704339919119
 31
0.0
  0
LINE
  5
2D4
330
1F
100
AcDbEntity
  8
Layer0000
  6
Continuous
 62
     3
370
    25
100
AcDbLine
 10
268.0688360450564
 20
218.3204339919119
 30
0.0
 11
268.0688360450564
 21
218.0704339919119
 31
0.0
  0
LINE
  5
2D5
330
1F
100
AcDbEntity
  8
Layer0000
  6
Continuous
 62
     3
370
    25
100
AcDbLine
 10
291.0688360450564
 20
197.8204339919119
 30
0.0
 11
291.0688360450564
 21
200.8204339919119
 31
0.0
  0
LINE
  5
2D6
330
1F
100
AcDbEntity
  8
Layer0000
  6
Continuous
 62
     3
370
    25
100
AcDbLine
 10
307.0688360450564
 20
200.820433991912
 30
0.0
 11
307.0688360450564
 21
197.8204339919119
 31
0.0
  0
LINE
  5
2D7
330
1F
100
AcDbEntity
  8
Layer0000
  6
Continuous
 62
     3
370
    25
100
AcDbLine
 10
121.4141426783476
 20
-94.92899836972221
 30
0.0
 11
137.1141426783453
 21
-94.92899836972221
 31
0.0
  0
LINE
  5
2D8
330
1F
100
AcDbEntity
  8
Layer0000
  6
Continuous
 62
     3
370
    25
100
AcDbLine
 10
138.6141426783453
 20
-121.1789983697222
 30
0.0
 11
138.6141426783453
 21
-98.67899836972221
 31
0.0
  0
LINE
  5
2D9
330
1F
100
AcDbEntity
  8
Layer0000
  6
Continuous
 62
     3
370
    25
100
AcDbLine
 10
142.6141426783453
 20
-101.1289983697222
 30
0.0
 11
143.1141426783453
 21
-101.1289983697222
 31
0.0
  0
LINE
  5
2DA
330
1F
100
AcDbEntity
  8
Layer0000
  6
Continuous
 62
     3
370
    25
100
AcDbLine
 10
138.6141426783453
 20
-100.9289983697222
 30
0.0
 11
142.6141426783453
 21
-100.9289983697222
 31
0.0
  0
LINE
  5
2DB
330
1F
100
AcDbEntity
  8
Layer0000
  6
Continuous
 62
     3
370
    25
100
AcDbLine
 10
145.6141426783453
 20
-101.1289983697222
 30
0.0
 11
146.1141426783453
 21
-101.1289983697222
 31
0.0
  0
LINE
  5
2DC
330
1F
100
AcDbEntity
  8
Layer0000
  6
Continuous
 62
     3
370
    25
100
AcDbLine
 10
148.6141426783453
 20
-101.1289983697222
 30
0.0
 11
149.1141426783453
 21
-101.1289983697222
 31
0.0
  0
LINE
  5
2DD
330
1F
100
AcDbEntity
  8
Layer0000
  6
Continuous
 62
     3
370
    25
100
AcDbLine
 10
149.1141426783453
 20
-101.1289983697222
 30
0.0
 11
149.1141426783453
 21
-100.9289983697222
 31
0.0
  0
LINE
  5
2DE
330
1F
100
AcDbEntity
  8
Layer0000
  6
Continuous
 62
     3
370
    25
100
AcDbLine
 10
143.1141426783453
 20
-100.9289983697222
 30
0.0
 11
145.6141426783453
 21
-100.9289983697222
 31
0.0
  0
LINE
  5
2DF
330
1F
100
AcDbEntity
  8
Layer0000
  6
Continuous
 62
     3
370
    25
100
AcDbLine
 10
146.1141426783453
 20
-100.9289983697222
 30
0.0
 11
148.6141426783453
 21
-100.9289983697222
 31
0.0
  0
LINE
  5
2E0
330
1F
100
AcDbEntity
  8
Layer0000
  6
Continuous
 62
     3
370
    25
100
AcDbLine
 10
149.1141426783453
 20
-100.9289983697222
 30
0.0
 11
175.1141426783478
 21
-100.9289983697222
 31
0.0
  0
LINE
  5
2E1
330
1F
100
AcDbEntity
  8
Layer0000
  6
Continuous
 62
     3
370
    25
100
AcDbLine
 10
138.6141426783453
 20
-118.9289983697222
 30
0.0
 11
142.6141426783453
 21
-118.9289983697222
 31
0.0
  0
LINE
  5
2E2
330
1F
100
AcDbEntity
  8
Layer0000
  6
Continuous
 62
     3
370
    25
100
AcDbLine
 10
142.6141426783453
 20
-118.9289983697222
 30
0.0
 11
142.6141426783453
 21
-100.9289983697222
 31
0.0
  0
LINE
  5
2E3
330
1F
100
AcDbEntity
  8
Layer0000
  6
Continuous
 62
     3
370
    25
100
AcDbLine
 10
142.6141426783453
 20
-118.7289983697222
 30
0.0
 11
143.1141426783453
 21
-118.7289983697222
 31
0.0
  0
LINE
  5
2E4
330
1F
100
AcDbEntity
  8
Layer0000
  6
Continuous
 62
     3
370
    25
100
AcDbLine
 10
143.1141426783453
 20
-100.9289983697222
 30
0.0
 11
143.1141426783453
 21
-118.9289983697222
 31
0.0
  0
LINE
  5
2E5
330
1F
100
AcDbEntity
  8
Layer0000
  6
Continuous
 62
     3
370
    25
100
AcDbLine
 10
145.6141426783453
 20
-118.9289983697222
 30
0.0
 11
145.6141426783453
 21
-100.9289983697222
 31
0.0
  0
LINE
  5
2E6
330
1F
100
AcDbEntity
  8
Layer0000
  6
Continuous
 62
     3
370
    25
100
AcDbLine
 10
145.6141426783453
 20
-118.7289983697222
 30
0.0
 11
146.1141426783453
 21
-118.7289983697222
 31
0.0
  0
LINE
  5
2E7
330
1F
100
AcDbEntity
  8
Layer0000
  6
Continuous
 62
     3
370
    25
100
AcDbLine
 10
146.1141426783453
 20
-100.9289983697222
 30
0.0
 11
146.1141426783453
 21
-118.9289983697222
 31
0.0
  0
LINE
  5
2E8
330
1F
100
AcDbEntity
  8
Layer0000
  6
Continuous
 62
     3
370
    25
100
AcDbLine
 10
148.6141426783453
 20
-118.9289983697222
 30
0.0
 11
148.6141426783453
 21
-100.9289983697222
 31
0.0
  0
LINE
  5
2E9
330
1F
100
AcDbEntity
  8
Layer0000
  6
Continuous
 62
     3
370
    25
100
AcDbLine
 10
148.6141426783453
 20
-118.7289983697222
 30
0.0
 11
149.1141426783453
 21
-118.7289983697222
 31
0.0
  0
LINE
  5
2EA
330
1F
100
AcDbEntity
  8
Layer0000
  6
Continuous
 62
     3
370
    25
100
AcDbLine
 10
149.1141426783453
 20
-100.9289983697222
 30
0.0
 11
149.1141426783453
 21
-118.9289983697222
 31
0.0
  0
LINE
  5
2EB
330
1F
100
AcDbEntity
  8
Layer0000
  6
Continuous
 62
     3
370
    25
100
AcDbLine
 10
143.1141426783453
 20
-118.9289983697222
 30
0.0
 11
145.6141426783453
 21
-118.9289983697222
 31
0.0
  0
LINE
  5
2EC
330
1F
100
AcDbEntity
  8
Layer0000
  6
Continuous
 62
     3
370
    25
100
AcDbLine
 10
146.1141426783453
 20
-118.9289983697222
 30
0.0
 11
148.6141426783453
 21
-118.9289983697222
 31
0.0
  0
LINE
  5
2ED
330
1F
100
AcDbEntity
  8
Layer0000
  6
Continuous
 62
     3
370
    25
100
AcDbLine
 10
149.1141426783453
 20
-118.9289983697222
 30
0.0
 11
175.1141426783478
 21
-118.9289983697222
 31
0.0
  0
LINE
  5
2EE
330
1F
100
AcDbEntity
  8
Layer0000
  6
Continuous
 62
     3
370
    25
100
AcDbLine
 10
176.1141426783478
 20
-101.9289983697222
 30
0.0
 11
176.1141426783478
 21
-117.9289983697222
 31
0.0
  0
LINE
  5
2EF
330
1F
100
AcDbEntity
  8
Layer0000
  6
Continuous
 62
     3
370
    25
100
AcDbLine
 10
159.1141426783478
 20
-118.9289983697222
 30
0.0
 11
159.1141426783478
 21
-100.9289983697222
 31
0.0
  0
LINE
  5
2F0
330
1F
100
AcDbEntity
  8
Layer0000
  6
Continuous
 62
     3
370
    25
100
AcDbLine
 10
137.1141426783453
 20
-102.4289983697222
 30
0.0
 11
123.6141426783453
 21
-102.4289983697222
 31
0.0
  0
LINE
  5
2F1
330
1F
100
AcDbEntity
  8
Layer0000
  6
Continuous
 62
     3
370
    25
100
AcDbLine
 10
137.1141426783453
 20
-117.4289983697222
 30
0.0
 11
123.6141426783453
 21
-117.4289983697222
 31
0.0
  0
ARC
  5
2F2
330
1F
100
AcDbEntity
  8
Layer0000
  6
Continuous
 62
     3
370
    25
100
AcDbCircle
 10
133.1766426783453
 20
-98.67899836972221
 30
0.0
 40
5.4375
100
AcDbArc
 50
316.3971810272964
 51
43.60281897270362
  0
ARC
  5
2F3
330
1F
100
AcDbEntity
  8
Layer0000
  6
Continuous
 62
     3
370
    25
100
AcDbCircle
 10
119.1141426783453
 20
-109.9289983697222
 30
0.0
 40
19.5
100
AcDbArc
 50
337.3801350519595
 51
22.61986494804044
  0
ARC
  5
2F4
330
1F
100
AcDbEntity
  8
Layer0000
  6
Continuous
 62
     3
370
    25
100
AcDbCircle
 10
133.1766426783453
 20
-121.1789983697222
 30
0.0
 40
5.4375
100
AcDbArc
 50
316.3971810272964
 51
43.60281897270362
  0
LINE
  5
2F5
330
1F
100
AcDbEntity
  8
Layer0000
  6
Continuous
 62
     3
370
    25
100
AcDbLine
 10
175.1141426783478
 20
-105.4289983697222
 30
0.0
 11
159.1141426783478
 21
-105.4289983697222
 31
0.0
  0
LINE
  5
2F6
330
1F
100
AcDbEntity
  8
Layer0000
  6
Continuous
 62
     3
370
    25
100
AcDbLine
 10
175.1141426783478
 20
-114.4289983697222
 30
0.0
 11
159.1141426783478
 21
-114.4289983697222
 31
0.0
  0
ARC
  5
2F7
330
1F
100
AcDbEntity
  8
Layer0000
  6
Continuous
 62
     3
370
    25
100
AcDbCircle
 10
173.0828926783478
 20
-103.1789983697222
 30
0.0
 40
3.03125
100
AcDbArc
 50
312.0750220508436
 51
47.92497794915638
  0
ARC
  5
2F8
330
1F
100
AcDbEntity
  8
Layer0000
  6
Continuous
 62
     3
370
    25
100
AcDbCircle
 10
165.4891426783478
 20
-109.9289983697222
 30
0.0
 40
10.625
100
AcDbArc
 50
334.942384581697
 51
25.05761541830302
  0
ARC
  5
2F9
330
1F
100
AcDbEntity
  8
Layer0000
  6
Continuous
 62
     3
370
    25
100
AcDbCircle
 10
173.0828926783478
 20
-116.6789983697222
 30
0.0
 40
3.03125
100
AcDbArc
 50
312.0750220508436
 51
47.92497794915638
  0
LINE
  5
2FA
330
1F
100
AcDbEntity
  8
Layer0000
  6
Continuous
 62
     3
370
    25
100
AcDbLine
 10
121.4141426783476
 20
-124.9289983697222
 30
0.0
 11
137.1141426783453
 21
-124.9289983697222
 31
0.0
  0
LINE
  5
2FB
330
1F
100
AcDbEntity
  8
Layer0000
  6
Continuous
 62
     3
370
    25
100
AcDbLine
 10
37.4141426783475
 20
93.3204339919119
 30
0.0
 11
-17.58585732165255
 21
93.3204339919119
 31
0.0
  0
LINE
  5
2FC
330
1F
100
AcDbEntity
  8
Layer0000
  6
Continuous
 62
     3
370
    25
100
AcDbLine
 10
37.4141426783475
 20
218.3204339919119
 30
0.0
 11
-17.58585732165255
 21
218.3204339919119
 31
0.0
  0
LINE
  5
2FD
330
1F
100
AcDbEntity
  8
Layer0000
  6
Continuous
 62
     3
370
    25
100
AcDbLine
 10
123.6141426783453
 20
-94.92899836972221
 30
0.0
 11
123.6141426783453
 21
-124.9289983697222
 31
0.0
  0
LINE
  5
2FE
330
1F
100
AcDbEntity
  8
Layer0000
  6
Continuous
 62
     3
370
    25
100
AcDbLine
 10
121.4141426783476
 20
170.8204339919119
 30
0.0
 11
137.1141426783453
 21
170.8204339919119
 31
0.0
  0
LINE
  5
2FF
330
1F
100
AcDbEntity
  8
Layer0000
  6
Continuous
 62
     3
370
    25
100
AcDbLine
 10
138.6141426783453
 20
144.5704339919119
 30
0.0
 11
138.6141426783453
 21
167.0704339919119
 31
0.0
  0
LINE
  5
300
330
1F
100
AcDbEntity
  8
Layer0000
  6
Continuous
 62
     3
370
    25
100
AcDbLine
 10
138.6141426783453
 20
164.8204339919119
 30
0.0
 11
142.6141426783453
 21
164.8204339919119
 31
0.0
  0
LINE
  5
301
330
1F
100
AcDbEntity
  8
Layer0000
  6
Continuous
 62
     3
370
    25
100
AcDbLine
 10
138.6141426783453
 20
146.8204339919119
 30
0.0
 11
142.6141426783453
 21
146.8204339919119
 31
0.0
  0
LINE
  5
302
330
1F
100
AcDbEntity
  8
Layer0000
  6
Continuous
 62
     3
370
    25
100
AcDbLine
 10
142.6141426783453
 20
146.8204339919119
 30
0.0
 11
142.6141426783453
 21
164.8204339919119
 31
0.0
  0
LINE
  5
303
330
1F
100
AcDbEntity
  8
Layer0000
  6
Continuous
 62
     3
370
    25
100
AcDbLine
 10
137.1141426783453
 20
163.3204339919119
 30
0.0
 11
123.6141426783453
 21
163.3204339919119
 31
0.0
  0
LINE
  5
304
330
1F
100
AcDbEntity
  8
Layer0000
  6
Continuous
 62
     3
370
    25
100
AcDbLine
 10
137.1141426783453
 20
148.3204339919119
 30
0.0
 11
123.6141426783453
 21
148.3204339919119
 31
0.0
  0
ARC
  5
305
330
1F
100
AcDbEntity
  8
Layer0000
  6
Continuous
 62
     3
370
    25
100
AcDbCircle
 10
133.1766426783453
 20
167.0704339919119
 30
0.0
 40
5.4375
100
AcDbArc
 50
316.3971810272964
 51
43.60281897270362
  0
ARC
  5
306
330
1F
100
AcDbEntity
  8
Layer0000
  6
Continuous
 62
     3
370
    25
100
AcDbCircle
 10
119.1141426783453
 20
155.8204339919119
 30
0.0
 40
19.5
100
AcDbArc
 50
337.3801350519595
 51
22.61986494804044
  0
ARC
  5
307
330
1F
100
AcDbEntity
  8
Layer0000
  6
Continuous
 62
     3
370
    25
100
AcDbCircle
 10
133.1766426783453
 20
144.5704339919119
 30
0.0
 40
5.4375
100
AcDbArc
 50
316.3971810272964
 51
43.60281897270362
  0
LINE
  5
308
330
1F
100
AcDbEntity
  8
Layer0000
  6
Continuous
 62
     3
370
    25
100
AcDbLine
 10
121.4141426783476
 20
140.8204339919119
 30
0.0
 11
137.1141426783453
 21
140.8204339919119
 31
0.0
  0
LINE
  5
309
330
1F
100
AcDbEntity
  8
Layer0000
  6
Continuous
 62
     3
370
    25
100
AcDbLine
 10
123.6141426783453
 20
170.8204339919119
 30
0.0
 11
123.6141426783453
 21
140.8204339919119
 31
0.0
  0
LINE
  5
30A
330
1F
100
AcDbEntity
  8
Layer0000
  6
Continuous
 62
     3
370
    25
100
AcDbLine
 10
142.6141426783453
 20
164.6204339919119
 30
0.0
 11
143.1141426783453
 21
164.6204339919119
 31
0.0
  0
LINE
  5
30B
330
1F
100
AcDbEntity
  8
Layer0000
  6
Continuous
 62
     3
370
    25
100
AcDbLine
 10
145.6141426783453
 20
164.6204339919119
 30
0.0
 11
146.1141426783453
 21
164.6204339919119
 31
0.0
  0
LINE
  5
30C
330
1F
100
AcDbEntity
  8
Layer0000
  6
Continuous
 62
     3
370
    25
100
AcDbLine
 10
148.6141426783453
 20
164.6204339919119
 30
0.0
 11
149.1141426783453
 21
164.6204339919119
 31
0.0
  0
LINE
  5
30D
330
1F
100
AcDbEntity
  8
Layer0000
  6
Continuous
 62
     3
370
    25
100
AcDbLine
 10
149.1141426783453
 20
164.6204339919119
 30
0.0
 11
149.1141426783453
 21
164.8204339919119
 31
0.0
  0
LINE
  5
30E
330
1F
100
AcDbEntity
  8
Layer0000
  6
Continuous
 62
     3
370
    25
100
AcDbLine
 10
143.1141426783453
 20
164.8204339919119
 30
0.0
 11
145.6141426783453
 21
164.8204339919119
 31
0.0
  0
LINE
  5
30F
330
1F
100
AcDbEntity
  8
Layer0000
  6
Continuous
 62
     3
370
    25
100
AcDbLine
 10
146.1141426783453
 20
164.8204339919119
 30
0.0
 11
148.6141426783453
 21
164.8204339919119
 31
0.0
  0
LINE
  5
310
330
1F
100
AcDbEntity
  8
Layer0000
  6
Continuous
 62
     3
370
    25
100
AcDbLine
 10
149.1141426783453
 20
164.8204339919119
 30
0.0
 11
175.1141426783478
 21
164.8204339919119
 31
0.0
  0
LINE
  5
311
330
1F
100
AcDbEntity
  8
Layer0000
  6
Continuous
 62
     3
370
    25
100
AcDbLine
 10
142.6141426783453
 20
147.0204339919119
 30
0.0
 11
143.1141426783453
 21
147.0204339919119
 31
0.0
  0
LINE
  5
312
330
1F
100
AcDbEntity
  8
Layer0000
  6
Continuous
 62
     3
370
    25
100
AcDbLine
 10
143.1141426783453
 20
164.8204339919119
 30
0.0
 11
143.1141426783453
 21
146.8204339919119
 31
0.0
  0
LINE
  5
313
330
1F
100
AcDbEntity
  8
Layer0000
  6
Continuous
 62
     3
370
    25
100
AcDbLine
 10
145.6141426783453
 20
146.8204339919119
 30
0.0
 11
145.6141426783453
 21
164.8204339919119
 31
0.0
  0
LINE
  5
314
330
1F
100
AcDbEntity
  8
Layer0000
  6
Continuous
 62
     3
370
    25
100
AcDbLine
 10
145.6141426783453
 20
147.0204339919119
 30
0.0
 11
146.1141426783453
 21
147.0204339919119
 31
0.0
  0
LINE
  5
315
330
1F
100
AcDbEntity
  8
Layer0000
  6
Continuous
 62
     3
370
    25
100
AcDbLine
 10
146.1141426783453
 20
164.8204339919119
 30
0.0
 11
146.1141426783453
 21
146.8204339919119
 31
0.0
  0
LINE
  5
316
330
1F
100
AcDbEntity
  8
Layer0000
  6
Continuous
 62
     3
370
    25
100
AcDbLine
 10
148.6141426783453
 20
146.8204339919119
 30
0.0
 11
148.6141426783453
 21
164.8204339919119
 31
0.0
  0
LINE
  5
317
330
1F
100
AcDbEntity
  8
Layer0000
  6
Continuous
 62
     3
370
    25
100
AcDbLine
 10
148.6141426783453
 20
147.0204339919119
 30
0.0
 11
149.1141426783453
 21
147.0204339919119
 31
0.0
  0
LINE
  5
318
330
1F
100
AcDbEntity
  8
Layer0000
  6
Continuous
 62
     3
370
    25
100
AcDbLine
 10
149.1141426783453
 20
164.8204339919119
 30
0.0
 11
149.1141426783453
 21
146.8204339919119
 31
0.0
  0
LINE
  5
319
330
1F
100
AcDbEntity
  8
Layer0000
  6
Continuous
 62
     3
370
    25
100
AcDbLine
 10
143.1141426783453
 20
146.8204339919119
 30
0.0
 11
145.6141426783453
 21
146.8204339919119
 31
0.0
  0
LINE
  5
31A
330
1F
100
AcDbEntity
  8
Layer0000
  6
Continuous
 62
     3
370
    25
100
AcDbLine
 10
146.1141426783453
 20
146.8204339919119
 30
0.0
 11
148.6141426783453
 21
146.8204339919119
 31
0.0
  0
LINE
  5
31B
330
1F
100
AcDbEntity
  8
Layer0000
  6
Continuous
 62
     3
370
    25
100
AcDbLine
 10
149.1141426783453
 20
146.8204339919119
 30
0.0
 11
175.1141426783478
 21
146.8204339919119
 31
0.0
  0
LINE
  5
31C
330
1F
100
AcDbEntity
  8
Layer0000
  6
Continuous
 62
     3
370
    25
100
AcDbLine
 10
159.1141426783478
 20
146.8204339919119
 30
0.0
 11
159.1141426783478
 21
164.8204339919119
 31
0.0
  0
LINE
  5
31D
330
1F
100
AcDbEntity
  8
Layer0000
  6
Continuous
 62
     3
370
    25
100
AcDbLine
 10
175.1141426783478
 20
160.3204339919119
 30
0.0
 11
159.1141426783478
 21
160.3204339919119
 31
0.0
  0
LINE
  5
31E
330
1F
100
AcDbEntity
  8
Layer0000
  6
Continuous
 62
     3
370
    25
100
AcDbLine
 10
175.1141426783478
 20
151.3204339919119
 30
0.0
 11
159.1141426783478
 21
151.3204339919119
 31
0.0
  0
ARC
  5
31F
330
1F
100
AcDbEntity
  8
Layer0000
  6
Continuous
 62
     3
370
    25
100
AcDbCircle
 10
173.0828926783478
 20
162.5704339919119
 30
0.0
 40
3.03125
100
AcDbArc
 50
312.0750220508436
 51
47.92497794915638
  0
ARC
  5
320
330
1F
100
AcDbEntity
  8
Layer0000
  6
Continuous
 62
     3
370
    25
100
AcDbCircle
 10
165.4891426783478
 20
155.8204339919119
 30
0.0
 40
10.625
100
AcDbArc
 50
334.942384581697
 51
25.05761541830302
  0
ARC
  5
321
330
1F
100
AcDbEntity
  8
Layer0000
  6
Continuous
 62
     3
370
    25
100
AcDbCircle
 10
173.0828926783478
 20
149.0704339919119
 30
0.0
 40
3.03125
100
AcDbArc
 50
312.0750220508436
 51
47.92497794915638
  0
LINE
  5
322
330
1F
100
AcDbEntity
  8
Layer0000
  6
Continuous
 62
     3
370
    25
100
AcDbLine
 10
176.1141426783478
 20
162.5704339919119
 30
0.0
 11
176.1141426783478
 21
149.0704339919119
 31
0.0
  0
LINE
  5
323
330
1F
100
AcDbEntity
  8
Layer0000
  6
Continuous
 62
     3
370
    25
100
AcDbLine
 10
227.0688360450564
 20
118.8204339919119
 30
0.0
 11
222.5688360450564
 21
118.8204339919119
 31
0.0
  0
LINE
  5
324
330
1F
100
AcDbEntity
  8
Layer0000
  6
Continuous
 62
     3
370
    25
100
AcDbLine
 10
227.0688360450564
 20
130.8204339919119
 30
0.0
 11
222.5688360450564
 21
130.8204339919119
 31
0.0
  0
LINE
  5
325
330
1F
100
AcDbEntity
  8
Layer0000
  6
Continuous
 62
     3
370
    25
100
AcDbLine
 10
227.0688360450564
 20
130.8204339919119
 30
0.0
 11
227.0688360450564
 21
118.8204339919119
 31
0.0
  0
LINE
  5
326
330
1F
100
AcDbEntity
  8
Layer0000
  6
Continuous
 62
     3
370
    25
100
AcDbLine
 10
222.5688360450564
 20
118.8204339919119
 30
0.0
 11
222.5688360450564
 21
93.5704339919119
 31
0.0
  0
LINE
  5
327
330
1F
100
AcDbEntity
  8
Layer0000
  6
Continuous
 62
     3
370
    25
100
AcDbLine
 10
227.0688360450564
 20
192.8204339919119
 30
0.0
 11
222.5688360450564
 21
192.8204339919119
 31
0.0
  0
LINE
  5
328
330
1F
100
AcDbEntity
  8
Layer0000
  6
Continuous
 62
     3
370
    25
100
AcDbLine
 10
227.0688360450564
 20
180.8204339919119
 30
0.0
 11
222.5688360450564
 21
180.8204339919119
 31
0.0
  0
LINE
  5
329
330
1F
100
AcDbEntity
  8
Layer0000
  6
Continuous
 62
     3
370
    25
100
AcDbLine
 10
227.0688360450564
 20
180.8204339919119
 30
0.0
 11
227.0688360450564
 21
192.8204339919119
 31
0.0
  0
LINE
  5
32A
330
1F
100
AcDbEntity
  8
Layer0000
  6
Continuous
 62
     3
370
    25
100
AcDbLine
 10
222.5688360450564
 20
218.0704339919119
 30
0.0
 11
222.5688360450564
 21
192.8204339919119
 31
0.0
  0
LINE
  5
32B
330
1F
100
AcDbEntity
  8
Layer0000
  6
Continuous
 62
     3
370
    25
100
AcDbLine
 10
222.5688360450564
 20
180.8204339919119
 30
0.0
 11
222.5688360450564
 21
130.8204339919119
 31
0.0
  0
LINE
  5
32C
330
1F
100
AcDbEntity
  8
Layer0000
  6
Continuous
 62
     3
370
    25
100
AcDbLine
 10
104.4141426783475
 20
192.8204339919119
 30
0.0
 11
121.4141426783476
 21
192.8204339919119
 31
0.0
  0
LINE
  5
32D
330
1F
100
AcDbEntity
  8
Layer0000
  6
Continuous
 62
     3
370
    25
100
AcDbLine
 10
92.41414267834756
 20
192.8204339919119
 30
0.0
 11
37.4141426783475
 21
192.8204339919119
 31
0.0
  0
LINE
  5
32E
330
1F
100
AcDbEntity
  8
Layer0000
  6
Continuous
 62
     3
370
    25
100
AcDbLine
 10
121.4141426783476
 20
180.8204339919119
 30
0.0
 11
37.4141426783475
 21
180.8204339919119
 31
0.0
  0
LINE
  5
32F
330
1F
100
AcDbEntity
  8
Layer0000
  6
Continuous
 62
     3
370
    25
100
AcDbLine
 10
92.41414267834756
 20
192.8204339919119
 30
0.0
 11
92.41414267834756
 21
218.3204339919119
 31
0.0
  0
LINE
  5
330
330
1F
100
AcDbEntity
  8
Layer0000
  6
Continuous
 62
     3
370
    25
100
AcDbLine
 10
104.4141426783475
 20
192.8204339919119
 30
0.0
 11
104.4141426783475
 21
218.3204339919119
 31
0.0
  0
LINE
  5
331
330
1F
100
AcDbEntity
  8
Layer0000
  6
Continuous
 62
     3
370
    25
100
AcDbLine
 10
104.4141426783475
 20
118.8204339919119
 30
0.0
 11
121.4141426783476
 21
118.8204339919119
 31
0.0
  0
LINE
  5
332
330
1F
100
AcDbEntity
  8
Layer0000
  6
Continuous
 62
     3
370
    25
100
AcDbLine
 10
92.41414267834756
 20
118.8204339919119
 30
0.0
 11
37.4141426783475
 21
118.8204339919119
 31
0.0
  0
LINE
  5
333
330
1F
100
AcDbEntity
  8
Layer0000
  6
Continuous
 62
     3
370
    25
100
AcDbLine
 10
121.4141426783476
 20
130.8204339919119
 30
0.0
 11
37.4141426783475
 21
130.8204339919119
 31
0.0
  0
LINE
  5
334
330
1F
100
AcDbEntity
  8
Layer0000
  6
Continuous
 62
     3
370
    25
100
AcDbLine
 10
92.41414267834756
 20
118.8204339919119
 30
0.0
 11
92.41414267834756
 21
93.3204339919119
 31
0.0
  0
LINE
  5
335
330
1F
100
AcDbEntity
  8
Layer0000
  6
Continuous
 62
     3
370
    25
100
AcDbLine
 10
104.4141426783475
 20
118.8204339919119
 30
0.0
 11
104.4141426783475
 21
93.3204339919119
 31
0.0
  0
CIRCLE
  5
336
330
1F
100
AcDbEntity
  8
Layer0000
  6
Continuous
 62
     3
370
    25
100
AcDbCircle
 10
82.41414267834756
 20
200.8204339919119
 30
0.0
 40
3.459999999999994
  0
CIRCLE
  5
337
330
1F
100
AcDbEntity
  8
Layer0000
  6
Continuous
 62
     3
370
    25
100
AcDbCircle
 10
82.41414267834756
 20
200.8204339919119
 30
0.0
 40
4.0
  0
CIRCLE
  5
338
330
1F
100
AcDbEntity
  8
Layer0000
  6
Continuous
 62
     3
370
    25
100
AcDbCircle
 10
82.41414267834757
 20
110.8204339919119
 30
0.0
 40
3.459999999999994
  0
CIRCLE
  5
339
330
1F
100
AcDbEntity
  8
Layer0000
  6
Continuous
 62
     3
370
    25
100
AcDbCircle
 10
82.41414267834757
 20
110.8204339919119
 30
0.0
 40
4.0
  0
LINE
  5
33A
330
1F
100
AcDbEntity
  8
Layer0000
  6
Continuous
 62
     3
370
    25
100
AcDbLine
 10
-371.5858573216526
 20
-204.9289983697221
 30
0.0
 11
-216.5858573216526
 21
-204.9289983697221
 31
0.0
  0
LINE
  5
33B
330
1F
100
AcDbEntity
  8
Layer0000
  6
Continuous
 62
     3
370
    25
100
AcDbLine
 10
-198.5858573216526
 20
-204.9289983697221
 30
0.0
 11
66.41414267834742
 21
-204.9289983697221
 31
0.0
  0
LINE
  5
33C
330
1F
100
AcDbEntity
  8
Layer0000
  6
Continuous
 62
     3
370
    25
100
AcDbLine
 10
-37.5858573216525
 20
-136.9289983697222
 30
0.0
 11
-37.5858573216525
 21
-144.9289983697222
 31
0.0
  0
LINE
  5
33D
330
1F
100
AcDbEntity
  8
Layer0000
  6
Continuous
 62
     3
370
    25
100
AcDbLine
 10
-37.5858573216525
 20
-144.9289983697222
 30
0.0
 11
30.4141426783475
 21
-144.9289983697222
 31
0.0
  0
LINE
  5
33E
330
1F
100
AcDbEntity
  8
Layer0000
  6
Continuous
 62
     3
370
    25
100
AcDbLine
 10
30.4141426783475
 20
-144.9289983697222
 30
0.0
 11
30.4141426783475
 21
-136.9289983697222
 31
0.0
  0
LINE
  5
33F
330
1F
100
AcDbEntity
  8
Layer0000
  6
Continuous
 62
     3
370
    25
100
AcDbLine
 10
-372.5858573216526
 20
-139.4289983697222
 30
0.0
 11
-37.5858573216525
 21
-139.4289983697222
 31
0.0
  0
LINE
  5
340
330
1F
100
AcDbEntity
  8
Layer0000
  6
Continuous
 62
     3
370
    25
100
AcDbLine
 10
30.4141426783475
 20
-139.4289983697222
 30
0.0
 11
67.41414267834742
 21
-139.4289983697222
 31
0.0
  0
LINE
  5
341
330
1F
100
AcDbEntity
  8
Layer0000
  6
Continuous
 62
     3
370
    25
100
AcDbLine
 10
-37.5858573216525
 20
-79.4289983697222
 30
0.0
 11
2.428285521201782
 21
-79.4289983697222
 31
0.0
  0
LINE
  5
342
330
1F
100
AcDbEntity
  8
Layer0000
  6
Continuous
 62
     3
370
    25
100
AcDbLine
 10
14.4141426783475
 20
-79.4289983697222
 30
0.0
 11
92.42828552120179
 21
-79.4289983697222
 31
0.0
  0
LINE
  5
343
330
1F
100
AcDbEntity
  8
Layer0000
  6
Continuous
 62
     3
370
    25
100
AcDbLine
 10
104.4141426783475
 20
-79.4289983697222
 30
0.0
 11
121.4141426783476
 21
-79.4289983697222
 31
0.0
  0
LINE
  5
344
330
1F
100
AcDbEntity
  8
Layer0000
  6
Continuous
 62
     3
370
    25
100
AcDbLine
 10
176.1141426783478
 20
-101.9289983697222
 30
0.0
 11
175.1141426783478
 21
-100.9289983697222
 31
0.0
  0
LINE
  5
345
330
1F
100
AcDbEntity
  8
Layer0000
  6
Continuous
 62
     3
370
    25
100
AcDbLine
 10
176.1141426783478
 20
-117.9289983697222
 30
0.0
 11
175.1141426783478
 21
-118.9289983697222
 31
0.0
  0
LINE
  5
346
330
1F
100
AcDbEntity
  8
Layer0000
  6
Continuous
 62
     3
370
    25
100
AcDbLine
 10
206.7909936010486
 20
4.663511976208817
 30
0.0
 11
206.7909936010486
 21
-18.33648802379124
 31
0.0
  0
LINE
  5
347
330
1F
100
AcDbEntity
  8
Layer0000
  6
Continuous
 62
     3
370
    25
100
AcDbLine
 10
207.7909936010486
 20
-19.33648802379124
 30
0.0
 11
258.2909936010486
 21
-19.33648802379124
 31
0.0
  0
LINE
  5
348
330
1F
100
AcDbEntity
  8
Layer0000
  6
Continuous
 62
     3
370
    25
100
AcDbLine
 10
207.7909936010486
 20
5.663511976208817
 30
0.0
 11
258.2909936010486
 21
5.663511976208817
 31
0.0
  0
LINE
  5
349
330
1F
100
AcDbEntity
  8
Layer0000
  6
Continuous
 62
     3
370
    25
100
AcDbLine
 10
371.7909936010486
 20
-0.3364880237911265
 30
0.0
 11
371.7909936010486
 21
-13.33648802379118
 31
0.0
  0
LINE
  5
34A
330
1F
100
AcDbEntity
  8
Layer0000
  6
Continuous
 62
     3
370
    25
100
AcDbLine
 10
370.7909936010486
 20
-15.83648802379124
 30
0.0
 11
261.7909936010486
 21
-15.83648802379124
 31
0.0
  0
LINE
  5
34B
330
1F
100
AcDbEntity
  8
Layer0000
  6
Continuous
 62
     3
370
    25
100
AcDbLine
 10
370.7909936010487
 20
2.163511976208817
 30
0.0
 11
261.7909936010486
 21
2.163511976208817
 31
0.0
  0
LINE
  5
34C
330
1F
100
AcDbEntity
  8
Layer0000
  6
Continuous
 62
     3
370
    25
100
AcDbLine
 10
354.7909936010486
 20
-15.83648802379124
 30
0.0
 11
354.7909936010486
 21
2.163511976208817
 31
0.0
  0
LINE
  5
34D
330
1F
100
AcDbEntity
  8
Layer0000
  6
Continuous
 62
     3
370
    25
100
AcDbLine
 10
354.7909936010486
 20
-2.836488023791183
 30
0.0
 11
370.7909936010486
 21
-2.836488023791183
 31
0.0
  0
LINE
  5
34E
330
1F
100
AcDbEntity
  8
Layer0000
  6
Continuous
 62
     3
370
    25
100
AcDbLine
 10
354.7909936010486
 20
-10.83648802379115
 30
0.0
 11
370.7909936010486
 21
-10.83648802379115
 31
0.0
  0
LINE
  5
34F
330
1F
100
AcDbEntity
  8
Layer0000
  6
Continuous
 62
     3
370
    25
100
AcDbLine
 10
261.7909936010486
 20
-15.83648802379124
 30
0.0
 11
261.7909936010486
 21
2.163511976208817
 31
0.0
  0
LINE
  5
350
330
1F
100
AcDbEntity
  8
Layer0000
  6
Continuous
 62
     3
370
    25
100
AcDbLine
 10
258.2909936010486
 20
5.663511976208817
 30
0.0
 11
261.7909936010486
 21
2.163511976208817
 31
0.0
  0
LINE
  5
351
330
1F
100
AcDbEntity
  8
Layer0000
  6
Continuous
 62
     3
370
    25
100
AcDbLine
 10
258.2909936010486
 20
-19.33648802379124
 30
0.0
 11
261.7909936010486
 21
-15.83648802379124
 31
0.0
  0
LINE
  5
352
330
1F
100
AcDbEntity
  8
Layer0000
  6
Continuous
 62
     3
370
    25
100
AcDbLine
 10
258.2909936010486
 20
5.663511976208817
 30
0.0
 11
258.2909936010486
 21
-19.33648802379124
 31
0.0
  0
ARC
  5
353
330
1F
100
AcDbEntity
  8
Layer0000
  6
Continuous
 62
     3
370
    25
100
AcDbCircle
 10
363.2909936010487
 20
-6.836488023791183
 30
0.0
 40
8.499999999999957
100
AcDbArc
 50
331.927513064147
 51
28.07248693585302
  0
ARC
  5
354
330
1F
100
AcDbEntity
  8
Layer0000
  6
Continuous
 62
     3
370
    25
100
AcDbCircle
 10
368.1659936010486
 20
-13.33648802379118
 30
0.0
 40
3.625000000000071
100
AcDbArc
 50
316.3971810272968
 51
43.60281897270317
  0
ARC
  5
355
330
1F
100
AcDbEntity
  8
Layer0000
  6
Continuous
 62
     3
370
    25
100
AcDbCircle
 10
368.1659936010486
 20
-0.3364880237911265
 30
0.0
 40
3.625000000000071
100
AcDbArc
 50
316.3971810272968
 51
43.60281897270317
  0
LINE
  5
356
330
1F
100
AcDbEntity
  8
Layer0000
  6
Continuous
 62
     3
370
    25
100
AcDbLine
 10
206.7909936010486
 20
4.663511976208817
 30
0.0
 11
207.7909936010486
 21
5.663511976208817
 31
0.0
  0
LINE
  5
357
330
1F
100
AcDbEntity
  8
Layer0000
  6
Continuous
 62
     3
370
    25
100
AcDbLine
 10
206.7909936010486
 20
-18.33648802379124
 30
0.0
 11
207.7909936010486
 21
-19.33648802379124
 31
0.0
  0
CIRCLE
  5
358
330
1F
100
AcDbEntity
  8
Layer0000
  6
Continuous
 62
     3
370
    25
100
AcDbCircle
 10
-7.585857321652426
 20
110.8204339919119
 30
0.0
 40
4.325000000000003
  0
CIRCLE
  5
359
330
1F
100
AcDbEntity
  8
Layer0000
  6
Continuous
 62
     3
370
    25
100
AcDbCircle
 10
-7.585857321652412
 20
200.8204339919119
 30
0.0
 40
4.324999999999989
  0
LINE
  5
35A
330
1F
100
AcDbEntity
  8
Layer0000
  6
Continuous
 62
     3
370
    25
100
AcDbLine
 10
2.414142678347595
 20
192.8204339919119
 30
0.0
 11
-37.58585732165244
 21
192.8204339919119
 31
0.0
  0
LINE
  5
35B
330
1F
100
AcDbEntity
  8
Layer0000
  6
Continuous
 62
     3
370
    25
100
AcDbLine
 10
2.414142678347595
 20
192.8204339919119
 30
0.0
 11
2.414142678347595
 21
218.0704339919119
 31
0.0
  0
LINE
  5
35C
330
1F
100
AcDbEntity
  8
Layer0000
  6
Continuous
 62
     3
370
    25
100
AcDbLine
 10
14.41414267834758
 20
192.8204339919119
 30
0.0
 11
14.41414267834758
 21
218.0704339919119
 31
0.0
  0
LINE
  5
35D
330
1F
100
AcDbEntity
  8
Layer0000
  6
Continuous
 62
     3
370
    25
100
AcDbLine
 10
-37.58585732165241
 20
180.8204339919119
 30
0.0
 11
121.4141426783476
 21
180.8204339919119
 31
0.0
  0
LINE
  5
35E
330
1F
100
AcDbEntity
  8
Layer0000
  6
Continuous
 62
     3
370
    25
100
AcDbLine
 10
-37.58585732165241
 20
130.8204339919119
 30
0.0
 11
121.4141426783476
 21
130.8204339919119
 31
0.0
  0
LINE
  5
35F
330
1F
100
AcDbEntity
  8
Layer0000
  6
Continuous
 62
     3
370
    25
100
AcDbLine
 10
2.414142678347588
 20
118.8204339919119
 30
0.0
 11
-37.58585732165245
 21
118.8204339919119
 31
0.0
  0
LINE
  5
360
330
1F
100
AcDbEntity
  8
Layer0000
  6
Continuous
 62
     3
370
    25
100
AcDbLine
 10
2.414142678347588
 20
118.8204339919119
 30
0.0
 11
2.414142678347588
 21
93.57043399191191
 31
0.0
  0
LINE
  5
361
330
1F
100
AcDbEntity
  8
Layer0000
  6
Continuous
 62
     3
370
    25
100
AcDbLine
 10
14.41414267834759
 20
118.8204339919119
 30
0.0
 11
14.41414267834759
 21
93.57043399191191
 31
0.0
  0
LINE
  5
362
330
1F
100
AcDbEntity
  8
Layer0000
  6
Continuous
 62
     3
370
    25
100
AcDbLine
 10
92.41414267834757
 20
118.8204339919119
 30
0.0
 11
14.41414267834759
 21
118.8204339919119
 31
0.0
  0
LINE
  5
363
330
1F
100
AcDbEntity
  8
Layer0000
  6
Continuous
 62
     3
370
    25
100
AcDbLine
 10
92.41414267834756
 20
192.8204339919119
 30
0.0
 11
14.41414267834758
 21
192.8204339919119
 31
0.0
  0
CIRCLE
  5
364
330
1F
100
AcDbEntity
  8
Layer0000
  6
Continuous
 62
     3
370
    25
100
AcDbCircle
 10
-357.5858573216526
 20
189.3204339919119
 30
0.0
 40
11.5
  0
CIRCLE
  5
365
330
1F
100
AcDbEntity
  8
Layer0000
  6
Continuous
 62
     3
370
    25
100
AcDbCircle
 10
-322.5858573216526
 20
200.8204339919119
 30
0.0
 40
4.325000000000003
  0
CIRCLE
  5
366
330
1F
100
AcDbEntity
  8
Layer0000
  6
Continuous
 62
     3
370
    25
100
AcDbCircle
 10
-307.5858573216526
 20
189.3204339919119
 30
0.0
 40
11.5
  0
CIRCLE
  5
367
330
1F
100
AcDbEntity
  8
Layer0000
  6
Continuous
 62
     3
370
    25
100
AcDbCircle
 10
-322.5858573216526
 20
155.8204339919119
 30
0.0
 40
4.325000000000003
  0
CIRCLE
  5
368
330
1F
100
AcDbEntity
  8
Layer0000
  6
Continuous
 62
     3
370
    25
100
AcDbCircle
 10
-357.5858573216526
 20
122.3204339919119
 30
0.0
 40
11.5
  0
CIRCLE
  5
369
330
1F
100
AcDbEntity
  8
Layer0000
  6
Continuous
 62
     3
370
    25
100
AcDbCircle
 10
-322.5858573216526
 20
110.8204339919119
 30
0.0
 40
4.325000000000003
  0
CIRCLE
  5
36A
330
1F
100
AcDbEntity
  8
Layer0000
  6
Continuous
 62
     3
370
    25
100
AcDbCircle
 10
-307.5858573216526
 20
122.3204339919119
 30
0.0
 40
11.5
  0
LINE
  5
36B
330
1F
100
AcDbEntity
  8
Layer0000
  6
Continuous
 62
     3
370
    25
100
AcDbLine
 10
-344.5858573216526
 20
218.0704339919119
 30
0.0
 11
-344.5858573216526
 21
93.57043399191188
 31
0.0
  0
LINE
  5
36C
330
1F
100
AcDbEntity
  8
Layer0000
  6
Continuous
 62
     3
370
    25
100
AcDbLine
 10
-332.5858573216526
 20
93.57043399191188
 30
0.0
 11
-332.5858573216526
 21
218.0704339919119
 31
0.0
  0
LINE
  5
36D
330
1F
100
AcDbEntity
  8
Layer0000
  6
Continuous
 62
     3
370
    25
100
AcDbLine
 10
-293.0858573216526
 20
218.070433991912
 30
0.0
 11
-372.0858573216526
 21
218.070433991912
 31
0.0
  0
LINE
  5
36E
330
1F
100
AcDbEntity
  8
Layer0000
  6
Continuous
 62
     3
370
    25
100
AcDbLine
 10
-372.5858573216526
 20
94.07043399191191
 30
0.0
 11
-372.5858573216526
 21
217.570433991912
 31
0.0
  0
LINE
  5
36F
330
1F
100
AcDbEntity
  8
Layer0000
  6
Continuous
 62
     3
370
    25
100
AcDbLine
 10
-372.5858573216526
 20
217.570433991912
 30
0.0
 11
-372.0858573216526
 21
218.070433991912
 31
0.0
  0
LINE
  5
370
330
1F
100
AcDbEntity
  8
Layer0000
  6
Continuous
 62
     3
370
    25
100
AcDbLine
 10
-292.5858573216526
 20
217.570433991912
 30
0.0
 11
-293.0858573216526
 21
218.070433991912
 31
0.0
  0
LINE
  5
371
330
1F
100
AcDbEntity
  8
Layer0000
  6
Continuous
 62
     3
370
    25
100
AcDbLine
 10
-292.5858573216526
 20
217.570433991912
 30
0.0
 11
-292.5858573216526
 21
94.07043399191191
 31
0.0
  0
LINE
  5
372
330
1F
100
AcDbEntity
  8
Layer0000
  6
Continuous
 62
     3
370
    25
100
AcDbLine
 10
-292.5858573216526
 20
94.07043399191191
 30
0.0
 11
-293.0858573216526
 21
93.57043399191191
 31
0.0
  0
LINE
  5
373
330
1F
100
AcDbEntity
  8
Layer0000
  6
Continuous
 62
     3
370
    25
100
AcDbLine
 10
-293.0858573216526
 20
93.57043399191191
 30
0.0
 11
-372.0858573216526
 21
93.57043399191191
 31
0.0
  0
LINE
  5
374
330
1F
100
AcDbEntity
  8
Layer0000
  6
Continuous
 62
     3
370
    25
100
AcDbLine
 10
-372.0858573216526
 20
93.57043399191191
 30
0.0
 11
-372.5858573216526
 21
94.07043399191191
 31
0.0
  0
LINE
  5
375
330
1F
100
AcDbEntity
  8
Layer0000
  6
Continuous
 62
     3
370
    18
100
AcDbLine
 10
-344.5858573216526
 20
-79.9289983697222
 30
0.0
 11
-345.0858573216526
 21
-79.4289983697222
 31
0.0
  0
LINE
  5
376
330
1F
100
AcDbEntity
  8
Layer0000
  6
Continuous
 62
     3
370
    18
100
AcDbLine
 10
-332.0858573216526
 20
-79.4289983697222
 30
0.0
 11
-332.5858573216526
 21
-79.9289983697222
 31
0.0
  0
LINE
  5
377
330
1F
100
AcDbEntity
  8
Layer0000
  6
Continuous
 62
     3
370
    18
100
AcDbLine
 10
-372.5858573216526
 20
-136.4289983697222
 30
0.0
 11
-272.5858573216526
 21
-136.4289983697222
 31
0.0
  0
LINE
  5
378
330
1F
100
AcDbEntity
  8
Layer0000
  6
Continuous
 62
     3
370
    18
100
AcDbLine
 10
-272.5858573216526
 20
-136.4289983697222
 30
0.0
 11
-272.5858573216526
 21
-136.9289983697222
 31
0.0
  0
LINE
  5
379
330
1F
100
AcDbEntity
  8
Layer0000
  6
Continuous
 62
     3
370
    18
100
AcDbLine
 10
92.42828552120179
 20
-79.4289983697222
 30
0.0
 11
92.42828552120179
 21
-83.9289983697222
 31
0.0
  0
LINE
  5
37A
330
1F
100
AcDbEntity
  8
Layer0000
  6
Continuous
 62
     3
370
    18
100
AcDbLine
 10
104.4141426783475
 20
-79.4289983697222
 30
0.0
 11
104.4141426783475
 21
-83.9289983697222
 31
0.0
  0
LINE
  5
37B
330
1F
100
AcDbEntity
  8
Layer0000
  6
Continuous
 62
     3
370
    18
100
AcDbLine
 10
-198.5858573216526
 20
-212.9289983697221
 30
0.0
 11
-216.5858573216526
 21
-212.9289983697221
 31
0.0
  0
LINE
  5
37C
330
1F
100
AcDbEntity
  8
Layer0000
  6
Continuous
 62
     3
370
    18
100
AcDbLine
 10
264.6369354169394
 20
-91.1053949993707
 30
0.0
 11
336.6369354169394
 21
-91.1053949993707
 31
0.0
  0
LINE
  5
37D
330
1F
100
AcDbEntity
  8
Layer0000
  6
Continuous
 62
     3
370
    18
100
AcDbLine
 10
264.6369354169394
 20
-129.1053949993707
 30
0.0
 11
336.6369354169394
 21
-129.1053949993707
 31
0.0
  0
LINE
  5
37E
330
1F
100
AcDbEntity
  8
Layer0000
  6
Continuous
 62
     3
370
    18
100
AcDbLine
 10
264.1369354169394
 20
-91.6053949993707
 30
0.0
 11
264.1369354169394
 21
-128.6053949993707
 31
0.0
  0
LINE
  5
37F
330
1F
100
AcDbEntity
  8
Layer0000
  6
Continuous
 62
     3
370
    18
100
AcDbLine
 10
337.6369354169394
 20
-101.1053949993707
 30
0.0
 11
363.3869354169394
 21
-101.1053949993707
 31
0.0
  0
LINE
  5
380
330
1F
100
AcDbEntity
  8
Layer0000
  6
Continuous
 62
     3
370
    18
100
AcDbLine
 10
337.6369354169394
 20
-119.1053949993707
 30
0.0
 11
363.3869354169395
 21
-119.1053949993707
 31
0.0
  0
LINE
  5
381
330
1F
100
AcDbEntity
  8
Layer0000
  6
Continuous
 62
     3
370
    18
100
AcDbLine
 10
337.1369354169394
 20
-91.6053949993707
 30
0.0
 11
337.1369354169394
 21
-128.6053949993707
 31
0.0
  0
LINE
  5
382
330
1F
100
AcDbEntity
  8
Layer0000
  6
Continuous
 62
     3
370
    18
100
AcDbLine
 10
364.1369354169394
 20
-102.4044331050474
 30
0.0
 11
364.1369354169394
 21
-117.8063568936942
 31
0.0
  0
LINE
  5
383
330
1F
100
AcDbEntity
  8
Layer0000
  6
Continuous
 62
     3
370
    18
100
AcDbLine
 10
347.1369354169394
 20
-101.1053949993707
 30
0.0
 11
347.1369354169394
 21
-119.1053949993707
 31
0.0
  0
LINE
  5
384
330
1F
100
AcDbEntity
  8
Layer0000
  6
Continuous
 62
     3
370
    18
100
AcDbLine
 10
363.3869354169394
 20
-114.2285006249884
 30
0.0
 11
347.1369354169394
 21
-114.2285006249884
 31
0.0
  0
LINE
  5
385
330
1F
100
AcDbEntity
  8
Layer0000
  6
Continuous
 62
     3
370
    18
100
AcDbLine
 10
363.3869354169394
 20
-105.9822893737532
 30
0.0
 11
347.1369354169394
 21
-105.9822893737532
 31
0.0
  0
LINE
  5
386
330
1F
100
AcDbEntity
  8
Layer0000
  6
Continuous
 62
     3
370
    18
100
AcDbLine
 10
337.6369354169394
 20
-119.1053949993707
 30
0.0
 11
337.1369354169394
 21
-119.6053949993707
 31
0.0
  0
LINE
  5
387
330
1F
100
AcDbEntity
  8
Layer0000
  6
Continuous
 62
     3
370
    18
100
AcDbLine
 10
337.1369354169394
 20
-128.6053949993707
 30
0.0
 11
336.6369354169394
 21
-129.1053949993707
 31
0.0
  0
LINE
  5
388
330
1F
100
AcDbEntity
  8
Layer0000
  6
Continuous
 62
     3
370
    18
100
AcDbLine
 10
264.1369354169394
 20
-128.6053949993707
 30
0.0
 11
264.6369354169394
 21
-129.1053949993707
 31
0.0
  0
LINE
  5
389
330
1F
100
AcDbEntity
  8
Layer0000
  6
Continuous
 62
     3
370
    18
100
AcDbLine
 10
264.6369354169394
 20
-91.1053949993707
 30
0.0
 11
264.1369354169394
 21
-91.6053949993707
 31
0.0
  0
LINE
  5
38A
330
1F
100
AcDbEntity
  8
Layer0000
  6
Continuous
 62
     3
370
    18
100
AcDbLine
 10
336.6369354169394
 20
-91.1053949993707
 30
0.0
 11
337.1369354169394
 21
-91.6053949993707
 31
0.0
  0
LINE
  5
38B
330
1F
100
AcDbEntity
  8
Layer0000
  6
Continuous
 62
     3
370
    18
100
AcDbLine
 10
337.6369354169394
 20
-101.1053949993707
 30
0.0
 11
337.1369354169394
 21
-100.6053949993707
 31
0.0
  0
LINE
  5
38C
330
1F
100
AcDbEntity
  8
Layer0000
  6
Continuous
 62
     3
370
    18
100
AcDbLine
 10
337.6369354169394
 20
-119.1053949993707
 30
0.0
 11
337.6369354169394
 21
-101.1053949993707
 31
0.0
  0
LINE
  5
38D
330
1F
100
AcDbEntity
  8
Layer0000
  6
Continuous
 62
     3
370
    18
100
AcDbLine
 10
336.6369354169394
 20
-129.1053949993707
 30
0.0
 11
336.6369354169394
 21
-91.1053949993707
 31
0.0
  0
LINE
  5
38E
330
1F
100
AcDbEntity
  8
Layer0000
  6
Continuous
 62
     3
370
    18
100
AcDbLine
 10
264.6369354169394
 20
-129.1053949993707
 30
0.0
 11
264.6369354169394
 21
-91.1053949993707
 31
0.0
  0
LINE
  5
38F
330
1F
100
AcDbEntity
  8
Layer0000
  6
Continuous
 62
     3
370
    18
100
AcDbLine
 10
363.3869354169394
 20
-105.238744581904
 30
0.0
 11
347.1369354169394
 21
-105.238744581904
 31
0.0
  0
LINE
  5
390
330
1F
100
AcDbEntity
  8
Layer0000
  6
Continuous
 62
     3
370
    18
100
AcDbLine
 10
363.3869354169394
 20
-114.9720454168374
 30
0.0
 11
347.1369354169394
 21
-114.9720454168374
 31
0.0
  0
ARC
  5
391
330
1F
100
AcDbEntity
  8
Layer0000
  6
Continuous
 62
     3
370
    18
100
AcDbCircle
 10
352.4286020836064
 20
-110.1053949993708
 30
0.0
 40
11.70833333333304
100
AcDbArc
 50
339.3810408925199
 51
20.61895910748012
  0
ARC
  5
392
330
1F
100
AcDbEntity
  8
Layer0000
  6
Continuous
 62
     3
370
    18
100
AcDbCircle
 10
360.9145056217013
 20
-103.1720697906374
 30
0.0
 40
3.222429795238094
100
AcDbArc
 50
320.1081487351531
 51
20.10814873515298
  0
ARC
  5
393
330
1F
100
AcDbEntity
  8
Layer0000
  6
Continuous
 62
     3
370
    18
100
AcDbCircle
 10
360.9145056217013
 20
-117.0387202081042
 30
0.0
 40
3.222429795238094
100
AcDbArc
 50
339.891851264847
 51
39.89185126484685
  0
LINE
  5
394
330
1F
100
AcDbEntity
  8
Layer0000
  6
Continuous
 62
     3
370
    18
100
AcDbLine
 10
363.3869354169394
 20
-105.238744581904
 30
0.0
 11
363.3869354169394
 21
-105.9822893737532
 31
0.0
  0
LINE
  5
395
330
1F
100
AcDbEntity
  8
Layer0000
  6
Continuous
 62
     3
370
    18
100
AcDbLine
 10
363.3869354169394
 20
-114.2285006249884
 30
0.0
 11
363.3869354169394
 21
-114.9720454168375
 31
0.0
  0
LINE
  5
396
330
1F
100
AcDbEntity
  8
Layer0000
  6
Continuous
 62
     3
370
    18
100
AcDbLine
 10
363.3869354169394
 20
-101.1053949993707
 30
0.0
 11
364.1369354169394
 21
-102.4044331050474
 31
0.0
  0
LINE
  5
397
330
1F
100
AcDbEntity
  8
Layer0000
  6
Continuous
 62
     3
370
    18
100
AcDbLine
 10
363.3869354169394
 20
-119.1053949993708
 30
0.0
 11
364.1369354169394
 21
-117.8063568936942
 31
0.0
  0
CIRCLE
  5
398
330
1F
100
AcDbEntity
  8
Layer0000
  6
Continuous
 62
     4
370
    25
100
AcDbCircle
 10
-336.5858573216525
 20
-99.4289983697222
 30
0.0
 40
8.0
  0
CIRCLE
  5
399
330
1F
100
AcDbEntity
  8
Layer0000
  6
Continuous
 62
     4
370
    25
100
AcDbCircle
 10
-7.585857321652426
 20
110.8204339919119
 30
0.0
 40
5.0
  0
CIRCLE
  5
39A
330
1F
100
AcDbEntity
  8
Layer0000
  6
Continuous
 62
     4
370
    25
100
AcDbCircle
 10
-7.585857321652412
 20
200.8204339919119
 30
0.0
 40
5.0
  0
CIRCLE
  5
39B
330
1F
100
AcDbEntity
  8
Layer0000
  6
Continuous
 62
     4
370
    25
100
AcDbCircle
 10
-322.5858573216526
 20
200.8204339919119
 30
0.0
 40
5.0
  0
CIRCLE
  5
39C
330
1F
100
AcDbEntity
  8
Layer0000
  6
Continuous
 62
     4
370
    25
100
AcDbCircle
 10
-322.5858573216526
 20
155.8204339919119
 30
0.0
 40
5.0
  0
CIRCLE
  5
39D
330
1F
100
AcDbEntity
  8
Layer0000
  6
Continuous
 62
     4
370
    25
100
AcDbCircle
 10
-322.5858573216526
 20
110.8204339919119
 30
0.0
 40
5.0
  0
LINE
  5
39E
330
1F
100
AcDbEntity
  8
Layer0000
  6
DIVIDE
 62
     4
370
    25
100
AcDbLine
 10
26.41414267834747
 20
-79.42899836972217
 30
0.0
 11
15.90170711304927
 21
-79.42899836972217
 31
0.0
  0
LINE
  5
39F
330
1F
100
AcDbEntity
  8
Layer0000
  6
DIVIDE
 62
     4
370
    25
100
AcDbLine
 10
0.9265782436456504
 20
-79.4289983697222
 30
0.0
 11
-26.58585732165255
 21
-79.42899836972217
 31
0.0
  0
LINE
  5
3A0
330
1F
100
AcDbEntity
  8
Layer0000
  6
DIVIDE
 62
     4
370
    25
100
AcDbLine
 10
116.4141426783475
 20
-79.42899836972217
 30
0.0
 11
105.9017071130493
 21
-79.42899836972217
 31
0.0
  0
LINE
  5
3A1
330
1F
100
AcDbEntity
  8
Layer0000
  6
DIVIDE
 62
     4
370
    25
100
AcDbLine
 10
90.92657824364565
 20
-79.4289983697222
 30
0.0
 11
63.41414267834745
 21
-79.42899836972217
 31
0.0
  0
LINE
  5
3A2
330
1F
100
AcDbEntity
  8
Layer0000
  6
DIVIDE
 62
    56
370
    25
100
AcDbLine
 10
-337.5858573216527
 20
-60.92899836972219
 30
0.0
 11
-303.5858573216526
 21
-60.92899836972219
 31
0.0
  0
LINE
  5
3A3
330
1F
100
AcDbEntity
  8
Layer0000
  6
DIVIDE
 62
    56
370
    25
100
AcDbLine
 10
-337.5858573216527
 20
-60.92899836972219
 30
0.0
 11
-337.5858573216527
 21
-56.92899836972219
 31
0.0
  0
LINE
  5
3A4
330
1F
100
AcDbEntity
  8
Layer0000
  6
DIVIDE
 62
    56
370
    25
100
AcDbLine
 10
-338.5858573216527
 20
-55.92899836972219
 30
0.0
 11
-356.5858573216527
 21
-55.92899836972219
 31
0.0
  0
LINE
  5
3A5
330
1F
100
AcDbEntity
  8
Layer0000
  6
DIVIDE
 62
    56
370
    25
100
AcDbLine
 10
-357.5858573216527
 20
-56.92899836972219
 30
0.0
 11
-357.5858573216527
 21
-78.42899836972218
 31
0.0
  0
LINE
  5
3A6
330
1F
100
AcDbEntity
  8
Layer0000
  6
DIVIDE
 62
    56
370
    25
100
AcDbLine
 10
-302.5858573216526
 20
-61.92899836972219
 30
0.0
 11
-302.5858573216526
 21
-78.42899836972218
 31
0.0
  0
LINE
  5
3A7
330
1F
100
AcDbEntity
  8
Layer0000
  6
DIVIDE
 62
    56
370
    25
100
AcDbLine
 10
-357.5858573216527
 20
-78.42899836972218
 30
0.0
 11
-356.5858573216527
 21
-79.42899836972218
 31
0.0
  0
LINE
  5
3A8
330
1F
100
AcDbEntity
  8
Layer0000
  6
DIVIDE
 62
    56
370
    25
100
AcDbLine
 10
-302.5858573216526
 20
-78.42899836972218
 30
0.0
 11
-303.5858573216526
 21
-79.42899836972218
 31
0.0
  0
LINE
  5
3A9
330
1F
100
AcDbEntity
  8
Layer0000
  6
DIVIDE
 62
    56
370
    25
100
AcDbLine
 10
-356.5858573216527
 20
-55.92899836972219
 30
0.0
 11
-357.5858573216527
 21
-56.92899836972219
 31
0.0
  0
LINE
  5
3AA
330
1F
100
AcDbEntity
  8
Layer0000
  6
DIVIDE
 62
    56
370
    25
100
AcDbLine
 10
-337.5858573216527
 20
-56.92899836972219
 30
0.0
 11
-338.5858573216527
 21
-55.92899836972219
 31
0.0
  0
LINE
  5
3AB
330
1F
100
AcDbEntity
  8
Layer0000
  6
DIVIDE
 62
    56
370
    25
100
AcDbLine
 10
-303.5858573216526
 20
-60.92899836972219
 30
0.0
 11
-302.5858573216526
 21
-61.92899836972219
 31
0.0
  0
LINE
  5
3AC
330
1F
100
AcDbEntity
  8
Layer0000
  6
DIVIDE
 62
    56
370
    25
100
AcDbLine
 10
7.414142678347474
 20
-60.92899836972219
 30
0.0
 11
-26.58585732165255
 21
-60.92899836972219
 31
0.0
  0
LINE
  5
3AD
330
1F
100
AcDbEntity
  8
Layer0000
  6
DIVIDE
 62
    56
370
    25
100
AcDbLine
 10
7.414142678347474
 20
-60.92899836972219
 30
0.0
 11
7.414142678347474
 21
-56.92899836972219
 31
0.0
  0
LINE
  5
3AE
330
1F
100
AcDbEntity
  8
Layer0000
  6
DIVIDE
 62
    56
370
    25
100
AcDbLine
 10
8.414142678347474
 20
-55.92899836972219
 30
0.0
 11
26.41414267834747
 21
-55.92899836972219
 31
0.0
  0
LINE
  5
3AF
330
1F
100
AcDbEntity
  8
Layer0000
  6
DIVIDE
 62
    56
370
    25
100
AcDbLine
 10
27.41414267834747
 20
-56.92899836972219
 30
0.0
 11
27.41414267834747
 21
-78.42899836972217
 31
0.0
  0
LINE
  5
3B0
330
1F
100
AcDbEntity
  8
Layer0000
  6
DIVIDE
 62
    56
370
    25
100
AcDbLine
 10
-27.58585732165255
 20
-61.92899836972219
 30
0.0
 11
-27.58585732165255
 21
-78.42899836972217
 31
0.0
  0
LINE
  5
3B1
330
1F
100
AcDbEntity
  8
Layer0000
  6
DIVIDE
 62
    56
370
    25
100
AcDbLine
 10
27.41414267834747
 20
-78.42899836972217
 30
0.0
 11
26.41414267834747
 21
-79.42899836972217
 31
0.0
  0
LINE
  5
3B2
330
1F
100
AcDbEntity
  8
Layer0000
  6
DIVIDE
 62
    56
370
    25
100
AcDbLine
 10
-27.58585732165255
 20
-78.42899836972217
 30
0.0
 11
-26.58585732165255
 21
-79.42899836972217
 31
0.0
  0
LINE
  5
3B3
330
1F
100
AcDbEntity
  8
Layer0000
  6
DIVIDE
 62
    56
370
    25
100
AcDbLine
 10
26.41414267834747
 20
-55.92899836972219
 30
0.0
 11
27.41414267834747
 21
-56.92899836972219
 31
0.0
  0
LINE
  5
3B4
330
1F
100
AcDbEntity
  8
Layer0000
  6
DIVIDE
 62
    56
370
    25
100
AcDbLine
 10
7.414142678347474
 20
-56.92899836972219
 30
0.0
 11
8.414142678347474
 21
-55.92899836972219
 31
0.0
  0
LINE
  5
3B5
330
1F
100
AcDbEntity
  8
Layer0000
  6
DIVIDE
 62
    56
370
    25
100
AcDbLine
 10
-26.58585732165255
 20
-60.92899836972219
 30
0.0
 11
-27.58585732165255
 21
-61.92899836972219
 31
0.0
  0
LINE
  5
3B6
330
1F
100
AcDbEntity
  8
Layer0000
  6
DIVIDE
 62
    56
370
    25
100
AcDbLine
 10
97.41414267834747
 20
-60.92899836972219
 30
0.0
 11
63.41414267834745
 21
-60.92899836972219
 31
0.0
  0
LINE
  5
3B7
330
1F
100
AcDbEntity
  8
Layer0000
  6
DIVIDE
 62
    56
370
    25
100
AcDbLine
 10
97.41414267834747
 20
-60.92899836972219
 30
0.0
 11
97.41414267834747
 21
-56.92899836972219
 31
0.0
  0
LINE
  5
3B8
330
1F
100
AcDbEntity
  8
Layer0000
  6
DIVIDE
 62
    56
370
    25
100
AcDbLine
 10
98.41414267834747
 20
-55.92899836972219
 30
0.0
 11
116.4141426783475
 21
-55.92899836972219
 31
0.0
  0
LINE
  5
3B9
330
1F
100
AcDbEntity
  8
Layer0000
  6
DIVIDE
 62
    56
370
    25
100
AcDbLine
 10
117.4141426783475
 20
-56.92899836972219
 30
0.0
 11
117.4141426783475
 21
-78.42899836972217
 31
0.0
  0
LINE
  5
3BA
330
1F
100
AcDbEntity
  8
Layer0000
  6
DIVIDE
 62
    56
370
    25
100
AcDbLine
 10
62.41414267834745
 20
-61.92899836972219
 30
0.0
 11
62.41414267834745
 21
-78.42899836972217
 31
0.0
  0
LINE
  5
3BB
330
1F
100
AcDbEntity
  8
Layer0000
  6
DIVIDE
 62
    56
370
    25
100
AcDbLine
 10
117.4141426783475
 20
-78.42899836972217
 30
0.0
 11
116.4141426783475
 21
-79.42899836972217
 31
0.0
  0
LINE
  5
3BC
330
1F
100
AcDbEntity
  8
Layer0000
  6
DIVIDE
 62
    56
370
    25
100
AcDbLine
 10
62.41414267834745
 20
-78.42899836972217
 30
0.0
 11
63.41414267834745
 21
-79.42899836972217
 31
0.0
  0
LINE
  5
3BD
330
1F
100
AcDbEntity
  8
Layer0000
  6
DIVIDE
 62
    56
370
    25
100
AcDbLine
 10
116.4141426783475
 20
-55.92899836972219
 30
0.0
 11
117.4141426783475
 21
-56.92899836972219
 31
0.0
  0
LINE
  5
3BE
330
1F
100
AcDbEntity
  8
Layer0000
  6
DIVIDE
 62
    56
370
    25
100
AcDbLine
 10
97.41414267834747
 20
-56.92899836972219
 30
0.0
 11
98.41414267834747
 21
-55.92899836972219
 31
0.0
  0
LINE
  5
3BF
330
1F
100
AcDbEntity
  8
Layer0000
  6
DIVIDE
 62
    56
370
    25
100
AcDbLine
 10
63.41414267834745
 20
-60.92899836972219
 30
0.0
 11
62.41414267834745
 21
-61.92899836972219
 31
0.0
  0
LINE
  5
3C0
330
1F
100
AcDbEntity
  8
Layer0000
  6
Continuous
 62
    56
370
    25
100
AcDbLine
 10
153.1141426783478
 20
-97.42899836972224
 30
0.0
 11
153.1141426783478
 21
-100.9289983697222
 31
0.0
  0
LINE
  5
3C1
330
1F
100
AcDbEntity
  8
Layer0000
  6
Continuous
 62
    56
370
    25
100
AcDbLine
 10
153.1141426783478
 20
-118.9289983697222
 30
0.0
 11
153.1141426783478
 21
-122.4289983697223
 31
0.0
  0
LINE
  5
3C2
330
1F
100
AcDbEntity
  8
Layer0000
  6
Continuous
 62
    56
370
    25
100
AcDbLine
 10
153.1141426783478
 20
-124.4289983697222
 30
0.0
 11
168.1141426783478
 21
-124.4289983697222
 31
0.0
  0
LINE
  5
3C3
330
1F
100
AcDbEntity
  8
Layer0000
  6
Continuous
 62
    56
370
    25
100
AcDbLine
 10
168.1141426783478
 20
-124.4289983697222
 30
0.0
 11
168.1141426783478
 21
-125.4289983697222
 31
0.0
  0
LINE
  5
3C4
330
1F
100
AcDbEntity
  8
Layer0000
  6
Continuous
 62
    56
370
    25
100
AcDbLine
 10
168.1141426783478
 20
-125.4289983697222
 30
0.0
 11
170.1141426783478
 21
-125.4289983697222
 31
0.0
  0
ARC
  5
3C5
330
1F
100
AcDbEntity
  8
Layer0000
  6
Continuous
 62
    56
370
    25
100
AcDbCircle
 10
170.1141426783478
 20
-127.4289983697222
 30
0.0
 40
2.0
100
AcDbArc
 50
0.0
 51
90.0
  0
ARC
  5
3C6
330
1F
100
AcDbEntity
  8
Layer0000
  6
Continuous
 62
    56
370
    25
100
AcDbCircle
 10
189.536584004012
 20
-172.8679785983568
 30
0.0
 40
35.07239625553718
100
AcDbArc
 50
119.0519216155727
 51
119.7856437430759
  0
ARC
  5
3C7
330
1F
100
AcDbEntity
  8
Layer0000
  6
Continuous
 62
    56
370
    25
100
AcDbCircle
 10
177.9040816919205
 20
-151.9221042073854
 30
0.0
 40
11.11316536257236
100
AcDbArc
 50
116.7877042135684
 51
119.0645920403943
  0
ARC
  5
3C8
330
1F
100
AcDbEntity
  8
Layer0000
  6
Continuous
 62
    56
370
    25
100
AcDbCircle
 10
175.6244490633305
 20
-147.4008047211466
 30
0.0
 40
6.049682312953427
100
AcDbArc
 50
112.7637643407156
 51
116.8132566714029
  0
ARC
  5
3C9
330
1F
100
AcDbEntity
  8
Layer0000
  6
Continuous
 62
    56
370
    25
100
AcDbCircle
 10
174.7497978906388
 20
-145.3103230874665
 30
0.0
 40
3.783602154036452
100
AcDbArc
 50
106.6040883768603
 51
112.7993870019885
  0
ARC
  5
3CA
330
1F
100
AcDbEntity
  8
Layer0000
  6
Continuous
 62
    56
370
    25
100
AcDbCircle
 10
174.3982721758408
 20
-144.1267142781577
 30
0.0
 40
2.548896759693325
100
AcDbArc
 50
97.8662564266745
 51
106.6345771627583
  0
ARC
  5
3CB
330
1F
100
AcDbEntity
  8
Layer0000
  6
Continuous
 62
    56
370
    25
100
AcDbCircle
 10
174.3053116502088
 20
-143.4577627331293
 30
0.0
 40
1.873517278627677
100
AcDbArc
 50
86.33572887106759
 51
97.84997782782784
  0
ARC
  5
3CC
330
1F
100
AcDbEntity
  8
Layer0000
  6
Continuous
 62
    56
370
    25
100
AcDbCircle
 10
174.3196386745171
 20
-143.1773357096492
 30
0.0
 40
1.592752025149224
100
AcDbArc
 50
72.65648283589775
 51
86.20535036657867
  0
ARC
  5
3CD
330
1F
100
AcDbEntity
  8
Layer0000
  6
Continuous
 62
    56
370
    25
100
AcDbCircle
 10
174.1178318661746
 20
-143.7736953840047
 30
0.0
 40
2.222206268368668
100
AcDbArc
 50
62.10859604860168
 51
72.27342268091344
  0
ARC
  5
3CE
330
1F
100
AcDbEntity
  8
Layer0000
  6
Continuous
 62
    56
370
    25
100
AcDbCircle
 10
173.2558764699917
 20
-145.4149968335214
 30
0.0
 40
4.076071993711489
100
AcDbArc
 50
56.33799636968553
 51
62.19250276234591
  0
ARC
  5
3CF
330
1F
100
AcDbEntity
  8
Layer0000
  6
Continuous
 62
    56
370
    25
100
AcDbCircle
 10
169.9182109535735
 20
-150.4454079642173
 30
0.0
 40
10.11304179827247
100
AcDbArc
 50
53.9510509394815
 51
56.39639396805136
  0
ARC
  5
3D0
330
1F
100
AcDbEntity
  8
Layer0000
  6
Continuous
 62
    56
370
    25
100
AcDbCircle
 10
203.0792364688991
 20
-104.8686319718916
 30
0.0
 40
46.25091959158004
100
AcDbArc
 50
233.9630382999763
 51
234.5008674377948
  0
ARC
  5
3D1
330
1F
100
AcDbEntity
  8
Layer0000
  6
Continuous
 62
    56
370
    25
100
AcDbCircle
 10
180.0616039207752
 20
-137.1465118362102
 30
0.0
 40
6.606590737214135
100
AcDbArc
 50
234.4640249560515
 51
238.1318776219829
  0
ARC
  5
3D2
330
1F
100
AcDbEntity
  8
Layer0000
  6
Continuous
 62
    56
370
    25
100
AcDbCircle
 10
178.1853812540529
 20
-140.1731112259526
 30
0.0
 40
3.045625861378581
100
AcDbArc
 50
238.0466569662338
 51
245.5830738773952
  0
ARC
  5
3D3
330
1F
100
AcDbEntity
  8
Layer0000
  6
Continuous
 62
    56
370
    25
100
AcDbCircle
 10
177.6371112491383
 20
-141.3871134486718
 30
0.0
 40
1.713563792502631
100
AcDbArc
 50
245.4960492006925
 51
258.0346230881627
  0
ARC
  5
3D4
330
1F
100
AcDbEntity
  8
Layer0000
  6
Continuous
 62
    56
370
    25
100
AcDbCircle
 10
177.5242870755714
 20
-141.9000141750295
 30
0.0
 40
1.188422917188281
100
AcDbArc
 50
258.229300876468
 51
275.656603412735
  0
ARC
  5
3D5
330
1F
100
AcDbEntity
  8
Layer0000
  6
Continuous
 62
    56
370
    25
100
AcDbCircle
 10
177.4722188434795
 20
-141.5075866427098
 30
0.0
 40
1.584126141329262
100
AcDbArc
 50
276.1316721661209
 51
289.6737921320926
  0
ARC
  5
3D6
330
1F
100
AcDbEntity
  8
Layer0000
  6
Continuous
 62
    56
370
    25
100
AcDbCircle
 10
177.0831887936691
 20
-140.406989492652
 30
0.0
 40
2.751451397259068
100
AcDbArc
 50
289.5860862698987
 51
297.9580148288176
  0
ARC
  5
3D7
330
1F
100
AcDbEntity
  8
Layer0000
  6
Continuous
 62
    56
370
    25
100
AcDbCircle
 10
175.7918965255042
 20
-137.9541564183647
 30
0.0
 40
5.523414990637887
100
AcDbArc
 50
297.860913385382
 51
302.2964694770417
  0
ARC
  5
3D8
330
1F
100
AcDbEntity
  8
Layer0000
  6
Continuous
 62
    56
370
    25
100
AcDbCircle
 10
168.9615545491191
 20
-127.1189561147432
 30
0.0
 40
18.33181316631863
100
AcDbArc
 50
302.2477178219977
 51
303.6297155594989
  0
LINE
  5
3D9
330
1F
100
AcDbEntity
  8
Layer0000
  6
Continuous
 62
    56
370
    25
100
AcDbLine
 10
172.1141426783478
 20
-127.4289983697222
 30
0.0
 11
172.1141426783478
 21
-217.4289983697209
 31
0.0
  0
LINE
  5
3DA
330
1F
100
AcDbEntity
  8
Layer0000
  6
Continuous
 62
    56
370
    25
100
AcDbLine
 10
186.1141426783478
 20
-217.4289983697209
 30
0.0
 11
186.1141426783478
 21
-202.4289983697209
 31
0.0
  0
LINE
  5
3DB
330
1F
100
AcDbEntity
  8
Layer0000
  6
Continuous
 62
    56
370
    25
100
AcDbLine
 10
186.1141426783478
 20
-217.4289983697209
 30
0.0
 11
172.1141426783478
 21
-217.4289983697209
 31
0.0
  0
LINE
  5
3DC
330
1F
100
AcDbEntity
  8
Layer0000
  6
Continuous
 62
    56
370
    25
100
AcDbLine
 10
186.1141426783478
 20
-202.4289983697209
 30
0.0
 11
179.1141426783478
 21
-202.4289983697209
 31
0.0
  0
LINE
  5
3DD
330
1F
100
AcDbEntity
  8
Layer0000
  6
Continuous
 62
    56
370
    25
100
AcDbLine
 10
195.1141426783478
 20
-202.9289983697209
 30
0.0
 11
195.1141426783478
 21
-216.9289983697209
 31
0.0
  0
LINE
  5
3DE
330
1F
100
AcDbEntity
  8
Layer0000
  6
Continuous
 62
    56
370
    25
100
AcDbLine
 10
195.1141426783478
 20
-216.9289983697209
 30
0.0
 11
255.1141426783478
 21
-220.4289983697209
 31
0.0
  0
LINE
  5
3DF
330
1F
100
AcDbEntity
  8
Layer0000
  6
Continuous
 62
    56
370
    25
100
AcDbLine
 10
195.1141426783478
 20
-202.9289983697209
 30
0.0
 11
186.1141426783478
 21
-202.9289983697209
 31
0.0
  0
LINE
  5
3E0
330
1F
100
AcDbEntity
  8
Layer0000
  6
Continuous
 62
    56
370
    25
100
AcDbLine
 10
195.1141426783478
 20
-216.9289983697209
 30
0.0
 11
186.1141426783478
 21
-216.9289983697209
 31
0.0
  0
LINE
  5
3E1
330
1F
100
AcDbEntity
  8
Layer0000
  6
Continuous
 62
    56
370
    25
100
AcDbLine
 10
255.1141426783478
 20
-199.4289983697209
 30
0.0
 11
255.1141426783478
 21
-220.4289983697209
 31
0.0
  0
LINE
  5
3E2
330
1F
100
AcDbEntity
  8
Layer0000
  6
Continuous
 62
    56
370
    25
100
AcDbLine
 10
195.1141426783478
 20
-202.9289983697209
 30
0.0
 11
255.1141426783478
 21
-199.4289983697209
 31
0.0
  0
LINE
  5
3E3
330
1F
100
AcDbEntity
  8
Layer0000
  6
Continuous
 62
    56
370
    25
100
AcDbLine
 10
153.1141426783478
 20
-124.4289983697222
 30
0.0
 11
153.1141426783478
 21
-118.9289983697222
 31
0.0
  0
LINE
  5
3E4
330
1F
100
AcDbEntity
  8
Layer0000
  6
Continuous
 62
    56
370
    25
100
AcDbLine
 10
153.1141426783478
 20
-100.9289983697222
 30
0.0
 11
153.1141426783478
 21
-95.42899836972221
 31
0.0
  0
LINE
  5
3E5
330
1F
100
AcDbEntity
  8
Layer0000
  6
Continuous
 62
    56
370
    25
100
AcDbLine
 10
153.1141426783478
 20
-95.42899836972221
 30
0.0
 11
168.1141426783478
 21
-95.42899836972221
 31
0.0
  0
LINE
  5
3E6
330
1F
100
AcDbEntity
  8
Layer0000
  6
Continuous
 62
    56
370
    25
100
AcDbLine
 10
168.1141426783478
 20
-95.42899836972221
 30
0.0
 11
168.1141426783478
 21
-94.42899836972221
 31
0.0
  0
LINE
  5
3E7
330
1F
100
AcDbEntity
  8
Layer0000
  6
Continuous
 62
    56
370
    25
100
AcDbLine
 10
168.1141426783478
 20
-94.42899836972221
 30
0.0
 11
172.1141426783478
 21
-94.42899836972221
 31
0.0
  0
LINE
  5
3E8
330
1F
100
AcDbEntity
  8
Layer0000
  6
Continuous
 62
    56
370
    25
100
AcDbLine
 10
172.1141426783478
 20
-94.42899836972221
 30
0.0
 11
172.1141426783478
 21
-92.42899836972221
 31
0.0
  0
LINE
  5
3E9
330
1F
100
AcDbEntity
  8
Layer0000
  6
Continuous
 62
    56
370
    25
100
AcDbLine
 10
172.1141426783478
 20
-92.42899836972221
 30
0.0
 11
179.1141426783478
 21
-92.42899836972221
 31
0.0
  0
LINE
  5
3EA
330
1F
100
AcDbEntity
  8
Layer0000
  6
Continuous
 62
    56
370
    25
100
AcDbLine
 10
179.1141426783478
 20
-92.42899836972221
 30
0.0
 11
179.1141426783478
 21
-202.4289983697209
 31
0.0
  0
LINE
  5
3EB
330
1F
100
AcDbEntity
  8
Layer0000
  6
Continuous
 62
    56
370
    25
100
AcDbLine
 10
-366.5858573216526
 20
32.1204339919119
 30
0.0
 11
-366.5858573216526
 21
52.12043399191188
 31
0.0
  0
LINE
  5
3EC
330
1F
100
AcDbEntity
  8
Layer0000
  6
Continuous
 62
    56
370
    25
100
AcDbLine
 10
-365.5858573216526
 20
31.1204339919119
 30
0.0
 11
-366.5858573216526
 21
32.1204339919119
 31
0.0
  0
LINE
  5
3ED
330
1F
100
AcDbEntity
  8
Layer0000
  6
Continuous
 62
    56
370
    25
100
AcDbLine
 10
-366.5858573216526
 20
52.12043399191188
 30
0.0
 11
-365.5858573216526
 21
53.12043399191188
 31
0.0
  0
CIRCLE
  5
3EE
330
1F
100
AcDbEntity
  8
Layer0000
  6
Continuous
 62
    56
370
    25
100
AcDbCircle
 10
-356.5858573216523
 20
42.1204339919119
 30
0.0
 40
6.267949192431104
  0
CIRCLE
  5
3EF
330
1F
100
AcDbEntity
  8
Layer0000
  6
Continuous
 62
    56
370
    25
100
AcDbCircle
 10
-356.5858573216523
 20
42.1204339919119
 30
0.0
 40
8.0
  0
LINE
  5
3F0
330
1F
100
AcDbEntity
  8
Layer0000
  6
Continuous
 62
    56
370
    25
100
AcDbLine
 10
-361.2046594751693
 20
42.1204339919119
 30
0.0
 11
-358.8952583984109
 21
38.1204339919119
 31
0.0
  0
LINE
  5
3F1
330
1F
100
AcDbEntity
  8
Layer0000
  6
Continuous
 62
    56
370
    25
100
AcDbLine
 10
-358.8952583984109
 20
38.1204339919119
 30
0.0
 11
-354.276456244894
 21
38.1204339919119
 31
0.0
  0
LINE
  5
3F2
330
1F
100
AcDbEntity
  8
Layer0000
  6
Continuous
 62
    56
370
    25
100
AcDbLine
 10
-354.276456244894
 20
38.1204339919119
 30
0.0
 11
-351.9670551681353
 21
42.1204339919119
 31
0.0
  0
LINE
  5
3F3
330
1F
100
AcDbEntity
  8
Layer0000
  6
Continuous
 62
    56
370
    25
100
AcDbLine
 10
-351.9670551681353
 20
42.1204339919119
 30
0.0
 11
-354.276456244894
 21
46.1204339919119
 31
0.0
  0
LINE
  5
3F4
330
1F
100
AcDbEntity
  8
Layer0000
  6
Continuous
 62
    56
370
    25
100
AcDbLine
 10
-354.276456244894
 20
46.1204339919119
 30
0.0
 11
-358.8952583984109
 21
46.1204339919119
 31
0.0
  0
LINE
  5
3F5
330
1F
100
AcDbEntity
  8
Layer0000
  6
Continuous
 62
    56
370
    25
100
AcDbLine
 10
-358.8952583984109
 20
46.1204339919119
 30
0.0
 11
-361.2046594751693
 21
42.1204339919119
 31
0.0
  0
LINE
  5
3F6
330
1F
100
AcDbEntity
  8
Layer0000
  6
Continuous
 62
    56
370
    25
100
AcDbLine
 10
-344.5858573216526
 20
73.12043399191188
 30
0.0
 11
-328.5858573216525
 21
73.12043399191188
 31
0.0
  0
LINE
  5
3F7
330
1F
100
AcDbEntity
  8
Layer0000
  6
Continuous
 62
    56
370
    25
100
AcDbLine
 10
-327.5858573216525
 20
72.12043399191188
 30
0.0
 11
-327.5858573216525
 21
53.12043399191188
 31
0.0
  0
LINE
  5
3F8
330
1F
100
AcDbEntity
  8
Layer0000
  6
Continuous
 62
    56
370
    25
100
AcDbLine
 10
-345.5858573216526
 20
72.12043399191188
 30
0.0
 11
-345.5858573216526
 21
53.12043399191188
 31
0.0
  0
LINE
  5
3F9
330
1F
100
AcDbEntity
  8
Layer0000
  6
Continuous
 62
    56
370
    25
100
AcDbLine
 10
-344.5858573216526
 20
73.12043399191188
 30
0.0
 11
-345.5858573216526
 21
72.12043399191188
 31
0.0
  0
LINE
  5
3FA
330
1F
100
AcDbEntity
  8
Layer0000
  6
Continuous
 62
    56
370
    25
100
AcDbLine
 10
-328.5858573216525
 20
73.12043399191188
 30
0.0
 11
-327.5858573216525
 21
72.12043399191188
 31
0.0
  0
LINE
  5
3FB
330
1F
100
AcDbEntity
  8
Layer0000
  6
Continuous
 62
    56
370
    25
100
AcDbLine
 10
-327.5858573216525
 20
72.12043399191188
 30
0.0
 11
-345.5858573216526
 21
72.12043399191188
 31
0.0
  0
LINE
  5
3FC
330
1F
100
AcDbEntity
  8
Layer0000
  6
Continuous
 62
    56
370
    25
100
AcDbLine
 10
-253.5858573216524
 20
22.6204339919119
 30
0.0
 11
-263.5858573216524
 21
22.6204339919119
 31
0.0
  0
LINE
  5
3FD
330
1F
100
AcDbEntity
  8
Layer0000
  6
Continuous
 62
    56
370
    25
100
AcDbLine
 10
-255.0858573216524
 20
21.1204339919119
 30
0.0
 11
-262.0858573216524
 21
21.1204339919119
 31
0.0
  0
LINE
  5
3FE
330
1F
100
AcDbEntity
  8
Layer0000
  6
Continuous
 62
    56
370
    25
100
AcDbLine
 10
-253.5858573216524
 20
22.6204339919119
 30
0.0
 11
-255.0858573216524
 21
21.1204339919119
 31
0.0
  0
LINE
  5
3FF
330
1F
100
AcDbEntity
  8
Layer0000
  6
Continuous
 62
    56
370
    25
100
AcDbLine
 10
-263.5858573216524
 20
22.6204339919119
 30
0.0
 11
-262.0858573216524
 21
21.1204339919119
 31
0.0
  0
LINE
  5
400
330
1F
100
AcDbEntity
  8
Layer0000
  6
Continuous
 62
    56
370
    25
100
AcDbLine
 10
-268.3858573216525
 20
53.12043399191188
 30
0.0
 11
-268.3858573216525
 21
60.22554107466797
 31
0.0
  0
LINE
  5
401
330
1F
100
AcDbEntity
  8
Layer0000
  6
Continuous
 62
    56
370
    25
100
AcDbLine
 10
-263.4783800335406
 20
60.22554107466797
 30
0.0
 11
-263.4783800335406
 21
53.12043399191188
 31
0.0
  0
ARC
  5
402
330
1F
100
AcDbEntity
  8
Layer0000
  6
Continuous
 62
    56
370
    25
100
AcDbCircle
 10
-265.9321186775966
 20
57.30899100514875
 30
0.0
 40
3.811442986763149
100
AcDbArc
 50
49.92557966161387
 51
130.0744203383854
  0
ARC
  5
403
330
1F
100
AcDbEntity
  8
Layer0000
  6
Continuous
 62
    56
370
    25
100
AcDbCircle
 10
-258.5858573216524
 20
47.2988854339785
 30
0.0
 40
13.82154855793342
100
AcDbArc
 50
69.26918485858411
 51
110.7308151414159
  0
LINE
  5
404
330
1F
100
AcDbEntity
  8
Layer0000
  6
Continuous
 62
    56
370
    25
100
AcDbLine
 10
-253.6933346097642
 20
53.12043399191188
 30
0.0
 11
-253.6933346097642
 21
60.22554107466797
 31
0.0
  0
LINE
  5
405
330
1F
100
AcDbEntity
  8
Layer0000
  6
Continuous
 62
    56
370
    25
100
AcDbLine
 10
-263.5858573216524
 20
31.1204339919119
 30
0.0
 11
-263.5858573216524
 21
22.6204339919119
 31
0.0
  0
LINE
  5
406
330
1F
100
AcDbEntity
  8
Layer0000
  6
Continuous
 62
    56
370
    25
100
AcDbLine
 10
-253.5858573216524
 20
31.1204339919119
 30
0.0
 11
-253.5858573216524
 21
22.6204339919119
 31
0.0
  0
LINE
  5
407
330
1F
100
AcDbEntity
  8
Layer0000
  6
Continuous
 62
    56
370
    25
100
AcDbLine
 10
-262.7758573216525
 20
31.1204339919119
 30
0.0
 11
-262.7758573216525
 21
21.81043399191189
 31
0.0
  0
LINE
  5
408
330
1F
100
AcDbEntity
  8
Layer0000
  6
Continuous
 62
    56
370
    25
100
AcDbLine
 10
-254.3958573216525
 20
31.1204339919119
 30
0.0
 11
-254.3958573216525
 21
21.81043399191189
 31
0.0
  0
LINE
  5
409
330
1F
100
AcDbEntity
  8
Layer0000
  6
Continuous
 62
    56
370
    25
100
AcDbLine
 10
-265.9321186775966
 20
61.12043399191188
 30
0.0
 11
-251.2395959657084
 21
61.12043399191188
 31
0.0
  0
ARC
  5
40A
330
1F
100
AcDbEntity
  8
Layer0000
  6
Continuous
 62
    56
370
    25
100
AcDbCircle
 10
-251.2395959657084
 20
57.30899100514875
 30
0.0
 40
3.811442986763113
100
AcDbArc
 50
49.92557966161453
 51
130.0744203383861
  0
LINE
  5
40B
330
1F
100
AcDbEntity
  8
Layer0000
  6
Continuous
 62
    56
370
    25
100
AcDbLine
 10
-248.7858573216525
 20
53.12043399191188
 30
0.0
 11
-248.7858573216525
 21
60.22554107466797
 31
0.0
  0
LINE
  5
40C
330
1F
100
AcDbEntity
  8
Layer0000
  6
Continuous
 62
    56
370
    25
100
AcDbLine
 10
-243.5858573216524
 20
52.12043399191188
 30
0.0
 11
-243.5858573216524
 21
32.1204339919119
 31
0.0
  0
LINE
  5
40D
330
1F
100
AcDbEntity
  8
Layer0000
  6
Continuous
 62
    56
370
    25
100
AcDbLine
 10
-244.5858573216524
 20
53.12043399191188
 30
0.0
 11
-243.5858573216524
 21
52.12043399191188
 31
0.0
  0
LINE
  5
40E
330
1F
100
AcDbEntity
  8
Layer0000
  6
Continuous
 62
    56
370
    25
100
AcDbLine
 10
-244.5858573216524
 20
31.1204339919119
 30
0.0
 11
-243.5858573216524
 21
32.1204339919119
 31
0.0
  0
LINE
  5
40F
330
1F
100
AcDbEntity
  8
Layer0000
  6
Continuous
 62
    56
370
    25
100
AcDbLine
 10
-365.5858573216526
 20
31.1204339919119
 30
0.0
 11
-244.5858573216524
 21
31.1204339919119
 31
0.0
  0
LINE
  5
410
330
1F
100
AcDbEntity
  8
Layer0000
  6
Continuous
 62
    56
370
    25
100
AcDbLine
 10
-365.5858573216526
 20
53.12043399191188
 30
0.0
 11
-244.5858573216525
 21
53.12043399191191
 31
0.0
  0
LINE
  5
411
330
1F
100
AcDbEntity
  8
Layer0000
  6
Continuous
 62
    56
370
    25
100
AcDbLine
 10
-263.5858573216524
 20
76.62043399191188
 30
0.0
 11
-253.5858573216524
 21
76.62043399191188
 31
0.0
  0
LINE
  5
412
330
1F
100
AcDbEntity
  8
Layer0000
  6
Continuous
 62
    56
370
    25
100
AcDbLine
 10
-254.3958573216555
 20
76.62043399191188
 30
0.0
 11
-253.5858573216524
 21
78.02339514604782
 31
0.0
  0
LINE
  5
413
330
1F
100
AcDbEntity
  8
Layer0000
  6
Continuous
 62
    56
370
    25
100
AcDbLine
 10
-262.7758573216525
 20
76.62043399191188
 30
0.0
 11
-263.5858573216524
 21
78.0233951460468
 31
0.0
  0
LINE
  5
414
330
1F
100
AcDbEntity
  8
Layer0000
  6
Continuous
 62
    56
370
    25
100
AcDbLine
 10
-262.7758573216525
 20
76.62043399191188
 30
0.0
 11
-262.7758573216525
 21
61.12043399191188
 31
0.0
  0
LINE
  5
415
330
1F
100
AcDbEntity
  8
Layer0000
  6
Continuous
 62
    56
370
    25
100
AcDbLine
 10
-254.3958573216525
 20
76.62043399191188
 30
0.0
 11
-254.3958573216525
 21
61.12043399191188
 31
0.0
  0
LINE
  5
416
330
1F
100
AcDbEntity
  8
Layer0000
  6
Continuous
 62
    56
370
    25
100
AcDbLine
 10
-253.6933346097642
 20
81.12043399191188
 30
0.0
 11
-253.6933346097642
 21
87.22554107466793
 31
0.0
  0
LINE
  5
417
330
1F
100
AcDbEntity
  8
Layer0000
  6
Continuous
 62
    56
370
    25
100
AcDbLine
 10
-268.3858573216525
 20
81.12043399191188
 30
0.0
 11
-268.3858573216525
 21
87.22554107466799
 31
0.0
  0
LINE
  5
418
330
1F
100
AcDbEntity
  8
Layer0000
  6
Continuous
 62
    56
370
    25
100
AcDbLine
 10
-263.4783800335406
 20
81.12043399191188
 30
0.0
 11
-263.4783800335406
 21
87.22554107466799
 31
0.0
  0
ARC
  5
419
330
1F
100
AcDbEntity
  8
Layer0000
  6
Continuous
 62
    56
370
    25
100
AcDbCircle
 10
-265.9321186775966
 20
84.30899100514877
 30
0.0
 40
3.811442986763149
100
AcDbArc
 50
49.92557966161389
 51
130.0744203383851
  0
ARC
  5
41A
330
1F
100
AcDbEntity
  8
Layer0000
  6
Continuous
 62
    56
370
    25
100
AcDbCircle
 10
-258.5858573216524
 20
74.2988854339785
 30
0.0
 40
13.82154855793342
100
AcDbArc
 50
69.26918485858411
 51
110.7308151414159
  0
ARC
  5
41B
330
1F
100
AcDbEntity
  8
Layer0000
  6
Continuous
 62
    56
370
    25
100
AcDbCircle
 10
-253.1858573216525
 20
80.72043399191188
 30
0.0
 40
0.4000000000000057
100
AcDbArc
 50
90.0
 51
180.0
  0
ARC
  5
41C
330
1F
100
AcDbEntity
  8
Layer0000
  6
Continuous
 62
    56
370
    25
100
AcDbCircle
 10
-263.9858573216524
 20
80.72043399191188
 30
0.0
 40
0.3999999999999773
100
AcDbArc
 50
0.0
 51
90.0
  0
LINE
  5
41D
330
1F
100
AcDbEntity
  8
Layer0000
  6
Continuous
 62
    56
370
    25
100
AcDbLine
 10
-263.5858573216524
 20
80.72043399191188
 30
0.0
 11
-263.5858573216524
 21
61.12043399191188
 31
0.0
  0
LINE
  5
41E
330
1F
100
AcDbEntity
  8
Layer0000
  6
Continuous
 62
    56
370
    25
100
AcDbLine
 10
-253.5858573216524
 20
80.72043399191188
 30
0.0
 11
-253.5858573216524
 21
61.12043399191188
 31
0.0
  0
LINE
  5
41F
330
1F
100
AcDbEntity
  8
Layer0000
  6
Continuous
 62
    56
370
    25
100
AcDbLine
 10
-248.7858573216525
 20
81.12043399191188
 30
0.0
 11
-268.3858573216525
 21
81.12043399191188
 31
0.0
  0
LINE
  5
420
330
1F
100
AcDbEntity
  8
Layer0000
  6
Continuous
 62
    56
370
    25
100
AcDbLine
 10
-248.7858573216525
 20
81.12043399191188
 30
0.0
 11
-248.7858573216525
 21
87.22554107466799
 31
0.0
  0
ARC
  5
421
330
1F
100
AcDbEntity
  8
Layer0000
  6
Continuous
 62
    56
370
    25
100
AcDbCircle
 10
-251.2395959657084
 20
84.30899100514877
 30
0.0
 40
3.811442986763113
100
AcDbArc
 50
49.92557966161454
 51
130.0744203383861
  0
LINE
  5
422
330
1F
100
AcDbEntity
  8
Layer0000
  6
Continuous
 62
    56
370
    25
100
AcDbLine
 10
-344.5858573216526
 20
78.12043399191188
 30
0.0
 11
-328.5858573216525
 21
78.12043399191188
 31
0.0
  0
LINE
  5
423
330
1F
100
AcDbEntity
  8
Layer0000
  6
Continuous
 62
    56
370
    25
100
AcDbLine
 10
-328.5858573216525
 20
76.21517810358941
 30
0.0
 11
-329.6858573216506
 21
78.12043399191188
 31
0.0
  0
LINE
  5
424
330
1F
100
AcDbEntity
  8
Layer0000
  6
Continuous
 62
    56
370
    25
100
AcDbLine
 10
-343.4858573216524
 20
78.12043399191688
 30
0.0
 11
-344.5858573216526
 21
76.21517810359111
 31
0.0
  0
LINE
  5
425
330
1F
100
AcDbEntity
  8
Layer0000
  6
Continuous
 62
    56
370
    25
100
AcDbLine
 10
-326.1999589367903
 20
80.12043399191188
 30
0.0
 11
-346.9717557065148
 21
80.12043399191188
 31
0.0
  0
ARC
  5
426
330
1F
100
AcDbEntity
  8
Layer0000
  6
Continuous
 62
    56
370
    25
100
AcDbCircle
 10
-326.1999589367903
 20
85.22107793923661
 30
0.0
 40
5.100643947324726
100
AcDbArc
 50
227.2227543443626
 51
312.7772456556379
  0
ARC
  5
427
330
1F
100
AcDbEntity
  8
Layer0000
  6
Continuous
 62
    56
370
    25
100
AcDbCircle
 10
-346.9717557065148
 20
85.22107793923661
 30
0.0
 40
5.100643947324764
100
AcDbArc
 50
227.2227543443621
 51
312.7772456556374
  0
ARC
  5
428
330
1F
100
AcDbEntity
  8
Layer0000
  6
Continuous
 62
    56
370
    25
100
AcDbCircle
 10
-336.5858573216525
 20
98.45515136633463
 30
0.0
 40
18.33471737442274
100
AcDbArc
 50
247.8195992645518
 51
292.1804007354482
  0
LINE
  5
429
330
1F
100
AcDbEntity
  8
Layer0000
  6
Continuous
 62
    56
370
    25
100
AcDbLine
 10
-344.5858573216526
 20
73.12043399191188
 30
0.0
 11
-344.5858573216526
 21
80.12043399191188
 31
0.0
  0
LINE
  5
42A
330
1F
100
AcDbEntity
  8
Layer0000
  6
Continuous
 62
    56
370
    25
100
AcDbLine
 10
-343.4858573216524
 20
78.12043399191188
 30
0.0
 11
-343.4858573216524
 21
80.12043399191188
 31
0.0
  0
LINE
  5
42B
330
1F
100
AcDbEntity
  8
Layer0000
  6
Continuous
 62
    56
370
    25
100
AcDbLine
 10
-328.5858573216525
 20
73.12043399191188
 30
0.0
 11
-328.5858573216525
 21
80.12043399191188
 31
0.0
  0
LINE
  5
42C
330
1F
100
AcDbEntity
  8
Layer0000
  6
Continuous
 62
    56
370
    25
100
AcDbLine
 10
-329.6858573216525
 20
78.12043399191188
 30
0.0
 11
-329.6858573216525
 21
80.12043399191188
 31
0.0
  0
LINE
  5
42D
330
1F
100
AcDbEntity
  8
Layer0000
  6
Continuous
 62
    56
370
    25
100
AcDbLine
 10
-343.5076540913769
 20
93.12043399191191
 30
0.0
 11
-343.5076540913769
 21
81.47720712450749
 31
0.0
  0
LINE
  5
42E
330
1F
100
AcDbEntity
  8
Layer0000
  6
Continuous
 62
    56
370
    25
100
AcDbLine
 10
-350.4358573216525
 20
93.12043399191191
 30
0.0
 11
-350.4358573216525
 21
81.47720712450749
 31
0.0
  0
LINE
  5
42F
330
1F
100
AcDbEntity
  8
Layer0000
  6
Continuous
 62
    56
370
    25
100
AcDbLine
 10
-329.6640605519279
 20
81.47720712450749
 30
0.0
 11
-329.6640605519279
 21
93.12043399191191
 31
0.0
  0
LINE
  5
430
330
1F
100
AcDbEntity
  8
Layer0000
  6
Continuous
 62
    56
370
    25
100
AcDbLine
 10
-322.7358573216525
 20
93.12043399191191
 30
0.0
 11
-322.7358573216525
 21
81.47720712450749
 31
0.0
  0
LINE
  5
431
330
1F
100
AcDbEntity
  8
Layer0000
  6
Continuous
 62
    56
370
    25
100
AcDbLine
 10
-327.5858573216525
 20
31.1204339919119
 30
0.0
 11
-327.5858573216525
 21
-5.879566008088119
 31
0.0
  0
LINE
  5
432
330
1F
100
AcDbEntity
  8
Layer0000
  6
Continuous
 62
    56
370
    25
100
AcDbLine
 10
-345.5858573216526
 20
31.1204339919119
 30
0.0
 11
-345.5858573216526
 21
-5.879566008088119
 31
0.0
  0
LINE
  5
433
330
1F
100
AcDbEntity
  8
Layer0000
  6
Continuous
 62
    56
370
    25
100
AcDbLine
 10
-265.9321186775966
 20
88.12043399191191
 30
0.0
 11
-251.2395959657083
 21
88.12043399191191
 31
0.0
  0
LINE
  5
434
330
1F
100
AcDbEntity
  8
Layer0000
  6
Continuous
 62
    56
370
    25
100
AcDbLine
 10
-328.5858573216525
 20
-6.879566008088119
 30
0.0
 11
-344.5858573216526
 21
-6.879566008088119
 31
0.0
  0
LINE
  5
435
330
1F
100
AcDbEntity
  8
Layer0000
  6
Continuous
 62
    56
370
    25
100
AcDbLine
 10
-344.5858573216526
 20
-6.879566008088119
 30
0.0
 11
-345.5858573216526
 21
-5.879566008088119
 31
0.0
  0
LINE
  5
436
330
1F
100
AcDbEntity
  8
Layer0000
  6
Continuous
 62
    56
370
    25
100
AcDbLine
 10
-327.5858573216525
 20
-5.879566008088119
 30
0.0
 11
-328.5858573216525
 21
-6.879566008088119
 31
0.0
  0
LINE
  5
437
330
1F
100
AcDbEntity
  8
Layer0000
  6
Continuous
 62
    56
370
    25
100
AcDbLine
 10
-327.5858573216525
 20
-5.879566008088119
 30
0.0
 11
-345.5858573216526
 21
-5.879566008088119
 31
0.0
  0
LINE
  5
438
330
1F
100
AcDbEntity
  8
Layer0000
  6
CENTER
 62
    56
370
    25
100
AcDbLine
 10
257.1141426783478
 20
-209.9289983697209
 30
0.0
 11
170.1141426783478
 21
-209.9289983697209
 31
0.0
  0
LINE
  5
439
330
1F
100
AcDbEntity
  8
Layer0000
  6
CENTER
 62
    56
370
    25
100
AcDbLine
 10
-347.5858573216523
 20
42.1204339919119
 30
0.0
 11
-365.5858573216523
 21
42.1204339919119
 31
0.0
  0
LINE
  5
43A
330
1F
100
AcDbEntity
  8
Layer0000
  6
CENTER
 62
    56
370
    25
100
AcDbLine
 10
-356.5858573216523
 20
51.12043399191188
 30
0.0
 11
-356.5858573216523
 21
33.1204339919119
 31
0.0
  0
LINE
  5
43B
330
1F
100
AcDbEntity
  8
Layer0000
  6
CENTER
 62
    56
370
    25
100
AcDbLine
 10
-336.5858573216525
 20
93.12043399191191
 30
0.0
 11
-336.5858573216525
 21
-8.87956600808812
 31
0.0
  0
LINE
  5
43C
330
1F
100
AcDbEntity
  8
Layer0000
  6
CENTER
 62
    56
370
    25
100
AcDbLine
 10
-258.5858573216525
 20
90.12043399191191
 30
0.0
 11
-258.5858573216525
 21
19.1204339919119
 31
0.0
  0
LINE
  5
43D
330
1F
100
AcDbEntity
  8
Layer0001
  6
CENTER
 62
    56
370
    25
100
AcDbLine
 10
314.0688360450565
 20
73.3204339919119
 30
0.0
 11
345.0688360450565
 21
73.3204339919119
 31
0.0
  0
LINE
  5
43E
330
1F
100
AcDbEntity
  8
Layer0001
  6
CENTER
 62
    56
370
    25
100
AcDbLine
 10
314.0688360450565
 20
238.320433991912
 30
0.0
 11
345.0688360450565
 21
238.320433991912
 31
0.0
  0
LINE
  5
43F
330
1F
100
AcDbEntity
  8
Layer0001
  6
CENTER
 62
    56
370
    25
100
AcDbLine
 10
57.4141426783475
 20
73.32043399191181
 30
0.0
 11
27.4141426783475
 21
73.32043399191181
 31
0.0
  0
LINE
  5
440
330
1F
100
AcDbEntity
  8
Layer0001
  6
CENTER
 62
    56
370
    25
100
AcDbLine
 10
42.4141426783475
 20
88.32043399191181
 30
0.0
 11
42.4141426783475
 21
58.32043399191181
 31
0.0
  0
LINE
  5
441
330
1F
100
AcDbEntity
  8
Layer0001
  6
CENTER
 62
    56
370
    25
100
AcDbLine
 10
-193.5858573216526
 20
73.32043399191181
 30
0.0
 11
-221.5858573216526
 21
73.32043399191181
 31
0.0
  0
LINE
  5
442
330
1F
100
AcDbEntity
  8
Layer0001
  6
CENTER
 62
    56
370
    25
100
AcDbLine
 10
-207.5858573216526
 20
87.32043399191181
 30
0.0
 11
-207.5858573216526
 21
59.32043399191181
 31
0.0
  0
LINE
  5
443
330
1F
100
AcDbEntity
  8
Layer0001
  6
CENTER
 62
    56
370
    25
100
AcDbLine
 10
56.4141426783475
 20
238.320433991912
 30
0.0
 11
28.4141426783475
 21
238.320433991912
 31
0.0
  0
LINE
  5
444
330
1F
100
AcDbEntity
  8
Layer0001
  6
CENTER
 62
    56
370
    25
100
AcDbLine
 10
42.4141426783475
 20
224.320433991912
 30
0.0
 11
42.4141426783475
 21
252.320433991912
 31
0.0
  0
LINE
  5
445
330
1F
100
AcDbEntity
  8
Layer0001
  6
CENTER
 62
    56
370
    25
100
AcDbLine
 10
-193.5858573216526
 20
238.3204339919119
 30
0.0
 11
-221.5858573216526
 21
238.3204339919119
 31
0.0
  0
LINE
  5
446
330
1F
100
AcDbEntity
  8
Layer0001
  6
CENTER
 62
    56
370
    25
100
AcDbLine
 10
-207.5858573216526
 20
224.3204339919119
 30
0.0
 11
-207.5858573216526
 21
252.320433991912
 31
0.0
  0
LINE
  5
447
330
1F
100
AcDbEntity
  8
Layer0001
  6
Continuous
 62
    56
370
    25
100
AcDbLine
 10
343.0688360450565
 20
93.3204339919119
 30
0.0
 11
326.0688360450565
 21
93.3204339919119
 31
0.0
  0
LINE
  5
448
330
1F
100
AcDbEntity
  8
Layer0001
  6
Continuous
 62
    56
370
    25
100
AcDbLine
 10
326.0688360450565
 20
93.3204339919119
 30
0.0
 11
326.0688360450565
 21
99.32043399191178
 31
0.0
  0
LINE
  5
449
330
1F
100
AcDbEntity
  8
Layer0001
  6
Continuous
 62
    56
370
    25
100
AcDbLine
 10
348.0688360450565
 20
47.32043399191178
 30
0.0
 11
321.0688360450565
 21
47.32043399191178
 31
0.0
  0
LINE
  5
44A
330
1F
100
AcDbEntity
  8
Layer0001
  6
Continuous
 62
    56
370
    25
100
AcDbLine
 10
316.0688360450565
 20
99.32043399191178
 30
0.0
 11
316.0688360450565
 21
52.32043399191178
 31
0.0
  0
LINE
  5
44B
330
1F
100
AcDbEntity
  8
Layer0001
  6
Continuous
 62
    56
370
    25
100
AcDbLine
 10
316.0688360450565
 20
99.32043399191178
 30
0.0
 11
326.0688360450565
 21
99.32043399191178
 31
0.0
  0
LINE
  5
44C
330
1F
100
AcDbEntity
  8
Layer0001
  6
Continuous
 62
    56
370
    25
100
AcDbLine
 10
348.0688360450565
 20
56.32043399191178
 30
0.0
 11
343.0688360450565
 21
56.32043399191178
 31
0.0
  0
LINE
  5
44D
330
1F
100
AcDbEntity
  8
Layer0001
  6
Continuous
 62
    56
370
    25
100
AcDbLine
 10
343.0688360450565
 20
56.32043399191178
 30
0.0
 11
343.0688360450565
 21
93.3204339919119
 31
0.0
  0
LINE
  5
44E
330
1F
100
AcDbEntity
  8
Layer0001
  6
Continuous
 62
    56
370
    25
100
AcDbLine
 10
348.0688360450565
 20
56.32043399191178
 30
0.0
 11
348.0688360450565
 21
47.32043399191178
 31
0.0
  0
LINE
  5
44F
330
1F
100
AcDbEntity
  8
Layer0001
  6
Continuous
 62
    56
370
    25
100
AcDbLine
 10
321.0688360450565
 20
47.32043399191178
 30
0.0
 11
316.0688360450565
 21
52.32043399191178
 31
0.0
  0
LINE
  5
450
330
1F
100
AcDbEntity
  8
Layer0001
  6
Continuous
 62
    56
370
    25
100
AcDbLine
 10
343.0688360450565
 20
218.3204339919119
 30
0.0
 11
326.0688360450565
 21
218.3204339919119
 31
0.0
  0
LINE
  5
451
330
1F
100
AcDbEntity
  8
Layer0001
  6
Continuous
 62
    56
370
    25
100
AcDbLine
 10
326.0688360450565
 20
218.3204339919119
 30
0.0
 11
326.0688360450565
 21
212.320433991912
 31
0.0
  0
LINE
  5
452
330
1F
100
AcDbEntity
  8
Layer0001
  6
Continuous
 62
    56
370
    25
100
AcDbLine
 10
316.0688360450565
 20
212.320433991912
 30
0.0
 11
316.0688360450565
 21
259.320433991912
 31
0.0
  0
LINE
  5
453
330
1F
100
AcDbEntity
  8
Layer0001
  6
Continuous
 62
    56
370
    25
100
AcDbLine
 10
316.0688360450565
 20
212.320433991912
 30
0.0
 11
326.0688360450565
 21
212.320433991912
 31
0.0
  0
LINE
  5
454
330
1F
100
AcDbEntity
  8
Layer0001
  6
Continuous
 62
    56
370
    25
100
AcDbLine
 10
343.0688360450565
 20
255.320433991912
 30
0.0
 11
343.0688360450565
 21
218.3204339919119
 31
0.0
  0
LINE
  5
455
330
1F
100
AcDbEntity
  8
Layer0001
  6
Continuous
 62
    56
370
    25
100
AcDbLine
 10
321.0688360450565
 20
264.320433991912
 30
0.0
 11
316.0688360450565
 21
259.320433991912
 31
0.0
  0
LINE
  5
456
330
1F
100
AcDbEntity
  8
Layer0001
  6
Continuous
 62
    56
370
    25
100
AcDbLine
 10
348.0688360450565
 20
264.320433991912
 30
0.0
 11
321.0688360450565
 21
264.320433991912
 31
0.0
  0
LINE
  5
457
330
1F
100
AcDbEntity
  8
Layer0001
  6
Continuous
 62
    56
370
    25
100
AcDbLine
 10
348.0688360450565
 20
255.320433991912
 30
0.0
 11
343.0688360450565
 21
255.320433991912
 31
0.0
  0
LINE
  5
458
330
1F
100
AcDbEntity
  8
Layer0001
  6
Continuous
 62
    56
370
    25
100
AcDbLine
 10
348.0688360450565
 20
255.320433991912
 30
0.0
 11
348.0688360450565
 21
264.320433991912
 31
0.0
  0
LINE
  5
459
330
1F
100
AcDbEntity
  8
Layer0001
  6
Continuous
 62
    56
370
    25
100
AcDbLine
 10
27.41414267834728
 20
99.32043399191181
 30
0.0
 11
17.41414267834716
 21
89.32043399191193
 31
0.0
  0
LINE
  5
45A
330
1F
100
AcDbEntity
  8
Layer0001
  6
Continuous
 62
    56
370
    25
100
AcDbLine
 10
27.41414267834728
 20
99.32043399191181
 30
0.0
 11
57.41414267834728
 21
99.32043399191181
 31
0.0
  0
LINE
  5
45B
330
1F
100
AcDbEntity
  8
Layer0001
  6
Continuous
 62
    56
370
    25
100
AcDbLine
 10
57.41414267834728
 20
99.32043399191181
 30
0.0
 11
67.41414267834728
 21
89.32043399191176
 31
0.0
  0
LINE
  5
45C
330
1F
100
AcDbEntity
  8
Layer0001
  6
Continuous
 62
    56
370
    25
100
AcDbLine
 10
17.41414267834716
 20
48.32043399191178
 30
0.0
 11
18.41414267834716
 21
47.32043399191181
 31
0.0
  0
LINE
  5
45D
330
1F
100
AcDbEntity
  8
Layer0001
  6
Continuous
 62
    56
370
    25
100
AcDbLine
 10
17.41414267834716
 20
89.32043399191193
 30
0.0
 11
17.41414267834716
 21
48.32043399191178
 31
0.0
  0
LINE
  5
45E
330
1F
100
AcDbEntity
  8
Layer0001
  6
Continuous
 62
    56
370
    25
100
AcDbLine
 10
67.41414267834728
 20
48.32043399191181
 30
0.0
 11
66.41414267834728
 21
47.32043399191181
 31
0.0
  0
LINE
  5
45F
330
1F
100
AcDbEntity
  8
Layer0001
  6
Continuous
 62
    56
370
    25
100
AcDbLine
 10
18.41414267834716
 20
47.32043399191181
 30
0.0
 11
66.41414267834728
 21
47.32043399191181
 31
0.0
  0
LINE
  5
460
330
1F
100
AcDbEntity
  8
Layer0001
  6
Continuous
 62
    56
370
    25
100
AcDbLine
 10
67.41414267834728
 20
89.32043399191176
 30
0.0
 11
67.41414267834728
 21
48.32043399191181
 31
0.0
  0
LINE
  5
461
330
1F
100
AcDbEntity
  8
Layer0001
  6
Continuous
 62
    56
370
    25
100
AcDbLine
 10
-222.5858573216528
 20
99.32043399191181
 30
0.0
 11
-232.585857321653
 21
89.32043399191193
 31
0.0
  0
LINE
  5
462
330
1F
100
AcDbEntity
  8
Layer0001
  6
Continuous
 62
    56
370
    25
100
AcDbLine
 10
-222.5858573216528
 20
99.32043399191181
 30
0.0
 11
-192.5858573216528
 21
99.32043399191181
 31
0.0
  0
LINE
  5
463
330
1F
100
AcDbEntity
  8
Layer0001
  6
Continuous
 62
    56
370
    25
100
AcDbLine
 10
-192.5858573216528
 20
99.32043399191181
 30
0.0
 11
-182.5858573216528
 21
89.32043399191176
 31
0.0
  0
LINE
  5
464
330
1F
100
AcDbEntity
  8
Layer0001
  6
Continuous
 62
    56
370
    25
100
AcDbLine
 10
-232.585857321653
 20
48.32043399191178
 30
0.0
 11
-231.585857321653
 21
47.32043399191181
 31
0.0
  0
LINE
  5
465
330
1F
100
AcDbEntity
  8
Layer0001
  6
Continuous
 62
    56
370
    25
100
AcDbLine
 10
-232.585857321653
 20
89.32043399191193
 30
0.0
 11
-232.585857321653
 21
48.32043399191178
 31
0.0
  0
LINE
  5
466
330
1F
100
AcDbEntity
  8
Layer0001
  6
Continuous
 62
    56
370
    25
100
AcDbLine
 10
-182.5858573216528
 20
48.32043399191181
 30
0.0
 11
-183.5858573216528
 21
47.32043399191181
 31
0.0
  0
LINE
  5
467
330
1F
100
AcDbEntity
  8
Layer0001
  6
Continuous
 62
    56
370
    25
100
AcDbLine
 10
-231.585857321653
 20
47.32043399191181
 30
0.0
 11
-183.5858573216528
 21
47.32043399191181
 31
0.0
  0
LINE
  5
468
330
1F
100
AcDbEntity
  8
Layer0001
  6
Continuous
 62
    56
370
    25
100
AcDbLine
 10
-182.5858573216528
 20
89.32043399191176
 30
0.0
 11
-182.5858573216528
 21
48.32043399191181
 31
0.0
  0
LINE
  5
469
330
1F
100
AcDbEntity
  8
Layer0001
  6
Continuous
 62
    56
370
    25
100
AcDbLine
 10
27.41414267834728
 20
212.320433991912
 30
0.0
 11
17.41414267834716
 21
222.3204339919118
 31
0.0
  0
LINE
  5
46A
330
1F
100
AcDbEntity
  8
Layer0001
  6
Continuous
 62
    56
370
    25
100
AcDbLine
 10
27.41414267834728
 20
212.320433991912
 30
0.0
 11
57.41414267834728
 21
212.320433991912
 31
0.0
  0
LINE
  5
46B
330
1F
100
AcDbEntity
  8
Layer0001
  6
Continuous
 62
    56
370
    25
100
AcDbLine
 10
57.41414267834728
 20
212.320433991912
 30
0.0
 11
67.41414267834728
 21
222.320433991912
 31
0.0
  0
LINE
  5
46C
330
1F
100
AcDbEntity
  8
Layer0001
  6
Continuous
 62
    56
370
    25
100
AcDbLine
 10
17.41414267834716
 20
263.320433991912
 30
0.0
 11
18.41414267834716
 21
264.3204339919119
 31
0.0
  0
LINE
  5
46D
330
1F
100
AcDbEntity
  8
Layer0001
  6
Continuous
 62
    56
370
    25
100
AcDbLine
 10
17.41414267834716
 20
222.3204339919118
 30
0.0
 11
17.41414267834716
 21
263.320433991912
 31
0.0
  0
LINE
  5
46E
330
1F
100
AcDbEntity
  8
Layer0001
  6
Continuous
 62
    56
370
    25
100
AcDbLine
 10
67.41414267834728
 20
263.3204339919119
 30
0.0
 11
66.41414267834728
 21
264.3204339919119
 31
0.0
  0
LINE
  5
46F
330
1F
100
AcDbEntity
  8
Layer0001
  6
Continuous
 62
    56
370
    25
100
AcDbLine
 10
18.41414267834716
 20
264.3204339919119
 30
0.0
 11
66.41414267834728
 21
264.3204339919119
 31
0.0
  0
LINE
  5
470
330
1F
100
AcDbEntity
  8
Layer0001
  6
Continuous
 62
    56
370
    25
100
AcDbLine
 10
67.41414267834728
 20
222.320433991912
 30
0.0
 11
67.41414267834728
 21
263.3204339919119
 31
0.0
  0
LINE
  5
471
330
1F
100
AcDbEntity
  8
Layer0001
  6
Continuous
 62
    56
370
    25
100
AcDbLine
 10
-222.5858573216528
 20
212.320433991912
 30
0.0
 11
-232.585857321653
 21
222.3204339919118
 31
0.0
  0
LINE
  5
472
330
1F
100
AcDbEntity
  8
Layer0001
  6
Continuous
 62
    56
370
    25
100
AcDbLine
 10
-222.5858573216528
 20
212.320433991912
 30
0.0
 11
-192.5858573216528
 21
212.320433991912
 31
0.0
  0
LINE
  5
473
330
1F
100
AcDbEntity
  8
Layer0001
  6
Continuous
 62
    56
370
    25
100
AcDbLine
 10
-192.5858573216528
 20
212.320433991912
 30
0.0
 11
-182.5858573216528
 21
222.320433991912
 31
0.0
  0
LINE
  5
474
330
1F
100
AcDbEntity
  8
Layer0001
  6
Continuous
 62
    56
370
    25
100
AcDbLine
 10
-232.585857321653
 20
263.320433991912
 30
0.0
 11
-231.585857321653
 21
264.3204339919119
 31
0.0
  0
LINE
  5
475
330
1F
100
AcDbEntity
  8
Layer0001
  6
Continuous
 62
    56
370
    25
100
AcDbLine
 10
-232.585857321653
 20
222.3204339919118
 30
0.0
 11
-232.585857321653
 21
263.320433991912
 31
0.0
  0
LINE
  5
476
330
1F
100
AcDbEntity
  8
Layer0001
  6
Continuous
 62
    56
370
    25
100
AcDbLine
 10
-182.5858573216528
 20
263.3204339919119
 30
0.0
 11
-183.5858573216528
 21
264.3204339919119
 31
0.0
  0
LINE
  5
477
330
1F
100
AcDbEntity
  8
Layer0001
  6
Continuous
 62
    56
370
    25
100
AcDbLine
 10
-231.585857321653
 20
264.3204339919119
 30
0.0
 11
-183.5858573216528
 21
264.3204339919119
 31
0.0
  0
LINE
  5
478
330
1F
100
AcDbEntity
  8
Layer0001
  6
Continuous
 62
    56
370
    25
100
AcDbLine
 10
-182.5858573216528
 20
222.320433991912
 30
0.0
 11
-182.5858573216528
 21
263.3204339919119
 31
0.0
  0
CIRCLE
  5
479
330
1F
100
AcDbEntity
  8
Layer0001
  6
Continuous
 62
    56
370
    25
100
AcDbCircle
 10
42.4141426783475
 20
73.32043399191181
 30
0.0
 40
8.5
  0
CIRCLE
  5
47A
330
1F
100
AcDbEntity
  8
Layer0001
  6
Continuous
 62
    56
370
    25
100
AcDbCircle
 10
42.4141426783475
 20
73.32043399191181
 30
0.0
 40
13.0
  0
CIRCLE
  5
47B
330
1F
100
AcDbEntity
  8
Layer0001
  6
Continuous
 62
    56
370
    25
100
AcDbCircle
 10
42.4141426783475
 20
238.320433991912
 30
0.0
 40
9.228718707889797
  0
CIRCLE
  5
47C
330
1F
100
AcDbEntity
  8
Layer0001
  6
Continuous
 62
    56
370
    25
100
AcDbCircle
 10
42.4141426783475
 20
238.320433991912
 30
0.0
 40
12.0
  0
LINE
  5
47D
330
1F
100
AcDbEntity
  8
Layer0001
  6
Continuous
 62
    56
370
    25
100
AcDbLine
 10
34.33123890969273
 20
238.320433991912
 30
0.0
 11
38.37269079402012
 21
231.320433991912
 31
0.0
  0
LINE
  5
47E
330
1F
100
AcDbEntity
  8
Layer0001
  6
Continuous
 62
    56
370
    25
100
AcDbLine
 10
38.37269079402012
 20
231.320433991912
 30
0.0
 11
46.45559456267486
 21
231.320433991912
 31
0.0
  0
LINE
  5
47F
330
1F
100
AcDbEntity
  8
Layer0001
  6
Continuous
 62
    56
370
    25
100
AcDbLine
 10
46.45559456267486
 20
231.320433991912
 30
0.0
 11
50.49704644700225
 21
238.320433991912
 31
0.0
  0
LINE
  5
480
330
1F
100
AcDbEntity
  8
Layer0001
  6
Continuous
 62
    56
370
    25
100
AcDbLine
 10
50.49704644700225
 20
238.320433991912
 30
0.0
 11
46.45559456267486
 21
245.320433991912
 31
0.0
  0
LINE
  5
481
330
1F
100
AcDbEntity
  8
Layer0001
  6
Continuous
 62
    56
370
    25
100
AcDbLine
 10
46.45559456267486
 20
245.320433991912
 30
0.0
 11
38.37269079402012
 21
245.320433991912
 31
0.0
  0
LINE
  5
482
330
1F
100
AcDbEntity
  8
Layer0001
  6
Continuous
 62
    56
370
    25
100
AcDbLine
 10
38.37269079402012
 20
245.320433991912
 30
0.0
 11
34.33123890969273
 21
238.320433991912
 31
0.0
  0
CIRCLE
  5
483
330
1F
100
AcDbEntity
  8
Layer0001
  6
Continuous
 62
    56
370
    25
100
AcDbCircle
 10
-207.5858573216526
 20
238.3204339919119
 30
0.0
 40
9.228718707889783
  0
CIRCLE
  5
484
330
1F
100
AcDbEntity
  8
Layer0001
  6
Continuous
 62
    56
370
    25
100
AcDbCircle
 10
-207.5858573216526
 20
238.3204339919119
 30
0.0
 40
12.0
  0
LINE
  5
485
330
1F
100
AcDbEntity
  8
Layer0001
  6
Continuous
 62
    56
370
    25
100
AcDbLine
 10
-215.6687610903074
 20
238.3204339919119
 30
0.0
 11
-211.62730920598
 21
231.3204339919119
 31
0.0
  0
LINE
  5
486
330
1F
100
AcDbEntity
  8
Layer0001
  6
Continuous
 62
    56
370
    25
100
AcDbLine
 10
-211.62730920598
 20
231.3204339919119
 30
0.0
 11
-203.5444054373252
 21
231.3204339919119
 31
0.0
  0
LINE
  5
487
330
1F
100
AcDbEntity
  8
Layer0001
  6
Continuous
 62
    56
370
    25
100
AcDbLine
 10
-203.5444054373252
 20
231.3204339919119
 30
0.0
 11
-199.5029535529978
 21
238.3204339919119
 31
0.0
  0
LINE
  5
488
330
1F
100
AcDbEntity
  8
Layer0001
  6
Continuous
 62
    56
370
    25
100
AcDbLine
 10
-199.5029535529978
 20
238.3204339919119
 30
0.0
 11
-203.5444054373252
 21
245.320433991912
 31
0.0
  0
LINE
  5
489
330
1F
100
AcDbEntity
  8
Layer0001
  6
Continuous
 62
    56
370
    25
100
AcDbLine
 10
-203.5444054373252
 20
245.320433991912
 30
0.0
 11
-211.62730920598
 21
245.320433991912
 31
0.0
  0
LINE
  5
48A
330
1F
100
AcDbEntity
  8
Layer0001
  6
Continuous
 62
    56
370
    25
100
AcDbLine
 10
-211.62730920598
 20
245.320433991912
 30
0.0
 11
-215.6687610903074
 21
238.3204339919119
 31
0.0
  0
CIRCLE
  5
48B
330
1F
100
AcDbEntity
  8
Layer0001
  6
Continuous
 62
    56
370
    25
100
AcDbCircle
 10
-207.5858573216526
 20
73.32043399191181
 30
0.0
 40
9.228718707889783
  0
CIRCLE
  5
48C
330
1F
100
AcDbEntity
  8
Layer0001
  6
Continuous
 62
    56
370
    25
100
AcDbCircle
 10
-207.5858573216526
 20
73.32043399191181
 30
0.0
 40
12.0
  0
LINE
  5
48D
330
1F
100
AcDbEntity
  8
Layer0001
  6
Continuous
 62
    56
370
    25
100
AcDbLine
 10
-215.6687610903074
 20
73.32043399191181
 30
0.0
 11
-211.62730920598
 21
66.32043399191181
 31
0.0
  0
LINE
  5
48E
330
1F
100
AcDbEntity
  8
Layer0001
  6
Continuous
 62
    56
370
    25
100
AcDbLine
 10
-211.62730920598
 20
66.32043399191181
 30
0.0
 11
-203.5444054373252
 21
66.32043399191181
 31
0.0
  0
LINE
  5
48F
330
1F
100
AcDbEntity
  8
Layer0001
  6
Continuous
 62
    56
370
    25
100
AcDbLine
 10
-203.5444054373252
 20
66.32043399191181
 30
0.0
 11
-199.5029535529978
 21
73.32043399191181
 31
0.0
  0
LINE
  5
490
330
1F
100
AcDbEntity
  8
Layer0001
  6
Continuous
 62
    56
370
    25
100
AcDbLine
 10
-199.5029535529978
 20
73.32043399191181
 30
0.0
 11
-203.5444054373252
 21
80.32043399191181
 31
0.0
  0
LINE
  5
491
330
1F
100
AcDbEntity
  8
Layer0001
  6
Continuous
 62
    56
370
    25
100
AcDbLine
 10
-203.5444054373252
 20
80.32043399191181
 30
0.0
 11
-211.62730920598
 21
80.32043399191181
 31
0.0
  0
LINE
  5
492
330
1F
100
AcDbEntity
  8
Layer0001
  6
Continuous
 62
    56
370
    25
100
AcDbLine
 10
-211.62730920598
 20
80.32043399191181
 30
0.0
 11
-215.6687610903074
 21
73.32043399191181
 31
0.0
  0
LINE
  5
493
330
1F
100
AcDbEntity
  8
Layer0001
  6
Continuous
 62
    56
370
    25
100
AcDbLine
 10
46.45559456267489
 20
80.32043399191181
 30
0.0
 11
38.37269079402012
 21
80.32043399191181
 31
0.0
  0
LINE
  5
494
330
1F
100
AcDbEntity
  8
Layer0001
  6
Continuous
 62
    56
370
    25
100
AcDbLine
 10
38.37269079402012
 20
80.32043399191181
 30
0.0
 11
34.33123890969273
 21
73.32043399191181
 31
0.0
  0
LINE
  5
495
330
1F
100
AcDbEntity
  8
Layer0001
  6
Continuous
 62
    56
370
    25
100
AcDbLine
 10
34.33123890969273
 20
73.32043399191181
 30
0.0
 11
38.37269079402012
 21
66.32043399191181
 31
0.0
  0
LINE
  5
496
330
1F
100
AcDbEntity
  8
Layer0001
  6
Continuous
 62
    56
370
    25
100
AcDbLine
 10
38.37269079402012
 20
66.32043399191181
 30
0.0
 11
46.45559456267489
 21
66.32043399191181
 31
0.0
  0
LINE
  5
497
330
1F
100
AcDbEntity
  8
Layer0001
  6
Continuous
 62
    56
370
    25
100
AcDbLine
 10
46.45559456267489
 20
66.32043399191181
 30
0.0
 11
50.49704644700228
 21
73.32043399191181
 31
0.0
  0
LINE
  5
498
330
1F
100
AcDbEntity
  8
Layer0001
  6
Continuous
 62
    56
370
    25
100
AcDbLine
 10
50.49704644700228
 20
73.32043399191181
 30
0.0
 11
46.45559456267489
 21
80.32043399191181
 31
0.0
  0
LINE
  5
499
330
1F
100
AcDbEntity
  8
Layer0000
  6
DASHED2
 62
    30
370
    25
100
AcDbLine
 10
212.7909936010486
 20
2.163511976208817
 30
0.0
 11
212.7909936010486
 21
-15.83648802379124
 31
0.0
  0
LINE
  5
49A
330
1F
100
AcDbEntity
  8
Layer0000
  6
DASHED2
 62
    30
370
    25
100
AcDbLine
 10
229.7909936010486
 20
-15.83648802379124
 30
0.0
 11
206.7909936010486
 21
-15.83648802379124
 31
0.0
  0
LINE
  5
49B
330
1F
100
AcDbEntity
  8
Layer0000
  6
DASHED2
 62
    30
370
    25
100
AcDbLine
 10
229.7909936010486
 20
2.163511976208817
 30
0.0
 11
206.7909936010486
 21
2.163511976208817
 31
0.0
  0
LINE
  5
49C
330
1F
100
AcDbEntity
  8
Layer0000
  6
DASHED2
 62
    30
370
    25
100
AcDbLine
 10
229.7909936010486
 20
2.663511976208817
 30
0.0
 11
229.7909936010486
 21
-16.33648802379124
 31
0.0
  0
LINE
  5
49D
330
1F
100
AcDbEntity
  8
Layer0000
  6
DASHED2
 62
    30
370
    25
100
AcDbLine
 10
212.7909936010486
 20
-2.836488023791183
 30
0.0
 11
229.7909936010486
 21
-2.836488023791183
 31
0.0
  0
LINE
  5
49E
330
1F
100
AcDbEntity
  8
Layer0000
  6
DASHED2
 62
    30
370
    25
100
AcDbLine
 10
212.7909936010486
 20
-10.83648802379115
 30
0.0
 11
229.7909936010486
 21
-10.83648802379115
 31
0.0
  0
LINE
  5
49F
330
1F
100
AcDbEntity
  8
Layer0000
  6
DASHED2
 62
    30
370
    25
100
AcDbLine
 10
229.7909936010486
 20
2.663511976208817
 30
0.0
 11
239.7909936010486
 21
2.663511976208817
 31
0.0
  0
LINE
  5
4A0
330
1F
100
AcDbEntity
  8
Layer0000
  6
DASHED2
 62
    30
370
    25
100
AcDbLine
 10
239.7909936010486
 20
2.663511976208817
 30
0.0
 11
239.7909936010486
 21
-16.33648802379124
 31
0.0
  0
LINE
  5
4A1
330
1F
100
AcDbEntity
  8
Layer0000
  6
DASHED2
 62
    30
370
    25
100
AcDbLine
 10
229.7909936010486
 20
-16.33648802379124
 30
0.0
 11
239.7909936010486
 21
-16.33648802379124
 31
0.0
  0
LINE
  5
4A2
330
1F
100
AcDbEntity
  8
Layer0000
  6
DASHED2
 62
    30
370
    25
100
AcDbLine
 10
239.7909936010486
 20
1.663511976208817
 30
0.0
 11
244.6984708891605
 21
-6.836488023791297
 31
0.0
  0
LINE
  5
4A3
330
1F
100
AcDbEntity
  8
Layer0000
  6
DASHED2
 62
    30
370
    25
100
AcDbLine
 10
239.7909936010486
 20
-15.33648802379124
 30
0.0
 11
244.6984708891605
 21
-6.836488023791183
 31
0.0
  0
ARC
  5
4A4
330
1F
100
AcDbEntity
  8
Layer0000
  6
DASHED2
 62
    30
370
    25
100
AcDbCircle
 10
205.2909936010487
 20
-6.836488023791183
 30
0.0
 40
8.499999999999943
100
AcDbArc
 50
331.9275130641469
 51
28.07248693585307
  0
ARC
  5
4A5
330
1F
100
AcDbEntity
  8
Layer0000
  6
DASHED2
 62
    30
370
    25
100
AcDbCircle
 10
210.1659936010486
 20
-13.33648802379118
 30
0.0
 40
3.625000000000071
100
AcDbArc
 50
316.3971810272968
 51
43.60281897270317
  0
ARC
  5
4A6
330
1F
100
AcDbEntity
  8
Layer0000
  6
DASHED2
 62
    30
370
    25
100
AcDbCircle
 10
210.1659936010486
 20
-0.3364880237911265
 30
0.0
 40
3.625000000000071
100
AcDbArc
 50
316.3971810272968
 51
43.60281897270317
  0
LINE
  5
4A7
330
1F
100
AcDbEntity
  8
Layer0000
  6
DASHED2
 62
    30
370
    18
100
AcDbLine
 10
328.1369354169394
 20
-96.6053949993707
 30
0.0
 11
289.1369354169394
 21
-96.6053949993707
 31
0.0
  0
LINE
  5
4A8
330
1F
100
AcDbEntity
  8
Layer0000
  6
DASHED2
 62
    30
370
    18
100
AcDbLine
 10
289.1369354169394
 20
-110.1053949993707
 30
0.0
 11
289.1369354169394
 21
-94.5153949993707
 31
0.0
  0
LINE
  5
4A9
330
1F
100
AcDbEntity
  8
Layer0000
  6
DASHED2
 62
    30
370
    18
100
AcDbLine
 10
264.1369354169394
 20
-94.5153949993707
 30
0.0
 11
289.1369354169394
 21
-94.5153949993707
 31
0.0
  0
LINE
  5
4AA
330
1F
100
AcDbEntity
  8
Layer0000
  6
DASHED2
 62
    30
370
    18
100
AcDbLine
 10
329.1369354169394
 20
-97.6053949993707
 30
0.0
 11
329.1369354169394
 21
-110.1053949993707
 31
0.0
  0
LINE
  5
4AB
330
1F
100
AcDbEntity
  8
Layer0000
  6
DASHED2
 62
    30
370
    18
100
AcDbLine
 10
328.1369354169394
 20
-96.6053949993707
 30
0.0
 11
329.1369354169394
 21
-97.6053949993707
 31
0.0
  0
LINE
  5
4AC
330
1F
100
AcDbEntity
  8
Layer0000
  6
DASHED2
 62
    30
370
    18
100
AcDbLine
 10
264.1369354169394
 20
-102.2219386012128
 30
0.0
 11
289.1369354169394
 21
-102.2219386012128
 31
0.0
  0
LINE
  5
4AD
330
1F
100
AcDbEntity
  8
Layer0000
  6
DASHED2
 62
    30
370
    18
100
AcDbLine
 10
264.1369354169394
 20
-102.4896218935068
 30
0.0
 11
289.1369354169394
 21
-102.4896218935068
 31
0.0
  0
ARC
  5
4AE
330
1F
100
AcDbEntity
  8
Layer0000
  6
DASHED2
 62
    30
370
    18
100
AcDbCircle
 10
261.4250095239961
 20
-98.36866680029175
 30
0.0
 40
4.711925892943319
100
AcDbArc
 50
305.1378153244726
 51
54.86218467552735
  0
ARC
  5
4AF
330
1F
100
AcDbEntity
  8
Layer0000
  6
DASHED2
 62
    30
370
    18
100
AcDbCircle
 10
250.6369354169394
 20
-110.1053949993707
 30
0.0
 40
15.5
100
AcDbArc
 50
0.000000000000007
 51
29.42870717686699
  0
LINE
  5
4B0
330
1F
100
AcDbEntity
  8
Layer0000
  6
DASHED2
 62
    30
370
    18
100
AcDbLine
 10
328.1369354169394
 20
-123.6053949993708
 30
0.0
 11
289.1369354169394
 21
-123.6053949993708
 31
0.0
  0
LINE
  5
4B1
330
1F
100
AcDbEntity
  8
Layer0000
  6
DASHED2
 62
    30
370
    18
100
AcDbLine
 10
289.1369354169394
 20
-110.1053949993708
 30
0.0
 11
289.1369354169394
 21
-125.6953949993708
 31
0.0
  0
LINE
  5
4B2
330
1F
100
AcDbEntity
  8
Layer0000
  6
DASHED2
 62
    30
370
    18
100
AcDbLine
 10
264.1369354169394
 20
-125.6953949993707
 30
0.0
 11
289.1369354169394
 21
-125.6953949993708
 31
0.0
  0
LINE
  5
4B3
330
1F
100
AcDbEntity
  8
Layer0000
  6
DASHED2
 62
    30
370
    18
100
AcDbLine
 10
329.1369354169394
 20
-122.6053949993708
 30
0.0
 11
329.1369354169394
 21
-110.1053949993708
 31
0.0
  0
LINE
  5
4B4
330
1F
100
AcDbEntity
  8
Layer0000
  6
DASHED2
 62
    30
370
    18
100
AcDbLine
 10
328.1369354169394
 20
-123.6053949993708
 30
0.0
 11
329.1369354169394
 21
-122.6053949993708
 31
0.0
  0
LINE
  5
4B5
330
1F
100
AcDbEntity
  8
Layer0000
  6
DASHED2
 62
    30
370
    18
100
AcDbLine
 10
264.1369354169394
 20
-117.9888513975287
 30
0.0
 11
289.1369354169394
 21
-117.9888513975287
 31
0.0
  0
LINE
  5
4B6
330
1F
100
AcDbEntity
  8
Layer0000
  6
DASHED2
 62
    30
370
    18
100
AcDbLine
 10
264.1369354169394
 20
-117.7211681052347
 30
0.0
 11
289.1369354169394
 21
-117.7211681052347
 31
0.0
  0
ARC
  5
4B7
330
1F
100
AcDbEntity
  8
Layer0000
  6
DASHED2
 62
    30
370
    18
100
AcDbCircle
 10
261.4250095239961
 20
-121.8421231984497
 30
0.0
 40
4.711925892943319
100
AcDbArc
 50
305.1378153244726
 51
54.8621846755273
  0
ARC
  5
4B8
330
1F
100
AcDbEntity
  8
Layer0000
  6
DASHED2
 62
    30
370
    18
100
AcDbCircle
 10
250.6369354169394
 20
-110.1053949993707
 30
0.0
 40
15.5
100
AcDbArc
 50
330.571292823133
 51
359.9999999999999
  0
LINE
  5
4B9
330
1F
100
AcDbEntity
  8
Layer0000
  6
CENTER
 62
     2
370
    18
100
AcDbLine
 10
264.1369354169394
 20
-110.1053949993707
 30
0.0
 11
364.1369354169394
 21
-110.1053949993708
 31
0.0
  0
LINE
  5
4BA
330
1F
100
AcDbEntity
  8
Layer0014
  6
DIVIDE
 62
     4
370
    25
100
AcDbLine
 10
-69.58585732165234
 20
-79.42899836972225
 30
0.0
 11
-69.58585732165234
 21
-120.9289983697222
 31
0.0
  0
LINE
  5
4BB
330
1F
100
AcDbEntity
  8
Layer0014
  6
DIVIDE
 62
     4
370
    25
100
AcDbLine
 10
-61.03248456343454
 20
-78.92899836972225
 30
0.0
 11
-37.58585732165245
 21
-78.92899836972225
 31
0.0
  0
LINE
  5
4BC
330
1F
100
AcDbEntity
  8
Layer0014
  6
DIVIDE
 62
     4
370
    25
100
AcDbLine
 10
-37.7858573216525
 20
-124.9289983697222
 30
0.0
 11
-48.7858573216525
 21
-124.9289983697222
 31
0.0
  0
LINE
  5
4BD
330
1F
100
AcDbEntity
  8
Layer0014
  6
DIVIDE
 62
     4
370
    25
100
AcDbLine
 10
-37.7858573216525
 20
-124.9289983697222
 30
0.0
 11
-37.7858573216525
 21
-120.9289983697222
 31
0.0
  0
LINE
  5
4BE
330
1F
100
AcDbEntity
  8
Layer0014
  6
DIVIDE
 62
     4
370
    25
100
AcDbLine
 10
-48.7858573216525
 20
-123.9289983697222
 30
0.0
 11
-61.78585732165239
 21
-123.9289983697222
 31
0.0
  0
LINE
  5
4BF
330
1F
100
AcDbEntity
  8
Layer0014
  6
DIVIDE
 62
     4
370
    25
100
AcDbLine
 10
-48.7858573216525
 20
-124.9289983697222
 30
0.0
 11
-48.7858573216525
 21
-123.9289983697222
 31
0.0
  0
LINE
  5
4C0
330
1F
100
AcDbEntity
  8
Layer0014
  6
DIVIDE
 62
     4
370
    25
100
AcDbLine
 10
-61.78585732165239
 20
-120.9289983697222
 30
0.0
 11
-61.78585732165239
 21
-123.9289983697222
 31
0.0
  0
LINE
  5
4C1
330
1F
100
AcDbEntity
  8
Layer0014
  6
DIVIDE
 62
     4
370
    25
100
AcDbLine
 10
-56.78585732165239
 20
-120.9289983697222
 30
0.0
 11
-56.78585732165239
 21
-120.4289983697222
 31
0.0
  0
LINE
  5
4C2
330
1F
100
AcDbEntity
  8
Layer0014
  6
DIVIDE
 62
     4
370
    25
100
AcDbLine
 10
-56.78585732165239
 20
-120.4289983697222
 30
0.0
 11
-47.54831716976889
 21
-120.4289983697222
 31
0.0
  0
LINE
  5
4C3
330
1F
100
AcDbEntity
  8
Layer0014
  6
DIVIDE
 62
     4
370
    25
100
AcDbLine
 10
-69.58585732165234
 20
-79.42899836972225
 30
0.0
 11
-60.87002471531808
 21
-79.42899836972225
 31
0.0
  0
LINE
  5
4C4
330
1F
100
AcDbEntity
  8
Layer0014
  6
DIVIDE
 62
     4
370
    25
100
AcDbLine
 10
-47.38585732165245
 20
-120.9289983697222
 30
0.0
 11
-61.03248456343454
 21
-78.92899836972225
 31
0.0
  0
LINE
  5
4C5
330
1F
100
AcDbEntity
  8
Layer0014
  6
DIVIDE
 62
     4
370
    25
100
AcDbLine
 10
-56.78585732165239
 20
-120.9289983697222
 30
0.0
 11
-47.38585732165245
 21
-120.9289983697222
 31
0.0
  0
LINE
  5
4C6
330
1F
100
AcDbEntity
  8
Layer0014
  6
DIVIDE
 62
     4
370
    25
100
AcDbLine
 10
-37.58585732165245
 20
-120.9289983697222
 30
0.0
 11
-47.38585732165245
 21
-120.9289983697222
 31
0.0
  0
LINE
  5
4C7
330
1F
100
AcDbEntity
  8
Layer0014
  6
DIVIDE
 62
     4
370
    25
100
AcDbLine
 10
-56.78585732165239
 20
-120.9289983697222
 30
0.0
 11
-69.58585732165234
 21
-120.9289983697222
 31
0.0
  0
LINE
  5
4C8
330
1F
100
AcDbEntity
  8
Layer0014
  6
DIVIDE
 62
     4
370
    25
100
AcDbLine
 10
-37.58585732165245
 20
-78.92899836972225
 30
0.0
 11
-37.58585732165245
 21
-120.9289983697222
 31
0.0
  0
DIMENSION
  5
4C9
330
1F
100
AcDbEntity
  8
Layer0015
  6
Continuous
370
    25
100
AcDbDimension
  2
*D1
 10
-380.9594771241829
 20
218.3204339919119
 30
0.0
 11
-380.9594771241829
 21
155.8204339919119
 31
0.0
 70
    32
 71
     8
 42
-1.0
  3
DaDimRotatedStyle
100
AcDbAlignedDimension
 13
-371.5858573216526
 23
93.3204339919119
 33
0.0
 14
-371.5858573216526
 24
218.3204339919119
 34
0.0
 50
90.0
100
AcDbRotatedDimension
1001
ACAD
1000
DSTYLE
1002
{
1070
   274
1070
     4
1070
    41
1040
2.999996871569202
1070
   289
1070
     0
1070
    79
1070
     2
1070
   343
1005
F8
1070
   344
1005
F8
1070
   176
1070
     2
1070
   177
1070
     2
1070
   178
1070
     2
1070
   271
1070
     3
1070
    44
1040
0.8
1070
    42
1040
1.0
1070
   147
1040
1.0
1070
   173
1070
     1
1070
    77
1070
     3
1070
    73
1070
     0
1070
   172
1070
     1
1070
    74
1070
     0
1070
   283
1070
     0
1070
   340
1005
102
1070
   140
1040
5.0
1070
   284
1070
     8
1070
   288
1070
     1
1070
    78
1070
     8
1002
}
  0
DIMENSION
  5
4CB
330
1F
100
AcDbEntity
  8
Layer0015
  6
Continuous
370
    25
100
AcDbDimension
  2
*D2
 10
-244.4811720171687
 20
178.3204339919119
 30
0.0
 11
-244.4811720171687
 21
162.2341361248095
 31
0.0
 70
    32
 71
     8
 42
-1.0
  3
DaDimRotatedStyle
100
AcDbAlignedDimension
 13
-244.4811720171687
 23
133.3204339919119
 33
0.0
 14
-244.4811720171687
 24
178.3204339919119
 34
0.0
 50
90.0
100
AcDbRotatedDimension
1001
ACAD
1000
DSTYLE
1002
{
1070
   274
1070
     4
1070
    41
1040
2.999996871569202
1070
   289
1070
     0
1070
    79
1070
     2
1070
   343
1005
F8
1070
   344
1005
F8
1070
   176
1070
     2
1070
   177
1070
     7
1070
   178
1070
     2
1070
   271
1070
     3
1070
    44
1040
0.0
1070
    42
1040
1.0
1070
   147
1040
1.0
1070
   173
1070
     1
1070
    75
1070
     1
1070
    76
1070
     1
1070
    77
1070
     3
1070
    73
1070
     0
1070
   172
1070
     1
1070
    74
1070
     0
1070
   283
1070
     0
1070
   340
1005
102
1070
   140
1040
5.0
1070
   284
1070
     8
1070
   288
1070
     1
1070
    78
1070
     8
1002
}
  0
DIMENSION
  5
4CC
330
1F
100
AcDbEntity
  8
Layer0015
  6
Continuous
370
    25
100
AcDbDimension
  2
*D3
 10
-232.3188648387171
 20
204.8204339919119
 30
0.0
 11
-232.3188648387171
 21
163.2917280533705
 31
0.0
 70
    32
 71
     8
 42
-1.0
  3
DaDimRotatedStyle
100
AcDbAlignedDimension
 13
-232.3188648387171
 23
106.8204339919119
 33
0.0
 14
-232.3188648387171
 24
204.8204339919119
 34
0.0
 50
90.0
100
AcDbRotatedDimension
1001
ACAD
1000
DSTYLE
1002
{
1070
   274
1070
     4
1070
    41
1040
2.999996871569202
1070
   289
1070
     0
1070
    79
1070
     2
1070
   343
1005
F8
1070
   344
1005
F8
1070
   176
1070
     2
1070
   177
1070
     7
1070
   178
1070
     2
1070
   271
1070
     3
1070
    44
1040
0.0
1070
    42
1040
1.0
1070
   147
1040
1.0
1070
   173
1070
     1
1070
    75
1070
     1
1070
    76
1070
     1
1070
    77
1070
     3
1070
    73
1070
     0
1070
   172
1070
     1
1070
    74
1070
     0
1070
   283
1070
     0
1070
   340
1005
102
1070
   140
1040
5.0
1070
   284
1070
     8
1070
   288
1070
     1
1070
    78
1070
     8
1002
}
  0
DIMENSION
  5
4CD
330
1F
100
AcDbEntity
  8
Layer0015
  6
Continuous
370
    25
100
AcDbDimension
  2
*D4
 10
366.180225281602
 20
93.3204339919119
 30
0.0
 11
366.180225281602
 21
67.32043399191184
 31
0.0
 70
    32
 71
     8
 42
-1.0
  3
DaDimRotatedStyle
100
AcDbAlignedDimension
 13
347.9292024122018
 23
47.32043399191178
 33
0.0
 14
348.0688360450564
 24
93.3204339919119
 34
0.0
 50
90.0
100
AcDbRotatedDimension
1001
ACAD
1000
DSTYLE
1002
{
1070
   274
1070
     4
1070
    41
1040
2.999996871569202
1070
   289
1070
     0
1070
    79
1070
     2
1070
   343
1005
F8
1070
   344
1005
F8
1070
   176
1070
     2
1070
   177
1070
     2
1070
   178
1070
     2
1070
   271
1070
     3
1070
    44
1040
0.8
1070
    42
1040
1.0
1070
   147
1040
1.0
1070
   173
1070
     1
1070
    77
1070
     3
1070
    73
1070
     0
1070
   172
1070
     1
1070
    74
1070
     0
1070
   283
1070
     0
1070
   340
1005
102
1070
   140
1040
5.0
1070
   284
1070
     8
1070
   288
1070
     1
1070
    78
1070
     8
1002
}
  0
DIMENSION
  5
4CE
330
1F
100
AcDbEntity
  8
Layer0015
  6
Continuous
370
    25
100
AcDbDimension
  2
*D5
 10
366.180225281602
 20
218.3204339919119
 30
0.0
 11
366.180225281602
 21
155.8204339919119
 31
0.0
 70
    32
 71
     8
 42
-1.0
  3
DaDimRotatedStyle
100
AcDbAlignedDimension
 13
348.0688360450564
 23
93.3204339919119
 33
0.0
 14
348.0688360450564
 24
218.3204339919119
 34
0.0
 50
90.0
100
AcDbRotatedDimension
1001
ACAD
1000
DSTYLE
1002
{
1070
   274
1070
     4
1070
    41
1040
2.999996871569202
1070
   289
1070
     0
1070
    79
1070
     2
1070
   343
1005
F8
1070
   344
1005
F8
1070
   176
1070
     2
1070
   177
1070
     2
1070
   178
1070
     2
1070
   271
1070
     3
1070
    44
1040
0.8
1070
    42
1040
1.0
1070
   147
1040
1.0
1070
   173
1070
     1
1070
    77
1070
     3
1070
    73
1070
     0
1070
   172
1070
     1
1070
    74
1070
     0
1070
   283
1070
     0
1070
   340
1005
102
1070
   140
1040
5.0
1070
   284
1070
     8
1070
   288
1070
     1
1070
    78
1070
     8
1002
}
  0
DIMENSION
  5
4CF
330
1F
100
AcDbEntity
  8
Layer0015
  6
Continuous
370
    25
100
AcDbDimension
  2
*D6
 10
366.180225281602
 20
264.320433991912
 30
0.0
 11
366.180225281602
 21
244.320433991912
 31
0.0
 70
    32
 71
     8
 42
-1.0
  3
DaDimRotatedStyle
100
AcDbAlignedDimension
 13
348.0688360450564
 23
218.3204339919119
 33
0.0
 14
347.7946789938231
 24
264.320433991912
 34
0.0
 50
90.0
100
AcDbRotatedDimension
1001
ACAD
1000
DSTYLE
1002
{
1070
   274
1070
     4
1070
    41
1040
2.999996871569202
1070
   289
1070
     0
1070
    79
1070
     2
1070
   343
1005
F8
1070
   344
1005
F8
1070
   176
1070
     2
1070
   177
1070
     2
1070
   178
1070
     2
1070
   271
1070
     3
1070
    44
1040
0.8
1070
    42
1040
1.0
1070
   147
1040
1.0
1070
   173
1070
     1
1070
    77
1070
     3
1070
    73
1070
     0
1070
   172
1070
     1
1070
    74
1070
     0
1070
   283
1070
     0
1070
   340
1005
102
1070
   140
1040
5.0
1070
   284
1070
     8
1070
   288
1070
     1
1070
    78
1070
     8
1002
}
  0
DIMENSION
  5
4D0
330
1F
100
AcDbEntity
  8
Layer0015
  6
Continuous
370
    25
100
AcDbDimension
  2
*D7
 10
377.5695416817034
 20
264.320433991912
 30
0.0
 11
377.5695416817034
 21
155.8204339919119
 31
0.0
 70
    32
 71
     8
 42
-1.0
  3
DaDimRotatedStyle
100
AcDbAlignedDimension
 13
347.9292024122018
 23
47.32043399191178
 33
0.0
 14
347.7946789938231
 24
264.320433991912
 34
0.0
 50
90.0
100
AcDbRotatedDimension
1001
ACAD
1000
DSTYLE
1002
{
1070
   274
1070
     4
1070
    41
1040
2.999996871569202
1070
   289
1070
     0
1070
    79
1070
     2
1070
   343
1005
F8
1070
   344
1005
F8
1070
   176
1070
     2
1070
   177
1070
     2
1070
   178
1070
     2
1070
   271
1070
     3
1070
    44
1040
0.8
1070
    42
1040
1.0
1070
   147
1040
1.0
1070
   173
1070
     1
1070
    77
1070
     3
1070
    73
1070
     0
1070
   172
1070
     1
1070
    74
1070
     0
1070
   283
1070
     0
1070
   340
1005
102
1070
   140
1040
5.0
1070
   284
1070
     8
1070
   288
1070
     1
1070
    78
1070
     8
1002
}
  0
DIMENSION
  5
4D1
330
1F
100
AcDbEntity
  8
Layer0015
  6
Continuous
370
    25
100
AcDbDimension
  2
*D8
 10
-380.6306176930864
 20
-79.4289983697222
 30
0.0
 11
-380.6306176930864
 21
-142.1789983697221
 31
0.0
 70
    32
 71
     8
 42
-1.0
  3
DaDimRotatedStyle
100
AcDbAlignedDimension
 13
-371.5858573216526
 23
-204.9289983697221
 33
0.0
 14
-372.0858573216526
 24
-79.4289983697222
 34
0.0
 50
90.0
100
AcDbRotatedDimension
1001
ACAD
1000
DSTYLE
1002
{
1070
   274
1070
     4
1070
    41
1040
2.999996871569202
1070
   289
1070
     0
1070
    79
1070
     2
1070
   343
1005
F8
1070
   344
1005
F8
1070
   176
1070
     2
1070
   177
1070
     2
1070
   178
1070
     2
1070
   271
1070
     3
1070
    44
1040
0.8
1070
    42
1040
1.0
1070
   147
1040
1.0
1070
   173
1070
     1
1070
    77
1070
     3
1070
    73
1070
     0
1070
   172
1070
     1
1070
    74
1070
     0
1070
   283
1070
     0
1070
   340
1005
102
1070
   140
1040
5.0
1070
   284
1070
     8
1070
   288
1070
     1
1070
    78
1070
     8
1002
}
  0
DIMENSION
  5
4D2
330
1F
100
AcDbEntity
  8
Layer0015
  6
Continuous
370
    25
100
AcDbDimension
  2
*D9
 10
-389.6306176930864
 20
-55.92899836972219
 30
0.0
 11
-389.6306176930864
 21
-130.4289983697221
 31
0.0
 70
    32
 71
     8
 42
-1.0
  3
DaDimRotatedStyle
100
AcDbAlignedDimension
 13
-371.5858573216526
 23
-204.9289983697221
 33
0.0
 14
-356.5858573216527
 24
-55.92899836972219
 34
0.0
 50
90.0
100
AcDbRotatedDimension
1001
ACAD
1000
DSTYLE
1002
{
1070
   274
1070
     4
1070
    41
1040
2.999996871569202
1070
   289
1070
     0
1070
    79
1070
     2
1070
   343
1005
F8
1070
   344
1005
F8
1070
   176
1070
     2
1070
   177
1070
     2
1070
   178
1070
     2
1070
   271
1070
     3
1070
    44
1040
0.8
1070
    42
1040
1.0
1070
   147
1040
1.0
1070
   173
1070
     1
1070
    77
1070
     3
1070
    73
1070
     0
1070
   172
1070
     1
1070
    74
1070
     0
1070
   283
1070
     0
1070
   340
1005
102
1070
   140
1040
5.0
1070
   284
1070
     8
1070
   288
1070
     1
1070
    78
1070
     8
1002
}
  0
INSERT
  5
4D3
330
1F
100
AcDbEntity
  8
Layer0015
  6
Continuous
100
AcDbBlockReference
  2
DA_IMAGEDIMGROUP_1
 10
0.0
 20
0.0
 30
0.0
  0
DIMENSION
  5
4D4
330
1F
100
AcDbEntity
  8
Layer0015
  6
Continuous
370
    25
100
AcDbDimension
  2
*D11
 10
-207.5858573216526
 20
-243.2010085436994
 30
0.0
 11
-242.5858573216526
 21
-243.2010085436994
 31
0.0
 70
    32
 71
     8
 42
-1.0
  3
DaDimRotatedStyle
100
AcDbAlignedDimension
 13
-277.5858573216525
 23
-124.9289983697222
 33
0.0
 14
-207.5858573216526
 24
-214.189391563983
 34
0.0
100
AcDbRotatedDimension
1001
ACAD
1000
DSTYLE
1002
{
1070
   274
1070
     4
1070
    41
1040
2.999996871569202
1070
   289
1070
     0
1070
    79
1070
     2
1070
   343
1005
F8
1070
   344
1005
F8
1070
   176
1070
     2
1070
   177
1070
     2
1070
   178
1070
     2
1070
   271
1070
     3
1070
    44
1040
0.6666670000000181
1070
    42
1040
1.0
1070
   147
1040
1.0
1070
   173
1070
     1
1070
    77
1070
     3
1070
    73
1070
     0
1070
   172
1070
     1
1070
    74
1070
     0
1070
   283
1070
     0
1070
   340
1005
102
1070
   140
1040
5.0
1070
   284
1070
     8
1070
   288
1070
     1
1070
    78
1070
     8
1002
}
  0
DIMENSION
  5
4D5
330
1F
100
AcDbEntity
  8
Layer0015
  6
Continuous
370
    25
100
AcDbDimension
  2
*D12
 10
-207.5858573216526
 20
-233.2010085436994
 30
0.0
 11
-232.5858573216526
 21
-233.2010085436994
 31
0.0
 70
    32
 71
     8
 42
-1.0
  3
DaDimRotatedStyle
100
AcDbAlignedDimension
 13
-257.5858573216526
 23
-204.9289983697221
 33
0.0
 14
-207.5858573216526
 24
-212.9289983697221
 34
0.0
100
AcDbRotatedDimension
1001
ACAD
1000
DSTYLE
1002
{
1070
   274
1070
     4
1070
    41
1040
2.999996871569202
1070
   289
1070
     0
1070
    79
1070
     2
1070
   343
1005
F8
1070
   344
1005
F8
1070
   176
1070
     2
1070
   177
1070
     2
1070
   178
1070
     2
1070
   271
1070
     3
1070
    44
1040
0.6666670000000181
1070
    42
1040
1.0
1070
   147
1040
1.0
1070
   173
1070
     1
1070
    77
1070
     3
1070
    73
1070
     0
1070
   172
1070
     1
1070
    74
1070
     0
1070
   283
1070
     0
1070
   340
1005
102
1070
   140
1040
5.0
1070
   284
1070
     8
1070
   288
1070
     1
1070
    78
1070
     8
1002
}
  0
DIMENSION
  5
4D6
330
1F
100
AcDbEntity
  8
Layer0015
  6
Continuous
370
    25
100
AcDbDimension
  2
*D13
 10
-157.5858573216526
 20
-233.2010085436994
 30
0.0
 11
-182.5858573216526
 21
-233.2010085436994
 31
0.0
 70
    32
 71
     8
 42
-1.0
  3
DaDimRotatedStyle
100
AcDbAlignedDimension
 13
-207.5858573216526
 23
-212.9289983697221
 33
0.0
 14
-157.5858573216526
 24
-204.9289983697221
 34
0.0
100
AcDbRotatedDimension
1001
ACAD
1000
DSTYLE
1002
{
1070
   274
1070
     4
1070
    41
1040
2.999996871569202
1070
   289
1070
     0
1070
    79
1070
     2
1070
   343
1005
F8
1070
   344
1005
F8
1070
   176
1070
     2
1070
   177
1070
     2
1070
   178
1070
     2
1070
   271
1070
     3
1070
    44
1040
0.6666670000000181
1070
    42
1040
1.0
1070
   147
1040
1.0
1070
   173
1070
     1
1070
    77
1070
     3
1070
    73
1070
     0
1070
   172
1070
     1
1070
    74
1070
     0
1070
   283
1070
     0
1070
   340
1005
102
1070
   140
1040
5.0
1070
   284
1070
     8
1070
   288
1070
     1
1070
    78
1070
     8
1002
}
  0
DIMENSION
  5
4D7
330
1F
100
AcDbEntity
  8
Layer0015
  6
Continuous
370
    13
100
AcDbDimension
  2
*D14
 10
176.1141426783478
 20
-11.25672625976382
 30
0.0
 11
-98.23585732165242
 21
-11.25672625976382
 31
0.0
 70
    32
  1
549
 71
     8
 42
-1.0
  3
DaDimRotatedStyle
100
AcDbAlignedDimension
 13
-372.5858573216526
 23
93.8204339919119
 33
0.0
 14
176.1141426783478
 24
149.0704339919119
 34
0.0
100
AcDbRotatedDimension
1001
ACAD
1000
DSTYLE
1002
{
1070
   274
1070
     4
1070
    41
1040
2.999996871569202
1070
   289
1070
     0
1070
    79
1070
     2
1070
   343
1005
F8
1070
   344
1005
F8
1070
   176
1070
     2
1070
   177
1070
     2
1070
   178
1070
     2
1070
   271
1070
     3
1070
    44
1040
0.8
1070
    42
1040
1.0
1070
   147
1040
1.0
1070
   173
1070
     1
1070
    77
1070
     3
1070
    73
1070
     0
1070
   172
1070
     1
1070
    74
1070
     0
1070
   283
1070
     0
1070
   340
1005
102
1070
   140
1040
5.0
1070
   284
1070
     8
1070
   288
1070
     1
1070
    78
1070
     8
1002
}
  0
DIMENSION
  5
4D8
330
1F
100
AcDbEntity
  8
Layer0015
  6
Continuous
370
    13
100
AcDbDimension
  2
*D15
 10
-277.5858573216525
 20
-56.92287739990549
 30
0.0
 11
-285.0858573216525
 21
-56.92287739990549
 31
0.0
 70
    32
 71
     8
 42
-1.0
  3
DaDimRotatedStyle
100
AcDbAlignedDimension
 13
-292.5858573216525
 23
-78.9289983697222
 33
0.0
 14
-277.5858573216525
 24
-78.9289983697222
 34
0.0
100
AcDbRotatedDimension
1001
ACAD
1000
DSTYLE
1002
{
1070
   274
1070
     4
1070
    41
1040
2.999996871569202
1070
   289
1070
     0
1070
    79
1070
     2
1070
   343
1005
F8
1070
   344
1005
F8
1070
   176
1070
     2
1070
   177
1070
     2
1070
   178
1070
     2
1070
   271
1070
     3
1070
    44
1040
0.8
1070
    42
1040
1.0
1070
   147
1040
1.0
1070
   173
1070
     1
1070
    77
1070
     3
1070
    73
1070
     0
1070
   172
1070
     1
1070
    74
1070
     0
1070
   283
1070
     0
1070
   340
1005
102
1070
   140
1040
5.0
1070
   284
1070
     8
1070
   288
1070
     1
1070
    78
1070
     8
1002
}
  0
DIMENSION
  5
4D9
330
1F
100
AcDbEntity
  8
Layer0015
  6
Continuous
370
    13
100
AcDbDimension
  2
*D16
 10
-185.7822584453033
 20
-204.9289983697221
 30
0.0
 11
-185.7822584453033
 21
-208.9289983697221
 31
0.0
 70
    32
 71
     8
 42
-1.0
  3
DaDimRotatedStyle
100
AcDbAlignedDimension
 13
-198.5858573216526
 23
-212.9289983697221
 33
0.0
 14
-216.5858573216526
 24
-204.9289983697221
 34
0.0
 50
90.0
100
AcDbRotatedDimension
1001
ACAD
1000
DSTYLE
1002
{
1070
   274
1070
     4
1070
    41
1040
2.999996871569202
1070
   289
1070
     0
1070
    79
1070
     2
1070
   343
1005
F8
1070
   344
1005
F8
1070
   176
1070
     2
1070
   177
1070
     2
1070
   178
1070
     2
1070
   271
1070
     3
1070
    44
1040
0.8
1070
    42
1040
1.0
1070
   147
1040
1.0
1070
   173
1070
     1
1070
    77
1070
     3
1070
    73
1070
     0
1070
   172
1070
     1
1070
    74
1070
     0
1070
   283
1070
     0
1070
   340
1005
102
1070
   140
1040
5.0
1070
   284
1070
     8
1070
   288
1070
     1
1070
    78
1070
     8
1002
}
  0
DIMENSION
  5
4DA
330
1F
100
AcDbEntity
  8
Layer0015
  6
Continuous
370
    13
100
AcDbDimension
  2
*D17
 10
-185.7822584453033
 20
-124.9289983697222
 30
0.0
 11
-185.7822584453033
 21
-164.9289983697221
 31
0.0
 70
    32
 71
     8
 42
-1.0
  3
DaDimRotatedStyle
100
AcDbAlignedDimension
 13
-216.5858573216526
 23
-204.9289983697221
 33
0.0
 14
-185.7822584453033
 24
-124.9289983697222
 34
0.0
 50
90.0
100
AcDbRotatedDimension
1001
ACAD
1000
DSTYLE
1002
{
1070
   274
1070
     4
1070
    41
1040
2.999996871569202
1070
   289
1070
     0
1070
    79
1070
     2
1070
   343
1005
F8
1070
   344
1005
F8
1070
   176
1070
     2
1070
   177
1070
     2
1070
   178
1070
     2
1070
   271
1070
     3
1070
    44
1040
0.8
1070
    42
1040
1.0
1070
   147
1040
1.0
1070
   173
1070
     1
1070
    76
1070
     1
1070
    77
1070
     3
1070
    73
1070
     0
1070
   172
1070
     1
1070
    74
1070
     0
1070
   283
1070
     0
1070
   340
1005
102
1070
   140
1040
5.0
1070
   284
1070
     8
1070
   288
1070
     1
1070
    78
1070
     8
1002
}
  0
DIMENSION
  5
4DB
330
1F
100
AcDbEntity
  8
Layer0015
  6
Continuous
370
    13
100
AcDbDimension
  2
*D18
 10
-185.7822584453033
 20
-78.9289983697222
 30
0.0
 11
-185.7822584453033
 21
-101.9289983697222
 31
0.0
 70
    32
 71
     8
 42
-1.0
  3
DaDimRotatedStyle
100
AcDbAlignedDimension
 13
-185.7822584453033
 23
-124.9289983697222
 33
0.0
 14
-285.0858573216525
 24
-78.9289983697222
 34
0.0
 50
90.0
100
AcDbRotatedDimension
1001
ACAD
1000
DSTYLE
1002
{
1070
   274
1070
     4
1070
    41
1040
2.999996871569202
1070
   289
1070
     0
1070
    79
1070
     2
1070
   343
1005
F8
1070
   344
1005
F8
1070
   176
1070
     2
1070
   177
1070
     2
1070
   178
1070
     2
1070
   271
1070
     3
1070
    44
1040
0.8
1070
    42
1040
1.0
1070
   147
1040
1.0
1070
   173
1070
     1
1070
    75
1070
     1
1070
    77
1070
     3
1070
    73
1070
     0
1070
   172
1070
     1
1070
    74
1070
     0
1070
   283
1070
     0
1070
   340
1005
102
1070
   140
1040
5.0
1070
   284
1070
     8
1070
   288
1070
     1
1070
    78
1070
     8
1002
}
  0
DIMENSION
  5
4DC
330
1F
100
AcDbEntity
  8
Layer0015
  6
Continuous
370
    13
100
AcDbDimension
  2
*D19
 10
-277.5858573216525
 20
-41.35418475750299
 30
0.0
 11
-325.0858573216526
 21
-41.35418475750299
 31
0.0
 70
    32
 71
     8
 42
-1.0
  3
DaDimRotatedStyle
100
AcDbAlignedDimension
 13
-372.5858573216526
 23
-79.9289983697222
 33
0.0
 14
-277.5858573216525
 24
-78.9289983697222
 34
0.0
100
AcDbRotatedDimension
1001
ACAD
1000
DSTYLE
1002
{
1070
   274
1070
     4
1070
    41
1040
2.999996871569202
1070
   289
1070
     0
1070
    79
1070
     2
1070
   343
1005
F8
1070
   344
1005
F8
1070
   176
1070
     2
1070
   177
1070
     2
1070
   178
1070
     2
1070
   271
1070
     3
1070
    44
1040
0.8
1070
    42
1040
1.0
1070
   147
1040
1.0
1070
   173
1070
     1
1070
    77
1070
     3
1070
    73
1070
     0
1070
   172
1070
     1
1070
    74
1070
     0
1070
   283
1070
     0
1070
   340
1005
102
1070
   140
1040
5.0
1070
   284
1070
     8
1070
   288
1070
     1
1070
    78
1070
     8
1002
}
  0
DIMENSION
  5
4DD
330
1F
100
AcDbEntity
  8
Layer0015
  6
Continuous
370
    13
100
AcDbDimension
  2
*D20
 10
-52.5858573216525
 20
-41.35418475750299
 30
0.0
 11
-165.0858573216525
 21
-41.35418475750299
 31
0.0
 70
    32
  1
0～<>
 71
     8
 42
-1.0
  3
DaDimRotatedStyle
100
AcDbAlignedDimension
 13
-277.5858573216525
 23
-78.9289983697222
 33
0.0
 14
-52.5858573216525
 24
-78.9289983697222
 34
0.0
100
AcDbRotatedDimension
1001
ACAD
1000
DSTYLE
1002
{
1070
   274
1070
     4
1070
    41
1040
2.999996871569202
1070
   289
1070
     0
1070
    79
1070
     2
1070
   343
1005
F8
1070
   344
1005
F8
1070
   176
1070
     2
1070
   177
1070
     2
1070
   178
1070
     2
1070
   271
1070
     3
1070
    44
1040
0.8
1070
    42
1040
1.0
1070
   147
1040
1.0
1070
   173
1070
     1
1070
    77
1070
     3
1070
    73
1070
     0
1070
   172
1070
     1
1070
    74
1070
     0
1070
   283
1070
     0
1070
   340
1005
102
1070
   140
1040
5.0
1070
   284
1070
     8
1070
   288
1070
     1
1070
    78
1070
     8
1002
}
  0
DIMENSION
  5
4DE
330
1F
100
AcDbEntity
  8
Layer0015
  6
Continuous
370
    13
100
AcDbDimension
  2
*D21
 10
176.1141426783478
 20
-41.35418475750299
 30
0.0
 11
61.76414267834764
 21
-41.35418475750299
 31
0.0
 70
    32
  1
229
 71
     8
 42
-1.0
  3
DaDimRotatedStyle
100
AcDbAlignedDimension
 13
-52.5858573216525
 23
-78.9289983697222
 33
0.0
 14
176.1141426783478
 24
-101.9289983697222
 34
0.0
100
AcDbRotatedDimension
1001
ACAD
1000
DSTYLE
1002
{
1070
   274
1070
     4
1070
    41
1040
2.999996871569202
1070
   289
1070
     0
1070
    79
1070
     2
1070
   343
1005
F8
1070
   344
1005
F8
1070
   176
1070
     2
1070
   177
1070
     2
1070
   178
1070
     2
1070
   271
1070
     3
1070
    44
1040
0.8
1070
    42
1040
1.0
1070
   147
1040
1.0
1070
   173
1070
     1
1070
    77
1070
     3
1070
    73
1070
     0
1070
   172
1070
     1
1070
    74
1070
     0
1070
   283
1070
     0
1070
   340
1005
102
1070
   140
1040
5.0
1070
   284
1070
     8
1070
   288
1070
     1
1070
    78
1070
     8
1002
}
  0
DIMENSION
  5
4DF
330
1F
100
AcDbEntity
  8
Layer0015
  6
Continuous
370
    13
100
AcDbDimension
  2
*D22
 10
-137.6771067261782
 20
-60.92899836972219
 30
0.0
 11
-137.6771067261782
 21
-148.3261257837404
 31
0.0
 70
    32
 71
     8
 42
-1.0
  3
DaDimRotatedStyle
100
AcDbAlignedDimension
 13
-137.6771067261782
 23
-204.9289983697221
 33
0.0
 14
-303.5858573216526
 24
-60.92899836972219
 34
0.0
 50
90.0
100
AcDbRotatedDimension
1001
ACAD
1000
DSTYLE
1002
{
1070
   274
1070
     4
1070
    41
1040
2.999996871569202
1070
   289
1070
     0
1070
    79
1070
     2
1070
   343
1005
F8
1070
   344
1005
F8
1070
   176
1070
     2
1070
   177
1070
     2
1070
   178
1070
     2
1070
   271
1070
     3
1070
    44
1040
0.8
1070
    42
1040
1.0
1070
   147
1040
1.0
1070
   173
1070
     1
1070
    75
1070
     1
1070
    77
1070
     3
1070
    73
1070
     0
1070
   172
1070
     1
1070
    74
1070
     0
1070
   283
1070
     0
1070
   340
1005
102
1070
   140
1040
5.0
1070
   284
1070
     8
1070
   288
1070
     1
1070
    78
1070
     8
1002
}
  0
INSERT
  5
4E0
330
1F
100
AcDbEntity
  8
Layer0015
  6
Continuous
100
AcDbBlockReference
  2
DA_IMAGEDIMGROUP_2
 10
0.0
 20
0.0
 30
0.0
  0
DIMENSION
  5
4E1
330
1F
100
AcDbEntity
  8
Layer0015
  6
Continuous
370
    13
100
AcDbDimension
  2
*D24
 10
371.7909936010486
 20
-29.22766267393623
 30
0.0
 11
363.420203913625
 21
-29.22766267393623
 31
0.0
 70
    32
 71
     8
 42
-1.0
  3
DaDimRotatedStyle
100
AcDbAlignedDimension
 13
354.7909936010486
 23
-15.83648802379124
 33
0.0
 14
371.7909936010486
 24
-13.33648802379118
 34
0.0
100
AcDbRotatedDimension
1001
ACAD
1000
DSTYLE
1002
{
1070
   274
1070
     4
1070
    41
1040
2.999996871569202
1070
   289
1070
     0
1070
    79
1070
     2
1070
   343
1005
F8
1070
   344
1005
F8
1070
   176
1070
     2
1070
   177
1070
     2
1070
   178
1070
     2
1070
   271
1070
     3
1070
    44
1040
0.8
1070
    42
1040
1.0
1070
   147
1040
1.0
1070
   173
1070
     1
1070
    77
1070
     3
1070
    73
1070
     0
1070
   172
1070
     1
1070
    74
1070
     0
1070
   283
1070
     0
1070
   340
1005
102
1070
   140
1040
5.0
1070
   284
1070
     8
1070
   288
1070
     1
1070
    78
1070
     8
1002
}
  0
DIMENSION
  5
4E2
330
1F
100
AcDbEntity
  8
Layer0015
  6
Continuous
370
    13
100
AcDbDimension
  2
*D25
 10
371.7909936010486
 20
-37.44192881217733
 30
0.0
 11
289.2909936010486
 21
-37.44192881217733
 31
0.0
 70
    32
 71
     8
 42
-1.0
  3
DaDimRotatedStyle
100
AcDbAlignedDimension
 13
206.7909936010486
 23
-18.33648802379124
 33
0.0
 14
371.7909936010486
 24
-13.33648802379118
 34
0.0
100
AcDbRotatedDimension
1001
ACAD
1000
DSTYLE
1002
{
1070
   274
1070
     4
1070
    41
1040
2.999996871569202
1070
   289
1070
     0
1070
    79
1070
     2
1070
   343
1005
F8
1070
   344
1005
F8
1070
   176
1070
     2
1070
   177
1070
     2
1070
   178
1070
     2
1070
   271
1070
     3
1070
    44
1040
0.8
1070
    42
1040
1.0
1070
   147
1040
1.0
1070
   173
1070
     1
1070
    77
1070
     3
1070
    73
1070
     0
1070
   172
1070
     1
1070
    74
1070
     0
1070
   283
1070
     0
1070
   340
1005
102
1070
   140
1040
5.0
1070
   284
1070
     8
1070
   288
1070
     1
1070
    78
1070
     8
1002
}
  0
INSERT
  5
4E3
330
1F
100
AcDbEntity
  8
Layer0015
  6
Continuous
100
AcDbBlockReference
  2
DC_GROUP_ACE125_1
 10
0.0
 20
0.0
 30
0.0
  0
DIMENSION
  5
4E4
330
1F
100
AcDbEntity
  8
Layer0015
  6
Continuous
370
    13
100
AcDbDimension
  2
*D27
 10
67.41414267834742
 20
-253.2536534246165
 30
0.0
 11
-152.5858573216526
 21
-253.2536534246165
 31
0.0
 70
    32
 71
     8
 42
-1.0
  3
DaDimRotatedStyle
100
AcDbAlignedDimension
 13
-372.5858573216526
 23
-203.9289983697221
 33
0.0
 14
67.41414267834742
 24
-203.9289983697221
 34
0.0
100
AcDbRotatedDimension
1001
ACAD
1000
DSTYLE
1002
{
1070
   274
1070
     4
1070
    41
1040
2.999996871569202
1070
   289
1070
     0
1070
    79
1070
     2
1070
   343
1005
F8
1070
   344
1005
F8
1070
   176
1070
     2
1070
   177
1070
     2
1070
   178
1070
     2
1070
   271
1070
     3
1070
    44
1040
0.8
1070
    42
1040
1.0
1070
   147
1040
1.0
1070
   173
1070
     1
1070
    77
1070
     3
1070
    73
1070
     0
1070
   172
1070
     1
1070
    74
1070
     0
1070
   283
1070
     0
1070
   340
1005
102
1070
   140
1040
5.0
1070
   284
1070
     8
1070
   288
1070
     1
1070
    78
1070
     8
1002
}
  0
DIMENSION
  5
4E5
330
1F
100
AcDbEntity
  8
Layer0015
  6
Continuous
370
    13
100
AcDbDimension
  2
*D28
 10
176.1141426783478
 20
-253.2536534246165
 30
0.0
 11
121.7641426783476
 21
-253.2536534246165
 31
0.0
 70
    32
  1
109
 71
     8
 42
-1.0
  3
DaDimRotatedStyle
100
AcDbAlignedDimension
 13
67.41414267834742
 23
-203.9289983697221
 33
0.0
 14
176.1141426783478
 24
-117.9289983697222
 34
0.0
100
AcDbRotatedDimension
1001
ACAD
1000
DSTYLE
1002
{
1070
   274
1070
     4
1070
    41
1040
2.999996871569202
1070
   289
1070
     0
1070
    79
1070
     2
1070
   343
1005
F8
1070
   344
1005
F8
1070
   176
1070
     2
1070
   177
1070
     2
1070
   178
1070
     2
1070
   271
1070
     3
1070
    44
1040
0.8
1070
    42
1040
1.0
1070
   147
1040
1.0
1070
   173
1070
     1
1070
    77
1070
     3
1070
    73
1070
     0
1070
   172
1070
     1
1070
    74
1070
     0
1070
   283
1070
     0
1070
   340
1005
102
1070
   140
1040
5.0
1070
   284
1070
     8
1070
   288
1070
     1
1070
    78
1070
     8
1002
}
  0
DIMENSION
  5
4E6
330
1F
100
AcDbEntity
  8
Layer0015
  6
Continuous
370
    13
100
AcDbDimension
  2
*D29
 10
255.1141426783478
 20
-253.2536534246165
 30
0.0
 11
215.6141426783478
 21
-253.2536534246165
 31
0.0
 70
    32
 71
     8
 42
-1.0
  3
DaDimRotatedStyle
100
AcDbAlignedDimension
 13
176.1141426783478
 23
-117.9289983697222
 33
0.0
 14
255.1141426783478
 24
-220.4289983697209
 34
0.0
100
AcDbRotatedDimension
1001
ACAD
1000
DSTYLE
1002
{
1070
   274
1070
     4
1070
    41
1040
2.999996871569202
1070
   289
1070
     0
1070
    79
1070
     2
1070
   343
1005
F8
1070
   344
1005
F8
1070
   176
1070
     2
1070
   177
1070
     2
1070
   178
1070
     2
1070
   271
1070
     3
1070
    44
1040
0.8
1070
    42
1040
1.0
1070
   147
1040
1.0
1070
   173
1070
     1
1070
    77
1070
     3
1070
    73
1070
     0
1070
   172
1070
     1
1070
    74
1070
     0
1070
   283
1070
     0
1070
   340
1005
102
1070
   140
1040
5.0
1070
   284
1070
     8
1070
   288
1070
     1
1070
    78
1070
     8
1002
}
  0
DIMENSION
  5
4E7
330
1F
100
AcDbEntity
  8
Layer0015
  6
Continuous
370
    13
100
AcDbDimension
  2
*D30
 10
264.1369354169394
 20
-139.4518447132748
 30
0.0
 11
314.1369354169394
 21
-139.4518447132748
 31
0.0
 70
    32
 71
     8
 42
-1.0
  3
DaDimRotatedStyle
100
AcDbAlignedDimension
 13
364.1369354169394
 23
-117.8063568936942
 33
0.0
 14
264.1369354169394
 24
-128.6053949993707
 34
0.0
100
AcDbRotatedDimension
1001
ACAD
1000
DSTYLE
1002
{
1070
   274
1070
     4
1070
    41
1040
2.999996871569202
1070
   289
1070
     0
1070
    79
1070
     2
1070
   343
1005
F8
1070
   344
1005
F8
1070
   176
1070
     2
1070
   177
1070
     2
1070
   178
1070
     2
1070
   271
1070
     2
1070
    44
1040
0.8
1070
    42
1040
1.0
1070
   147
1040
1.0
1070
   173
1070
     1
1070
    77
1070
     3
1070
    73
1070
     0
1070
   172
1070
     1
1070
    74
1070
     0
1070
   283
1070
     0
1070
   340
1005
102
1070
   140
1040
5.0
1070
   284
1070
     8
1070
   288
1070
     1
1070
    78
1070
     8
1002
}
  0
DIMENSION
  5
4E8
330
1F
100
AcDbEntity
  8
Layer0015
  6
Continuous
370
    13
100
AcDbDimension
  2
*D31
 10
347.1369354169394
 20
-131.9650116001348
 30
0.0
 11
355.6369354169394
 21
-131.9650116001348
 31
0.0
 70
    32
 71
     8
 42
-1.0
  3
DaDimRotatedStyle
100
AcDbAlignedDimension
 13
364.1369354169394
 23
-117.8063568936942
 33
0.0
 14
347.1369354169394
 24
-119.1053949993707
 34
0.0
100
AcDbRotatedDimension
1001
ACAD
1000
DSTYLE
1002
{
1070
   274
1070
     4
1070
    41
1040
2.999996871569202
1070
   289
1070
     0
1070
    79
1070
     2
1070
   343
1005
F8
1070
   344
1005
F8
1070
   176
1070
     2
1070
   177
1070
     2
1070
   178
1070
     2
1070
   271
1070
     2
1070
    44
1040
0.8
1070
    42
1040
1.0
1070
   147
1040
1.0
1070
   173
1070
     1
1070
    77
1070
     3
1070
    73
1070
     0
1070
   172
1070
     1
1070
    74
1070
     0
1070
   283
1070
     0
1070
   340
1005
102
1070
   140
1040
5.0
1070
   284
1070
     8
1070
   288
1070
     1
1070
    78
1070
     8
1002
}
  0
INSERT
  5
4E9
330
1F
100
AcDbEntity
  8
Layer0015
  6
Continuous
100
AcDbBlockReference
  2
DC_GROUP_ACE125_2
 10
0.0
 20
0.0
 30
0.0
  0
DIMENSION
  5
4EA
330
1F
100
AcDbEntity
  8
Layer0015
  6
Continuous
370
    13
100
AcDbDimension
  2
*D33
 10
-69.58585732165234
 20
-52.10482392416455
 30
0.0
 11
-173.5858573216524
 21
-52.10482392416455
 31
0.0
 70
    32
  1
0～<>
 71
     8
 42
-1.0
  3
DaDimRotatedStyle
100
AcDbAlignedDimension
 13
-277.5858573216525
 23
-78.9289983697222
 33
0.0
 14
-69.58585732165234
 24
-79.42899836972225
 34
0.0
100
AcDbRotatedDimension
1001
ACAD
1000
DSTYLE
1002
{
1070
   274
1070
     4
1070
    41
1040
2.999996871569202
1070
   289
1070
     0
1070
    79
1070
     2
1070
   343
1005
F8
1070
   344
1005
F8
1070
   176
1070
     2
1070
   177
1070
     2
1070
   178
1070
     2
1070
   271
1070
     2
1070
    44
1040
0.8
1070
    42
1040
1.0
1070
   147
1040
1.0
1070
   173
1070
     1
1070
    77
1070
     3
1070
    73
1070
     0
1070
   172
1070
     1
1070
    74
1070
     0
1070
   283
1070
     0
1070
   340
1005
102
1070
   140
1040
5.0
1070
   284
1070
     8
1070
   288
1070
     1
1070
    78
1070
     8
1002
}
  0
INSERT
  5
4EB
330
1F
100
AcDbEntity
  8
Layer0014
  6
Continuous
100
AcDbBlockReference
  2
DC_GROUP_ACE125_3
 10
0.0
 20
0.0
 30
0.0
  0
INSERT
  5
4EC
330
1F
100
AcDbEntity
  8
Layer0014
  6
Continuous
100
AcDbBlockReference
  2
DC_GROUP_ACE125_7
 10
0.0
 20
0.0
 30
0.0
  0
INSERT
  5
4ED
330
1F
100
AcDbEntity
  8
Layer0014
  6
Continuous
100
AcDbBlockReference
  2
DC_GROUP_ACE125_9
 10
0.0
 20
0.0
 30
0.0
  0
INSERT
  5
4EE
330
1F
100
AcDbEntity
  8
Layer0004
  6
Continuous
100
AcDbBlockReference
  2
DC_GROUP_ACE125_4
 10
0.0
 20
0.0
 30
0.0
  0
INSERT
  5
4EF
330
1F
100
AcDbEntity
  8
Layer0004
  6
Continuous
100
AcDbBlockReference
  2
DC_GROUP_ACE125_5
 10
0.0
 20
0.0
 30
0.0
  0
INSERT
  5
4F0
330
1F
100
AcDbEntity
  8
Layer0004
  6
Continuous
100
AcDbBlockReference
  2
DC_GROUP_ACE125_6
 10
0.0
 20
0.0
 30
0.0
  0
INSERT
  5
4F1
330
1F
100
AcDbEntity
  8
Layer0004
  6
Continuous
100
AcDbBlockReference
  2
DC_GROUP_ACE125_8
 10
0.0
 20
0.0
 30
0.0
  0
INSERT
  5
4F2
330
1F
100
AcDbEntity
  8
Layer0004
  6
Continuous
100
AcDbBlockReference
  2
DC_GROUP_ACE125_10
 10
0.0
 20
0.0
 30
0.0
  0
INSERT
  5
4F3
330
1F
100
AcDbEntity
  8
Layer0004
  6
Continuous
100
AcDbBlockReference
  2
DC_GROUP_ACE125_11
 10
0.0
 20
0.0
 30
0.0
  0
INSERT
  5
4F4
330
1F
100
AcDbEntity
  8
Layer0004
  6
Continuous
100
AcDbBlockReference
  2
DC_GROUP_ACE125_12
 10
0.0
 20
0.0
 30
0.0
  0
VIEWPORT
  5
75
330
1B
100
AcDbEntity
 67
     1
  8
0
100
AcDbViewport
 10
-8.630538005691506
 20
0.0
 30
0.0
 40
2322.000478124369
 41
1585.922603951472
 68
     1
 69
     1
 12
-8.630538005691506
 22
0.0
 13
0.0
 23
0.0
 14
0.5
 24
0.5
 15
0.0
 25
0.0
 16
0.0
 26
0.0
 36
1.0
 17
0.0
 27
0.0
 37
0.0
 42
50.0
 43
0.0
 44
0.0
 45
1585.922603951472
 50
0.0
 51
0.0
 72
   100
 90
   557152
  1

281
     0
 71
     1
 74
     0
110
0.0
120
0.0
130
0.0
111
1.0
121
0.0
131
0.0
112
0.0
122
1.0
132
0.0
 79
     0
146
0.0
  0
ENDSEC
  0
SECTION
  2
OBJECTS
  0
DICTIONARY
  5
C
330
0
100
AcDbDictionary
281
     1
  3
ACAD_GROUP
350
D
  3
ACAD_LAYOUT
350
1A
  3
ACAD_MLEADERSTYLE
350
4F6
  3
ACAD_MLINESTYLE
350
17
  3
ACAD_PLOTSETTINGS
350
19
  3
ACAD_PLOTSTYLENAME
350
E
  3
ACAD_TABLESTYLE
350
4F5
  3
ACAD_VISUALSTYLE
350
2A
  0
DICTIONARY
  5
D
102
{ACAD_REACTORS
330
C
102
}
330
C
100
AcDbDictionary
281
     1
  0
DICTIONARY
  5
1A
102
{ACAD_REACTORS
330
C
102
}
330
C
100
AcDbDictionary
281
     1
  3
Layout1
350
1E
  3
Layout2
350
26
  3
Model
350
22
  0
DICTIONARY
  5
4F6
102
{ACAD_REACTORS
330
C
102
}
330
C
100
AcDbDictionary
281
     1
  0
DICTIONARY
  5
17
102
{ACAD_REACTORS
330
C
102
}
330
C
100
AcDbDictionary
281
     1
  3
Standard
350
18
  0
DICTIONARY
  5
19
102
{ACAD_REACTORS
330
C
102
}
330
C
100
AcDbDictionary
281
     1
  0
ACDBDICTIONARYWDFLT
  5
E
102
{ACAD_REACTORS
330
C
102
}
330
C
100
AcDbDictionary
281
     1
  3
Normal
350
F
100
AcDbDictionaryWithDefault
340
F
  0
DICTIONARY
  5
4F5
102
{ACAD_REACTORS
330
C
102
}
330
C
100
AcDbDictionary
281
     1
  0
DICTIONARY
  5
2A
102
{ACAD_REACTORS
330
C
102
}
330
C
100
AcDbDictionary
281
     1
  3
2dWireframe
350
2F
  3
3D Hidden
350
31
  3
3dWireframe
350
30
  3
Basic
350
32
  3
Brighten
350
36
  3
ColorChange
350
3A
  3
Conceptual
350
34
  3
Dim
350
35
  3
Facepattern
350
39
  3
Flat
350
2B
  3
FlatWithEdges
350
2C
  3
Gouraud
350
2D
  3
GouraudWithEdges
350
2E
  3
Linepattern
350
38
  3
Realistic
350
33
  3
Thicken
350
37
  0
LAYOUT
  5
1E
102
{ACAD_REACTORS
330
1A
102
}
330
1A
100
AcDbPlotSettings
  1

  2
none_device
  4

  6

 40
0.0
 41
0.0
 42
0.0
 43
0.0
 44
0.0
 45
0.0
 46
0.0
 47
0.0
 48
0.0
 49
0.0
140
0.0
141
0.0
142
1.0
143
1.0
 70
   688
 72
     0
 73
     0
 74
     5
  7

 75
    16
147
1.0
148
0.0
149
0.0
100
AcDbLayout
  1
Layout1
 70
     0
 71
     1
 10
0.0
 20
0.0
 11
12.0
 21
9.0
 12
0.0
 22
0.0
 32
0.0
 14
1.000000000000000E+20
 24
1.000000000000000E+20
 34
1.000000000000000E+20
 15
-1.000000000000000E+20
 25
-1.000000000000000E+20
 35
-1.000000000000000E+20
146
0.0
 13
0.0
 23
0.0
 33
0.0
 16
1.0
 26
0.0
 36
0.0
 17
0.0
 27
1.0
 37
0.0
 76
     0
330
1B
331
75
  0
LAYOUT
  5
26
102
{ACAD_REACTORS
330
1A
102
}
330
1A
100
AcDbPlotSettings
  1

  2
none_device
  4

  6

 40
0.0
 41
0.0
 42
0.0
 43
0.0
 44
0.0
 45
0.0
 46
0.0
 47
0.0
 48
0.0
 49
0.0
140
0.0
141
0.0
142
1.0
143
1.0
 70
   688
 72
     0
 73
     0
 74
     5
  7

 75
    16
147
1.0
148
0.0
149
0.0
100
AcDbLayout
  1
Layout2
 70
     1
 71
     2
 10
0.0
 20
0.0
 11
0.0
 21
0.0
 12
0.0
 22
0.0
 32
0.0
 14
0.0
 24
0.0
 34
0.0
 15
0.0
 25
0.0
 35
0.0
146
0.0
 13
0.0
 23
0.0
 33
0.0
 16
1.0
 26
0.0
 36
0.0
 17
0.0
 27
1.0
 37
0.0
 76
     0
330
23
  0
LAYOUT
  5
22
102
{ACAD_REACTORS
330
1A
102
}
330
1A
100
AcDbPlotSettings
  1

  2
none_device
  4

  6

 40
0.0
 41
0.0
 42
0.0
 43
0.0
 44
0.0
 45
0.0
 46
0.0
 47
0.0
 48
0.0
 49
0.0
140
0.0
141
0.0
142
1.0
143
1.0
 70
  1712
 72
     0
 73
     0
 74
     0
  7

 75
     0
147
1.0
148
0.0
149
0.0
100
AcDbLayout
  1
Model
 70
     1
 71
     0
 10
-401.0
 20
-286.0
 11
401.0
 21
286.0
 12
0.0
 22
0.0
 32
0.0
 14
-1169.630777067876
 24
-792.961301975736
 34
0.0
 15
1152.369701056493
 25
792.961301975736
 35
0.0
146
0.0
 13
0.0
 23
0.0
 33
0.0
 16
1.0
 26
0.0
 36
0.0
 17
0.0
 27
1.0
 37
0.0
 76
     0
330
1F
331
29
  0
MLINESTYLE
  5
18
102
{ACAD_REACTORS
330
17
102
}
330
17
100
AcDbMlineStyle
  2
Standard
 70
     0
  3

 62
   256
 51
90.0
 52
90.0
 71
     2
 49
0.5
 62
   256
  6
BYLAYER
 49
-0.5
 62
   256
  6
BYLAYER
  0
ACDBPLACEHOLDER
  5
F
102
{ACAD_REACTORS
330
E
102
}
330
E
  0
VISUALSTYLE
  5
2F
102
{ACAD_REACTORS
330
2A
102
}
330
2A
100
AcDbVisualStyle
  2
2dWireframe
 70
     4
 71
     0
 72
     2
 73
     0
 90
        0
 40
-0.6
 41
-30.0
 62
     5
 63
     7
 74
     1
 91
        4
 64
     7
 65
   257
 75
     1
175
     1
 42
1.0
 92
        0
 66
   257
 43
1.0
 76
     1
 77
     6
 78
     2
 67
     7
 79
     5
170
     0
171
     0
290
     0
174
     0
 93
        1
 44
0.0
173
     0
291
     0
 45
0.0
1001
ACAD
1000
AcDbSavedByObjectVersion
1070
     0
  0
VISUALSTYLE
  5
31
102
{ACAD_REACTORS
330
2A
102
}
330
2A
100
AcDbVisualStyle
  2
3D Hidden
 70
     6
 71
     1
 72
     2
 73
     2
 90
        0
 40
-0.6
 41
-30.0
 62
     5
 63
     7
 74
     2
 91
        2
 64
     7
 65
   257
 75
     2
175
     1
 42
40.0
 92
        0
 66
   257
 43
1.0
 76
     1
 77
     6
 78
     2
 67
     7
 79
     3
170
     0
171
     0
290
     0
174
     0
 93
        1
 44
0.0
173
     0
291
     0
 45
0.0
1001
ACAD
1000
AcDbSavedByObjectVersion
1070
     0
  0
VISUALSTYLE
  5
30
102
{ACAD_REACTORS
330
2A
102
}
330
2A
100
AcDbVisualStyle
  2
3dWireframe
 70
     5
 71
     0
 72
     2
 73
     0
 90
        0
 40
-0.6
 41
-30.0
 62
     5
 63
     7
 74
     1
 91
        4
 64
     7
 65
   257
 75
     1
175
     1
 42
1.0
 92
        0
 66
   257
 43
1.0
 76
     1
 77
     6
 78
     2
 67
     7
 79
     5
170
     0
171
     0
290
     0
174
     0
 93
        1
 44
0.0
173
     0
291
     0
 45
0.0
1001
ACAD
1000
AcDbSavedByObjectVersion
1070
     0
  0
VISUALSTYLE
  5
32
102
{ACAD_REACTORS
330
2A
102
}
330
2A
100
AcDbVisualStyle
  2
Basic
 70
     7
 71
     1
 72
     0
 73
     1
 90
        0
 40
-0.6
 41
-30.0
 62
     5
 63
     7
 74
     0
 91
        4
 64
     7
 65
   257
 75
     1
175
     1
 42
1.0
 92
        8
 66
     7
 43
1.0
 76
     1
 77
     6
 78
     2
 67
     7
 79
     5
170
     0
171
     0
290
     0
174
     0
 93
        1
 44
0.0
173
     0
291
     1
 45
0.0
1001
ACAD
1000
AcDbSavedByObjectVersion
1070
     0
  0
VISUALSTYLE
  5
36
102
{ACAD_REACTORS
330
2A
102
}
330
2A
100
AcDbVisualStyle
  2
Brighten
 70
    12
 71
     2
 72
     2
 73
     0
 90
        0
 40
-0.6
 41
-30.0
 62
     5
 63
     7
 74
     1
 91
        4
 64
     7
 65
   257
 75
     1
175
     1
 42
1.0
 92
        8
 66
     7
 43
1.0
 76
     1
 77
     6
 78
     2
 67
     7
 79
     5
170
     0
171
     0
290
     0
174
     0
 93
        1
 44
50.0
173
     0
291
     1
 45
0.0
1001
ACAD
1000
AcDbSavedByObjectVersion
1070
     0
  0
VISUALSTYLE
  5
3A
102
{ACAD_REACTORS
330
2A
102
}
330
2A
100
AcDbVisualStyle
  2
ColorChange
 70
    16
 71
     2
 72
     2
 73
     3
 90
        0
 40
-0.6
 41
-30.0
 62
     5
 63
     8
 74
     1
 91
        4
 64
     7
 65
   257
 75
     1
175
     1
 42
1.0
 92
        8
 66
     8
 43
1.0
 76
     1
 77
     6
 78
     2
 67
     7
 79
     5
170
     0
171
     0
290
     0
174
     0
 93
        1
 44
0.0
173
     0
291
     1
 45
0.0
1001
ACAD
1000
AcDbSavedByObjectVersion
1070
     0
  0
VISUALSTYLE
  5
34
102
{ACAD_REACTORS
330
2A
102
}
330
2A
100
AcDbVisualStyle
  2
Conceptual
 70
     9
 71
     3
 72
     2
 73
     0
 90
        0
 40
-0.6
 41
-30.0
 62
     5
 63
     7
 74
     2
 91
        2
 64
     7
 65
   257
 75
     1
175
     1
 42
40.0
 92
        8
 66
     7
 43
1.0
 76
     1
 77
     6
 78
     2
 67
     7
 79
     3
170
     0
171
     0
290
     0
174
     0
 93
        1
 44
0.0
173
     0
291
     0
 45
0.0
1001
ACAD
1000
AcDbSavedByObjectVersion
1070
     0
  0
VISUALSTYLE
  5
35
102
{ACAD_REACTORS
330
2A
102
}
330
2A
100
AcDbVisualStyle
  2
Dim
 70
    11
 71
     2
 72
     2
 73
     0
 90
        0
 40
-0.6
 41
-30.0
 62
     5
 63
     7
 74
     1
 91
        4
 64
     7
 65
   257
 75
     1
175
     1
 42
1.0
 92
        8
 66
     7
 43
1.0
 76
     1
 77
     6
 78
     2
 67
     7
 79
     5
170
     0
171
     0
290
     0
174
     0
 93
        1
 44
-50.0
173
     0
291
     1
 45
0.0
1001
ACAD
1000
AcDbSavedByObjectVersion
1070
     0
  0
VISUALSTYLE
  5
39
102
{ACAD_REACTORS
330
2A
102
}
330
2A
100
AcDbVisualStyle
  2
Facepattern
 70
    15
 71
     2
 72
     2
 73
     0
 90
        0
 40
-0.6
 41
-30.0
 62
     5
 63
     7
 74
     1
 91
        4
 64
     7
 65
   257
 75
     1
175
     1
 42
1.0
 92
        8
 66
     7
 43
1.0
 76
     1
 77
     6
 78
     2
 67
     7
 79
     5
170
     0
171
     0
290
     0
174
     0
 93
        1
 44
0.0
173
     0
291
     1
 45
0.0
1001
ACAD
1000
AcDbSavedByObjectVersion
1070
     0
  0
VISUALSTYLE
  5
2B
102
{ACAD_REACTORS
330
2A
102
}
330
2A
100
AcDbVisualStyle
  2
Flat
 70
     0
 71
     2
 72
     1
 73
     1
 90
        2
 40
-0.6
 41
30.0
 62
     5
 63
     7
 74
     0
 91
        4
 64
     7
 65
   257
 75
     1
175
     1
 42
1.0
 92
        8
 66
     7
 43
1.0
 76
     1
 77
     6
 78
     2
 67
     7
 79
     5
170
     0
171
     0
290
     0
174
     0
 93
       13
 44
0.0
173
     0
291
     1
 45
0.0
1001
ACAD
1000
AcDbSavedByObjectVersion
1070
     0
  0
VISUALSTYLE
  5
2C
102
{ACAD_REACTORS
330
2A
102
}
330
2A
100
AcDbVisualStyle
  2
FlatWithEdges
 70
     1
 71
     2
 72
     1
 73
     1
 90
        2
 40
-0.6
 41
30.0
 62
     5
 63
     7
 74
     1
 91
        4
 64
     7
 65
   257
 75
     1
175
     1
 42
1.0
 92
        0
 66
   257
 43
1.0
 76
     1
 77
     6
 78
     2
 67
     7
 79
     5
170
     0
171
     0
290
     0
174
     0
 93
       13
 44
0.0
173
     0
291
     1
 45
0.0
1001
ACAD
1000
AcDbSavedByObjectVersion
1070
     0
  0
VISUALSTYLE
  5
2D
102
{ACAD_REACTORS
330
2A
102
}
330
2A
100
AcDbVisualStyle
  2
Gouraud
 70
     2
 71
     2
 72
     2
 73
     1
 90
        2
 40
-0.6
 41
30.0
 62
     5
 63
     7
 74
     0
 91
        4
 64
     7
 65
   257
 75
     1
175
     1
 42
1.0
 92
        0
 66
     7
 43
1.0
 76
     1
 77
     6
 78
     2
 67
     7
 79
     5
170
     0
171
     0
290
     0
174
     0
 93
       13
 44
0.0
173
     0
291
     1
 45
0.0
1001
ACAD
1000
AcDbSavedByObjectVersion
1070
     0
  0
VISUALSTYLE
  5
2E
102
{ACAD_REACTORS
330
2A
102
}
330
2A
100
AcDbVisualStyle
  2
GouraudWithEdges
 70
     3
 71
     2
 72
     2
 73
     1
 90
        2
 40
-0.6
 41
30.0
 62
     5
 63
     7
 74
     1
 91
        4
 64
     7
 65
   257
 75
     1
175
     1
 42
1.0
 92
        0
 66
   257
 43
1.0
 76
     1
 77
     6
 78
     2
 67
     7
 79
     5
170
     0
171
     0
290
     0
174
     0
 93
       13
 44
0.0
173
     0
291
     1
 45
0.0
1001
ACAD
1000
AcDbSavedByObjectVersion
1070
     0
  0
VISUALSTYLE
  5
38
102
{ACAD_REACTORS
330
2A
102
}
330
2A
100
AcDbVisualStyle
  2
Linepattern
 70
    14
 71
     2
 72
     2
 73
     0
 90
        0
 40
-0.6
 41
-30.0
 62
     5
 63
     7
 74
     1
 91
        4
 64
     7
 65
   257
 75
     7
175
     7
 42
1.0
 92
        8
 66
     7
 43
1.0
 76
     1
 77
     6
 78
     2
 67
     7
 79
     5
170
     0
171
     0
290
     0
174
     0
 93
        1
 44
0.0
173
     0
291
     1
 45
0.0
1001
ACAD
1000
AcDbSavedByObjectVersion
1070
     0
  0
VISUALSTYLE
  5
33
102
{ACAD_REACTORS
330
2A
102
}
330
2A
100
AcDbVisualStyle
  2
Realistic
 70
     8
 71
     2
 72
     2
 73
     0
 90
        0
 40
-0.6
 41
-30.0
 62
     5
 63
     7
 74
     1
 91
        0
 64
     7
 65
   257
 75
     1
175
     1
 42
1.0
 92
        8
 66
     8
 43
1.0
 76
     1
 77
     6
 78
     2
 67
     7
 79
     5
170
     0
171
     0
290
     0
174
     0
 93
       13
 44
0.0
173
     0
291
     0
 45
0.0
1001
ACAD
1000
AcDbSavedByObjectVersion
1070
     0
  0
VISUALSTYLE
  5
37
102
{ACAD_REACTORS
330
2A
102
}
330
2A
100
AcDbVisualStyle
  2
Thicken
 70
    13
 71
     2
 72
     2
 73
     0
 90
        0
 40
-0.6
 41
-30.0
 62
     5
 63
     7
 74
     1
 91
        4
 64
     7
 65
   257
 75
     1
175
     1
 42
1.0
 92
       12
 66
     7
 43
1.0
 76
     1
 77
     6
 78
     2
 67
     7
 79
     5
170
     0
171
     0
290
     0
174
     0
 93
        1
 44
0.0
173
     0
291
     1
 45
0.0
1001
ACAD
1000
AcDbSavedByObjectVersion
1070
     0
  0
ENDSEC
  0
EOF
