  0
SECTION
  2
HEADER
  9
$ACADVER
  1
AC1015
  9
$ACADMAINTVER
 70
     6
  9
$DWGCODEPAGE
  3
ANSI_932
  9
$INSBASE
 10
0.0
 20
0.0
 30
0.0
  9
$EXTMIN
 10
-1926.810419628234
 20
-1305.837686883218
 30
0.0
  9
$EXTMAX
 10
1978.442314030075
 20
1305.837686883218
 30
0.0
  9
$LIMMIN
 10
-696.25
 20
-508.75
  9
$LIMMAX
 10
696.25
 20
508.75
  9
$ORTHOMODE
 70
     0
  9
$REGENMODE
 70
     1
  9
$FILLMODE
 70
     1
  9
$QTEXTMODE
 70
     0
  9
$MIRRTEXT
 70
     1
  9
$LTSCALE
 40
0.625
  9
$ATTMODE
 70
     1
  9
$TEXTSIZE
 40
0.2
  9
$TRACEWID
 40
0.05
  9
$TEXTSTYLE
  7
Standard
  9
$CLAYER
  8
0
  9
$CELTYPE
  6
ByLayer
  9
$CECOLOR
 62
   256
  9
$CELTSCALE
 40
1.0
  9
$DISPSILH
 70
     0
  9
$DIMSCALE
 40
1.0
  9
$DIMASZ
 40
6.25
  9
$DIMEXO
 40
0.0625
  9
$DIMDLI
 40
0.38
  9
$DIMRND
 40
0.0
  9
$DIMDLE
 40
0.0
  9
$DIMEXE
 40
0.18
  9
$DIMTP
 40
0.0
  9
$DIMTM
 40
0.0
  9
$DIMTXT
 40
0.18
  9
$DIMCEN
 40
0.09
  9
$DIMTSZ
 40
0.0
  9
$DIMTOL
 70
     0
  9
$DIMLIM
 70
     0
  9
$DIMTIH
 70
     1
  9
$DIMTOH
 70
     1
  9
$DIMSE1
 70
     0
  9
$DIMSE2
 70
     0
  9
$DIMTAD
 70
     3
  9
$DIMZIN
 70
     0
  9
$DIMBLK
  1

  9
$DIMASO
 70
     1
  9
$DIMSHO
 70
     1
  9
$DIMPOST
  1

  9
$DIMAPOST
  1

  9
$DIMALT
 70
     0
  9
$DIMALTD
 70
     2
  9
$DIMALTF
 40
25.4
  9
$DIMLFAC
 40
1.0
  9
$DIMTOFL
 70
     0
  9
$DIMTVP
 40
0.0
  9
$DIMTIX
 70
     0
  9
$DIMSOXD
 70
     0
  9
$DIMSAH
 70
     0
  9
$DIMBLK1
  1

  9
$DIMBLK2
  1

  9
$DIMSTYLE
  2
Standard
  9
$DIMCLRD
 70
     0
  9
$DIMCLRE
 70
     0
  9
$DIMCLRT
 70
     0
  9
$DIMTFAC
 40
1.0
  9
$DIMGAP
 40
0.09
  9
$DIMJUST
 70
     0
  9
$DIMSD1
 70
     0
  9
$DIMSD2
 70
     0
  9
$DIMTOLJ
 70
     1
  9
$DIMTZIN
 70
     0
  9
$DIMALTZ
 70
     0
  9
$DIMALTTZ
 70
     0
  9
$DIMUPT
 70
     0
  9
$DIMDEC
 70
     4
  9
$DIMTDEC
 70
     4
  9
$DIMALTU
 70
     2
  9
$DIMALTTD
 70
     2
  9
$DIMTXSTY
  7
Standard
  9
$DIMAUNIT
 70
     0
  9
$DIMADEC
 70
     0
  9
$DIMALTRND
 40
0.0
  9
$DIMAZIN
 70
     0
  9
$DIMDSEP
 70
    46
  9
$DIMATFIT
 70
     3
  9
$DIMFRAC
 70
     0
  9
$DIMLDRBLK
  1

  9
$DIMLUNIT
 70
     2
  9
$DIMLWD
 70
    -2
  9
$DIMLWE
 70
    -2
  9
$DIMTMOVE
 70
     0
  9
$LUNITS
 70
     2
  9
$LUPREC
 70
     4
  9
$SKETCHINC
 40
0.1
  9
$FILLETRAD
 40
0.5
  9
$AUNITS
 70
     0
  9
$AUPREC
 70
     0
  9
$MENU
  1
.
  9
$ELEVATION
 40
0.0
  9
$PELEVATION
 40
0.0
  9
$THICKNESS
 40
0.0
  9
$LIMCHECK
 70
     0
  9
$CHAMFERA
 40
0.5
  9
$CHAMFERB
 40
0.5
  9
$CHAMFERC
 40
1.0
  9
$CHAMFERD
 40
0.0
  9
$SKPOLY
 70
     0
  9
$TDCREATE
 40
2454973.737167245
  9
$TDUCREATE
 40
2454973.362167245
  9
$TDUPDATE
 40
2454973.737167257
  9
$TDUUPDATE
 40
2454973.362167257
  9
$TDINDWG
 40
0.0000000116
  9
$TDUSRTIMER
 40
0.0000000116
  9
$USRTIMER
 70
     1
  9
$ANGBASE
 50
0.0
  9
$ANGDIR
 70
     0
  9
$PDMODE
 70
     0
  9
$PDSIZE
 40
1.0
  9
$PLINEWID
 40
0.0
  9
$SPLFRAME
 70
     0
  9
$SPLINETYPE
 70
     6
  9
$SPLINESEGS
 70
     8
  9
$HANDSEED
  5
63D
  9
$SURFTAB1
 70
     6
  9
$SURFTAB2
 70
     6
  9
$SURFTYPE
 70
     6
  9
$SURFU
 70
     6
  9
$SURFV
 70
     6
  9
$UCSBASE
  2

  9
$UCSNAME
  2

  9
$UCSORG
 10
0.0
 20
0.0
 30
0.0
  9
$UCSXDIR
 10
1.0
 20
0.0
 30
0.0
  9
$UCSYDIR
 10
0.0
 20
1.0
 30
0.0
  9
$UCSORTHOREF
  2

  9
$UCSORTHOVIEW
 70
     0
  9
$UCSORGTOP
 10
0.0
 20
0.0
 30
0.0
  9
$UCSORGBOTTOM
 10
0.0
 20
0.0
 30
0.0
  9
$UCSORGLEFT
 10
0.0
 20
0.0
 30
0.0
  9
$UCSORGRIGHT
 10
0.0
 20
0.0
 30
0.0
  9
$UCSORGFRONT
 10
0.0
 20
0.0
 30
0.0
  9
$UCSORGBACK
 10
0.0
 20
0.0
 30
0.0
  9
$PUCSBASE
  2

  9
$PUCSNAME
  2

  9
$PUCSORG
 10
0.0
 20
0.0
 30
0.0
  9
$PUCSXDIR
 10
1.0
 20
0.0
 30
0.0
  9
$PUCSYDIR
 10
0.0
 20
1.0
 30
0.0
  9
$PUCSORTHOREF
  2

  9
$PUCSORTHOVIEW
 70
     0
  9
$PUCSORGTOP
 10
0.0
 20
0.0
 30
0.0
  9
$PUCSORGBOTTOM
 10
0.0
 20
0.0
 30
0.0
  9
$PUCSORGLEFT
 10
0.0
 20
0.0
 30
0.0
  9
$PUCSORGRIGHT
 10
0.0
 20
0.0
 30
0.0
  9
$PUCSORGFRONT
 10
0.0
 20
0.0
 30
0.0
  9
$PUCSORGBACK
 10
0.0
 20
0.0
 30
0.0
  9
$USERI1
 70
     0
  9
$USERI2
 70
     0
  9
$USERI3
 70
     0
  9
$USERI4
 70
     0
  9
$USERI5
 70
     0
  9
$USERR1
 40
0.0
  9
$USERR2
 40
0.0
  9
$USERR3
 40
0.0
  9
$USERR4
 40
0.0
  9
$USERR5
 40
0.0
  9
$WORLDVIEW
 70
     1
  9
$SHADEDGE
 70
     3
  9
$SHADEDIF
 70
    70
  9
$TILEMODE
 70
     1
  9
$MAXACTVP
 70
    64
  9
$PINSBASE
 10
0.0
 20
0.0
 30
0.0
  9
$PLIMCHECK
 70
     0
  9
$PEXTMIN
 10
1.000000000000000E+20
 20
1.000000000000000E+20
 30
1.000000000000000E+20
  9
$PEXTMAX
 10
-1.000000000000000E+20
 20
-1.000000000000000E+20
 30
-1.000000000000000E+20
  9
$PLIMMIN
 10
0.0
 20
0.0
  9
$PLIMMAX
 10
12.0
 20
9.0
  9
$UNITMODE
 70
     0
  9
$VISRETAIN
 70
     0
  9
$PLINEGEN
 70
     1
  9
$PSLTSCALE
 70
     0
  9
$TREEDEPTH
 70
  3020
  9
$CMLSTYLE
  2
Standard
  9
$CMLJUST
 70
     0
  9
$CMLSCALE
 40
1.0
  9
$PROXYGRAPHICS
 70
     0
  9
$MEASUREMENT
 70
     1
  9
$CELWEIGHT
370
    -1
  9
$ENDCAPS
280
     0
  9
$JOINSTYLE
280
     0
  9
$LWDISPLAY
290
     1
  9
$INSUNITS
 70
     4
  9
$HYPERLINKBASE
  1

  9
$STYLESHEET
  1

  9
$XEDIT
290
     1
  9
$CEPSNTYPE
380
     0
  9
$PSTYLEMODE
290
     1
  9
$FINGERPRINTGUID
  2
{8D78FA4A-41D1-401D-9572-595F661F8F00}
  9
$VERSIONGUID
  2
{FAEB1C32-E019-11D5-929B-00C0DF256EC4}
  9
$EXTNAMES
290
     1
  9
$PSVPSCALE
 40
0.0
  9
$OLESTARTUP
290
     0
  0
ENDSEC
  0
SECTION
  2
CLASSES
  0
CLASS
  1
ACDBDICTIONARYWDFLT
  2
AcDbDictionaryWithDefault
  3
ObjectDBX Classes
 90
        0
280
     0
281
     0
  0
CLASS
  1
VISUALSTYLE
  2
AcDbVisualStyle
  3
ObjectDBX Classes
 90
     4095
280
     0
281
     0
  0
CLASS
  1
ACDBPLACEHOLDER
  2
AcDbPlaceHolder
  3
ObjectDBX Classes
 90
        0
280
     0
281
     0
  0
CLASS
  1
LAYOUT
  2
AcDbLayout
  3
ObjectDBX Classes
 90
        0
280
     0
281
     0
  0
ENDSEC
  0
SECTION
  2
TABLES
  0
TABLE
  2
VPORT
  5
8
330
0
100
AcDbSymbolTable
 70
     1
  0
VPORT
  5
29
330
8
100
AcDbSymbolTableRecord
100
AcDbViewportTableRecord
  2
*Active
 70
     0
 10
0.0
 20
0.0
 11
1.0
 21
1.0
 12
0.0
 22
0.0
 13
0.0
 23
0.0
 14
0.5
 24
0.5
 15
0.5
 25
0.5
 16
0.0
 26
0.0
 36
1.0
 17
25.8159472009205
 27
4.493263837208247
 37
0.0
 40
878.8033688526842
 41
1.510902184156744
 42
50.0
 43
0.0
 44
0.0
 50
0.0
 51
0.0
 71
     0
 72
  1000
 73
     1
 74
     1
 75
     0
 76
     0
 77
     0
 78
     0
281
     0
 65
     1
110
0.0
120
0.0
130
0.0
111
1.0
121
0.0
131
0.0
112
0.0
122
1.0
132
0.0
 79
     0
146
0.0
  0
ENDTAB
  0
TABLE
  2
LTYPE
  5
5
330
0
100
AcDbSymbolTable
 70
    53
  0
LTYPE
  5
14
330
5
100
AcDbSymbolTableRecord
100
AcDbLinetypeTableRecord
  2
ByBlock
 70
     0
  3

 72
    65
 73
     0
 40
0.0
  0
LTYPE
  5
15
330
5
100
AcDbSymbolTableRecord
100
AcDbLinetypeTableRecord
  2
ByLayer
 70
     0
  3

 72
    65
 73
     0
 40
0.0
  0
LTYPE
  5
16
330
5
100
AcDbSymbolTableRecord
100
AcDbLinetypeTableRecord
  2
Continuous
 70
     0
  3
Solid line
 72
    65
 73
     0
 40
0.0
  0
LTYPE
  5
3C
330
5
100
AcDbSymbolTableRecord
100
AcDbLinetypeTableRecord
  2
HIDDENX2
 70
     0
  3
Hidden (2x) ____ ____ ____ ____ ____ ____ ____ 
 72
    65
 73
     2
 40
19.05
 49
12.7
 74
     0
 49
-6.35
 74
     0
  0
LTYPE
  5
3D
330
5
100
AcDbSymbolTableRecord
100
AcDbLinetypeTableRecord
  2
HIDDEN
 70
     0
  3
Hidden __ __ __ __ __ __ __ __ __ __ __ __ __ __
 72
    65
 73
     2
 40
9.524999999999999
 49
6.35
 74
     0
 49
-3.175
 74
     0
  0
LTYPE
  5
3E
330
5
100
AcDbSymbolTableRecord
100
AcDbLinetypeTableRecord
  2
HIDDEN2
 70
     0
  3
Hidden (.5x) _ _ _ _ _ _ _ _ _ _ _ _ _ _ _ _ _ 
 72
    65
 73
     2
 40
4.762499999999999
 49
3.175
 74
     0
 49
-1.5875
 74
     0
  0
LTYPE
  5
3F
330
5
100
AcDbSymbolTableRecord
100
AcDbLinetypeTableRecord
  2
DASHED
 70
     0
  3
Dashed __ __ __ __ __ __ __ __ __ __ __ __ __ _
 72
    65
 73
     2
 40
19.05
 49
12.7
 74
     0
 49
-6.35
 74
     0
  0
LTYPE
  5
40
330
5
100
AcDbSymbolTableRecord
100
AcDbLinetypeTableRecord
  2
DASHED2
 70
     0
  3
Dashed (.5x) _ _ _ _ _ _ _ _ _ _ _ _ _ _ _ _ _ 
 72
    65
 73
     2
 40
9.524999999999999
 49
6.35
 74
     0
 49
-3.175
 74
     0
  0
LTYPE
  5
41
330
5
100
AcDbSymbolTableRecord
100
AcDbLinetypeTableRecord
  2
DASHEDX2
 70
     0
  3
Dashed (2x) ____  ____  ____  ____  ____  ___
 72
    65
 73
     2
 40
38.09999999999999
 49
25.4
 74
     0
 49
-12.7
 74
     0
  0
LTYPE
  5
42
330
5
100
AcDbSymbolTableRecord
100
AcDbLinetypeTableRecord
  2
DOTX2
 70
     0
  3
Dot (2x) .  .  .  .  .  .  .  .  .  .  .  .  .  .
 72
    65
 73
     2
 40
12.7
 49
0.0
 74
     0
 49
-12.7
 74
     0
  0
LTYPE
  5
43
330
5
100
AcDbSymbolTableRecord
100
AcDbLinetypeTableRecord
  2
DOT
 70
     0
  3
Dot . . . . . . . . . . . . . . . . . . . . . . . .
 72
    65
 73
     2
 40
6.35
 49
0.0
 74
     0
 49
-6.35
 74
     0
  0
LTYPE
  5
44
330
5
100
AcDbSymbolTableRecord
100
AcDbLinetypeTableRecord
  2
DOT2
 70
     0
  3
Dot (.5x) ........................................
 72
    65
 73
     2
 40
3.175
 49
0.0
 74
     0
 49
-3.175
 74
     0
  0
LTYPE
  5
45
330
5
100
AcDbSymbolTableRecord
100
AcDbLinetypeTableRecord
  2
CENTERX2
 70
     0
  3
Center (2x) ________  __  ________  __  _____
 72
    65
 73
     4
 40
101.6
 49
63.5
 74
     0
 49
-12.7
 74
     0
 49
12.7
 74
     0
 49
-12.7
 74
     0
  0
LTYPE
  5
46
330
5
100
AcDbSymbolTableRecord
100
AcDbLinetypeTableRecord
  2
CENTER
 70
     0
  3
Center ____ _ ____ _ ____ _ ____ _ ____ _ ____
 72
    65
 73
     4
 40
50.8
 49
31.75
 74
     0
 49
-6.35
 74
     0
 49
6.35
 74
     0
 49
-6.35
 74
     0
  0
LTYPE
  5
47
330
5
100
AcDbSymbolTableRecord
100
AcDbLinetypeTableRecord
  2
CENTER2
 70
     0
  3
Center (.5x) ___ _ ___ _ ___ _ ___ _ ___ _ ___
 72
    65
 73
     4
 40
28.575
 49
19.05
 74
     0
 49
-3.175
 74
     0
 49
3.175
 74
     0
 49
-3.175
 74
     0
  0
LTYPE
  5
48
330
5
100
AcDbSymbolTableRecord
100
AcDbLinetypeTableRecord
  2
DASHDOTX2
 70
     0
  3
Dash dot (2x) ____  .  ____  .  ____  .  ___
 72
    65
 73
     4
 40
50.8
 49
25.4
 74
     0
 49
-12.7
 74
     0
 49
0.0
 74
     0
 49
-12.7
 74
     0
  0
LTYPE
  5
49
330
5
100
AcDbSymbolTableRecord
100
AcDbLinetypeTableRecord
  2
DASHDOT
 70
     0
  3
Dash dot __ . __ . __ . __ . __ . __ . __ . __
 72
    65
 73
     4
 40
25.4
 49
12.7
 74
     0
 49
-6.35
 74
     0
 49
0.0
 74
     0
 49
-6.35
 74
     0
  0
LTYPE
  5
4A
330
5
100
AcDbSymbolTableRecord
100
AcDbLinetypeTableRecord
  2
DASHDOT2
 70
     0
  3
Dash dot (.5x) _._._._._._._._._._._._._._._.
 72
    65
 73
     4
 40
12.7
 49
6.35
 74
     0
 49
-3.175
 74
     0
 49
0.0
 74
     0
 49
-3.175
 74
     0
  0
LTYPE
  5
4B
330
5
100
AcDbSymbolTableRecord
100
AcDbLinetypeTableRecord
  2
DIVIDEX2
 70
     0
  3
Divide (2x) ________  .  .  ________  .  .  _
 72
    65
 73
     6
 40
63.5
 49
25.4
 74
     0
 49
-12.7
 74
     0
 49
0.0
 74
     0
 49
-12.7
 74
     0
 49
0.0
 74
     0
 49
-12.7
 74
     0
  0
LTYPE
  5
4C
330
5
100
AcDbSymbolTableRecord
100
AcDbLinetypeTableRecord
  2
DIVIDE
 70
     0
  3
Divide ____ . . ____ . . ____ . . ____ . . ____
 72
    65
 73
     6
 40
31.75
 49
12.7
 74
     0
 49
-6.35
 74
     0
 49
0.0
 74
     0
 49
-6.35
 74
     0
 49
0.0
 74
     0
 49
-6.35
 74
     0
  0
LTYPE
  5
4D
330
5
100
AcDbSymbolTableRecord
100
AcDbLinetypeTableRecord
  2
DIVIDE2
 70
     0
  3
Divide (.5x) __..__..__..__..__..__..__..__.._
 72
    65
 73
     6
 40
15.875
 49
6.35
 74
     0
 49
-3.175
 74
     0
 49
0.0
 74
     0
 49
-3.175
 74
     0
 49
0.0
 74
     0
 49
-3.175
 74
     0
  0
LTYPE
  5
4E
330
5
100
AcDbSymbolTableRecord
100
AcDbLinetypeTableRecord
  2
BORDERX2
 70
     0
  3
Border (2x) ____  ____  .  ____  ____  .  ___
 72
    65
 73
     6
 40
88.89999999999999
 49
25.4
 74
     0
 49
-12.7
 74
     0
 49
25.4
 74
     0
 49
-12.7
 74
     0
 49
0.0
 74
     0
 49
-12.7
 74
     0
  0
LTYPE
  5
4F
330
5
100
AcDbSymbolTableRecord
100
AcDbLinetypeTableRecord
  2
BORDER
 70
     0
  3
Border __ __ . __ __ . __ __ . __ __ . __ __ .
 72
    65
 73
     6
 40
44.45
 49
12.7
 74
     0
 49
-6.35
 74
     0
 49
12.7
 74
     0
 49
-6.35
 74
     0
 49
0.0
 74
     0
 49
-6.35
 74
     0
  0
LTYPE
  5
50
330
5
100
AcDbSymbolTableRecord
100
AcDbLinetypeTableRecord
  2
BORDER2
 70
     0
  3
Border (.5x) __.__.__.__.__.__.__.__.__.__.__.
 72
    65
 73
     6
 40
22.225
 49
6.35
 74
     0
 49
-3.175
 74
     0
 49
6.35
 74
     0
 49
-3.175
 74
     0
 49
0.0
 74
     0
 49
-3.175
 74
     0
  0
LTYPE
  5
51
330
5
100
AcDbSymbolTableRecord
100
AcDbLinetypeTableRecord
  2
PHANTOMX2
 70
     0
  3
Phantom (2x) ____________    ____    ____   _
 72
    65
 73
     6
 40
127.0
 49
63.5
 74
     0
 49
-12.7
 74
     0
 49
12.7
 74
     0
 49
-12.7
 74
     0
 49
12.7
 74
     0
 49
-12.7
 74
     0
  0
LTYPE
  5
52
330
5
100
AcDbSymbolTableRecord
100
AcDbLinetypeTableRecord
  2
PHANTOM
 70
     0
  3
Phantom ______  __  __  ______  __  __  ______ 
 72
    65
 73
     6
 40
63.5
 49
31.75
 74
     0
 49
-6.35
 74
     0
 49
6.35
 74
     0
 49
-6.35
 74
     0
 49
6.35
 74
     0
 49
-6.35
 74
     0
  0
LTYPE
  5
53
330
5
100
AcDbSymbolTableRecord
100
AcDbLinetypeTableRecord
  2
PHANTOM2
 70
     0
  3
Phantom (.5x) ___ _ _ ___ _ _ ___ _ _ ___ _ _
 72
    65
 73
     6
 40
31.75
 49
15.875
 74
     0
 49
-3.175
 74
     0
 49
3.175
 74
     0
 49
-3.175
 74
     0
 49
3.175
 74
     0
 49
-3.175
 74
     0
  0
LTYPE
  5
54
330
5
100
AcDbSymbolTableRecord
100
AcDbLinetypeTableRecord
  2
ACAD_ISO06W100
 70
     0
  3
ISO long-dash triple-dot ____ ... ____ ... ____
 72
    65
 73
     8
 40
36.0
 49
24.0
 74
     0
 49
-3.0
 74
     0
 49
0.0
 74
     0
 49
-3.0
 74
     0
 49
0.0
 74
     0
 49
-3.0
 74
     0
 49
0.0
 74
     0
 49
-3.0
 74
     0
  0
LTYPE
  5
55
330
5
100
AcDbSymbolTableRecord
100
AcDbLinetypeTableRecord
  2
ACAD_ISO13W100
 70
     0
  3
ISO double-dash double-dot __ __ . . __ __ . . _
 72
    65
 73
     8
 40
36.0
 49
12.0
 74
     0
 49
-3.0
 74
     0
 49
12.0
 74
     0
 49
-3.0
 74
     0
 49
0.0
 74
     0
 49
-3.0
 74
     0
 49
0.0
 74
     0
 49
-3.0
 74
     0
  0
LTYPE
  5
56
330
5
100
AcDbSymbolTableRecord
100
AcDbLinetypeTableRecord
  2
ACAD_ISO14W100
 70
     0
  3
ISO dash triple-dot __ . . . __ . . . __ . . . _
 72
    65
 73
     8
 40
24.0
 49
12.0
 74
     0
 49
-3.0
 74
     0
 49
0.0
 74
     0
 49
-3.0
 74
     0
 49
0.0
 74
     0
 49
-3.0
 74
     0
 49
0.0
 74
     0
 49
-3.0
 74
     0
  0
LTYPE
  5
57
330
5
100
AcDbSymbolTableRecord
100
AcDbLinetypeTableRecord
  2
ACAD_ISO02W100
 70
     0
  3
ISO dash __ __ __ __ __ __ __ __ __ __ __ __ __
 72
    65
 73
     2
 40
15.0
 49
12.0
 74
     0
 49
-3.0
 74
     0
  0
LTYPE
  5
58
330
5
100
AcDbSymbolTableRecord
100
AcDbLinetypeTableRecord
  2
ACAD_ISO03W100
 70
     0
  3
ISO dash space __    __    __    __    __    __
 72
    65
 73
     2
 40
30.0
 49
12.0
 74
     0
 49
-18.0
 74
     0
  0
LTYPE
  5
59
330
5
100
AcDbSymbolTableRecord
100
AcDbLinetypeTableRecord
  2
ACAD_ISO04W100
 70
     0
  3
ISO long-dash dot ____ . ____ . ____ . ____ . _
 72
    65
 73
     4
 40
30.0
 49
24.0
 74
     0
 49
-3.0
 74
     0
 49
0.0
 74
     0
 49
-3.0
 74
     0
  0
LTYPE
  5
5A
330
5
100
AcDbSymbolTableRecord
100
AcDbLinetypeTableRecord
  2
ACAD_ISO05W100
 70
     0
  3
ISO long-dash double-dot ____ .. ____ .. ____ . 
 72
    65
 73
     6
 40
33.0
 49
24.0
 74
     0
 49
-3.0
 74
     0
 49
0.0
 74
     0
 49
-3.0
 74
     0
 49
0.0
 74
     0
 49
-3.0
 74
     0
  0
LTYPE
  5
5B
330
5
100
AcDbSymbolTableRecord
100
AcDbLinetypeTableRecord
  2
ACAD_ISO07W100
 70
     0
  3
ISO dot . . . . . . . . . . . . . . . . . . . . 
 72
    65
 73
     2
 40
3.0
 49
0.0
 74
     0
 49
-3.0
 74
     0
  0
LTYPE
  5
5C
330
5
100
AcDbSymbolTableRecord
100
AcDbLinetypeTableRecord
  2
ACAD_ISO08W100
 70
     0
  3
ISO long-dash short-dash ____ __ ____ __ ____ _
 72
    65
 73
     4
 40
36.0
 49
24.0
 74
     0
 49
-3.0
 74
     0
 49
6.0
 74
     0
 49
-3.0
 74
     0
  0
LTYPE
  5
5D
330
5
100
AcDbSymbolTableRecord
100
AcDbLinetypeTableRecord
  2
ACAD_ISO09W100
 70
     0
  3
ISO long-dash double-short-dash ____ __ __ ____
 72
    65
 73
     6
 40
45.0
 49
24.0
 74
     0
 49
-3.0
 74
     0
 49
6.0
 74
     0
 49
-3.0
 74
     0
 49
6.0
 74
     0
 49
-3.0
 74
     0
  0
LTYPE
  5
5E
330
5
100
AcDbSymbolTableRecord
100
AcDbLinetypeTableRecord
  2
ACAD_ISO10W100
 70
     0
  3
ISO dash dot __ . __ . __ . __ . __ . __ . __ . 
 72
    65
 73
     4
 40
18.0
 49
12.0
 74
     0
 49
-3.0
 74
     0
 49
0.0
 74
     0
 49
-3.0
 74
     0
  0
LTYPE
  5
5F
330
5
100
AcDbSymbolTableRecord
100
AcDbLinetypeTableRecord
  2
ACAD_ISO11W100
 70
     0
  3
ISO double-dash dot __ __ . __ __ . __ __ . __ _
 72
    65
 73
     6
 40
33.0
 49
12.0
 74
     0
 49
-3.0
 74
     0
 49
12.0
 74
     0
 49
-3.0
 74
     0
 49
0.0
 74
     0
 49
-3.0
 74
     0
  0
LTYPE
  5
60
330
5
100
AcDbSymbolTableRecord
100
AcDbLinetypeTableRecord
  2
ACAD_ISO12W100
 70
     0
  3
ISO dash double-dot __ . . __ . . __ . . __ . . 
 72
    65
 73
     6
 40
21.0
 49
12.0
 74
     0
 49
-3.0
 74
     0
 49
0.0
 74
     0
 49
-3.0
 74
     0
 49
0.0
 74
     0
 49
-3.0
 74
     0
  0
LTYPE
  5
61
330
5
100
AcDbSymbolTableRecord
100
AcDbLinetypeTableRecord
  2
ACAD_ISO15W100
 70
     0
  3
ISO double-dash triple-dot __ __ . . . __ __ . .
 72
    65
 73
    10
 40
39.0
 49
12.0
 74
     0
 49
-3.0
 74
     0
 49
12.0
 74
     0
 49
-3.0
 74
     0
 49
0.0
 74
     0
 49
-3.0
 74
     0
 49
0.0
 74
     0
 49
-3.0
 74
     0
 49
0.0
 74
     0
 49
-3.0
 74
     0
  0
LTYPE
  5
62
330
5
100
AcDbSymbolTableRecord
100
AcDbLinetypeTableRecord
  2
JIS_02_0.7
 70
     0
  3
HIDDEN0.75 _ _ _ _ _ _ _ _ _ _ _ _ _ _ _ _ _ 
 72
    65
 73
     2
 40
1.35
 49
0.75
 74
     0
 49
-0.6
 74
     0
  0
LTYPE
  5
63
330
5
100
AcDbSymbolTableRecord
100
AcDbLinetypeTableRecord
  2
JIS_02_1.0
 70
     0
  3
HIDDEN01 _ _ _ _ _ _ _ _ _ _ _ _ _ _ _ _ _ 
 72
    65
 73
     2
 40
2.0
 49
1.0
 74
     0
 49
-1.0
 74
     0
  0
LTYPE
  5
64
330
5
100
AcDbSymbolTableRecord
100
AcDbLinetypeTableRecord
  2
JIS_02_1.2
 70
     0
  3
HIDDEN01.25  _ _ _ _ _ _ _ _ _ _ _ _ _ _ _ _ _ 
 72
    65
 73
     2
 40
2.5
 49
1.25
 74
     0
 49
-1.25
 74
     0
  0
LTYPE
  5
65
330
5
100
AcDbSymbolTableRecord
100
AcDbLinetypeTableRecord
  2
JIS_02_2.0
 70
     0
  3
HIDDEN02 __ __ __ __ __ __ __ __ __ __ __ 
 72
    65
 73
     2
 40
3.0
 49
2.0
 74
     0
 49
-1.0
 74
     0
  0
LTYPE
  5
66
330
5
100
AcDbSymbolTableRecord
100
AcDbLinetypeTableRecord
  2
JIS_02_4.0
 70
     0
  3
HIDDEN04 ____ ____ ____ ____ ____ ____ ____ 
 72
    65
 73
     2
 40
5.5
 49
4.0
 74
     0
 49
-1.5
 74
     0
  0
LTYPE
  5
67
330
5
100
AcDbSymbolTableRecord
100
AcDbLinetypeTableRecord
  2
JIS_08_11
 70
     0
  3
1SASEN11 ___ _ ___ _ ___ _ ___ _ ___ _ ___
 72
    65
 73
     4
 40
12.8
 49
11.0
 74
     0
 49
-0.6
 74
     0
 49
0.6
 74
     0
 49
-0.6
 74
     0
  0
LTYPE
  5
68
330
5
100
AcDbSymbolTableRecord
100
AcDbLinetypeTableRecord
  2
JIS_08_15
 70
     0
  3
1SASEN15 ____ _ ____ _ ____ _ ____ _ ____ 
 72
    65
 73
     4
 40
17.25
 49
15.0
 74
     0
 49
-0.75
 74
     0
 49
0.75
 74
     0
 49
-0.75
 74
     0
  0
LTYPE
  5
69
330
5
100
AcDbSymbolTableRecord
100
AcDbLinetypeTableRecord
  2
JIS_08_25
 70
     0
  3
1SASEN25 ________  __  ________  __  _____
 72
    65
 73
     4
 40
28.0
 49
25.0
 74
     0
 49
-1.125
 74
     0
 49
0.75
 74
     0
 49
-1.125
 74
     0
  0
LTYPE
  5
6A
330
5
100
AcDbSymbolTableRecord
100
AcDbLinetypeTableRecord
  2
JIS_08_37
 70
     0
  3
1SASEN37 ________  __  ________  __  _____
 72
    65
 73
     4
 40
40.5
 49
37.5
 74
     0
 49
-1.125
 74
     0
 49
0.75
 74
     0
 49
-1.125
 74
     0
  0
LTYPE
  5
6B
330
5
100
AcDbSymbolTableRecord
100
AcDbLinetypeTableRecord
  2
JIS_08_50
 70
     0
  3
1SASEN50 _______________  __  ____________
 72
    65
 73
     4
 40
53.0
 49
50.0
 74
     0
 49
-1.125
 74
     0
 49
0.75
 74
     0
 49
-1.125
 74
     0
  0
LTYPE
  5
6C
330
5
100
AcDbSymbolTableRecord
100
AcDbLinetypeTableRecord
  2
JIS_09_08
 70
     0
  3
2SASEN8 __ _ _ __ _ _ __ _ _ __ _ _ __ _ _ 
 72
    65
 73
     6
 40
10.75
 49
8.0
 74
     0
 49
-0.55
 74
     0
 49
0.55
 74
     0
 49
-0.55
 74
     0
 49
0.55
 74
     0
 49
-0.55
 74
     0
  0
LTYPE
  5
6D
330
5
100
AcDbSymbolTableRecord
100
AcDbLinetypeTableRecord
  2
JIS_09_15
 70
     0
  3
2SASEN15 ___ _ _ ___ _ _ ___ _ _ ___ _ _ ___ 
 72
    65
 73
     6
 40
18.9
 49
15.0
 74
     0
 49
-0.9
 74
     0
 49
0.6
 74
     0
 49
-0.9
 74
     0
 49
0.6
 74
     0
 49
-0.9
 74
     0
  0
LTYPE
  5
6E
330
5
100
AcDbSymbolTableRecord
100
AcDbLinetypeTableRecord
  2
JIS_09_29
 70
     0
  3
2SASEN29 ______　__  __  ______　__  __  ___
 72
    65
 73
     6
 40
34.0
 49
29.0
 74
     0
 49
-1.2
 74
     0
 49
0.7
 74
     0
 49
-1.2
 74
     0
 49
0.7
 74
     0
 49
-1.2
 74
     0
  0
LTYPE
  5
6F
330
5
100
AcDbSymbolTableRecord
100
AcDbLinetypeTableRecord
  2
JIS_09_50
 70
     0
  3
2SASEN50 ____________　__  __  _____________
 72
    65
 73
     6
 40
55.0
 49
50.0
 74
     0
 49
-1.2
 74
     0
 49
0.7
 74
     0
 49
-1.2
 74
     0
 49
0.7
 74
     0
 49
-1.2
 74
     0
  0
ENDTAB
  0
TABLE
  2
LAYER
  5
2
330
0
100
AcDbSymbolTable
 70
     6
  0
LAYER
  5
10
330
2
100
AcDbSymbolTableRecord
100
AcDbLayerTableRecord
  2
0
 70
     0
 62
     7
  6
Continuous
370
    -3
390
F
  0
LAYER
  5
70
330
2
100
AcDbSymbolTableRecord
100
AcDbLayerTableRecord
  2
Layer0000
 70
     0
 62
     7
  6
Continuous
370
    -3
390
F
  0
LAYER
  5
71
330
2
100
AcDbSymbolTableRecord
100
AcDbLayerTableRecord
  2
Layer0001
 70
     0
 62
     7
  6
Continuous
370
    -3
390
F
  0
LAYER
  5
72
330
2
100
AcDbSymbolTableRecord
100
AcDbLayerTableRecord
  2
Layer0004
 70
     0
 62
     7
  6
Continuous
370
    -3
390
F
  0
LAYER
  5
73
330
2
100
AcDbSymbolTableRecord
100
AcDbLayerTableRecord
  2
Layer0014
 70
     0
 62
     7
  6
Continuous
370
    -3
390
F
  0
LAYER
  5
74
330
2
100
AcDbSymbolTableRecord
100
AcDbLayerTableRecord
  2
Layer0015
 70
     0
 62
     7
  6
Continuous
370
    -3
390
F
  0
ENDTAB
  0
TABLE
  2
STYLE
  5
3
330
0
100
AcDbSymbolTable
 70
     2
  0
STYLE
  5
11
330
3
100
AcDbSymbolTableRecord
100
AcDbTextStyleTableRecord
  2
Standard
 70
     0
 40
0.0
 41
1.0
 50
0.0
 71
     0
 42
0.2
  3
txt
  4

  0
STYLE
  5
E4
330
3
100
AcDbSymbolTableRecord
100
AcDbTextStyleTableRecord
  2
dcStyle0
 70
     0
 40
0.0
 41
0.8000000000000015
 50
0.0
 71
     0
 42
0.2
  3
txt.shx
  4
bigfont
  0
ENDTAB
  0
TABLE
  2
VIEW
  5
6
330
0
100
AcDbSymbolTable
 70
     0
  0
ENDTAB
  0
TABLE
  2
UCS
  5
7
330
0
100
AcDbSymbolTable
 70
     0
  0
ENDTAB
  0
TABLE
  2
APPID
  5
9
330
0
100
AcDbSymbolTable
 70
     2
  0
APPID
  5
12
330
9
100
AcDbSymbolTableRecord
100
AcDbRegAppTableRecord
  2
ACAD
 70
     0
  0
APPID
  5
3B
330
9
100
AcDbSymbolTableRecord
100
AcDbRegAppTableRecord
  2
DaFusionOut
 70
     0
  0
ENDTAB
  0
TABLE
  2
DIMSTYLE
  5
A
330
0
100
AcDbSymbolTable
 70
     2
100
AcDbDimStyleTable
  0
DIMSTYLE
105
27
330
A
100
AcDbSymbolTableRecord
100
AcDbDimStyleTableRecord
  2
Standard
 70
     0
340
11
  0
DIMSTYLE
105
61A
102
{ACAD_REACTORS
330
619
330
61B
330
61C
330
61E
330
61F
330
620
330
621
330
622
330
623
330
627
330
628
330
62B
330
62C
330
62D
102
}
330
A
100
AcDbSymbolTableRecord
100
AcDbDimStyleTableRecord
  2
DaDimRotatedStyle
 70
     0
 41
7.499992178923005
 42
2.5
 44
1.600000000000001
 73
     0
 74
     0
 77
     3
 78
     8
 79
     2
140
12.5
147
2.0
172
     1
173
     1
176
     2
177
     2
178
     2
271
     3
274
     4
283
     0
284
     8
288
     1
289
     0
340
E4
343
DA
344
DA
  0
ENDTAB
  0
TABLE
  2
BLOCK_RECORD
  5
1
330
0
100
AcDbSymbolTable
 70
    35
  0
BLOCK_RECORD
  5
1F
330
1
100
AcDbSymbolTableRecord
100
AcDbBlockTableRecord
  2
*Model_Space
340
22
  0
BLOCK_RECORD
  5
1B
330
1
100
AcDbSymbolTableRecord
100
AcDbBlockTableRecord
  2
*Paper_Space
340
1E
  0
BLOCK_RECORD
  5
23
330
1
100
AcDbSymbolTableRecord
100
AcDbBlockTableRecord
  2
*Paper_Space0
340
26
  0
BLOCK_RECORD
  5
76
330
1
100
AcDbSymbolTableRecord
100
AcDbBlockTableRecord
  2
*D1
340
0
  0
BLOCK_RECORD
  5
79
330
1
100
AcDbSymbolTableRecord
100
AcDbBlockTableRecord
  2
*D2
340
0
  0
BLOCK_RECORD
  5
7C
330
1
100
AcDbSymbolTableRecord
100
AcDbBlockTableRecord
  2
*D3
340
0
  0
BLOCK_RECORD
  5
7F
330
1
100
AcDbSymbolTableRecord
100
AcDbBlockTableRecord
  2
DA_IMAGEDIMGROUP_1
340
0
102
{BLKREFS
331
61D
102
}
  0
BLOCK_RECORD
  5
82
330
1
100
AcDbSymbolTableRecord
100
AcDbBlockTableRecord
  2
*D5
340
0
  0
BLOCK_RECORD
  5
85
330
1
100
AcDbSymbolTableRecord
100
AcDbBlockTableRecord
  2
*D6
340
0
  0
BLOCK_RECORD
  5
88
330
1
100
AcDbSymbolTableRecord
100
AcDbBlockTableRecord
  2
*D7
340
0
  0
BLOCK_RECORD
  5
8B
330
1
100
AcDbSymbolTableRecord
100
AcDbBlockTableRecord
  2
*D8
340
0
  0
BLOCK_RECORD
  5
8E
330
1
100
AcDbSymbolTableRecord
100
AcDbBlockTableRecord
  2
*D9
340
0
  0
BLOCK_RECORD
  5
91
330
1
100
AcDbSymbolTableRecord
100
AcDbBlockTableRecord
  2
*D10
340
0
  0
BLOCK_RECORD
  5
94
330
1
100
AcDbSymbolTableRecord
100
AcDbBlockTableRecord
  2
DA_IMAGEDIMGROUP_2
340
0
102
{BLKREFS
331
624
102
}
  0
BLOCK_RECORD
  5
97
330
1
100
AcDbSymbolTableRecord
100
AcDbBlockTableRecord
  2
DA_IMAGEDIMGROUP_3
340
0
102
{BLKREFS
331
625
102
}
  0
BLOCK_RECORD
  5
9A
330
1
100
AcDbSymbolTableRecord
100
AcDbBlockTableRecord
  2
DA_IMAGEDIMGROUP_4
340
0
102
{BLKREFS
331
626
102
}
  0
BLOCK_RECORD
  5
9D
330
1
100
AcDbSymbolTableRecord
100
AcDbBlockTableRecord
  2
*D14
340
0
  0
BLOCK_RECORD
  5
A0
330
1
100
AcDbSymbolTableRecord
100
AcDbBlockTableRecord
  2
*D15
340
0
  0
BLOCK_RECORD
  5
A3
330
1
100
AcDbSymbolTableRecord
100
AcDbBlockTableRecord
  2
DC_GROUP_ACE160L_1
340
0
102
{BLKREFS
331
629
102
}
  0
BLOCK_RECORD
  5
A6
330
1
100
AcDbSymbolTableRecord
100
AcDbBlockTableRecord
  2
DC_GROUP_ACE160L_2
340
0
102
{BLKREFS
331
62A
102
}
  0
BLOCK_RECORD
  5
A9
330
1
100
AcDbSymbolTableRecord
100
AcDbBlockTableRecord
  2
*D18
340
0
  0
BLOCK_RECORD
  5
AC
330
1
100
AcDbSymbolTableRecord
100
AcDbBlockTableRecord
  2
*D19
340
0
  0
BLOCK_RECORD
  5
AF
330
1
100
AcDbSymbolTableRecord
100
AcDbBlockTableRecord
  2
*D20
340
0
  0
BLOCK_RECORD
  5
B2
330
1
100
AcDbSymbolTableRecord
100
AcDbBlockTableRecord
  2
DC_GROUP_ACE160L_3
340
0
102
{BLKREFS
331
62E
102
}
  0
BLOCK_RECORD
  5
B5
330
1
100
AcDbSymbolTableRecord
100
AcDbBlockTableRecord
  2
DC_GROUP_ACE160L_4
340
0
102
{BLKREFS
331
62F
102
}
  0
BLOCK_RECORD
  5
B8
330
1
100
AcDbSymbolTableRecord
100
AcDbBlockTableRecord
  2
DC_GROUP_ACE160L_5
340
0
102
{BLKREFS
331
630
102
}
  0
BLOCK_RECORD
  5
BB
330
1
100
AcDbSymbolTableRecord
100
AcDbBlockTableRecord
  2
DC_GROUP_ACE160L_6
340
0
102
{BLKREFS
331
631
102
}
  0
BLOCK_RECORD
  5
BE
330
1
100
AcDbSymbolTableRecord
100
AcDbBlockTableRecord
  2
DC_GROUP_ACE160L_7
340
0
102
{BLKREFS
331
632
102
}
  0
BLOCK_RECORD
  5
C1
330
1
100
AcDbSymbolTableRecord
100
AcDbBlockTableRecord
  2
DC_GROUP_ACE160L_8
340
0
102
{BLKREFS
331
633
102
}
  0
BLOCK_RECORD
  5
C4
330
1
100
AcDbSymbolTableRecord
100
AcDbBlockTableRecord
  2
DC_GROUP_ACE160L_9
340
0
102
{BLKREFS
331
634
102
}
  0
BLOCK_RECORD
  5
C7
330
1
100
AcDbSymbolTableRecord
100
AcDbBlockTableRecord
  2
DC_GROUP_ACE160L_10
340
0
102
{BLKREFS
331
638
102
}
  0
BLOCK_RECORD
  5
CA
330
1
100
AcDbSymbolTableRecord
100
AcDbBlockTableRecord
  2
DC_GROUP_ACE160L_11
340
0
102
{BLKREFS
331
639
102
}
  0
BLOCK_RECORD
  5
CD
330
1
100
AcDbSymbolTableRecord
100
AcDbBlockTableRecord
  2
DC_GROUP_ACE160L_12
340
0
102
{BLKREFS
331
63A
102
}
  0
BLOCK_RECORD
  5
D0
330
1
100
AcDbSymbolTableRecord
100
AcDbBlockTableRecord
  2
DC_GROUP_ACE160L_13
340
0
102
{BLKREFS
331
635
102
}
  0
BLOCK_RECORD
  5
D3
330
1
100
AcDbSymbolTableRecord
100
AcDbBlockTableRecord
  2
DC_GROUP_ACE160L_14
340
0
102
{BLKREFS
331
636
102
}
  0
BLOCK_RECORD
  5
D6
330
1
100
AcDbSymbolTableRecord
100
AcDbBlockTableRecord
  2
DC_GROUP_ACE160L_15
340
0
102
{BLKREFS
331
637
102
}
  0
BLOCK_RECORD
  5
DA
330
1
100
AcDbSymbolTableRecord
100
AcDbBlockTableRecord
  2
_OPEN30
340
0
102
{BLKREFS
331
E0
331
E1
331
E7
331
E8
331
ED
331
EE
331
F6
331
F8
331
FB
331
FC
331
101
331
102
331
107
331
108
331
10D
331
10E
331
113
331
114
331
119
331
11A
331
122
331
124
331
12A
331
12C
331
132
331
134
331
137
331
138
331
13D
331
13E
331
144
331
148
331
14B
331
14C
331
150
331
151
331
155
331
156
331
166
331
16A
331
16E
331
530
331
531
331
533
331
534
331
536
331
537
331
539
331
53A
331
53C
331
53D
331
53F
331
540
331
542
331
543
331
545
331
546
331
548
331
549
331
54B
331
54C
331
54E
331
54F
331
551
331
552
331
554
331
556
331
558
102
}
  0
ENDTAB
  0
ENDSEC
  0
SECTION
  2
BLOCKS
  0
BLOCK
  5
20
330
1F
100
AcDbEntity
  8
0
100
AcDbBlockBegin
  2
*Model_Space
 70
     0
 10
0.0
 20
0.0
 30
0.0
  3
*Model_Space
  1

  0
ENDBLK
  5
21
330
1F
100
AcDbEntity
  8
0
100
AcDbBlockEnd
  0
BLOCK
  5
1C
330
1B
100
AcDbEntity
 67
     1
  8
0
100
AcDbBlockBegin
  2
*Paper_Space
 70
     0
 10
0.0
 20
0.0
 30
0.0
  3
*Paper_Space
  1

  0
ENDBLK
  5
1D
330
1B
100
AcDbEntity
 67
     1
  8
0
100
AcDbBlockEnd
  0
BLOCK
  5
24
330
23
100
AcDbEntity
  8
0
100
AcDbBlockBegin
  2
*Paper_Space0
 70
     0
 10
0.0
 20
0.0
 30
0.0
  3
*Paper_Space0
  1

  0
ENDBLK
  5
25
330
23
100
AcDbEntity
  8
0
100
AcDbBlockEnd
  0
BLOCK
  5
77
330
76
100
AcDbEntity
  8
0
100
AcDbBlockBegin
  2
*D1
 70
     1
 10
0.0
 20
0.0
 30
0.0
  3
*D1
  1

  0
LINE
  5
D9
330
76
100
AcDbEntity
  8
Layer0015
  6
Continuous
 62
     2
370
    13
100
AcDbLine
 10
-560.5595084087977
 20
28.41164294954721
 30
0.0
 11
-455.5595084087976
 21
28.41164294954721
 31
0.0
  0
INSERT
  5
E0
330
76
100
AcDbEntity
  8
Layer0015
 62
     2
100
AcDbBlockReference
  2
_OPEN30
 10
-560.5595084087977
 20
28.41164294954721
 30
0.0
 41
7.646601831087536
 42
5.031938088706951
 50
180.0
  0
INSERT
  5
E1
330
76
100
AcDbEntity
  8
Layer0015
 62
     2
100
AcDbBlockReference
  2
_OPEN30
 10
-455.5595084087976
 20
28.41164294954721
 30
0.0
 41
7.646601831087536
 42
5.031938088706951
 50
360.0
  0
LINE
  5
E2
330
76
100
AcDbEntity
  8
Layer0015
  6
Continuous
 62
     2
370
    13
100
AcDbLine
 10
-560.5595084087977
 20
-54.39696699375558
 30
0.0
 11
-560.5595084087977
 21
30.01164294954722
 31
0.0
  0
LINE
  5
E3
330
76
100
AcDbEntity
  8
Layer0015
  6
Continuous
 62
     2
370
    13
100
AcDbLine
 10
-455.5595084087976
 20
-52.59696699375562
 30
0.0
 11
-455.5595084087976
 21
30.01164294954722
 31
0.0
  0
MTEXT
  5
E5
330
76
100
AcDbEntity
  8
Layer0015
 62
     2
100
AcDbMText
 10
-508.0595084087977
 20
30.41164294954721
 30
0.0
 40
12.5
 41
53.12500000000007
 71
     8
 72
     1
  1
\T1.00;105
  7
dcStyle0
 73
     1
 44
1.0
  0
ENDBLK
  5
78
330
76
100
AcDbEntity
  8
0
100
AcDbBlockEnd
  0
BLOCK
  5
7A
330
79
100
AcDbEntity
  8
0
100
AcDbBlockBegin
  2
*D2
 70
     1
 10
0.0
 20
0.0
 30
0.0
  3
*D2
  1

  0
LINE
  5
E6
330
79
100
AcDbEntity
  8
Layer0015
  6
Continuous
 62
     2
370
    13
100
AcDbLine
 10
-455.5595084087976
 20
28.41164294954721
 30
0.0
 11
-67.25950840879761
 21
28.41164294954721
 31
0.0
  0
INSERT
  5
E7
330
79
100
AcDbEntity
  8
Layer0015
 62
     2
100
AcDbBlockReference
  2
_OPEN30
 10
-455.5595084087976
 20
28.41164294954721
 30
0.0
 41
7.646601831087536
 42
5.031938088706951
 50
180.0
  0
INSERT
  5
E8
330
79
100
AcDbEntity
  8
Layer0015
 62
     2
100
AcDbBlockReference
  2
_OPEN30
 10
-67.25950840879761
 20
28.41164294954721
 30
0.0
 41
7.646601831087536
 42
5.031938088706951
 50
360.0
  0
LINE
  5
E9
330
79
100
AcDbEntity
  8
Layer0015
  6
Continuous
 62
     2
370
    13
100
AcDbLine
 10
-455.5595084087976
 20
-52.59696699375562
 30
0.0
 11
-455.5595084087976
 21
30.01164294954722
 31
0.0
  0
LINE
  5
EA
330
79
100
AcDbEntity
  8
Layer0015
  6
Continuous
 62
     2
370
    13
100
AcDbLine
 10
-67.25950840879761
 20
-52.59696699375562
 30
0.0
 11
-67.25950840879761
 21
30.01164294954722
 31
0.0
  0
MTEXT
  5
EB
330
79
100
AcDbEntity
  8
Layer0015
 62
     2
100
AcDbMText
 10
-261.4095084087976
 20
30.41164294954721
 30
0.0
 40
12.5
 41
78.125
 71
     8
 72
     1
  1
\T1.00;0～385
  7
dcStyle0
 73
     1
 44
1.0
  0
ENDBLK
  5
7B
330
79
100
AcDbEntity
  8
0
100
AcDbBlockEnd
  0
BLOCK
  5
7D
330
7C
100
AcDbEntity
  8
0
100
AcDbBlockBegin
  2
*D3
 70
     1
 10
0.0
 20
0.0
 30
0.0
  3
*D3
  1

  0
LINE
  5
EC
330
7C
100
AcDbEntity
  8
Layer0015
  6
Continuous
 62
     2
370
    13
100
AcDbLine
 10
-67.25950840879761
 20
28.41164294954721
 30
0.0
 11
184.440491591204
 21
28.41164294954721
 31
0.0
  0
INSERT
  5
ED
330
7C
100
AcDbEntity
  8
Layer0015
 62
     2
100
AcDbBlockReference
  2
_OPEN30
 10
-67.25950840879761
 20
28.41164294954721
 30
0.0
 41
7.646601831087536
 42
5.031938088706951
 50
180.0
  0
INSERT
  5
EE
330
7C
100
AcDbEntity
  8
Layer0015
 62
     2
100
AcDbBlockReference
  2
_OPEN30
 10
184.440491591204
 20
28.41164294954721
 30
0.0
 41
7.646601831087536
 42
5.031938088706951
 50
360.0
  0
LINE
  5
EF
330
7C
100
AcDbEntity
  8
Layer0015
  6
Continuous
 62
     2
370
    13
100
AcDbLine
 10
-67.25950840879761
 20
-52.59696699375562
 30
0.0
 11
-67.25950840879761
 21
30.01164294954722
 31
0.0
  0
LINE
  5
F0
330
7C
100
AcDbEntity
  8
Layer0015
  6
Continuous
 62
     2
370
    13
100
AcDbLine
 10
184.440491591204
 20
-78.89696699375557
 30
0.0
 11
184.440491591204
 21
30.01164294954722
 31
0.0
  0
MTEXT
  5
F1
330
7C
100
AcDbEntity
  8
Layer0015
 62
     2
100
AcDbMText
 10
58.5904915912032
 20
30.41164294954721
 30
0.0
 40
12.5
 41
53.125
 71
     8
 72
     1
  1
\T1.00;252
  7
dcStyle0
 73
     1
 44
1.0
  0
ENDBLK
  5
7E
330
7C
100
AcDbEntity
  8
0
100
AcDbBlockEnd
  0
BLOCK
  5
80
330
7F
100
AcDbEntity
  8
0
100
AcDbBlockBegin
  2
DA_IMAGEDIMGROUP_1
 70
     0
 10
0.0
 20
0.0
 30
0.0
  3
DA_IMAGEDIMGROUP_1
  1

  0
LINE
  5
F2
330
7F
100
AcDbEntity
  8
Layer0015
  6
Continuous
 62
     2
370
    13
100
AcDbLine
 10
-473.5595084087976
 20
-53.39696699375558
 30
0.0
 11
-473.5595084087976
 21
-9.372664272075703
 31
0.0
  0
LINE
  5
F3
330
7F
100
AcDbEntity
  8
Layer0015
  6
Continuous
 62
     2
370
    13
100
AcDbLine
 10
-455.5595084087976
 20
-52.59696699375562
 30
0.0
 11
-455.5595084087976
 21
-9.372664272075703
 31
0.0
  0
LINE
  5
F4
330
7F
100
AcDbEntity
  8
Layer0015
  6
Continuous
 62
     2
370
    13
100
AcDbLine
 10
-473.5595084087976
 20
-10.9726642720757
 30
0.0
 11
-455.5595084087976
 21
-10.9726642720757
 31
0.0
  0
LINE
  5
F5
330
7F
100
AcDbEntity
  8
Layer0015
  6
Continuous
 62
     2
370
    13
100
AcDbLine
 10
-433.6506684087976
 20
-10.9726642720757
 30
0.0
 11
-455.5595084087976
 21
-10.9726642720757
 31
0.0
  0
INSERT
  5
F6
330
7F
100
AcDbEntity
  8
Layer0015
 62
     2
100
AcDbBlockReference
  2
_OPEN30
 10
-455.5595084087976
 20
-10.9726642720757
 30
0.0
 41
7.646601831087536
 42
5.031938088706951
 50
180.0
  0
LINE
  5
F7
330
7F
100
AcDbEntity
  8
Layer0015
  6
Continuous
 62
     2
370
    13
100
AcDbLine
 10
-481.5595084087976
 20
-10.9726642720757
 30
0.0
 11
-473.5595084087976
 21
-10.9726642720757
 31
0.0
  0
INSERT
  5
F8
330
7F
100
AcDbEntity
  8
Layer0015
 62
     2
100
AcDbBlockReference
  2
_OPEN30
 10
-473.5595084087976
 20
-10.9726642720757
 30
0.0
 41
7.646601831087536
 42
5.031938088706951
 50
360.0
  0
MTEXT
  5
F9
330
7F
100
AcDbEntity
  8
Layer0015
 62
     2
100
AcDbMText
 10
-449.6506684087976
 20
-8.972664272075702
 30
0.0
 40
12.5
 41
40.625
 71
     7
 72
     1
  1
\T1.00;18
  7
dcStyle0
 73
     1
 44
1.0
  0
ENDBLK
  5
81
330
7F
100
AcDbEntity
  8
0
100
AcDbBlockEnd
  0
BLOCK
  5
83
330
82
100
AcDbEntity
  8
0
100
AcDbBlockBegin
  2
*D5
 70
     1
 10
0.0
 20
0.0
 30
0.0
  3
*D5
  1

  0
LINE
  5
FA
330
82
100
AcDbEntity
  8
Layer0015
  6
Continuous
 62
     2
370
    13
100
AcDbLine
 10
-560.5595084087977
 20
119.3562539462193
 30
0.0
 11
184.4404915911999
 21
119.3562539462193
 31
0.0
  0
INSERT
  5
FB
330
82
100
AcDbEntity
  8
Layer0015
 62
     2
100
AcDbBlockReference
  2
_OPEN30
 10
-560.5595084087977
 20
119.3562539462193
 30
0.0
 41
7.646601831087536
 42
5.031938088706951
 50
180.0
  0
INSERT
  5
FC
330
82
100
AcDbEntity
  8
Layer0015
 62
     2
100
AcDbBlockReference
  2
_OPEN30
 10
184.4404915911999
 20
119.3562539462193
 30
0.0
 41
7.646601831087536
 42
5.031938088706951
 50
360.0
  0
LINE
  5
FD
330
82
100
AcDbEntity
  8
Layer0015
  6
Continuous
 62
     2
370
    13
100
AcDbLine
 10
-560.5595084087977
 20
228.779228961073
 30
0.0
 11
-560.5595084087977
 21
117.7562539462193
 31
0.0
  0
LINE
  5
FE
330
82
100
AcDbEntity
  8
Layer0015
  6
Continuous
 62
     2
370
    13
100
AcDbLine
 10
184.4404915911999
 20
297.7792289610729
 30
0.0
 11
184.4404915911999
 21
117.7562539462193
 31
0.0
  0
MTEXT
  5
FF
330
82
100
AcDbEntity
  8
Layer0015
 62
     2
100
AcDbMText
 10
-188.0595084087988
 20
121.3562539462193
 30
0.0
 40
12.5
 41
53.125
 71
     8
 72
     1
  1
\T1.00;742
  7
dcStyle0
 73
     1
 44
1.0
  0
ENDBLK
  5
84
330
82
100
AcDbEntity
  8
0
100
AcDbBlockEnd
  0
BLOCK
  5
86
330
85
100
AcDbEntity
  8
0
100
AcDbBlockBegin
  2
*D6
 70
     1
 10
0.0
 20
0.0
 30
0.0
  3
*D6
  1

  0
LINE
  5
100
330
85
100
AcDbEntity
  8
Layer0015
  6
Continuous
 62
     2
370
    13
100
AcDbLine
 10
492.699081521998
 20
183.279228961073
 30
0.0
 11
492.699081521998
 21
229.2792289610727
 31
0.0
  0
INSERT
  5
101
330
85
100
AcDbEntity
  8
Layer0015
 62
     2
100
AcDbBlockReference
  2
_OPEN30
 10
492.699081521998
 20
183.279228961073
 30
0.0
 41
7.646601831087536
 42
5.031938088706951
 50
270.0
  0
INSERT
  5
102
330
85
100
AcDbEntity
  8
Layer0015
 62
     2
100
AcDbBlockReference
  2
_OPEN30
 10
492.699081521998
 20
229.2792289610727
 30
0.0
 41
7.646601831087536
 42
5.031938088706951
 50
90.0
  0
LINE
  5
103
330
85
100
AcDbEntity
  8
Layer0015
  6
Continuous
 62
     2
370
    13
100
AcDbLine
 10
463.8917240751454
 20
183.279228961073
 30
0.0
 11
494.299081521998
 21
183.279228961073
 31
0.0
  0
LINE
  5
104
330
85
100
AcDbEntity
  8
Layer0015
  6
Continuous
 62
     2
370
    13
100
AcDbLine
 10
463.8917240751454
 20
229.2792289610727
 30
0.0
 11
494.299081521998
 21
229.2792289610727
 31
0.0
  0
MTEXT
  5
105
330
85
100
AcDbEntity
  8
Layer0015
 62
     2
100
AcDbMText
 10
490.699081521998
 20
206.2792289610728
 30
0.0
 40
12.5
 41
40.625
 71
     8
 72
     1
  1
\T1.00;46
  7
dcStyle0
 11
6.123031769111886E-17
 21
1.0
 31
0.0
 73
     1
 44
1.0
  0
ENDBLK
  5
87
330
85
100
AcDbEntity
  8
0
100
AcDbBlockEnd
  0
BLOCK
  5
89
330
88
100
AcDbEntity
  8
0
100
AcDbBlockBegin
  2
*D7
 70
     1
 10
0.0
 20
0.0
 30
0.0
  3
*D7
  1

  0
LINE
  5
106
330
88
100
AcDbEntity
  8
Layer0015
  6
Continuous
 62
     2
370
    13
100
AcDbLine
 10
492.699081521998
 20
229.2792289610727
 30
0.0
 11
492.699081521998
 21
389.2792289610727
 31
0.0
  0
INSERT
  5
107
330
88
100
AcDbEntity
  8
Layer0015
 62
     2
100
AcDbBlockReference
  2
_OPEN30
 10
492.699081521998
 20
229.2792289610727
 30
0.0
 41
7.646601831087536
 42
5.031938088706951
 50
270.0
  0
INSERT
  5
108
330
88
100
AcDbEntity
  8
Layer0015
 62
     2
100
AcDbBlockReference
  2
_OPEN30
 10
492.699081521998
 20
389.2792289610727
 30
0.0
 41
7.646601831087536
 42
5.031938088706951
 50
90.0
  0
LINE
  5
109
330
88
100
AcDbEntity
  8
Layer0015
  6
Continuous
 62
     2
370
    13
100
AcDbLine
 10
463.8917240751454
 20
229.2792289610727
 30
0.0
 11
494.299081521998
 21
229.2792289610727
 31
0.0
  0
LINE
  5
10A
330
88
100
AcDbEntity
  8
Layer0015
  6
Continuous
 62
     2
370
    13
100
AcDbLine
 10
463.8917240751456
 20
389.2792289610727
 30
0.0
 11
494.299081521998
 21
389.2792289610727
 31
0.0
  0
MTEXT
  5
10B
330
88
100
AcDbEntity
  8
Layer0015
 62
     2
100
AcDbMText
 10
490.699081521998
 20
309.2792289610727
 30
0.0
 40
12.5
 41
53.125
 71
     8
 72
     1
  1
\T1.00;160
  7
dcStyle0
 11
6.123031769111886E-17
 21
1.0
 31
0.0
 73
     1
 44
1.0
  0
ENDBLK
  5
8A
330
88
100
AcDbEntity
  8
0
100
AcDbBlockEnd
  0
BLOCK
  5
8C
330
8B
100
AcDbEntity
  8
0
100
AcDbBlockBegin
  2
*D8
 70
     1
 10
0.0
 20
0.0
 30
0.0
  3
*D8
  1

  0
LINE
  5
10C
330
8B
100
AcDbEntity
  8
Layer0015
  6
Continuous
 62
     2
370
    13
100
AcDbLine
 10
492.699081521998
 20
389.2792289610727
 30
0.0
 11
492.699081521998
 21
435.2792289610725
 31
0.0
  0
INSERT
  5
10D
330
8B
100
AcDbEntity
  8
Layer0015
 62
     2
100
AcDbBlockReference
  2
_OPEN30
 10
492.699081521998
 20
389.2792289610727
 30
0.0
 41
7.646601831087536
 42
5.031938088706951
 50
270.0
  0
INSERT
  5
10E
330
8B
100
AcDbEntity
  8
Layer0015
 62
     2
100
AcDbBlockReference
  2
_OPEN30
 10
492.699081521998
 20
435.2792289610725
 30
0.0
 41
7.646601831087536
 42
5.031938088706951
 50
90.0
  0
LINE
  5
10F
330
8B
100
AcDbEntity
  8
Layer0015
  6
Continuous
 62
     2
370
    13
100
AcDbLine
 10
463.8917240751456
 20
389.2792289610727
 30
0.0
 11
494.299081521998
 21
389.2792289610727
 31
0.0
  0
LINE
  5
110
330
8B
100
AcDbEntity
  8
Layer0015
  6
Continuous
 62
     2
370
    13
100
AcDbLine
 10
463.8917240751456
 20
435.2792289610725
 30
0.0
 11
494.299081521998
 21
435.2792289610725
 31
0.0
  0
MTEXT
  5
111
330
8B
100
AcDbEntity
  8
Layer0015
 62
     2
100
AcDbMText
 10
490.699081521998
 20
412.2792289610726
 30
0.0
 40
12.5
 41
40.625
 71
     8
 72
     1
  1
\T1.00;46
  7
dcStyle0
 11
6.123031769111886E-17
 21
1.0
 31
0.0
 73
     1
 44
1.0
  0
ENDBLK
  5
8D
330
8B
100
AcDbEntity
  8
0
100
AcDbBlockEnd
  0
BLOCK
  5
8F
330
8E
100
AcDbEntity
  8
0
100
AcDbBlockBegin
  2
*D9
 70
     1
 10
0.0
 20
0.0
 30
0.0
  3
*D9
  1

  0
LINE
  5
112
330
8E
100
AcDbEntity
  8
Layer0015
  6
Continuous
 62
     2
370
    13
100
AcDbLine
 10
511.0609468942721
 20
183.279228961073
 30
0.0
 11
511.0609468942721
 21
435.2792289610725
 31
0.0
  0
INSERT
  5
113
330
8E
100
AcDbEntity
  8
Layer0015
 62
     2
100
AcDbBlockReference
  2
_OPEN30
 10
511.0609468942721
 20
183.279228961073
 30
0.0
 41
7.646601831087536
 42
5.031938088706951
 50
270.0
  0
INSERT
  5
114
330
8E
100
AcDbEntity
  8
Layer0015
 62
     2
100
AcDbBlockReference
  2
_OPEN30
 10
511.0609468942721
 20
435.2792289610725
 30
0.0
 41
7.646601831087536
 42
5.031938088706951
 50
90.0
  0
LINE
  5
115
330
8E
100
AcDbEntity
  8
Layer0015
  6
Continuous
 62
     2
370
    13
100
AcDbLine
 10
496.299081521998
 20
183.279228961073
 30
0.0
 11
512.6609468942721
 21
183.279228961073
 31
0.0
  0
LINE
  5
116
330
8E
100
AcDbEntity
  8
Layer0015
  6
Continuous
 62
     2
370
    13
100
AcDbLine
 10
496.299081521998
 20
435.2792289610725
 30
0.0
 11
512.6609468942721
 21
435.2792289610725
 31
0.0
  0
MTEXT
  5
117
330
8E
100
AcDbEntity
  8
Layer0015
 62
     2
100
AcDbMText
 10
509.0609468942721
 20
309.2792289610727
 30
0.0
 40
12.5
 41
53.125
 71
     8
 72
     1
  1
\T1.00;252
  7
dcStyle0
 11
6.123031769111886E-17
 21
1.0
 31
0.0
 73
     1
 44
1.0
  0
ENDBLK
  5
90
330
8E
100
AcDbEntity
  8
0
100
AcDbBlockEnd
  0
BLOCK
  5
92
330
91
100
AcDbEntity
  8
0
100
AcDbBlockBegin
  2
*D10
 70
     1
 10
0.0
 20
0.0
 30
0.0
  3
*D10
  1

  0
LINE
  5
118
330
91
100
AcDbEntity
  8
Layer0015
  6
Continuous
 62
     2
370
    13
100
AcDbLine
 10
-179.7532930334946
 20
-390.3851043561081
 30
0.0
 11
-79.75329303349456
 21
-390.3851043561081
 31
0.0
  0
INSERT
  5
119
330
91
100
AcDbEntity
  8
Layer0015
 62
     2
100
AcDbBlockReference
  2
_OPEN30
 10
-179.7532930334946
 20
-390.3851043561081
 30
0.0
 41
7.646601831087536
 42
5.031938088706951
 50
180.0
  0
INSERT
  5
11A
330
91
100
AcDbEntity
  8
Layer0015
 62
     2
100
AcDbBlockReference
  2
_OPEN30
 10
-79.75329303349456
 20
-390.3851043561081
 30
0.0
 41
7.646601831087536
 42
5.031938088706951
 50
360.0
  0
LINE
  5
11B
330
91
100
AcDbEntity
  8
Layer0015
  6
Continuous
 62
     2
370
    13
100
AcDbLine
 10
-179.7532930334946
 20
-357.0307665969125
 30
0.0
 11
-179.7532930334946
 21
-391.9851043561081
 31
0.0
  0
LINE
  5
11C
330
91
100
AcDbEntity
  8
Layer0015
  6
Continuous
 62
     2
370
    13
100
AcDbLine
 10
-79.75329303349456
 20
-343.7763532761387
 30
0.0
 11
-79.75329303349456
 21
-391.9851043561081
 31
0.0
  0
MTEXT
  5
11D
330
91
100
AcDbEntity
  8
Layer0015
 62
     2
100
AcDbMText
 10
-129.7532930334946
 20
-388.3851043561081
 30
0.0
 40
12.5
 41
53.125
 71
     8
 72
     1
  1
\T1.00;100
  7
dcStyle0
 73
     1
 44
1.0
  0
ENDBLK
  5
93
330
91
100
AcDbEntity
  8
0
100
AcDbBlockEnd
  0
BLOCK
  5
95
330
94
100
AcDbEntity
  8
0
100
AcDbBlockBegin
  2
DA_IMAGEDIMGROUP_2
 70
     0
 10
0.0
 20
0.0
 30
0.0
  3
DA_IMAGEDIMGROUP_2
  1

  0
LINE
  5
11E
330
94
100
AcDbEntity
  8
Layer0015
  6
Continuous
 62
     2
370
    13
100
AcDbLine
 10
-97.75329303349456
 20
-346.5307665969125
 30
0.0
 11
-97.75329303349456
 21
-374.1222063225513
 31
0.0
  0
LINE
  5
11F
330
94
100
AcDbEntity
  8
Layer0015
  6
Continuous
 62
     2
370
    13
100
AcDbLine
 10
-79.75329303349456
 20
-343.7763532761387
 30
0.0
 11
-79.75329303349456
 21
-374.1222063225513
 31
0.0
  0
LINE
  5
120
330
94
100
AcDbEntity
  8
Layer0015
  6
Continuous
 62
     2
370
    13
100
AcDbLine
 10
-97.75329303349456
 20
-372.5222063225513
 30
0.0
 11
-79.75329303349456
 21
-372.5222063225513
 31
0.0
  0
LINE
  5
121
330
94
100
AcDbEntity
  8
Layer0015
  6
Continuous
 62
     2
370
    13
100
AcDbLine
 10
-57.84445303349456
 20
-372.5222063225513
 30
0.0
 11
-79.75329303349456
 21
-372.5222063225513
 31
0.0
  0
INSERT
  5
122
330
94
100
AcDbEntity
  8
Layer0015
 62
     2
100
AcDbBlockReference
  2
_OPEN30
 10
-79.75329303349456
 20
-372.5222063225513
 30
0.0
 41
7.646601831087536
 42
5.031938088706951
 50
180.0
  0
LINE
  5
123
330
94
100
AcDbEntity
  8
Layer0015
  6
Continuous
 62
     2
370
    13
100
AcDbLine
 10
-105.7532930334946
 20
-372.5222063225513
 30
0.0
 11
-97.75329303349456
 21
-372.5222063225513
 31
0.0
  0
INSERT
  5
124
330
94
100
AcDbEntity
  8
Layer0015
 62
     2
100
AcDbBlockReference
  2
_OPEN30
 10
-97.75329303349456
 20
-372.5222063225513
 30
0.0
 41
7.646601831087536
 42
5.031938088706951
 50
360.0
  0
MTEXT
  5
125
330
94
100
AcDbEntity
  8
Layer0015
 62
     2
100
AcDbMText
 10
-73.84445303349456
 20
-370.5222063225513
 30
0.0
 40
12.5
 41
40.625
 71
     7
 72
     1
  1
\T1.00;18
  7
dcStyle0
 73
     1
 44
1.0
  0
ENDBLK
  5
96
330
94
100
AcDbEntity
  8
0
100
AcDbBlockEnd
  0
BLOCK
  5
98
330
97
100
AcDbEntity
  8
0
100
AcDbBlockBegin
  2
DA_IMAGEDIMGROUP_3
 70
     0
 10
0.0
 20
0.0
 30
0.0
  3
DA_IMAGEDIMGROUP_3
  1

  0
LINE
  5
126
330
97
100
AcDbEntity
  8
Layer0015
  6
Continuous
 62
     2
370
    13
100
AcDbLine
 10
-575.7532930334949
 20
-350.0307665969125
 30
0.0
 11
-575.7532930334949
 21
-368.9750974469367
 31
0.0
  0
LINE
  5
127
330
97
100
AcDbEntity
  8
Layer0015
  6
Continuous
 62
     2
370
    13
100
AcDbLine
 10
-569.7532930334949
 20
-347.0004217115152
 30
0.0
 11
-569.7532930334949
 21
-368.9750974469367
 31
0.0
  0
LINE
  5
128
330
97
100
AcDbEntity
  8
Layer0015
  6
Continuous
 62
     2
370
    13
100
AcDbLine
 10
-575.7532930334949
 20
-366.9750974469367
 30
0.0
 11
-569.7532930334949
 21
-366.9750974469367
 31
0.0
  0
LINE
  5
129
330
97
100
AcDbEntity
  8
Layer0015
  6
Continuous
 62
     2
370
    13
100
AcDbLine
 10
-554.3672430334948
 20
-366.9750974469367
 30
0.0
 11
-569.7532930334949
 21
-366.9750974469367
 31
0.0
  0
INSERT
  5
12A
330
97
100
AcDbEntity
  8
Layer0015
 62
     2
100
AcDbBlockReference
  2
_OPEN30
 10
-569.7532930334949
 20
-366.9750974469367
 30
0.0
 41
7.646601831087536
 42
5.031938088706951
 50
180.0
  0
LINE
  5
12B
330
97
100
AcDbEntity
  8
Layer0015
  6
Continuous
 62
     2
370
    13
100
AcDbLine
 10
-585.7532930334949
 20
-366.9750974469367
 30
0.0
 11
-575.7532930334949
 21
-366.9750974469367
 31
0.0
  0
INSERT
  5
12C
330
97
100
AcDbEntity
  8
Layer0015
 62
     2
100
AcDbBlockReference
  2
_OPEN30
 10
-575.7532930334949
 20
-366.9750974469367
 30
0.0
 41
7.646601831087536
 42
5.031938088706951
 50
360.0
  0
MTEXT
  5
12D
330
97
100
AcDbEntity
  8
Layer0015
 62
     2
100
AcDbMText
 10
-562.3672430334948
 20
-364.4750974469367
 30
0.0
 40
10.0
 41
22.5
 71
     7
 72
     1
  1
\T1.00;6
  7
dcStyle0
 73
     1
 44
1.0
  0
ENDBLK
  5
99
330
97
100
AcDbEntity
  8
0
100
AcDbBlockEnd
  0
BLOCK
  5
9B
330
9A
100
AcDbEntity
  8
0
100
AcDbBlockBegin
  2
DA_IMAGEDIMGROUP_4
 70
     0
 10
0.0
 20
0.0
 30
0.0
  3
DA_IMAGEDIMGROUP_4
  1

  0
LINE
  5
12E
330
9A
100
AcDbEntity
  8
Layer0015
  6
Continuous
 62
     2
370
    13
100
AcDbLine
 10
-272.7532930334924
 20
-346.5307665969126
 30
0.0
 11
-272.7532930334924
 21
-371.7990016030486
 31
0.0
  0
LINE
  5
12F
330
9A
100
AcDbEntity
  8
Layer0015
  6
Continuous
 62
     2
370
    13
100
AcDbLine
 10
-255.7532930334925
 20
-345.5307665969126
 30
0.0
 11
-255.7532930334925
 21
-371.7990016030486
 31
0.0
  0
LINE
  5
130
330
9A
100
AcDbEntity
  8
Layer0015
  6
Continuous
 62
     2
370
    13
100
AcDbLine
 10
-272.7532930334924
 20
-369.7990016030486
 30
0.0
 11
-255.7532930334925
 21
-369.7990016030486
 31
0.0
  0
LINE
  5
131
330
9A
100
AcDbEntity
  8
Layer0015
  6
Continuous
 62
     2
370
    13
100
AcDbLine
 10
-296.1393430334924
 20
-369.7990016030486
 30
0.0
 11
-272.7532930334924
 21
-369.7990016030486
 31
0.0
  0
INSERT
  5
132
330
9A
100
AcDbEntity
  8
Layer0015
 62
     2
100
AcDbBlockReference
  2
_OPEN30
 10
-272.7532930334924
 20
-369.7990016030486
 30
0.0
 41
7.646601831087536
 42
5.031938088706951
 50
360.0
  0
LINE
  5
133
330
9A
100
AcDbEntity
  8
Layer0015
  6
Continuous
 62
     2
370
    13
100
AcDbLine
 10
-245.7532930334925
 20
-369.7990016030486
 30
0.0
 11
-255.7532930334925
 21
-369.7990016030486
 31
0.0
  0
INSERT
  5
134
330
9A
100
AcDbEntity
  8
Layer0015
 62
     2
100
AcDbBlockReference
  2
_OPEN30
 10
-255.7532930334925
 20
-369.7990016030486
 30
0.0
 41
7.646601831087536
 42
5.031938088706951
 50
180.0
  0
MTEXT
  5
135
330
9A
100
AcDbEntity
  8
Layer0015
 62
     2
100
AcDbMText
 10
-280.1393430334924
 20
-367.2990016030486
 30
0.0
 40
10.0
 41
32.5
 71
     9
 72
     1
  1
\T1.00;17
  7
dcStyle0
 73
     1
 44
1.0
  0
ENDBLK
  5
9C
330
9A
100
AcDbEntity
  8
0
100
AcDbBlockEnd
  0
BLOCK
  5
9E
330
9D
100
AcDbEntity
  8
0
100
AcDbBlockBegin
  2
*D14
 70
     1
 10
0.0
 20
0.0
 30
0.0
  3
*D14
  1

  0
LINE
  5
136
330
9D
100
AcDbEntity
  8
Layer0015
  6
Continuous
 62
     2
370
    13
100
AcDbLine
 10
-575.7532930334949
 20
-384.0886691224432
 30
0.0
 11
-255.7532930334925
 21
-384.0886691224432
 31
0.0
  0
INSERT
  5
137
330
9D
100
AcDbEntity
  8
Layer0015
 62
     2
100
AcDbBlockReference
  2
_OPEN30
 10
-575.7532930334949
 20
-384.0886691224432
 30
0.0
 41
7.646601831087536
 42
5.031938088706951
 50
180.0
  0
INSERT
  5
138
330
9D
100
AcDbEntity
  8
Layer0015
 62
     2
100
AcDbBlockReference
  2
_OPEN30
 10
-255.7532930334925
 20
-384.0886691224432
 30
0.0
 41
7.646601831087536
 42
5.031938088706951
 50
360.0
  0
LINE
  5
139
330
9D
100
AcDbEntity
  8
Layer0015
  6
Continuous
 62
     2
370
    13
100
AcDbLine
 10
-575.7532930334949
 20
-350.0307665969125
 30
0.0
 11
-575.7532930334949
 21
-386.0886691224432
 31
0.0
  0
LINE
  5
13A
330
9D
100
AcDbEntity
  8
Layer0015
  6
Continuous
 62
     2
370
    13
100
AcDbLine
 10
-255.7532930334925
 20
-345.5307665969126
 30
0.0
 11
-255.7532930334925
 21
-386.0886691224432
 31
0.0
  0
MTEXT
  5
13B
330
9D
100
AcDbEntity
  8
Layer0015
 62
     2
100
AcDbMText
 10
-415.7532930334937
 20
-381.5886691224432
 30
0.0
 40
10.0
 41
42.5
 71
     8
 72
     1
  1
\T1.00;320
  7
dcStyle0
 73
     1
 44
1.0
  0
ENDBLK
  5
9F
330
9D
100
AcDbEntity
  8
0
100
AcDbBlockEnd
  0
BLOCK
  5
A1
330
A0
100
AcDbEntity
  8
0
100
AcDbBlockBegin
  2
*D15
 70
     1
 10
0.0
 20
0.0
 30
0.0
  3
*D15
  1

  0
LINE
  5
13C
330
A0
100
AcDbEntity
  8
Layer0015
  6
Continuous
 62
     2
370
    13
100
AcDbLine
 10
-455.5595084087976
 20
10.00388098318241
 30
0.0
 11
-81.25950840879763
 21
10.00388098318241
 31
0.0
  0
INSERT
  5
13D
330
A0
100
AcDbEntity
  8
Layer0015
 62
     2
100
AcDbBlockReference
  2
_OPEN30
 10
-455.5595084087976
 20
10.00388098318241
 30
0.0
 41
7.646601831087536
 42
5.031938088706951
 50
180.0
  0
INSERT
  5
13E
330
A0
100
AcDbEntity
  8
Layer0015
 62
     2
100
AcDbBlockReference
  2
_OPEN30
 10
-81.25950840879763
 20
10.00388098318241
 30
0.0
 41
7.646601831087536
 42
5.031938088706951
 50
360.0
  0
LINE
  5
13F
330
A0
100
AcDbEntity
  8
Layer0015
  6
Continuous
 62
     2
370
    13
100
AcDbLine
 10
-455.5595084087976
 20
-52.59696699375562
 30
0.0
 11
-455.5595084087976
 21
11.60388098318241
 31
0.0
  0
LINE
  5
140
330
A0
100
AcDbEntity
  8
Layer0015
  6
Continuous
 62
     2
370
    13
100
AcDbLine
 10
-81.25950840879763
 20
-52.89696699375556
 30
0.0
 11
-81.25950840879763
 21
11.60388098318241
 31
0.0
  0
MTEXT
  5
141
330
A0
100
AcDbEntity
  8
Layer0015
 62
     2
100
AcDbMText
 10
-268.4095084087976
 20
12.00388098318241
 30
0.0
 40
12.5
 41
78.125
 71
     8
 72
     1
  1
\T1.00;0～371
  7
dcStyle0
 73
     1
 44
1.0
  0
ENDBLK
  5
A2
330
A0
100
AcDbEntity
  8
0
100
AcDbBlockEnd
  0
BLOCK
  5
A4
330
A3
100
AcDbEntity
  8
0
100
AcDbBlockBegin
  2
DC_GROUP_ACE160L_1
 70
     0
 10
0.0
 20
0.0
 30
0.0
  3
DC_GROUP_ACE160L_1
  1

  0
LINE
  5
142
330
A3
100
AcDbEntity
  8
Layer0015
  6
Continuous
 62
     2
370
    13
100
AcDbLine
 10
481.1384217334984
 20
-126.3969669937557
 30
0.0
 11
481.1384217334984
 21
-152.4447854118219
 31
0.0
  0
LINE
  5
143
330
A3
100
AcDbEntity
  8
Layer0015
  6
Continuous
 62
     2
370
    13
100
AcDbLine
 10
345.0069534088232
 20
-150.8447854118219
 30
0.0
 11
481.1384217334984
 21
-150.8447854118219
 31
0.0
  0
INSERT
  5
144
330
A3
100
AcDbEntity
  8
Layer0015
 62
     2
100
AcDbBlockReference
  2
_OPEN30
 10
481.1384217334984
 20
-150.8447854118219
 30
0.0
 41
7.646601831087536
 42
5.031938088706951
 50
360.0
  0
TEXT
  5
145
330
A3
100
AcDbEntity
  8
Layer0015
 62
     2
100
AcDbText
 10
391.7604877544825
 20
-148.8447854118219
 30
0.0
 40
12.5
  1
683
 41
0.8
  7
dcStyle0
 72
     5
 11
421.7604877544825
 21
-148.8447854118219
 31
0.0
100
AcDbText
  0
ENDBLK
  5
A5
330
A3
100
AcDbEntity
  8
0
100
AcDbBlockEnd
  0
BLOCK
  5
A7
330
A6
100
AcDbEntity
  8
0
100
AcDbBlockBegin
  2
DC_GROUP_ACE160L_2
 70
     0
 10
0.0
 20
0.0
 30
0.0
  3
DC_GROUP_ACE160L_2
  1

  0
LINE
  5
146
330
A6
100
AcDbEntity
  8
Layer0015
  6
Continuous
 62
     2
370
    13
100
AcDbLine
 10
641.2543943192844
 20
-29.309045565898
 30
0.0
 11
641.2543943192844
 21
-175.0289353456001
 31
0.0
  0
LINE
  5
147
330
A6
100
AcDbEntity
  8
Layer0015
  6
Continuous
 62
     2
370
    13
100
AcDbLine
 10
345.0069534088232
 20
-173.4289353456001
 30
0.0
 11
641.2543943192844
 21
-173.4289353456001
 31
0.0
  0
INSERT
  5
148
330
A6
100
AcDbEntity
  8
Layer0015
 62
     2
100
AcDbBlockReference
  2
_OPEN30
 10
641.2543943192844
 20
-173.4289353456001
 30
0.0
 41
7.646601831087536
 42
5.031938088706951
 50
360.0
  0
TEXT
  5
149
330
A6
100
AcDbEntity
  8
Layer0015
 62
     2
100
AcDbText
 10
471.8184740473756
 20
-171.4289353456001
 30
0.0
 40
12.5
  1
844
 41
0.8
  7
dcStyle0
 72
     5
 11
501.8184740473756
 21
-171.4289353456001
 31
0.0
100
AcDbText
  0
ENDBLK
  5
A8
330
A6
100
AcDbEntity
  8
0
100
AcDbBlockEnd
  0
BLOCK
  5
AA
330
A9
100
AcDbEntity
  8
0
100
AcDbBlockBegin
  2
*D18
 70
     1
 10
0.0
 20
0.0
 30
0.0
  3
*D18
  1

  0
LINE
  5
14A
330
A9
100
AcDbEntity
  8
Layer0015
  6
Continuous
 62
     2
370
    13
100
AcDbLine
 10
536.045047606396
 20
-200.3969669937556
 30
0.0
 11
536.045047606396
 21
110.1049197852648
 31
0.0
  0
INSERT
  5
14B
330
A9
100
AcDbEntity
  8
Layer0015
 62
     2
100
AcDbBlockReference
  2
_OPEN30
 10
536.045047606396
 20
-200.3969669937556
 30
0.0
 41
7.646601831087536
 42
5.031938088706951
 50
270.0
  0
INSERT
  5
14C
330
A9
100
AcDbEntity
  8
Layer0015
 62
     2
100
AcDbBlockReference
  2
_OPEN30
 10
536.045047606396
 20
110.1049197852648
 30
0.0
 41
7.646601831087536
 42
5.031938088706951
 50
90.0
  0
LINE
  5
14D
330
A9
100
AcDbEntity
  8
Layer0015
  6
Continuous
 62
     2
370
    13
100
AcDbLine
 10
407.3589668188146
 20
110.1049197852648
 30
0.0
 11
537.645047606396
 21
110.1049197852648
 31
0.0
  0
MTEXT
  5
14E
330
A9
100
AcDbEntity
  8
Layer0015
 62
     2
100
AcDbMText
 10
534.045047606396
 20
22.68394484918936
 30
0.0
 40
12.5
 41
53.125
 71
     8
 72
     1
  1
\T1.00;311
  7
dcStyle0
 11
6.123031769111886E-17
 21
1.0
 31
0.0
 73
     1
 44
1.0
  0
ENDBLK
  5
AB
330
A9
100
AcDbEntity
  8
0
100
AcDbBlockEnd
  0
BLOCK
  5
AD
330
AC
100
AcDbEntity
  8
0
100
AcDbBlockBegin
  2
*D19
 70
     1
 10
0.0
 20
0.0
 30
0.0
  3
*D19
  1

  0
LINE
  5
14F
330
AC
100
AcDbEntity
  8
Layer0015
  6
Continuous
 62
     2
370
    13
100
AcDbLine
 10
517.7362971124602
 20
-200.3969669937556
 30
0.0
 11
517.7362971124602
 21
-30.58736655533889
 31
0.0
  0
INSERT
  5
150
330
AC
100
AcDbEntity
  8
Layer0015
 62
     2
100
AcDbBlockReference
  2
_OPEN30
 10
517.7362971124602
 20
-200.3969669937556
 30
0.0
 41
7.646601831087536
 42
5.031938088706951
 50
270.0
  0
INSERT
  5
151
330
AC
100
AcDbEntity
  8
Layer0015
 62
     2
100
AcDbBlockReference
  2
_OPEN30
 10
517.7362971124602
 20
-30.58736655533889
 30
0.0
 41
7.646601831087536
 42
5.031938088706951
 50
90.0
  0
LINE
  5
152
330
AC
100
AcDbEntity
  8
Layer0015
  6
Continuous
 62
     2
370
    13
100
AcDbLine
 10
471.0451549937592
 20
-30.58736655533889
 30
0.0
 11
519.3362971124601
 21
-30.58736655533889
 31
0.0
  0
MTEXT
  5
153
330
AC
100
AcDbEntity
  8
Layer0015
 62
     2
100
AcDbMText
 10
515.7362971124602
 20
-115.4921667745472
 30
0.0
 40
12.5
 41
53.125
 71
     8
 72
     1
  1
\T1.00;170
  7
dcStyle0
 11
6.123031769111886E-17
 21
1.0
 31
0.0
 73
     1
 44
1.0
  0
ENDBLK
  5
AE
330
AC
100
AcDbEntity
  8
0
100
AcDbBlockEnd
  0
BLOCK
  5
B0
330
AF
100
AcDbEntity
  8
0
100
AcDbBlockBegin
  2
*D20
 70
     1
 10
0.0
 20
0.0
 30
0.0
  3
*D20
  1

  0
LINE
  5
154
330
AF
100
AcDbEntity
  8
Layer0015
  6
Continuous
 62
     2
370
    13
100
AcDbLine
 10
674.6914028106385
 20
-200.3969669937556
 30
0.0
 11
674.6914028106385
 21
-14.76110561851672
 31
0.0
  0
INSERT
  5
155
330
AF
100
AcDbEntity
  8
Layer0015
 62
     2
100
AcDbBlockReference
  2
_OPEN30
 10
674.6914028106385
 20
-200.3969669937556
 30
0.0
 41
7.646601831087536
 42
5.031938088706951
 50
270.0
  0
INSERT
  5
156
330
AF
100
AcDbEntity
  8
Layer0015
 62
     2
100
AcDbBlockReference
  2
_OPEN30
 10
674.6914028106385
 20
-14.76110561851672
 30
0.0
 41
7.646601831087536
 42
5.031938088706951
 50
90.0
  0
LINE
  5
157
330
AF
100
AcDbEntity
  8
Layer0015
  6
Continuous
 62
     2
370
    13
100
AcDbLine
 10
551.3971539456661
 20
-200.3969669937556
 30
0.0
 11
676.6914028106385
 21
-200.3969669937556
 31
0.0
  0
LINE
  5
158
330
AF
100
AcDbEntity
  8
Layer0015
  6
Continuous
 62
     2
370
    13
100
AcDbLine
 10
623.8653177649259
 20
-14.76110561851672
 30
0.0
 11
676.6914028106385
 21
-14.76110561851672
 31
0.0
  0
MTEXT
  5
159
330
AF
100
AcDbEntity
  8
Layer0015
 62
     2
100
AcDbMText
 10
672.1914028106385
 20
-107.5790363061361
 30
0.0
 40
12.5
 41
53.125
 71
     8
 72
     1
  1
\T1.00;186
  7
dcStyle0
 11
6.123031769111886E-17
 21
1.0
 31
0.0
 73
     1
 44
1.0
  0
ENDBLK
  5
B1
330
AF
100
AcDbEntity
  8
0
100
AcDbBlockEnd
  0
BLOCK
  5
B3
330
B2
100
AcDbEntity
  8
0
100
AcDbBlockBegin
  2
DC_GROUP_ACE160L_3
 70
     0
 10
0.0
 20
0.0
 30
0.0
  3
DC_GROUP_ACE160L_3
  1

  0
TEXT
  5
15A
330
B2
100
AcDbEntity
  8
Layer0004
 62
     2
100
AcDbText
 10
-470.4274447449093
 20
140.9995987404724
 30
0.0
 40
12.5
  1
ワークストッパー
 41
0.6666666666666666
  7
dcStyle0
 72
     5
 11
-390.4274447449093
 21
140.9995987404724
 31
0.0
100
AcDbText
  0
LINE
  5
15B
330
B2
100
AcDbEntity
  8
Layer0004
  6
Continuous
 62
     2
370
    18
100
AcDbLine
 10
-491.6774447449093
 20
139.7495987404724
 30
0.0
 11
-369.1774447449093
 21
139.7495987404724
 31
0.0
  0
ENDBLK
  5
B4
330
B2
100
AcDbEntity
  8
0
100
AcDbBlockEnd
  0
BLOCK
  5
B6
330
B5
100
AcDbEntity
  8
0
100
AcDbBlockBegin
  2
DC_GROUP_ACE160L_4
 70
     0
 10
0.0
 20
0.0
 30
0.0
  3
DC_GROUP_ACE160L_4
  1

  0
TEXT
  5
15C
330
B5
100
AcDbEntity
  8
Layer0004
 62
     2
100
AcDbText
 10
-490.4274447449093
 20
125.6460991562603
 30
0.0
 40
12.5
  1
WORK STOPPER
 41
0.8
  7
dcStyle0
 72
     5
 11
-370.4274447449093
 21
125.6460991562603
 31
0.0
100
AcDbText
  0
ENDBLK
  5
B7
330
B5
100
AcDbEntity
  8
0
100
AcDbBlockEnd
  0
BLOCK
  5
B9
330
B8
100
AcDbEntity
  8
0
100
AcDbBlockBegin
  2
DC_GROUP_ACE160L_5
 70
     0
 10
0.0
 20
0.0
 30
0.0
  3
DC_GROUP_ACE160L_5
  1

  0
TEXT
  5
15D
330
B8
100
AcDbEntity
  8
Layer0004
 62
     2
100
AcDbText
 10
419.5888611896686
 20
21.17892210029753
 30
0.0
 40
12.5
  1
U-HANDLE
 41
0.8
  7
dcStyle0
 72
     5
 11
499.5888611896686
 21
21.17892210029753
 31
0.0
100
AcDbText
  0
LINE
  5
15E
330
B8
100
AcDbEntity
  8
Layer0004
  6
Continuous
 62
     2
370
    18
100
AcDbLine
 10
418.3388611896686
 20
19.92892210029753
 30
0.0
 11
500.8388611896686
 21
19.92892210029753
 31
0.0
  0
ENDBLK
  5
BA
330
B8
100
AcDbEntity
  8
0
100
AcDbBlockEnd
  0
BLOCK
  5
BC
330
BB
100
AcDbEntity
  8
0
100
AcDbBlockBegin
  2
DC_GROUP_ACE160L_6
 70
     0
 10
0.0
 20
0.0
 30
0.0
  3
DC_GROUP_ACE160L_6
  1

  0
TEXT
  5
15F
330
BB
100
AcDbEntity
  8
Layer0004
 62
     2
100
AcDbText
 10
-161.4461872537345
 20
-410.9392017024444
 30
0.0
 40
12.5
  1
ハンドルソケット
 41
0.6666666666666666
  7
dcStyle0
 72
     5
 11
-81.44618725373454
 21
-410.9392017024444
 31
0.0
100
AcDbText
  0
LINE
  5
160
330
BB
100
AcDbEntity
  8
Layer0004
  6
Continuous
 62
     2
370
    18
100
AcDbLine
 10
-187.6961872537345
 20
-412.1892017024444
 30
0.0
 11
-55.19618725373454
 21
-412.1892017024444
 31
0.0
  0
ENDBLK
  5
BD
330
BB
100
AcDbEntity
  8
0
100
AcDbBlockEnd
  0
BLOCK
  5
BF
330
BE
100
AcDbEntity
  8
0
100
AcDbBlockBegin
  2
DC_GROUP_ACE160L_7
 70
     0
 10
0.0
 20
0.0
 30
0.0
  3
DC_GROUP_ACE160L_7
  1

  0
TEXT
  5
161
330
BE
100
AcDbEntity
  8
Layer0004
 62
     2
100
AcDbText
 10
-455.6860465926587
 20
-409.6539686017813
 30
0.0
 40
12.5
  1
ハンドルジョイント
 41
0.6666666666666666
  7
dcStyle0
 72
     5
 11
-365.6860465926587
 21
-409.6539686017813
 31
0.0
100
AcDbText
  0
LINE
  5
162
330
BE
100
AcDbEntity
  8
Layer0004
  6
Continuous
 62
     2
370
    18
100
AcDbLine
 10
-471.9360465926587
 20
-410.9039686017813
 30
0.0
 11
-349.4360465926587
 21
-410.9039686017813
 31
0.0
  0
ENDBLK
  5
C0
330
BE
100
AcDbEntity
  8
0
100
AcDbBlockEnd
  0
BLOCK
  5
C2
330
C1
100
AcDbEntity
  8
0
100
AcDbBlockBegin
  2
DC_GROUP_ACE160L_8
 70
     0
 10
0.0
 20
0.0
 30
0.0
  3
DC_GROUP_ACE160L_8
  1

  0
TEXT
  5
163
330
C1
100
AcDbEntity
  8
Layer0004
 62
     2
100
AcDbText
 10
-470.6860465926587
 20
-425.0074681859934
 30
0.0
 40
12.5
  1
HANDLE JOINT
 41
0.8
  7
dcStyle0
 72
     5
 11
-350.6860465926587
 21
-425.0074681859934
 31
0.0
100
AcDbText
  0
ENDBLK
  5
C3
330
C1
100
AcDbEntity
  8
0
100
AcDbBlockEnd
  0
BLOCK
  5
C5
330
C4
100
AcDbEntity
  8
0
100
AcDbBlockBegin
  2
DC_GROUP_ACE160L_9
 70
     0
 10
0.0
 20
0.0
 30
0.0
  3
DC_GROUP_ACE160L_9
  1

  0
TEXT
  5
164
330
C4
100
AcDbEntity
  8
Layer0004
 62
     2
100
AcDbText
 10
-186.4461872537345
 20
-426.2927012866566
 30
0.0
 40
12.5
  1
HANDLE SOCKET
 41
0.8
  7
dcStyle0
 72
     5
 11
-56.44618725373454
 21
-426.2927012866566
 31
0.0
100
AcDbText
  0
ENDBLK
  5
C6
330
C4
100
AcDbEntity
  8
0
100
AcDbBlockEnd
  0
BLOCK
  5
C8
330
C7
100
AcDbEntity
  8
0
100
AcDbBlockBegin
  2
DC_GROUP_ACE160L_10
 70
     0
 10
0.0
 20
0.0
 30
0.0
  3
DC_GROUP_ACE160L_10
  1

  0
LINE
  5
165
330
C7
100
AcDbEntity
  8
Layer0014
  6
Continuous
 62
     2
370
    18
100
AcDbLine
 10
-76.03781277090671
 20
-85.71772123369426
 30
0.0
 11
-102.4079307514598
 21
-40.04333708979075
 31
0.0
  0
INSERT
  5
166
330
C7
100
AcDbEntity
  8
Layer0014
 62
     2
100
AcDbBlockReference
  2
_OPEN30
 10
-76.03781277090671
 20
-85.71772123369426
 30
0.0
 41
7.646601831087536
 42
5.031938088706951
 50
300.0
  0
LINE
  5
167
330
C7
100
AcDbEntity
  8
Layer0014
  6
Continuous
 62
     2
370
    18
100
AcDbLine
 10
-102.4079307514598
 20
-40.04333708979075
 30
0.0
 11
-236.1579307514598
 21
-40.04333708979075
 31
0.0
  0
TEXT
  5
168
330
C7
100
AcDbEntity
  8
Layer0014
 62
     2
100
AcDbText
 10
-184.9079307514598
 20
-39.54333708979075
 30
0.0
 40
12.5
  1
アンチリフト口金
 41
0.6666666666666666
  7
dcStyle0
 72
     5
 11
-104.9079307514598
 21
-39.54333708979075
 31
0.0
100
AcDbText
  0
ENDBLK
  5
C9
330
C7
100
AcDbEntity
  8
0
100
AcDbBlockEnd
  0
BLOCK
  5
CB
330
CA
100
AcDbEntity
  8
0
100
AcDbBlockBegin
  2
DC_GROUP_ACE160L_11
 70
     0
 10
0.0
 20
0.0
 30
0.0
  3
DC_GROUP_ACE160L_11
  1

  0
LINE
  5
169
330
CA
100
AcDbEntity
  8
Layer0014
  6
Continuous
 62
     2
370
    18
100
AcDbLine
 10
7.252032845944226
 20
-43.80412150392412
 30
0.0
 11
29.2706184559353
 21
-5.66681251661462
 31
0.0
  0
INSERT
  5
16A
330
CA
100
AcDbEntity
  8
Layer0014
 62
     2
100
AcDbBlockReference
  2
_OPEN30
 10
7.252032845944226
 20
-43.80412150392412
 30
0.0
 41
7.646601831087536
 42
5.031938088706951
 50
240.0
  0
LINE
  5
16B
330
CA
100
AcDbEntity
  8
Layer0014
  6
Continuous
 62
     2
370
    18
100
AcDbLine
 10
29.2706184559353
 20
-5.66681251661462
 30
0.0
 11
123.0206184559353
 21
-5.66681251661462
 31
0.0
  0
TEXT
  5
16C
330
CA
100
AcDbEntity
  8
Layer0014
 62
     2
100
AcDbText
 10
31.7706184559353
 20
-5.16681251661462
 30
0.0
 40
12.5
  1
上口金
 41
0.6666666666666666
  7
dcStyle0
 72
     5
 11
61.7706184559353
 21
-5.16681251661462
 31
0.0
100
AcDbText
  0
ENDBLK
  5
CC
330
CA
100
AcDbEntity
  8
0
100
AcDbBlockEnd
  0
BLOCK
  5
CE
330
CD
100
AcDbEntity
  8
0
100
AcDbBlockBegin
  2
DC_GROUP_ACE160L_12
 70
     0
 10
0.0
 20
0.0
 30
0.0
  3
DC_GROUP_ACE160L_12
  1

  0
LINE
  5
16D
330
CD
100
AcDbEntity
  8
Layer0014
  6
Continuous
 62
     2
370
    18
100
AcDbLine
 10
-90.48555271515089
 20
190.377400678395
 30
0.0
 11
-71.28037141914331
 21
157.1130509051384
 31
0.0
  0
INSERT
  5
16E
330
CD
100
AcDbEntity
  8
Layer0014
 62
     2
100
AcDbBlockReference
  2
_OPEN30
 10
-90.48555271515089
 20
190.377400678395
 30
0.0
 41
7.646601831087536
 42
5.031938088706951
 50
120.0
  0
LINE
  5
16F
330
CD
100
AcDbEntity
  8
Layer0014
  6
Continuous
 62
     2
370
    18
100
AcDbLine
 10
-71.28037141914331
 20
157.1130509051384
 30
0.0
 11
72.46962858085669
 21
157.1130509051384
 31
0.0
  0
TEXT
  5
170
330
CD
100
AcDbEntity
  8
Layer0014
 62
     2
100
AcDbText
 10
-68.78037141914331
 20
157.6130509051384
 30
0.0
 40
12.5
  1
クランピングブロック
 41
0.6666666666666666
  7
dcStyle0
 72
     5
 11
31.21962858085669
 21
157.6130509051384
 31
0.0
100
AcDbText
  0
ENDBLK
  5
CF
330
CD
100
AcDbEntity
  8
0
100
AcDbBlockEnd
  0
BLOCK
  5
D1
330
D0
100
AcDbEntity
  8
0
100
AcDbBlockBegin
  2
DC_GROUP_ACE160L_13
 70
     0
 10
0.0
 20
0.0
 30
0.0
  3
DC_GROUP_ACE160L_13
  1

  0
TEXT
  5
171
330
D0
100
AcDbEntity
  8
Layer0004
 62
     2
100
AcDbText
 10
-68.78037141914331
 20
144.1130509051384
 30
0.0
 40
12.5
  1
CLAMPING BLOCK
 41
0.8
  7
dcStyle0
 72
     5
 11
71.21962858085669
 21
144.1130509051384
 31
0.0
100
AcDbText
  0
ENDBLK
  5
D2
330
D0
100
AcDbEntity
  8
0
100
AcDbBlockEnd
  0
BLOCK
  5
D4
330
D3
100
AcDbEntity
  8
0
100
AcDbBlockBegin
  2
DC_GROUP_ACE160L_14
 70
     0
 10
0.0
 20
0.0
 30
0.0
  3
DC_GROUP_ACE160L_14
  1

  0
TEXT
  5
172
330
D3
100
AcDbEntity
  8
Layer0004
 62
     2
100
AcDbText
 10
31.77061845593531
 20
-18.66681251661462
 30
0.0
 40
12.5
  1
UPPER JAW
 41
0.8
  7
dcStyle0
 72
     5
 11
121.7706184559353
 21
-18.66681251661462
 31
0.0
100
AcDbText
  0
ENDBLK
  5
D5
330
D3
100
AcDbEntity
  8
0
100
AcDbBlockEnd
  0
BLOCK
  5
D7
330
D6
100
AcDbEntity
  8
0
100
AcDbBlockBegin
  2
DC_GROUP_ACE160L_15
 70
     0
 10
0.0
 20
0.0
 30
0.0
  3
DC_GROUP_ACE160L_15
  1

  0
TEXT
  5
173
330
D6
100
AcDbEntity
  8
Layer0004
 62
     2
100
AcDbText
 10
-234.9079307514598
 20
-53.04333708979075
 30
0.0
 40
12.5
  1
ANTI-LIFT JAW
 41
0.8
  7
dcStyle0
 72
     5
 11
-104.9079307514598
 21
-53.04333708979075
 31
0.0
100
AcDbText
  0
ENDBLK
  5
D8
330
D6
100
AcDbEntity
  8
0
100
AcDbBlockEnd
  0
BLOCK
  5
DB
330
DA
100
AcDbEntity
  8
0
100
AcDbBlockBegin
  2
_OPEN30
 70
     0
 10
0.0
 20
0.0
 30
0.0
  3
_OPEN30
  1

  0
LINE
  5
DD
330
DA
100
AcDbEntity
  8
0
  6
ByBlock
 62
     0
370
    -2
100
AcDbLine
 10
-1.0
 20
0.267949
 30
0.0
 11
0.0
 21
0.0
 31
0.0
  0
LINE
  5
DE
330
DA
100
AcDbEntity
  8
0
  6
ByBlock
 62
     0
370
    -2
100
AcDbLine
 10
0.0
 20
0.0
 30
0.0
 11
-1.0
 21
-0.267949
 31
0.0
  0
LINE
  5
DF
330
DA
100
AcDbEntity
  8
0
  6
ByBlock
 62
     0
370
    -2
100
AcDbLine
 10
0.0
 20
0.0
 30
0.0
 11
-1.0
 21
0.0
 31
0.0
  0
ENDBLK
  5
DC
330
DA
100
AcDbEntity
  8
0
100
AcDbBlockEnd
  0
ENDSEC
  0
SECTION
  2
ENTITIES
  0
LINE
  5
174
330
1F
100
AcDbEntity
  8
Layer0001
  6
Continuous
 62
    56
370
    25
100
AcDbLine
 10
461.8917240751454
 20
183.279228961073
 30
0.0
 11
435.8917240751454
 21
183.279228961073
 31
0.0
  0
LINE
  5
175
330
1F
100
AcDbEntity
  8
Layer0001
  6
Continuous
 62
    56
370
    25
100
AcDbLine
 10
430.8917240751454
 20
234.779228961073
 30
0.0
 11
430.8917240751454
 21
188.279228961073
 31
0.0
  0
LINE
  5
176
330
1F
100
AcDbEntity
  8
Layer0001
  6
Continuous
 62
    56
370
    25
100
AcDbLine
 10
431.3917240751454
 20
235.279228961073
 30
0.0
 11
440.3917240751454
 21
235.279228961073
 31
0.0
  0
LINE
  5
177
330
1F
100
AcDbEntity
  8
Layer0001
  6
Continuous
 62
    56
370
    25
100
AcDbLine
 10
430.8917240751454
 20
234.779228961073
 30
0.0
 11
431.3917240751454
 21
235.279228961073
 31
0.0
  0
LINE
  5
178
330
1F
100
AcDbEntity
  8
Layer0001
  6
Continuous
 62
    56
370
    25
100
AcDbLine
 10
440.8917240751454
 20
234.779228961073
 30
0.0
 11
440.3917240751454
 21
235.279228961073
 31
0.0
  0
LINE
  5
179
330
1F
100
AcDbEntity
  8
Layer0001
  6
Continuous
 62
    56
370
    25
100
AcDbLine
 10
-355.5595084087978
 20
184.279228961073
 30
0.0
 11
-356.5595084087978
 21
183.279228961073
 31
0.0
  0
LINE
  5
17A
330
1F
100
AcDbEntity
  8
Layer0001
  6
Continuous
 62
    56
370
    25
100
AcDbLine
 10
-405.5595084087978
 20
184.279228961073
 30
0.0
 11
-404.5595084087978
 21
183.279228961073
 31
0.0
  0
LINE
  5
17B
330
1F
100
AcDbEntity
  8
Layer0001
  6
Continuous
 62
    56
370
    25
100
AcDbLine
 10
-355.5595084087978
 20
225.279228961073
 30
0.0
 11
-355.5595084087978
 21
184.279228961073
 31
0.0
  0
LINE
  5
17C
330
1F
100
AcDbEntity
  8
Layer0001
  6
Continuous
 62
    56
370
    25
100
AcDbLine
 10
-404.5595084087978
 20
183.279228961073
 30
0.0
 11
-356.5595084087978
 21
183.279228961073
 31
0.0
  0
LINE
  5
17D
330
1F
100
AcDbEntity
  8
Layer0001
  6
Continuous
 62
    56
370
    25
100
AcDbLine
 10
-405.5595084087978
 20
225.279228961073
 30
0.0
 11
-405.5595084087978
 21
184.279228961073
 31
0.0
  0
LINE
  5
17E
330
1F
100
AcDbEntity
  8
Layer0001
  6
Continuous
 62
    56
370
    25
100
AcDbLine
 10
460.8917240751454
 20
228.279228961073
 30
0.0
 11
459.8917240751454
 21
229.279228961073
 31
0.0
  0
LINE
  5
17F
330
1F
100
AcDbEntity
  8
Layer0001
  6
Continuous
 62
    56
370
    25
100
AcDbLine
 10
461.8917240751454
 20
192.279228961073
 30
0.0
 11
460.8917240751454
 21
192.279228961073
 31
0.0
  0
LINE
  5
180
330
1F
100
AcDbEntity
  8
Layer0001
  6
Continuous
 62
    56
370
    25
100
AcDbLine
 10
460.8917240751454
 20
192.279228961073
 30
0.0
 11
460.8917240751454
 21
228.279228961073
 31
0.0
  0
LINE
  5
181
330
1F
100
AcDbEntity
  8
Layer0001
  6
Continuous
 62
    56
370
    25
100
AcDbLine
 10
462.8917240751454
 20
191.279228961073
 30
0.0
 11
462.8917240751454
 21
184.279228961073
 31
0.0
  0
LINE
  5
182
330
1F
100
AcDbEntity
  8
Layer0001
  6
Continuous
 62
    56
370
    25
100
AcDbLine
 10
461.8917240751454
 20
192.279228961073
 30
0.0
 11
462.8917240751454
 21
191.279228961073
 31
0.0
  0
LINE
  5
183
330
1F
100
AcDbEntity
  8
Layer0001
  6
Continuous
 62
    56
370
    25
100
AcDbLine
 10
461.8917240751454
 20
183.279228961073
 30
0.0
 11
462.8917240751454
 21
184.279228961073
 31
0.0
  0
CIRCLE
  5
184
330
1F
100
AcDbEntity
  8
Layer0001
  6
Continuous
 62
    56
370
    25
100
AcDbCircle
 10
-380.5595084087977
 20
209.279228961073
 30
0.0
 40
9.228718707889811
  0
CIRCLE
  5
185
330
1F
100
AcDbEntity
  8
Layer0001
  6
Continuous
 62
    56
370
    25
100
AcDbCircle
 10
-380.5595084087977
 20
209.279228961073
 30
0.0
 40
12.0
  0
LINE
  5
186
330
1F
100
AcDbEntity
  8
Layer0001
  6
Continuous
 62
    56
370
    25
100
AcDbLine
 10
-388.6424121774525
 20
209.279228961073
 30
0.0
 11
-384.600960293125
 21
202.279228961073
 31
0.0
  0
LINE
  5
187
330
1F
100
AcDbEntity
  8
Layer0001
  6
Continuous
 62
    56
370
    25
100
AcDbLine
 10
-384.600960293125
 20
202.279228961073
 30
0.0
 11
-376.5180565244702
 21
202.279228961073
 31
0.0
  0
LINE
  5
188
330
1F
100
AcDbEntity
  8
Layer0001
  6
Continuous
 62
    56
370
    25
100
AcDbLine
 10
-376.5180565244702
 20
202.279228961073
 30
0.0
 11
-372.4766046401429
 21
209.279228961073
 31
0.0
  0
LINE
  5
189
330
1F
100
AcDbEntity
  8
Layer0001
  6
Continuous
 62
    56
370
    25
100
AcDbLine
 10
-372.4766046401429
 20
209.279228961073
 30
0.0
 11
-376.5180565244702
 21
216.279228961073
 31
0.0
  0
LINE
  5
18A
330
1F
100
AcDbEntity
  8
Layer0001
  6
Continuous
 62
    56
370
    25
100
AcDbLine
 10
-376.5180565244702
 20
216.279228961073
 30
0.0
 11
-384.600960293125
 21
216.279228961073
 31
0.0
  0
LINE
  5
18B
330
1F
100
AcDbEntity
  8
Layer0001
  6
Continuous
 62
    56
370
    25
100
AcDbLine
 10
-384.600960293125
 20
216.279228961073
 30
0.0
 11
-388.6424121774525
 21
209.279228961073
 31
0.0
  0
LINE
  5
18C
330
1F
100
AcDbEntity
  8
Layer0001
  6
Continuous
 62
    56
370
    25
100
AcDbLine
 10
-105.5595084087978
 20
184.279228961073
 30
0.0
 11
-104.5595084087978
 21
183.279228961073
 31
0.0
  0
LINE
  5
18D
330
1F
100
AcDbEntity
  8
Layer0001
  6
Continuous
 62
    56
370
    25
100
AcDbLine
 10
-105.5595084087978
 20
225.279228961073
 30
0.0
 11
-105.5595084087978
 21
184.279228961073
 31
0.0
  0
LINE
  5
18E
330
1F
100
AcDbEntity
  8
Layer0001
  6
Continuous
 62
    56
370
    25
100
AcDbLine
 10
-55.5595084087978
 20
184.279228961073
 30
0.0
 11
-56.5595084087978
 21
183.279228961073
 31
0.0
  0
LINE
  5
18F
330
1F
100
AcDbEntity
  8
Layer0001
  6
Continuous
 62
    56
370
    25
100
AcDbLine
 10
-104.5595084087978
 20
183.279228961073
 30
0.0
 11
-56.5595084087978
 21
183.279228961073
 31
0.0
  0
CIRCLE
  5
190
330
1F
100
AcDbEntity
  8
Layer0001
  6
Continuous
 62
    56
370
    25
100
AcDbCircle
 10
-80.5595084087977
 20
209.279228961073
 30
0.0
 40
9.228718707889811
  0
CIRCLE
  5
191
330
1F
100
AcDbEntity
  8
Layer0001
  6
Continuous
 62
    56
370
    25
100
AcDbCircle
 10
-80.5595084087977
 20
209.279228961073
 30
0.0
 40
12.0
  0
LINE
  5
192
330
1F
100
AcDbEntity
  8
Layer0001
  6
Continuous
 62
    56
370
    25
100
AcDbLine
 10
-88.64241217745247
 20
209.279228961073
 30
0.0
 11
-84.60096029312508
 21
202.279228961073
 31
0.0
  0
LINE
  5
193
330
1F
100
AcDbEntity
  8
Layer0001
  6
Continuous
 62
    56
370
    25
100
AcDbLine
 10
-84.60096029312508
 20
202.279228961073
 30
0.0
 11
-76.51805652447031
 21
202.279228961073
 31
0.0
  0
LINE
  5
194
330
1F
100
AcDbEntity
  8
Layer0001
  6
Continuous
 62
    56
370
    25
100
AcDbLine
 10
-76.51805652447031
 20
202.279228961073
 30
0.0
 11
-72.47660464014292
 21
209.279228961073
 31
0.0
  0
LINE
  5
195
330
1F
100
AcDbEntity
  8
Layer0001
  6
Continuous
 62
    56
370
    25
100
AcDbLine
 10
-72.47660464014292
 20
209.279228961073
 30
0.0
 11
-76.51805652447031
 21
216.279228961073
 31
0.0
  0
LINE
  5
196
330
1F
100
AcDbEntity
  8
Layer0001
  6
Continuous
 62
    56
370
    25
100
AcDbLine
 10
-76.51805652447031
 20
216.279228961073
 30
0.0
 11
-84.60096029312508
 21
216.279228961073
 31
0.0
  0
LINE
  5
197
330
1F
100
AcDbEntity
  8
Layer0001
  6
Continuous
 62
    56
370
    25
100
AcDbLine
 10
-84.60096029312508
 20
216.279228961073
 30
0.0
 11
-88.64241217745247
 21
209.279228961073
 31
0.0
  0
LINE
  5
198
330
1F
100
AcDbEntity
  8
Layer0001
  6
Continuous
 62
    56
370
    25
100
AcDbLine
 10
-55.5595084087978
 20
225.279228961073
 30
0.0
 11
-55.5595084087978
 21
184.279228961073
 31
0.0
  0
LINE
  5
199
330
1F
100
AcDbEntity
  8
Layer0001
  6
Continuous
 62
    56
370
    25
100
AcDbLine
 10
435.8917240751454
 20
183.279228961073
 30
0.0
 11
430.8917240751454
 21
188.279228961073
 31
0.0
  0
LINE
  5
19A
330
1F
100
AcDbEntity
  8
Layer0001
  6
Continuous
 62
    56
370
    25
100
AcDbLine
 10
-395.5595084087978
 20
235.279228961073
 30
0.0
 11
-405.5595084087978
 21
225.279228961073
 31
0.0
  0
LINE
  5
19B
330
1F
100
AcDbEntity
  8
Layer0001
  6
Continuous
 62
    56
370
    25
100
AcDbLine
 10
-365.559508408798
 20
235.279228961073
 30
0.0
 11
-355.5595084087978
 21
225.279228961073
 31
0.0
  0
LINE
  5
19C
330
1F
100
AcDbEntity
  8
Layer0001
  6
Continuous
 62
    56
370
    25
100
AcDbLine
 10
-95.5595084087978
 20
235.279228961073
 30
0.0
 11
-105.5595084087978
 21
225.279228961073
 31
0.0
  0
LINE
  5
19D
330
1F
100
AcDbEntity
  8
Layer0001
  6
Continuous
 62
    56
370
    25
100
AcDbLine
 10
-65.5595084087979
 20
235.279228961073
 30
0.0
 11
-55.5595084087978
 21
225.279228961073
 31
0.0
  0
LINE
  5
19E
330
1F
100
AcDbEntity
  8
Layer0001
  6
Continuous
 62
    56
370
    25
100
AcDbLine
 10
-205.5595084087978
 20
184.279228961073
 30
0.0
 11
-206.5595084087978
 21
183.279228961073
 31
0.0
  0
LINE
  5
19F
330
1F
100
AcDbEntity
  8
Layer0001
  6
Continuous
 62
    56
370
    25
100
AcDbLine
 10
-255.5595084087978
 20
184.279228961073
 30
0.0
 11
-254.5595084087978
 21
183.279228961073
 31
0.0
  0
LINE
  5
1A0
330
1F
100
AcDbEntity
  8
Layer0001
  6
Continuous
 62
    56
370
    25
100
AcDbLine
 10
-205.5595084087978
 20
225.279228961073
 30
0.0
 11
-205.5595084087978
 21
184.279228961073
 31
0.0
  0
LINE
  5
1A1
330
1F
100
AcDbEntity
  8
Layer0001
  6
Continuous
 62
    56
370
    25
100
AcDbLine
 10
-254.5595084087978
 20
183.279228961073
 30
0.0
 11
-206.5595084087978
 21
183.279228961073
 31
0.0
  0
LINE
  5
1A2
330
1F
100
AcDbEntity
  8
Layer0001
  6
Continuous
 62
    56
370
    25
100
AcDbLine
 10
-255.5595084087978
 20
225.279228961073
 30
0.0
 11
-255.5595084087978
 21
184.279228961073
 31
0.0
  0
CIRCLE
  5
1A3
330
1F
100
AcDbEntity
  8
Layer0001
  6
Continuous
 62
    56
370
    25
100
AcDbCircle
 10
-230.5595084087977
 20
209.279228961073
 30
0.0
 40
9.228718707889811
  0
CIRCLE
  5
1A4
330
1F
100
AcDbEntity
  8
Layer0001
  6
Continuous
 62
    56
370
    25
100
AcDbCircle
 10
-230.5595084087977
 20
209.279228961073
 30
0.0
 40
12.0
  0
LINE
  5
1A5
330
1F
100
AcDbEntity
  8
Layer0001
  6
Continuous
 62
    56
370
    25
100
AcDbLine
 10
-238.6424121774525
 20
209.279228961073
 30
0.0
 11
-234.600960293125
 21
202.279228961073
 31
0.0
  0
LINE
  5
1A6
330
1F
100
AcDbEntity
  8
Layer0001
  6
Continuous
 62
    56
370
    25
100
AcDbLine
 10
-234.600960293125
 20
202.279228961073
 30
0.0
 11
-226.5180565244702
 21
202.279228961073
 31
0.0
  0
LINE
  5
1A7
330
1F
100
AcDbEntity
  8
Layer0001
  6
Continuous
 62
    56
370
    25
100
AcDbLine
 10
-226.5180565244702
 20
202.279228961073
 30
0.0
 11
-222.4766046401429
 21
209.279228961073
 31
0.0
  0
LINE
  5
1A8
330
1F
100
AcDbEntity
  8
Layer0001
  6
Continuous
 62
    56
370
    25
100
AcDbLine
 10
-222.4766046401429
 20
209.279228961073
 30
0.0
 11
-226.5180565244702
 21
216.279228961073
 31
0.0
  0
LINE
  5
1A9
330
1F
100
AcDbEntity
  8
Layer0001
  6
Continuous
 62
    56
370
    25
100
AcDbLine
 10
-226.5180565244702
 20
216.279228961073
 30
0.0
 11
-234.600960293125
 21
216.279228961073
 31
0.0
  0
LINE
  5
1AA
330
1F
100
AcDbEntity
  8
Layer0001
  6
Continuous
 62
    56
370
    25
100
AcDbLine
 10
-234.600960293125
 20
216.279228961073
 30
0.0
 11
-238.6424121774525
 21
209.279228961073
 31
0.0
  0
LINE
  5
1AB
330
1F
100
AcDbEntity
  8
Layer0001
  6
Continuous
 62
    56
370
    25
100
AcDbLine
 10
-251.5595084087978
 20
229.279228961073
 30
0.0
 11
-255.5595084087978
 21
225.279228961073
 31
0.0
  0
LINE
  5
1AC
330
1F
100
AcDbEntity
  8
Layer0001
  6
Continuous
 62
    56
370
    25
100
AcDbLine
 10
-209.5595084087979
 20
229.279228961073
 30
0.0
 11
-205.5595084087978
 21
225.279228961073
 31
0.0
  0
LINE
  5
1AD
330
1F
100
AcDbEntity
  8
Layer0001
  6
Continuous
 62
    56
370
    25
100
AcDbLine
 10
-365.559508408798
 20
235.279228961073
 30
0.0
 11
-395.5595084087978
 21
235.279228961073
 31
0.0
  0
LINE
  5
1AE
330
1F
100
AcDbEntity
  8
Layer0001
  6
Continuous
 62
    56
370
    25
100
AcDbLine
 10
-365.559508408798
 20
235.279228961073
 30
0.0
 11
-395.5595084087978
 21
235.279228961073
 31
0.0
  0
LINE
  5
1AF
330
1F
100
AcDbEntity
  8
Layer0001
  6
Continuous
 62
    56
370
    25
100
AcDbLine
 10
-245.5595084087978
 20
235.279228961073
 30
0.0
 11
-255.5595084087978
 21
225.279228961073
 31
0.0
  0
LINE
  5
1B0
330
1F
100
AcDbEntity
  8
Layer0001
  6
Continuous
 62
    56
370
    25
100
AcDbLine
 10
-215.559508408798
 20
235.279228961073
 30
0.0
 11
-205.5595084087978
 21
225.279228961073
 31
0.0
  0
LINE
  5
1B1
330
1F
100
AcDbEntity
  8
Layer0001
  6
Continuous
 62
    56
370
    25
100
AcDbLine
 10
-215.559508408798
 20
235.279228961073
 30
0.0
 11
-245.5595084087978
 21
235.279228961073
 31
0.0
  0
LINE
  5
1B2
330
1F
100
AcDbEntity
  8
Layer0001
  6
Continuous
 62
    56
370
    25
100
AcDbLine
 10
-215.559508408798
 20
235.279228961073
 30
0.0
 11
-245.5595084087978
 21
235.279228961073
 31
0.0
  0
LINE
  5
1B3
330
1F
100
AcDbEntity
  8
Layer0001
  6
Continuous
 62
    56
370
    25
100
AcDbLine
 10
-355.5595084087978
 20
434.279228961073
 30
0.0
 11
-356.5595084087978
 21
435.279228961073
 31
0.0
  0
LINE
  5
1B4
330
1F
100
AcDbEntity
  8
Layer0001
  6
Continuous
 62
    56
370
    25
100
AcDbLine
 10
-405.5595084087978
 20
434.279228961073
 30
0.0
 11
-404.5595084087978
 21
435.279228961073
 31
0.0
  0
LINE
  5
1B5
330
1F
100
AcDbEntity
  8
Layer0001
  6
Continuous
 62
    56
370
    25
100
AcDbLine
 10
-355.5595084087978
 20
393.279228961073
 30
0.0
 11
-355.5595084087978
 21
434.279228961073
 31
0.0
  0
LINE
  5
1B6
330
1F
100
AcDbEntity
  8
Layer0001
  6
Continuous
 62
    56
370
    25
100
AcDbLine
 10
-404.5595084087978
 20
435.279228961073
 30
0.0
 11
-356.5595084087978
 21
435.279228961073
 31
0.0
  0
LINE
  5
1B7
330
1F
100
AcDbEntity
  8
Layer0001
  6
Continuous
 62
    56
370
    25
100
AcDbLine
 10
-405.5595084087978
 20
393.279228961073
 30
0.0
 11
-405.5595084087978
 21
434.279228961073
 31
0.0
  0
CIRCLE
  5
1B8
330
1F
100
AcDbEntity
  8
Layer0001
  6
Continuous
 62
    56
370
    25
100
AcDbCircle
 10
-380.5595084087977
 20
409.279228961073
 30
0.0
 40
9.228718707889811
  0
CIRCLE
  5
1B9
330
1F
100
AcDbEntity
  8
Layer0001
  6
Continuous
 62
    56
370
    25
100
AcDbCircle
 10
-380.5595084087977
 20
409.279228961073
 30
0.0
 40
12.0
  0
LINE
  5
1BA
330
1F
100
AcDbEntity
  8
Layer0001
  6
Continuous
 62
    56
370
    25
100
AcDbLine
 10
-388.6424121774525
 20
409.279228961073
 30
0.0
 11
-384.600960293125
 21
416.279228961073
 31
0.0
  0
LINE
  5
1BB
330
1F
100
AcDbEntity
  8
Layer0001
  6
Continuous
 62
    56
370
    25
100
AcDbLine
 10
-384.600960293125
 20
416.279228961073
 30
0.0
 11
-376.5180565244702
 21
416.279228961073
 31
0.0
  0
LINE
  5
1BC
330
1F
100
AcDbEntity
  8
Layer0001
  6
Continuous
 62
    56
370
    25
100
AcDbLine
 10
-376.5180565244702
 20
416.279228961073
 30
0.0
 11
-372.4766046401429
 21
409.279228961073
 31
0.0
  0
LINE
  5
1BD
330
1F
100
AcDbEntity
  8
Layer0001
  6
Continuous
 62
    56
370
    25
100
AcDbLine
 10
-372.4766046401429
 20
409.279228961073
 30
0.0
 11
-376.5180565244702
 21
402.279228961073
 31
0.0
  0
LINE
  5
1BE
330
1F
100
AcDbEntity
  8
Layer0001
  6
Continuous
 62
    56
370
    25
100
AcDbLine
 10
-376.5180565244702
 20
402.279228961073
 30
0.0
 11
-384.600960293125
 21
402.279228961073
 31
0.0
  0
LINE
  5
1BF
330
1F
100
AcDbEntity
  8
Layer0001
  6
Continuous
 62
    56
370
    25
100
AcDbLine
 10
-384.600960293125
 20
402.279228961073
 30
0.0
 11
-388.6424121774525
 21
409.279228961073
 31
0.0
  0
LINE
  5
1C0
330
1F
100
AcDbEntity
  8
Layer0001
  6
Continuous
 62
    56
370
    25
100
AcDbLine
 10
-395.5595084087978
 20
383.279228961073
 30
0.0
 11
-405.5595084087978
 21
393.279228961073
 31
0.0
  0
LINE
  5
1C1
330
1F
100
AcDbEntity
  8
Layer0001
  6
Continuous
 62
    56
370
    25
100
AcDbLine
 10
-365.559508408798
 20
383.279228961073
 30
0.0
 11
-355.5595084087978
 21
393.279228961073
 31
0.0
  0
LINE
  5
1C2
330
1F
100
AcDbEntity
  8
Layer0001
  6
Continuous
 62
    56
370
    25
100
AcDbLine
 10
-205.5595084087978
 20
434.279228961073
 30
0.0
 11
-206.5595084087978
 21
435.279228961073
 31
0.0
  0
LINE
  5
1C3
330
1F
100
AcDbEntity
  8
Layer0001
  6
Continuous
 62
    56
370
    25
100
AcDbLine
 10
-255.5595084087978
 20
434.279228961073
 30
0.0
 11
-254.5595084087978
 21
435.279228961073
 31
0.0
  0
LINE
  5
1C4
330
1F
100
AcDbEntity
  8
Layer0001
  6
Continuous
 62
    56
370
    25
100
AcDbLine
 10
-205.5595084087978
 20
393.279228961073
 30
0.0
 11
-205.5595084087978
 21
434.279228961073
 31
0.0
  0
LINE
  5
1C5
330
1F
100
AcDbEntity
  8
Layer0001
  6
Continuous
 62
    56
370
    25
100
AcDbLine
 10
-254.5595084087978
 20
435.279228961073
 30
0.0
 11
-206.5595084087978
 21
435.279228961073
 31
0.0
  0
LINE
  5
1C6
330
1F
100
AcDbEntity
  8
Layer0001
  6
Continuous
 62
    56
370
    25
100
AcDbLine
 10
-255.5595084087978
 20
393.279228961073
 30
0.0
 11
-255.5595084087978
 21
434.279228961073
 31
0.0
  0
CIRCLE
  5
1C7
330
1F
100
AcDbEntity
  8
Layer0001
  6
Continuous
 62
    56
370
    25
100
AcDbCircle
 10
-230.5595084087977
 20
409.279228961073
 30
0.0
 40
9.228718707889811
  0
CIRCLE
  5
1C8
330
1F
100
AcDbEntity
  8
Layer0001
  6
Continuous
 62
    56
370
    25
100
AcDbCircle
 10
-230.5595084087977
 20
409.279228961073
 30
0.0
 40
12.0
  0
LINE
  5
1C9
330
1F
100
AcDbEntity
  8
Layer0001
  6
Continuous
 62
    56
370
    25
100
AcDbLine
 10
-238.6424121774525
 20
409.279228961073
 30
0.0
 11
-234.600960293125
 21
416.279228961073
 31
0.0
  0
LINE
  5
1CA
330
1F
100
AcDbEntity
  8
Layer0001
  6
Continuous
 62
    56
370
    25
100
AcDbLine
 10
-234.600960293125
 20
416.279228961073
 30
0.0
 11
-226.5180565244702
 21
416.279228961073
 31
0.0
  0
LINE
  5
1CB
330
1F
100
AcDbEntity
  8
Layer0001
  6
Continuous
 62
    56
370
    25
100
AcDbLine
 10
-226.5180565244702
 20
416.279228961073
 30
0.0
 11
-222.4766046401429
 21
409.279228961073
 31
0.0
  0
LINE
  5
1CC
330
1F
100
AcDbEntity
  8
Layer0001
  6
Continuous
 62
    56
370
    25
100
AcDbLine
 10
-222.4766046401429
 20
409.279228961073
 30
0.0
 11
-226.5180565244702
 21
402.279228961073
 31
0.0
  0
LINE
  5
1CD
330
1F
100
AcDbEntity
  8
Layer0001
  6
Continuous
 62
    56
370
    25
100
AcDbLine
 10
-226.5180565244702
 20
402.279228961073
 30
0.0
 11
-234.600960293125
 21
402.279228961073
 31
0.0
  0
LINE
  5
1CE
330
1F
100
AcDbEntity
  8
Layer0001
  6
Continuous
 62
    56
370
    25
100
AcDbLine
 10
-234.600960293125
 20
402.279228961073
 30
0.0
 11
-238.6424121774525
 21
409.279228961073
 31
0.0
  0
LINE
  5
1CF
330
1F
100
AcDbEntity
  8
Layer0001
  6
Continuous
 62
    56
370
    25
100
AcDbLine
 10
-251.5595084087978
 20
389.279228961073
 30
0.0
 11
-255.5595084087978
 21
393.279228961073
 31
0.0
  0
LINE
  5
1D0
330
1F
100
AcDbEntity
  8
Layer0001
  6
Continuous
 62
    56
370
    25
100
AcDbLine
 10
-209.5595084087979
 20
389.279228961073
 30
0.0
 11
-205.5595084087978
 21
393.279228961073
 31
0.0
  0
LINE
  5
1D1
330
1F
100
AcDbEntity
  8
Layer0001
  6
Continuous
 62
    56
370
    25
100
AcDbLine
 10
-365.559508408798
 20
383.279228961073
 30
0.0
 11
-395.5595084087978
 21
383.279228961073
 31
0.0
  0
LINE
  5
1D2
330
1F
100
AcDbEntity
  8
Layer0001
  6
Continuous
 62
    56
370
    25
100
AcDbLine
 10
-365.559508408798
 20
383.279228961073
 30
0.0
 11
-395.5595084087978
 21
383.279228961073
 31
0.0
  0
LINE
  5
1D3
330
1F
100
AcDbEntity
  8
Layer0001
  6
Continuous
 62
    56
370
    25
100
AcDbLine
 10
-245.5595084087978
 20
383.279228961073
 30
0.0
 11
-255.5595084087978
 21
393.279228961073
 31
0.0
  0
LINE
  5
1D4
330
1F
100
AcDbEntity
  8
Layer0001
  6
Continuous
 62
    56
370
    25
100
AcDbLine
 10
-215.559508408798
 20
383.279228961073
 30
0.0
 11
-205.5595084087978
 21
393.279228961073
 31
0.0
  0
LINE
  5
1D5
330
1F
100
AcDbEntity
  8
Layer0001
  6
Continuous
 62
    56
370
    25
100
AcDbLine
 10
-215.559508408798
 20
383.279228961073
 30
0.0
 11
-245.5595084087978
 21
383.279228961073
 31
0.0
  0
LINE
  5
1D6
330
1F
100
AcDbEntity
  8
Layer0001
  6
Continuous
 62
    56
370
    25
100
AcDbLine
 10
-215.559508408798
 20
383.279228961073
 30
0.0
 11
-245.5595084087978
 21
383.279228961073
 31
0.0
  0
LINE
  5
1D7
330
1F
100
AcDbEntity
  8
Layer0001
  6
Continuous
 62
    56
370
    25
100
AcDbLine
 10
-65.5595084087979
 20
235.279228961073
 30
0.0
 11
-95.5595084087978
 21
235.279228961073
 31
0.0
  0
LINE
  5
1D8
330
1F
100
AcDbEntity
  8
Layer0001
  6
Continuous
 62
    56
370
    25
100
AcDbLine
 10
-105.5595084087978
 20
434.279228961073
 30
0.0
 11
-104.5595084087978
 21
435.279228961073
 31
0.0
  0
LINE
  5
1D9
330
1F
100
AcDbEntity
  8
Layer0001
  6
Continuous
 62
    56
370
    25
100
AcDbLine
 10
-105.5595084087978
 20
393.279228961073
 30
0.0
 11
-105.5595084087978
 21
434.279228961073
 31
0.0
  0
LINE
  5
1DA
330
1F
100
AcDbEntity
  8
Layer0001
  6
Continuous
 62
    56
370
    25
100
AcDbLine
 10
-55.5595084087978
 20
434.279228961073
 30
0.0
 11
-56.5595084087978
 21
435.279228961073
 31
0.0
  0
LINE
  5
1DB
330
1F
100
AcDbEntity
  8
Layer0001
  6
Continuous
 62
    56
370
    25
100
AcDbLine
 10
-104.5595084087978
 20
435.279228961073
 30
0.0
 11
-56.5595084087978
 21
435.279228961073
 31
0.0
  0
CIRCLE
  5
1DC
330
1F
100
AcDbEntity
  8
Layer0001
  6
Continuous
 62
    56
370
    25
100
AcDbCircle
 10
-80.5595084087977
 20
409.279228961073
 30
0.0
 40
9.228718707889811
  0
CIRCLE
  5
1DD
330
1F
100
AcDbEntity
  8
Layer0001
  6
Continuous
 62
    56
370
    25
100
AcDbCircle
 10
-80.5595084087977
 20
409.279228961073
 30
0.0
 40
12.0
  0
LINE
  5
1DE
330
1F
100
AcDbEntity
  8
Layer0001
  6
Continuous
 62
    56
370
    25
100
AcDbLine
 10
-88.64241217745247
 20
409.279228961073
 30
0.0
 11
-84.60096029312508
 21
416.279228961073
 31
0.0
  0
LINE
  5
1DF
330
1F
100
AcDbEntity
  8
Layer0001
  6
Continuous
 62
    56
370
    25
100
AcDbLine
 10
-84.60096029312508
 20
416.279228961073
 30
0.0
 11
-76.51805652447031
 21
416.279228961073
 31
0.0
  0
LINE
  5
1E0
330
1F
100
AcDbEntity
  8
Layer0001
  6
Continuous
 62
    56
370
    25
100
AcDbLine
 10
-76.51805652447031
 20
416.279228961073
 30
0.0
 11
-72.47660464014292
 21
409.279228961073
 31
0.0
  0
LINE
  5
1E1
330
1F
100
AcDbEntity
  8
Layer0001
  6
Continuous
 62
    56
370
    25
100
AcDbLine
 10
-72.47660464014292
 20
409.279228961073
 30
0.0
 11
-76.51805652447031
 21
402.279228961073
 31
0.0
  0
LINE
  5
1E2
330
1F
100
AcDbEntity
  8
Layer0001
  6
Continuous
 62
    56
370
    25
100
AcDbLine
 10
-76.51805652447031
 20
402.279228961073
 30
0.0
 11
-84.60096029312508
 21
402.279228961073
 31
0.0
  0
LINE
  5
1E3
330
1F
100
AcDbEntity
  8
Layer0001
  6
Continuous
 62
    56
370
    25
100
AcDbLine
 10
-84.60096029312508
 20
402.279228961073
 30
0.0
 11
-88.64241217745247
 21
409.279228961073
 31
0.0
  0
LINE
  5
1E4
330
1F
100
AcDbEntity
  8
Layer0001
  6
Continuous
 62
    56
370
    25
100
AcDbLine
 10
-55.5595084087978
 20
393.279228961073
 30
0.0
 11
-55.5595084087978
 21
434.279228961073
 31
0.0
  0
LINE
  5
1E5
330
1F
100
AcDbEntity
  8
Layer0001
  6
Continuous
 62
    56
370
    25
100
AcDbLine
 10
-95.5595084087978
 20
383.279228961073
 30
0.0
 11
-105.5595084087978
 21
393.279228961073
 31
0.0
  0
LINE
  5
1E6
330
1F
100
AcDbEntity
  8
Layer0001
  6
Continuous
 62
    56
370
    25
100
AcDbLine
 10
-65.5595084087979
 20
383.279228961073
 30
0.0
 11
-55.5595084087978
 21
393.279228961073
 31
0.0
  0
LINE
  5
1E7
330
1F
100
AcDbEntity
  8
Layer0001
  6
Continuous
 62
    56
370
    25
100
AcDbLine
 10
-65.5595084087979
 20
383.279228961073
 30
0.0
 11
-95.5595084087978
 21
383.279228961073
 31
0.0
  0
LINE
  5
1E8
330
1F
100
AcDbEntity
  8
Layer0001
  6
Continuous
 62
    56
370
    25
100
AcDbLine
 10
461.8917240751457
 20
435.2792289610725
 30
0.0
 11
435.8917240751457
 21
435.2792289610725
 31
0.0
  0
LINE
  5
1E9
330
1F
100
AcDbEntity
  8
Layer0001
  6
Continuous
 62
    56
370
    25
100
AcDbLine
 10
430.8917240751456
 20
383.7792289610725
 30
0.0
 11
430.8917240751457
 21
430.2792289610725
 31
0.0
  0
LINE
  5
1EA
330
1F
100
AcDbEntity
  8
Layer0001
  6
Continuous
 62
    56
370
    25
100
AcDbLine
 10
431.3917240751456
 20
383.2792289610725
 30
0.0
 11
440.3917240751456
 21
383.2792289610725
 31
0.0
  0
LINE
  5
1EB
330
1F
100
AcDbEntity
  8
Layer0001
  6
Continuous
 62
    56
370
    25
100
AcDbLine
 10
430.8917240751456
 20
383.7792289610725
 30
0.0
 11
431.3917240751456
 21
383.2792289610725
 31
0.0
  0
LINE
  5
1EC
330
1F
100
AcDbEntity
  8
Layer0001
  6
Continuous
 62
    56
370
    25
100
AcDbLine
 10
440.8917240751456
 20
383.7792289610725
 30
0.0
 11
440.3917240751456
 21
383.2792289610725
 31
0.0
  0
LINE
  5
1ED
330
1F
100
AcDbEntity
  8
Layer0001
  6
Continuous
 62
    56
370
    25
100
AcDbLine
 10
460.8917240751456
 20
390.2792289610725
 30
0.0
 11
459.8917240751456
 21
389.2792289610725
 31
0.0
  0
LINE
  5
1EE
330
1F
100
AcDbEntity
  8
Layer0001
  6
Continuous
 62
    56
370
    25
100
AcDbLine
 10
461.8917240751457
 20
426.2792289610725
 30
0.0
 11
460.8917240751457
 21
426.2792289610725
 31
0.0
  0
LINE
  5
1EF
330
1F
100
AcDbEntity
  8
Layer0001
  6
Continuous
 62
    56
370
    25
100
AcDbLine
 10
460.8917240751457
 20
426.2792289610725
 30
0.0
 11
460.8917240751456
 21
390.2792289610725
 31
0.0
  0
LINE
  5
1F0
330
1F
100
AcDbEntity
  8
Layer0001
  6
Continuous
 62
    56
370
    25
100
AcDbLine
 10
462.8917240751457
 20
427.2792289610725
 30
0.0
 11
462.8917240751457
 21
434.2792289610725
 31
0.0
  0
LINE
  5
1F1
330
1F
100
AcDbEntity
  8
Layer0001
  6
Continuous
 62
    56
370
    25
100
AcDbLine
 10
461.8917240751457
 20
426.2792289610725
 30
0.0
 11
462.8917240751457
 21
427.2792289610725
 31
0.0
  0
LINE
  5
1F2
330
1F
100
AcDbEntity
  8
Layer0001
  6
Continuous
 62
    56
370
    25
100
AcDbLine
 10
461.8917240751457
 20
435.2792289610725
 30
0.0
 11
462.8917240751457
 21
434.2792289610725
 31
0.0
  0
LINE
  5
1F3
330
1F
100
AcDbEntity
  8
Layer0001
  6
Continuous
 62
    56
370
    25
100
AcDbLine
 10
435.8917240751457
 20
435.2792289610725
 30
0.0
 11
430.8917240751457
 21
430.2792289610725
 31
0.0
  0
LINE
  5
1F4
330
1F
100
AcDbEntity
  8
Layer0001
  6
Continuous
 62
    56
370
    25
100
AcDbLine
 10
459.8917240751456
 20
389.2792289610725
 30
0.0
 11
440.8917240751456
 21
389.2792289610725
 31
0.0
  0
LINE
  5
1F5
330
1F
100
AcDbEntity
  8
Layer0001
  6
Continuous
 62
    56
370
    25
100
AcDbLine
 10
440.8917240751456
 20
389.2792289610725
 30
0.0
 11
440.8917240751456
 21
383.7792289610725
 31
0.0
  0
LINE
  5
1F6
330
1F
100
AcDbEntity
  8
Layer0001
  6
Continuous
 62
    56
370
    25
100
AcDbLine
 10
440.8917240751454
 20
234.779228961073
 30
0.0
 11
440.8917240751454
 21
229.279228961073
 31
0.0
  0
LINE
  5
1F7
330
1F
100
AcDbEntity
  8
Layer0001
  6
Continuous
 62
    56
370
    25
100
AcDbLine
 10
459.8917240751454
 20
229.279228961073
 30
0.0
 11
440.8917240751454
 21
229.279228961073
 31
0.0
  0
LINE
  5
1F8
330
1F
100
AcDbEntity
  8
Layer0001
  6
CENTER
 62
    56
370
    25
100
AcDbLine
 10
429.8917240751454
 20
209.279228961073
 30
0.0
 11
461.8917240751454
 21
209.279228961073
 31
0.0
  0
LINE
  5
1F9
330
1F
100
AcDbEntity
  8
Layer0001
  6
CENTER
 62
    56
370
    25
100
AcDbLine
 10
-366.5595084087977
 20
209.279228961073
 30
0.0
 11
-394.5595084087977
 21
209.279228961073
 31
0.0
  0
LINE
  5
1FA
330
1F
100
AcDbEntity
  8
Layer0001
  6
CENTER
 62
    56
370
    25
100
AcDbLine
 10
-380.5595084087977
 20
223.279228961073
 30
0.0
 11
-380.5595084087977
 21
195.279228961073
 31
0.0
  0
LINE
  5
1FB
330
1F
100
AcDbEntity
  8
Layer0001
  6
CENTER
 62
    56
370
    25
100
AcDbLine
 10
-66.5595084087977
 20
209.279228961073
 30
0.0
 11
-94.55950840879771
 21
209.279228961073
 31
0.0
  0
LINE
  5
1FC
330
1F
100
AcDbEntity
  8
Layer0001
  6
CENTER
 62
    56
370
    25
100
AcDbLine
 10
-80.5595084087977
 20
223.279228961073
 30
0.0
 11
-80.5595084087977
 21
195.279228961073
 31
0.0
  0
LINE
  5
1FD
330
1F
100
AcDbEntity
  8
Layer0001
  6
CENTER
 62
    56
370
    25
100
AcDbLine
 10
-216.5595084087977
 20
209.279228961073
 30
0.0
 11
-244.5595084087977
 21
209.279228961073
 31
0.0
  0
LINE
  5
1FE
330
1F
100
AcDbEntity
  8
Layer0001
  6
CENTER
 62
    56
370
    25
100
AcDbLine
 10
-230.5595084087977
 20
223.279228961073
 30
0.0
 11
-230.5595084087977
 21
195.279228961073
 31
0.0
  0
LINE
  5
1FF
330
1F
100
AcDbEntity
  8
Layer0001
  6
CENTER
 62
    56
370
    25
100
AcDbLine
 10
-366.5595084087977
 20
409.279228961073
 30
0.0
 11
-394.5595084087977
 21
409.279228961073
 31
0.0
  0
LINE
  5
200
330
1F
100
AcDbEntity
  8
Layer0001
  6
CENTER
 62
    56
370
    25
100
AcDbLine
 10
-380.5595084087977
 20
395.279228961073
 30
0.0
 11
-380.5595084087977
 21
423.279228961073
 31
0.0
  0
LINE
  5
201
330
1F
100
AcDbEntity
  8
Layer0001
  6
CENTER
 62
    56
370
    25
100
AcDbLine
 10
-216.5595084087977
 20
409.279228961073
 30
0.0
 11
-244.5595084087977
 21
409.279228961073
 31
0.0
  0
LINE
  5
202
330
1F
100
AcDbEntity
  8
Layer0001
  6
CENTER
 62
    56
370
    25
100
AcDbLine
 10
-230.5595084087977
 20
395.279228961073
 30
0.0
 11
-230.5595084087977
 21
423.279228961073
 31
0.0
  0
LINE
  5
203
330
1F
100
AcDbEntity
  8
Layer0001
  6
CENTER
 62
    56
370
    25
100
AcDbLine
 10
-66.5595084087977
 20
409.279228961073
 30
0.0
 11
-94.55950840879771
 21
409.279228961073
 31
0.0
  0
LINE
  5
204
330
1F
100
AcDbEntity
  8
Layer0001
  6
CENTER
 62
    56
370
    25
100
AcDbLine
 10
-80.5595084087977
 20
395.279228961073
 30
0.0
 11
-80.5595084087977
 21
423.279228961073
 31
0.0
  0
LINE
  5
205
330
1F
100
AcDbEntity
  8
Layer0001
  6
CENTER
 62
    56
370
    25
100
AcDbLine
 10
429.8917240751456
 20
409.2792289610725
 30
0.0
 11
461.8917240751456
 21
409.2792289610725
 31
0.0
  0
LINE
  5
206
330
1F
100
AcDbEntity
  8
Layer0000
  6
Continuous
 62
    56
370
    25
100
AcDbLine
 10
-550.5595084087977
 20
168.279228961073
 30
0.0
 11
-550.5595084087977
 21
188.279228961073
 31
0.0
  0
LINE
  5
207
330
1F
100
AcDbEntity
  8
Layer0000
  6
Continuous
 62
    56
370
    25
100
AcDbLine
 10
-549.5595084087977
 20
167.279228961073
 30
0.0
 11
-550.5595084087977
 21
168.279228961073
 31
0.0
  0
LINE
  5
208
330
1F
100
AcDbEntity
  8
Layer0000
  6
Continuous
 62
    56
370
    25
100
AcDbLine
 10
-550.5595084087977
 20
188.279228961073
 30
0.0
 11
-549.5595084087977
 21
189.279228961073
 31
0.0
  0
CIRCLE
  5
209
330
1F
100
AcDbEntity
  8
Layer0000
  6
Continuous
 62
    56
370
    25
100
AcDbCircle
 10
-540.5595084087975
 20
178.279228961073
 30
0.0
 40
6.267949192431104
  0
CIRCLE
  5
20A
330
1F
100
AcDbEntity
  8
Layer0000
  6
Continuous
 62
    56
370
    25
100
AcDbCircle
 10
-540.5595084087975
 20
178.279228961073
 30
0.0
 40
8.0
  0
LINE
  5
20B
330
1F
100
AcDbEntity
  8
Layer0000
  6
Continuous
 62
    56
370
    25
100
AcDbLine
 10
-545.1783105623144
 20
178.279228961073
 30
0.0
 11
-542.8689094855561
 21
174.279228961073
 31
0.0
  0
LINE
  5
20C
330
1F
100
AcDbEntity
  8
Layer0000
  6
Continuous
 62
    56
370
    25
100
AcDbLine
 10
-542.8689094855561
 20
174.279228961073
 30
0.0
 11
-538.2501073320391
 21
174.279228961073
 31
0.0
  0
LINE
  5
20D
330
1F
100
AcDbEntity
  8
Layer0000
  6
Continuous
 62
    56
370
    25
100
AcDbLine
 10
-538.2501073320391
 20
174.279228961073
 30
0.0
 11
-535.9407062552805
 21
178.279228961073
 31
0.0
  0
LINE
  5
20E
330
1F
100
AcDbEntity
  8
Layer0000
  6
Continuous
 62
    56
370
    25
100
AcDbLine
 10
-535.9407062552805
 20
178.279228961073
 30
0.0
 11
-538.2501073320391
 21
182.279228961073
 31
0.0
  0
LINE
  5
20F
330
1F
100
AcDbEntity
  8
Layer0000
  6
Continuous
 62
    56
370
    25
100
AcDbLine
 10
-538.2501073320391
 20
182.279228961073
 30
0.0
 11
-542.8689094855561
 21
182.279228961073
 31
0.0
  0
LINE
  5
210
330
1F
100
AcDbEntity
  8
Layer0000
  6
Continuous
 62
    56
370
    25
100
AcDbLine
 10
-542.8689094855561
 20
182.279228961073
 30
0.0
 11
-545.1783105623144
 21
178.279228961073
 31
0.0
  0
LINE
  5
211
330
1F
100
AcDbEntity
  8
Layer0000
  6
Continuous
 62
    56
370
    25
100
AcDbLine
 10
-511.5595084087976
 20
167.279228961073
 30
0.0
 11
-511.5595084087976
 21
130.279228961073
 31
0.0
  0
LINE
  5
212
330
1F
100
AcDbEntity
  8
Layer0000
  6
Continuous
 62
    56
370
    25
100
AcDbLine
 10
-529.5595084087977
 20
167.279228961073
 30
0.0
 11
-529.5595084087977
 21
130.279228961073
 31
0.0
  0
LINE
  5
213
330
1F
100
AcDbEntity
  8
Layer0000
  6
Continuous
 62
    56
370
    25
100
AcDbLine
 10
-549.5595084087977
 20
167.279228961073
 30
0.0
 11
-428.5595084087976
 21
167.279228961073
 31
0.0
  0
LINE
  5
214
330
1F
100
AcDbEntity
  8
Layer0000
  6
Continuous
 62
    56
370
    25
100
AcDbLine
 10
-549.5595084087977
 20
189.279228961073
 30
0.0
 11
-428.5595084087976
 21
189.279228961073
 31
0.0
  0
LINE
  5
215
330
1F
100
AcDbEntity
  8
Layer0000
  6
Continuous
 62
    56
370
    25
100
AcDbLine
 10
-510.1736100239354
 20
216.279228961073
 30
0.0
 11
-530.9454067936599
 21
216.279228961073
 31
0.0
  0
ARC
  5
216
330
1F
100
AcDbEntity
  8
Layer0000
  6
Continuous
 62
    56
370
    25
100
AcDbCircle
 10
-510.1736100239354
 20
221.3798729083976
 30
0.0
 40
5.100643947324726
100
AcDbArc
 50
227.2227543443626
 51
312.7772456556379
  0
ARC
  5
217
330
1F
100
AcDbEntity
  8
Layer0000
  6
Continuous
 62
    56
370
    25
100
AcDbCircle
 10
-530.9454067936599
 20
221.3798729083976
 30
0.0
 40
5.100643947324764
100
AcDbArc
 50
227.2227543443621
 51
312.7772456556374
  0
ARC
  5
218
330
1F
100
AcDbEntity
  8
Layer0000
  6
Continuous
 62
    56
370
    25
100
AcDbCircle
 10
-520.5595084087977
 20
234.6139463354957
 30
0.0
 40
18.33471737442274
100
AcDbArc
 50
247.8195992645518
 51
292.1804007354482
  0
LINE
  5
219
330
1F
100
AcDbEntity
  8
Layer0000
  6
Continuous
 62
    56
370
    25
100
AcDbLine
 10
-528.5595084087977
 20
209.279228961073
 30
0.0
 11
-512.5595084087977
 21
209.279228961073
 31
0.0
  0
LINE
  5
21A
330
1F
100
AcDbEntity
  8
Layer0000
  6
Continuous
 62
    56
370
    25
100
AcDbLine
 10
-528.5595084087977
 20
214.279228961073
 30
0.0
 11
-512.5595084087977
 21
214.279228961073
 31
0.0
  0
LINE
  5
21B
330
1F
100
AcDbEntity
  8
Layer0000
  6
Continuous
 62
    56
370
    25
100
AcDbLine
 10
-528.5595084087977
 20
209.279228961073
 30
0.0
 11
-528.5595084087977
 21
216.279228961073
 31
0.0
  0
LINE
  5
21C
330
1F
100
AcDbEntity
  8
Layer0000
  6
Continuous
 62
    56
370
    25
100
AcDbLine
 10
-527.4595084087975
 20
214.279228961073
 30
0.0
 11
-527.4595084087975
 21
216.279228961073
 31
0.0
  0
LINE
  5
21D
330
1F
100
AcDbEntity
  8
Layer0000
  6
Continuous
 62
    56
370
    25
100
AcDbLine
 10
-512.5595084087977
 20
209.279228961073
 30
0.0
 11
-512.5595084087977
 21
216.279228961073
 31
0.0
  0
LINE
  5
21E
330
1F
100
AcDbEntity
  8
Layer0000
  6
Continuous
 62
    56
370
    25
100
AcDbLine
 10
-513.6595084087976
 20
214.279228961073
 30
0.0
 11
-513.6595084087976
 21
216.279228961073
 31
0.0
  0
LINE
  5
21F
330
1F
100
AcDbEntity
  8
Layer0000
  6
Continuous
 62
    56
370
    25
100
AcDbLine
 10
-512.5595084087977
 20
212.3739730727505
 30
0.0
 11
-513.6595084087958
 21
214.279228961073
 31
0.0
  0
LINE
  5
220
330
1F
100
AcDbEntity
  8
Layer0000
  6
Continuous
 62
    56
370
    25
100
AcDbLine
 10
-527.4595084087975
 20
214.279228961078
 30
0.0
 11
-528.5595084087977
 21
212.3739730727523
 31
0.0
  0
LINE
  5
221
330
1F
100
AcDbEntity
  8
Layer0000
  6
Continuous
 62
    56
370
    25
100
AcDbLine
 10
-511.5595084087976
 20
208.279228961073
 30
0.0
 11
-511.5595084087976
 21
189.279228961073
 31
0.0
  0
LINE
  5
222
330
1F
100
AcDbEntity
  8
Layer0000
  6
Continuous
 62
    56
370
    25
100
AcDbLine
 10
-529.5595084087977
 20
208.279228961073
 30
0.0
 11
-529.5595084087977
 21
189.279228961073
 31
0.0
  0
LINE
  5
223
330
1F
100
AcDbEntity
  8
Layer0000
  6
Continuous
 62
    56
370
    25
100
AcDbLine
 10
-528.5595084087977
 20
209.279228961073
 30
0.0
 11
-529.5595084087977
 21
208.279228961073
 31
0.0
  0
LINE
  5
224
330
1F
100
AcDbEntity
  8
Layer0000
  6
Continuous
 62
    56
370
    25
100
AcDbLine
 10
-512.5595084087977
 20
209.279228961073
 30
0.0
 11
-511.5595084087976
 21
208.279228961073
 31
0.0
  0
LINE
  5
225
330
1F
100
AcDbEntity
  8
Layer0000
  6
Continuous
 62
    56
370
    25
100
AcDbLine
 10
-511.5595084087976
 20
208.279228961073
 30
0.0
 11
-529.5595084087977
 21
208.279228961073
 31
0.0
  0
LINE
  5
226
330
1F
100
AcDbEntity
  8
Layer0000
  6
Continuous
 62
    56
370
    25
100
AcDbLine
 10
-527.481305178522
 20
229.279228961073
 30
0.0
 11
-527.481305178522
 21
217.6360020936686
 31
0.0
  0
LINE
  5
227
330
1F
100
AcDbEntity
  8
Layer0000
  6
Continuous
 62
    56
370
    25
100
AcDbLine
 10
-534.4095084087976
 20
229.279228961073
 30
0.0
 11
-534.4095084087976
 21
217.6360020936686
 31
0.0
  0
LINE
  5
228
330
1F
100
AcDbEntity
  8
Layer0000
  6
Continuous
 62
    56
370
    25
100
AcDbLine
 10
-513.6377116390731
 20
217.6360020936686
 30
0.0
 11
-513.6377116390731
 21
229.279228961073
 31
0.0
  0
LINE
  5
229
330
1F
100
AcDbEntity
  8
Layer0000
  6
Continuous
 62
    56
370
    25
100
AcDbLine
 10
-506.7095084087976
 20
229.279228961073
 30
0.0
 11
-506.7095084087976
 21
217.6360020936686
 31
0.0
  0
LINE
  5
22A
330
1F
100
AcDbEntity
  8
Layer0000
  6
Continuous
 62
    56
370
    25
100
AcDbLine
 10
-437.5595084087976
 20
158.779228961073
 30
0.0
 11
-447.5595084087976
 21
158.779228961073
 31
0.0
  0
LINE
  5
22B
330
1F
100
AcDbEntity
  8
Layer0000
  6
Continuous
 62
    56
370
    25
100
AcDbLine
 10
-439.0595084087976
 20
157.279228961073
 30
0.0
 11
-446.0595084087976
 21
157.279228961073
 31
0.0
  0
LINE
  5
22C
330
1F
100
AcDbEntity
  8
Layer0000
  6
Continuous
 62
    56
370
    25
100
AcDbLine
 10
-437.5595084087976
 20
158.779228961073
 30
0.0
 11
-439.0595084087976
 21
157.279228961073
 31
0.0
  0
LINE
  5
22D
330
1F
100
AcDbEntity
  8
Layer0000
  6
Continuous
 62
    56
370
    25
100
AcDbLine
 10
-447.5595084087976
 20
158.779228961073
 30
0.0
 11
-446.0595084087976
 21
157.279228961073
 31
0.0
  0
LINE
  5
22E
330
1F
100
AcDbEntity
  8
Layer0000
  6
Continuous
 62
    56
370
    25
100
AcDbLine
 10
-437.6669856969094
 20
217.279228961073
 30
0.0
 11
-437.6669856969094
 21
223.387184536134
 31
0.0
  0
LINE
  5
22F
330
1F
100
AcDbEntity
  8
Layer0000
  6
Continuous
 62
    56
370
    25
100
AcDbLine
 10
-452.3595084087976
 20
217.279228961073
 30
0.0
 11
-452.3595084087976
 21
223.387184536134
 31
0.0
  0
LINE
  5
230
330
1F
100
AcDbEntity
  8
Layer0000
  6
Continuous
 62
    56
370
    25
100
AcDbLine
 10
-447.4520311206858
 20
217.279228961073
 30
0.0
 11
-447.4520311206858
 21
223.387184536134
 31
0.0
  0
ARC
  5
231
330
1F
100
AcDbEntity
  8
Layer0000
  6
Continuous
 62
    56
370
    25
100
AcDbCircle
 10
-449.9057697647417
 20
220.4706344666148
 30
0.0
 40
3.811442986763149
100
AcDbArc
 50
49.92557966161389
 51
130.0744203383849
  0
ARC
  5
232
330
1F
100
AcDbEntity
  8
Layer0000
  6
Continuous
 62
    56
370
    25
100
AcDbCircle
 10
-442.5595084087976
 20
210.4605288954446
 30
0.0
 40
13.82154855793342
100
AcDbArc
 50
69.26918485858411
 51
110.7308151414159
  0
ARC
  5
233
330
1F
100
AcDbEntity
  8
Layer0000
  6
Continuous
 62
    56
370
    25
100
AcDbCircle
 10
-437.1595084087976
 20
216.8792289610731
 30
0.0
 40
0.4000000000000057
100
AcDbArc
 50
90.0
 51
180.0
  0
ARC
  5
234
330
1F
100
AcDbEntity
  8
Layer0000
  6
Continuous
 62
    56
370
    25
100
AcDbCircle
 10
-447.9595084087976
 20
216.8792289610731
 30
0.0
 40
0.3999999999999773
100
AcDbArc
 50
0.0
 51
90.0
  0
LINE
  5
235
330
1F
100
AcDbEntity
  8
Layer0000
  6
Continuous
 62
    56
370
    25
100
AcDbLine
 10
-452.3595084087976
 20
189.279228961073
 30
0.0
 11
-452.3595084087976
 21
196.3843360438291
 31
0.0
  0
LINE
  5
236
330
1F
100
AcDbEntity
  8
Layer0000
  6
Continuous
 62
    56
370
    25
100
AcDbLine
 10
-447.4520311206858
 20
196.3843360438291
 30
0.0
 11
-447.4520311206858
 21
189.279228961073
 31
0.0
  0
ARC
  5
237
330
1F
100
AcDbEntity
  8
Layer0000
  6
Continuous
 62
    56
370
    25
100
AcDbCircle
 10
-449.9057697647417
 20
193.4677859743099
 30
0.0
 40
3.811442986763149
100
AcDbArc
 50
49.92557966161387
 51
130.0744203383854
  0
ARC
  5
238
330
1F
100
AcDbEntity
  8
Layer0000
  6
Continuous
 62
    56
370
    25
100
AcDbCircle
 10
-442.5595084087976
 20
183.4576804031397
 30
0.0
 40
13.82154855793342
100
AcDbArc
 50
69.26918485858411
 51
110.7308151414159
  0
LINE
  5
239
330
1F
100
AcDbEntity
  8
Layer0000
  6
Continuous
 62
    56
370
    25
100
AcDbLine
 10
-437.6669856969094
 20
189.279228961073
 30
0.0
 11
-437.6669856969094
 21
196.3843360438291
 31
0.0
  0
LINE
  5
23A
330
1F
100
AcDbEntity
  8
Layer0000
  6
Continuous
 62
    56
370
    25
100
AcDbLine
 10
-447.5595084087976
 20
212.779228961073
 30
0.0
 11
-437.5595084087976
 21
212.779228961073
 31
0.0
  0
LINE
  5
23B
330
1F
100
AcDbEntity
  8
Layer0000
  6
Continuous
 62
    56
370
    25
100
AcDbLine
 10
-438.3695084088005
 20
212.779228961073
 30
0.0
 11
-437.5595084087976
 21
214.1821901152089
 31
0.0
  0
LINE
  5
23C
330
1F
100
AcDbEntity
  8
Layer0000
  6
Continuous
 62
    56
370
    25
100
AcDbLine
 10
-446.7495084087976
 20
212.779228961073
 30
0.0
 11
-447.5595084087976
 21
214.182190115208
 31
0.0
  0
LINE
  5
23D
330
1F
100
AcDbEntity
  8
Layer0000
  6
Continuous
 62
    56
370
    25
100
AcDbLine
 10
-446.7495084087976
 20
212.779228961073
 30
0.0
 11
-446.7495084087976
 21
197.279228961073
 31
0.0
  0
LINE
  5
23E
330
1F
100
AcDbEntity
  8
Layer0000
  6
Continuous
 62
    56
370
    25
100
AcDbLine
 10
-447.5595084087976
 20
216.8792289610731
 30
0.0
 11
-447.5595084087976
 21
197.279228961073
 31
0.0
  0
LINE
  5
23F
330
1F
100
AcDbEntity
  8
Layer0000
  6
Continuous
 62
    56
370
    25
100
AcDbLine
 10
-438.3695084087976
 20
212.779228961073
 30
0.0
 11
-438.3695084087976
 21
197.279228961073
 31
0.0
  0
LINE
  5
240
330
1F
100
AcDbEntity
  8
Layer0000
  6
Continuous
 62
    56
370
    25
100
AcDbLine
 10
-437.5595084087976
 20
216.8792289610731
 30
0.0
 11
-437.5595084087976
 21
197.279228961073
 31
0.0
  0
LINE
  5
241
330
1F
100
AcDbEntity
  8
Layer0000
  6
Continuous
 62
    56
370
    25
100
AcDbLine
 10
-447.5595084087976
 20
167.279228961073
 30
0.0
 11
-447.5595084087976
 21
158.779228961073
 31
0.0
  0
LINE
  5
242
330
1F
100
AcDbEntity
  8
Layer0000
  6
Continuous
 62
    56
370
    25
100
AcDbLine
 10
-437.5595084087976
 20
167.279228961073
 30
0.0
 11
-437.5595084087976
 21
158.779228961073
 31
0.0
  0
LINE
  5
243
330
1F
100
AcDbEntity
  8
Layer0000
  6
Continuous
 62
    56
370
    25
100
AcDbLine
 10
-446.7495084087976
 20
167.279228961073
 30
0.0
 11
-446.7495084087976
 21
157.969228961073
 31
0.0
  0
LINE
  5
244
330
1F
100
AcDbEntity
  8
Layer0000
  6
Continuous
 62
    56
370
    25
100
AcDbLine
 10
-438.3695084087976
 20
167.279228961073
 30
0.0
 11
-438.3695084087976
 21
157.969228961073
 31
0.0
  0
LINE
  5
245
330
1F
100
AcDbEntity
  8
Layer0000
  6
Continuous
 62
    56
370
    25
100
AcDbLine
 10
-449.9057697647417
 20
197.279228961073
 30
0.0
 11
-435.2132470528534
 21
197.279228961073
 31
0.0
  0
ARC
  5
246
330
1F
100
AcDbEntity
  8
Layer0000
  6
Continuous
 62
    56
370
    25
100
AcDbCircle
 10
-435.2132470528534
 20
193.4677859743099
 30
0.0
 40
3.811442986763113
100
AcDbArc
 50
49.92557966161453
 51
130.0744203383861
  0
LINE
  5
247
330
1F
100
AcDbEntity
  8
Layer0000
  6
Continuous
 62
    56
370
    25
100
AcDbLine
 10
-432.7595084087976
 20
189.279228961073
 30
0.0
 11
-432.7595084087976
 21
196.3843360438291
 31
0.0
  0
LINE
  5
248
330
1F
100
AcDbEntity
  8
Layer0000
  6
Continuous
 62
    56
370
    25
100
AcDbLine
 10
-427.5595084087976
 20
188.279228961073
 30
0.0
 11
-427.5595084087976
 21
168.279228961073
 31
0.0
  0
LINE
  5
249
330
1F
100
AcDbEntity
  8
Layer0000
  6
Continuous
 62
    56
370
    25
100
AcDbLine
 10
-428.5595084087976
 20
189.279228961073
 30
0.0
 11
-427.5595084087976
 21
188.279228961073
 31
0.0
  0
LINE
  5
24A
330
1F
100
AcDbEntity
  8
Layer0000
  6
Continuous
 62
    56
370
    25
100
AcDbLine
 10
-428.5595084087976
 20
167.279228961073
 30
0.0
 11
-427.5595084087976
 21
168.279228961073
 31
0.0
  0
LINE
  5
24B
330
1F
100
AcDbEntity
  8
Layer0000
  6
Continuous
 62
    56
370
    25
100
AcDbLine
 10
-432.7595084087976
 20
217.279228961073
 30
0.0
 11
-452.3595084087976
 21
217.279228961073
 31
0.0
  0
LINE
  5
24C
330
1F
100
AcDbEntity
  8
Layer0000
  6
Continuous
 62
    56
370
    25
100
AcDbLine
 10
-432.7595084087976
 20
217.279228961073
 30
0.0
 11
-432.7595084087976
 21
223.387184536134
 31
0.0
  0
ARC
  5
24D
330
1F
100
AcDbEntity
  8
Layer0000
  6
Continuous
 62
    56
370
    25
100
AcDbCircle
 10
-435.2132470528534
 20
220.4706344666148
 30
0.0
 40
3.811442986763113
100
AcDbArc
 50
49.92557966161454
 51
130.0744203383861
  0
LINE
  5
24E
330
1F
100
AcDbEntity
  8
Layer0000
  6
Continuous
 62
    56
370
    25
100
AcDbLine
 10
161.4404915911996
 20
-74.3969669937542
 30
0.0
 11
173.4404915911992
 21
-74.39696699375375
 31
0.0
  0
LINE
  5
24F
330
1F
100
AcDbEntity
  8
Layer0000
  6
Continuous
 62
    56
370
    25
100
AcDbLine
 10
173.4404915911992
 20
-73.39696699375375
 30
0.0
 11
177.4404915911992
 21
-73.39696699375352
 31
0.0
  0
LINE
  5
250
330
1F
100
AcDbEntity
  8
Layer0000
  6
Continuous
 62
    56
370
    25
100
AcDbLine
 10
179.4404915911991
 20
-71.3969669937533
 30
0.0
 11
183.4404915911991
 21
-71.3969669937533
 31
0.0
  0
LINE
  5
251
330
1F
100
AcDbEntity
  8
Layer0000
  6
Continuous
 62
    56
370
    25
100
AcDbLine
 10
161.4404915912002
 20
-106.3969669937542
 30
0.0
 11
173.4404915912007
 21
-106.3969669937535
 31
0.0
  0
LINE
  5
252
330
1F
100
AcDbEntity
  8
Layer0000
  6
Continuous
 62
    56
370
    25
100
AcDbLine
 10
173.4404915912008
 20
-107.3969669937535
 30
0.0
 11
175.4404915912008
 21
-107.3969669937535
 31
0.0
  0
ARC
  5
253
330
1F
100
AcDbEntity
  8
Layer0000
  6
Continuous
 62
    56
370
    25
100
AcDbCircle
 10
175.4404915912008
 20
-109.3969669937535
 30
0.0
 40
2.0
100
AcDbArc
 50
0.0000000000026055
 51
90.0000000000026
  0
LINE
  5
254
330
1F
100
AcDbEntity
  8
Layer0000
  6
Continuous
 62
    56
370
    25
100
AcDbLine
 10
160.4404915911996
 20
-75.3969669937542
 30
0.0
 11
161.4404915911996
 21
-74.3969669937542
 31
0.0
  0
LINE
  5
255
330
1F
100
AcDbEntity
  8
Layer0000
  6
Continuous
 62
    56
370
    25
100
AcDbLine
 10
160.4404915912002
 20
-105.3969669937542
 30
0.0
 11
161.4404915912002
 21
-106.3969669937542
 31
0.0
  0
ARC
  5
256
330
1F
100
AcDbEntity
  8
Layer0000
  6
Continuous
 62
    56
370
    25
100
AcDbCircle
 10
183.4404915911992
 20
-73.3969669937533
 30
0.0
 40
2.0
100
AcDbArc
 50
0.0000000000026462
 51
90.00000000000244
  0
ARC
  5
257
330
1F
100
AcDbEntity
  8
Layer0000
  6
Continuous
 62
    56
370
    25
100
AcDbCircle
 10
179.4404915911992
 20
-73.3969669937533
 30
0.0
 40
2.0
100
AcDbArc
 50
90.00000000000244
 51
180.0000000000024
  0
LINE
  5
258
330
1F
100
AcDbEntity
  8
Layer0000
  6
Continuous
 62
    56
370
    25
100
AcDbLine
 10
173.4404915911992
 20
-73.39696699375375
 30
0.0
 11
173.4404915911992
 21
-74.39696699375375
 31
0.0
  0
LINE
  5
259
330
1F
100
AcDbEntity
  8
Layer0000
  6
Continuous
 62
    56
370
    25
100
AcDbLine
 10
173.4404915912007
 20
-106.3969669937535
 30
0.0
 11
173.4404915912008
 21
-107.3969669937535
 31
0.0
  0
LINE
  5
25A
330
1F
100
AcDbEntity
  8
Layer0000
  6
Continuous
 62
    56
370
    25
100
AcDbLine
 10
160.4404915912002
 20
-105.3969669937544
 30
0.0
 11
160.4404915912001
 21
-101.3969669937556
 31
0.0
  0
LINE
  5
25B
330
1F
100
AcDbEntity
  8
Layer0000
  6
Continuous
 62
    56
370
    25
100
AcDbLine
 10
160.4404915911996
 20
-79.39696699375557
 30
0.0
 11
160.4404915911996
 21
-75.39696699375375
 31
0.0
  0
LINE
  5
25C
330
1F
100
AcDbEntity
  8
Layer0000
  6
Continuous
 62
    56
370
    25
100
AcDbLine
 10
185.4404915911992
 20
-73.39696699375307
 30
0.0
 11
185.4404915912055
 21
-204.3969669937531
 31
0.0
  0
LINE
  5
25D
330
1F
100
AcDbEntity
  8
Layer0000
  6
Continuous
 62
    56
370
    25
100
AcDbLine
 10
179.4404915912064
 20
-224.3969669937533
 30
0.0
 11
194.4404915912064
 21
-224.3969669937526
 31
0.0
  0
LINE
  5
25E
330
1F
100
AcDbEntity
  8
Layer0000
  6
Continuous
 62
    56
370
    25
100
AcDbLine
 10
194.4404915912064
 20
-224.3969669937526
 30
0.0
 11
194.4404915912056
 21
-206.3969669937526
 31
0.0
  0
LINE
  5
25F
330
1F
100
AcDbEntity
  8
Layer0000
  6
Continuous
 62
    56
370
    25
100
AcDbLine
 10
187.4404915912056
 20
-206.3969669937531
 30
0.0
 11
194.4404915912056
 21
-206.3969669937526
 31
0.0
  0
ARC
  5
260
330
1F
100
AcDbEntity
  8
Layer0000
  6
Continuous
 62
    56
370
    25
100
AcDbCircle
 10
187.4404915912055
 20
-204.3969669937531
 30
0.0
 40
2.0
100
AcDbArc
 50
180.0000000000026
 51
270.0000000000026
  0
ARC
  5
261
330
1F
100
AcDbEntity
  8
Layer0000
  6
Continuous
 62
    56
370
    25
100
AcDbCircle
 10
179.4404915912063
 20
-222.3969669937533
 30
0.0
 40
2.0
100
AcDbArc
 50
180.0000000000026
 51
270.0000000000026
  0
LINE
  5
262
330
1F
100
AcDbEntity
  8
Layer0000
  6
Continuous
 62
    56
370
    25
100
AcDbLine
 10
176.440491591206
 20
-218.8969669937556
 30
0.0
 11
176.440491591206
 21
-211.8969669937556
 31
0.0
  0
LINE
  5
263
330
1F
100
AcDbEntity
  8
Layer0000
  6
Continuous
 62
    56
370
    25
100
AcDbLine
 10
201.4404915912061
 20
-207.3969669937556
 30
0.0
 11
201.4404915912061
 21
-223.3969669937556
 31
0.0
  0
LINE
  5
264
330
1F
100
AcDbEntity
  8
Layer0000
  6
Continuous
 62
    56
370
    25
100
AcDbLine
 10
201.4404915912061
 20
-207.3969669937556
 30
0.0
 11
272.384220512576
 21
-203.398551466177
 31
0.0
  0
LINE
  5
265
330
1F
100
AcDbEntity
  8
Layer0000
  6
Continuous
 62
    56
370
    25
100
AcDbLine
 10
201.4404915912061
 20
-223.3969669937556
 30
0.0
 11
272.384220512576
 21
-227.3953825213341
 31
0.0
  0
LINE
  5
266
330
1F
100
AcDbEntity
  8
Layer0000
  6
Continuous
 62
    56
370
    25
100
AcDbLine
 10
273.4404915912026
 20
-226.3969643820108
 30
0.0
 11
273.4404915912026
 21
-204.3969643929159
 31
0.0
  0
ARC
  5
267
330
1F
100
AcDbEntity
  8
Layer0000
  6
Continuous
 62
    56
370
    25
100
AcDbCircle
 10
272.440491591206
 20
-226.3969669937556
 30
0.0
 40
1.0
100
AcDbArc
 50
266.7742007758423
 51
0.0001496419479451
  0
ARC
  5
268
330
1F
100
AcDbEntity
  8
Layer0000
  6
Continuous
 62
    56
370
    25
100
AcDbCircle
 10
272.440491591206
 20
-204.3969669937556
 30
0.0
 40
1.0
100
AcDbArc
 50
359.9998503580529
 51
93.22579922415777
  0
LINE
  5
269
330
1F
100
AcDbEntity
  8
Layer0000
  6
Continuous
 62
    56
370
    25
100
AcDbLine
 10
272.384220512576
 20
-227.3953825178831
 30
0.0
 11
272.384220512576
 21
-203.3985514696281
 31
0.0
  0
LINE
  5
26A
330
1F
100
AcDbEntity
  8
Layer0000
  6
Continuous
 62
    56
370
    25
100
AcDbLine
 10
195.4404915912061
 20
-207.3969669937556
 30
0.0
 11
201.4404915912061
 21
-207.3969669937556
 31
0.0
  0
LINE
  5
26B
330
1F
100
AcDbEntity
  8
Layer0000
  6
Continuous
 62
    56
370
    25
100
AcDbLine
 10
195.4404915912061
 20
-223.3969669937556
 30
0.0
 11
201.4404915912061
 21
-223.3969669937556
 31
0.0
  0
LINE
  5
26C
330
1F
100
AcDbEntity
  8
Layer0000
  6
Continuous
 62
    56
370
    25
100
AcDbLine
 10
194.4404915912061
 20
-208.3969669937556
 30
0.0
 11
195.4404915912061
 21
-207.3969669937556
 31
0.0
  0
LINE
  5
26D
330
1F
100
AcDbEntity
  8
Layer0000
  6
Continuous
 62
    56
370
    25
100
AcDbLine
 10
194.4404915912061
 20
-222.3969669937556
 30
0.0
 11
195.4404915912061
 21
-223.3969669937556
 31
0.0
  0
LINE
  5
26E
330
1F
100
AcDbEntity
  8
Layer0000
  6
Continuous
 62
    56
370
    25
100
AcDbLine
 10
194.4404915912061
 20
-208.3969669937556
 30
0.0
 11
194.4404915912061
 21
-222.3969669937556
 31
0.0
  0
LINE
  5
26F
330
1F
100
AcDbEntity
  8
Layer0000
  6
Continuous
 62
    56
370
    25
100
AcDbLine
 10
177.4404915912061
 20
-219.6469669937556
 30
0.0
 11
177.190491591206
 21
-219.6469669937556
 31
0.0
  0
LINE
  5
270
330
1F
100
AcDbEntity
  8
Layer0000
  6
Continuous
 62
    56
370
    25
100
AcDbLine
 10
177.4404915912057
 20
-211.1469669937556
 30
0.0
 11
177.190491591206
 21
-211.1469669937556
 31
0.0
  0
LINE
  5
271
330
1F
100
AcDbEntity
  8
Layer0000
  6
Continuous
 62
    56
370
    25
100
AcDbLine
 10
177.4404915912062
 20
-219.8969669937487
 30
0.0
 11
176.440491591206
 21
-218.8969669937556
 31
0.0
  0
LINE
  5
272
330
1F
100
AcDbEntity
  8
Layer0000
  6
Continuous
 62
    56
370
    25
100
AcDbLine
 10
177.4404915912057
 20
-210.8969669937624
 30
0.0
 11
176.440491591206
 21
-211.8969669937556
 31
0.0
  0
ARC
  5
273
330
1F
100
AcDbEntity
  8
Layer0000
  6
Continuous
 62
    56
370
    25
100
AcDbCircle
 10
198.5141998606061
 20
-218.1079132295052
 30
0.0
 40
73.8769487080479
100
AcDbArc
 50
100.1930876363986
 51
100.60780910855
  0
ARC
  5
274
330
1F
100
AcDbEntity
  8
Layer0000
  6
Continuous
 62
    56
370
    25
100
AcDbCircle
 10
189.3629502670457
 20
-169.2513894517765
 30
0.0
 40
24.17075914229993
100
AcDbArc
 50
100.6052288852463
 51
101.8649680213393
  0
ARC
  5
275
330
1F
100
AcDbEntity
  8
Layer0000
  6
Continuous
 62
    56
370
    25
100
AcDbCircle
 10
187.2694392229479
 20
-159.2926087013314
 30
0.0
 40
13.9943108402983
100
AcDbArc
 50
101.8600581798881
 51
104.0101922266177
  0
ARC
  5
276
330
1F
100
AcDbEntity
  8
Layer0000
  6
Continuous
 62
    56
370
    25
100
AcDbCircle
 10
186.1844298244139
 20
-154.9486450844625
 30
0.0
 40
9.516893775404194
100
AcDbArc
 50
104.0036685419864
 51
107.1141484611235
  0
ARC
  5
277
330
1F
100
AcDbEntity
  8
Layer0000
  6
Continuous
 62
    56
370
    25
100
AcDbCircle
 10
185.4419163958636
 20
-152.5398886381927
 30
0.0
 40
6.996292071666406
100
AcDbArc
 50
107.1076362998408
 51
111.2601872179245
  0
ARC
  5
278
330
1F
100
AcDbEntity
  8
Layer0000
  6
Continuous
 62
    56
370
    25
100
AcDbCircle
 10
184.8712014830899
 20
-151.073952423521
 30
0.0
 40
5.423179117994887
100
AcDbArc
 50
111.2568059629005
 51
116.5186208556478
  0
ARC
  5
279
330
1F
100
AcDbEntity
  8
Layer0000
  6
Continuous
 62
    56
370
    25
100
AcDbCircle
 10
184.4225725248393
 20
-150.1740791567604
 30
0.0
 40
4.417674426867999
100
AcDbArc
 50
116.5232224636123
 51
122.9018415013053
  0
ARC
  5
27A
330
1F
100
AcDbEntity
  8
Layer0000
  6
Continuous
 62
    56
370
    25
100
AcDbCircle
 10
184.1080631808996
 20
-149.6842755062426
 30
0.0
 40
3.835592697266236
100
AcDbArc
 50
122.9317060506247
 51
130.2673934040806
  0
ARC
  5
27B
330
1F
100
AcDbEntity
  8
Layer0000
  6
Continuous
 62
    56
370
    25
100
AcDbCircle
 10
184.8783125999582
 20
-150.5686072486933
 30
0.0
 40
5.00825096185815
100
AcDbArc
 50
130.4519876753989
 51
136.1405232052715
  0
ARC
  5
27C
330
1F
100
AcDbEntity
  8
Layer0000
  6
Continuous
 62
    56
370
    25
100
AcDbCircle
 10
187.4938514353233
 20
-153.0846399450081
 30
0.0
 40
8.637501832789745
100
AcDbArc
 50
136.1280685000492
 51
139.4847681756951
  0
ARC
  5
27D
330
1F
100
AcDbEntity
  8
Layer0000
  6
Continuous
 62
    56
370
    25
100
AcDbCircle
 10
199.8242681788621
 20
-163.6280413208986
 30
0.0
 40
24.86101812861373
100
AcDbArc
 50
139.4732743050425
 51
140.6551304410742
  0
ARC
  5
27E
330
1F
100
AcDbEntity
  8
Layer0000
  6
Continuous
 62
    56
370
    25
100
AcDbCircle
 10
155.3474589329457
 20
-127.1639032073324
 30
0.0
 40
32.65263182555644
100
AcDbArc
 50
319.7481049007808
 51
320.6522950802608
  0
ARC
  5
27F
330
1F
100
AcDbEntity
  8
Layer0000
  6
Continuous
 62
    56
370
    25
100
AcDbCircle
 10
172.8127275953264
 20
-141.951645463553
 30
0.0
 40
9.767856817969225
100
AcDbArc
 50
316.742914541619
 51
319.7539660764004
  0
ARC
  5
280
330
1F
100
AcDbEntity
  8
Layer0000
  6
Continuous
 62
    56
370
    25
100
AcDbCircle
 10
175.7149006824728
 20
-144.6775012583244
 30
0.0
 40
5.786289685167703
100
AcDbArc
 50
311.6683280567353
 51
316.7074873571116
  0
ARC
  5
281
330
1F
100
AcDbEntity
  8
Layer0000
  6
Continuous
 62
    56
370
    25
100
AcDbCircle
 10
175.2619410150798
 20
-144.1511578225293
 30
0.0
 40
6.480617115286719
100
AcDbArc
 50
307.0898284329763
 51
311.5661351047938
  0
ARC
  5
282
330
1F
100
AcDbEntity
  8
Layer0000
  6
Continuous
 62
    56
370
    25
100
AcDbCircle
 10
174.128463284086
 20
-142.6511482784927
 30
0.0
 40
8.360723561358009
100
AcDbArc
 50
303.6133309811381
 51
307.0868107523308
  0
ARC
  5
283
330
1F
100
AcDbEntity
  8
Layer0000
  6
Continuous
 62
    56
370
    25
100
AcDbCircle
 10
172.1988941054528
 20
-139.7485707963488
 30
0.0
 40
11.84614939574278
100
AcDbArc
 50
301.1526274551331
 51
303.613845371082
  0
ARC
  5
284
330
1F
100
AcDbEntity
  8
Layer0000
  6
Continuous
 62
    56
370
    25
100
AcDbCircle
 10
167.9856255709159
 20
-132.7797274933387
 30
0.0
 40
19.9896381160608
100
AcDbArc
 50
299.6896912556023
 51
301.1542421986603
  0
ARC
  5
285
330
1F
100
AcDbEntity
  8
Layer0000
  6
Continuous
 62
    56
370
    25
100
AcDbCircle
 10
147.9596752377428
 20
-97.65830037071285
 30
0.0
 40
60.4192476785576
100
AcDbArc
 50
299.2051090119476
 51
299.6908578656776
  0
LINE
  5
286
330
1F
100
AcDbEntity
  8
Layer0000
  6
Continuous
 62
    56
370
    25
100
AcDbLine
 10
177.4404915912008
 20
-109.3969669937535
 30
0.0
 11
177.4404915912063
 21
-222.3969669937535
 31
0.0
  0
LINE
  5
287
330
1F
100
AcDbEntity
  8
Layer0000
  6
Continuous
 62
    56
370
    25
100
AcDbLine
 10
-449.9057697647416
 20
224.282077453378
 30
0.0
 11
-435.2132470528535
 21
224.282077453378
 31
0.0
  0
LINE
  5
288
330
1F
100
AcDbEntity
  8
Layer0000
  6
Continuous
 62
    56
370
    25
100
AcDbLine
 10
-528.5595084087977
 20
129.279228961073
 30
0.0
 11
-512.5595084087977
 21
129.279228961073
 31
0.0
  0
LINE
  5
289
330
1F
100
AcDbEntity
  8
Layer0000
  6
Continuous
 62
    56
370
    25
100
AcDbLine
 10
-511.5595084087976
 20
130.279228961073
 30
0.0
 11
-512.5595084087977
 21
129.279228961073
 31
0.0
  0
LINE
  5
28A
330
1F
100
AcDbEntity
  8
Layer0000
  6
Continuous
 62
    56
370
    25
100
AcDbLine
 10
-528.5595084087977
 20
129.279228961073
 30
0.0
 11
-529.5595084087977
 21
130.279228961073
 31
0.0
  0
LINE
  5
28B
330
1F
100
AcDbEntity
  8
Layer0000
  6
Continuous
 62
    56
370
    25
100
AcDbLine
 10
-529.5595084087977
 20
130.279228961073
 30
0.0
 11
-511.5595084087976
 21
130.279228961073
 31
0.0
  0
LINE
  5
28C
330
1F
100
AcDbEntity
  8
Layer0000
  6
CENTER
 62
    56
370
    25
100
AcDbLine
 10
-531.5595084087975
 20
178.279228961073
 30
0.0
 11
-549.5595084087975
 21
178.279228961073
 31
0.0
  0
LINE
  5
28D
330
1F
100
AcDbEntity
  8
Layer0000
  6
CENTER
 62
    56
370
    25
100
AcDbLine
 10
-540.5595084087975
 20
187.279228961073
 30
0.0
 11
-540.5595084087975
 21
169.279228961073
 31
0.0
  0
LINE
  5
28E
330
1F
100
AcDbEntity
  8
Layer0000
  6
CENTER
 62
    56
370
    25
100
AcDbLine
 10
-520.5595084087977
 20
229.279228961073
 30
0.0
 11
-520.5595084087977
 21
128.279228961073
 31
0.0
  0
LINE
  5
28F
330
1F
100
AcDbEntity
  8
Layer0000
  6
CENTER
 62
    56
370
    25
100
AcDbLine
 10
-442.5595084087976
 20
225.279228961073
 30
0.0
 11
-442.5595084087976
 21
156.279228961073
 31
0.0
  0
LINE
  5
290
330
1F
100
AcDbEntity
  8
Layer0000
  6
CENTER
 62
    56
370
    25
100
AcDbLine
 10
175.440491591206
 20
-215.3969669937556
 30
0.0
 11
274.4404915912026
 21
-215.3969669937556
 31
0.0
  0
LINE
  5
291
330
1F
100
AcDbEntity
  8
Layer0000
  6
DIVIDE
 62
    56
370
    25
100
AcDbLine
 10
-483.5595084087976
 20
-33.59696699375585
 30
0.0
 11
-483.5595084087976
 21
-54.39696699375558
 31
0.0
  0
LINE
  5
292
330
1F
100
AcDbEntity
  8
Layer0000
  6
DIVIDE
 62
    56
370
    25
100
AcDbLine
 10
-483.7595084087976
 20
-33.3969669937558
 30
0.0
 11
-518.0595084087977
 21
-33.3969669937558
 31
0.0
  0
LINE
  5
293
330
1F
100
AcDbEntity
  8
Layer0000
  6
DIVIDE
 62
    56
370
    25
100
AcDbLine
 10
-548.5595084087977
 20
-29.39703701066427
 30
0.0
 11
-548.5595084087977
 21
-54.39696699375558
 31
0.0
  0
LINE
  5
294
330
1F
100
AcDbEntity
  8
Layer0000
  6
DIVIDE
 62
    56
370
    25
100
AcDbLine
 10
-483.7595084087976
 20
-33.3969669937558
 30
0.0
 11
-483.5595084087976
 21
-33.59696699375585
 31
0.0
  0
LINE
  5
295
330
1F
100
AcDbEntity
  8
Layer0000
  6
DIVIDE
 62
    56
370
    25
100
AcDbLine
 10
-547.5595084087977
 20
-55.39696699375558
 30
0.0
 11
-548.5595084087977
 21
-54.39696699375558
 31
0.0
  0
LINE
  5
296
330
1F
100
AcDbEntity
  8
Layer0000
  6
DIVIDE
 62
    56
370
    25
100
AcDbLine
 10
-484.5595084087976
 20
-55.39696699375558
 30
0.0
 11
-483.5595084087976
 21
-54.39696699375558
 31
0.0
  0
LINE
  5
297
330
1F
100
AcDbEntity
  8
Layer0000
  6
DIVIDE
 62
    56
370
    25
100
AcDbLine
 10
58.74049159120233
 20
-33.59696699375585
 30
0.0
 11
58.74049159120233
 21
-54.3969669937558
 31
0.0
  0
LINE
  5
298
330
1F
100
AcDbEntity
  8
Layer0000
  6
DIVIDE
 62
    56
370
    25
100
AcDbLine
 10
59.74049159120233
 20
-55.3969669937558
 30
0.0
 11
58.74049159120233
 21
-54.3969669937558
 31
0.0
  0
LINE
  5
299
330
1F
100
AcDbEntity
  8
Layer0000
  6
DIVIDE
 62
    56
370
    25
100
AcDbLine
 10
93.94049159120235
 20
-28.3969669937558
 30
0.0
 11
122.7404915912023
 21
-28.3969669937558
 31
0.0
  0
LINE
  5
29A
330
1F
100
AcDbEntity
  8
Layer0000
  6
DIVIDE
 62
    56
370
    25
100
AcDbLine
 10
123.7404915912023
 20
-29.3969669937558
 30
0.0
 11
122.7404915912023
 21
-28.3969669937558
 31
0.0
  0
LINE
  5
29B
330
1F
100
AcDbEntity
  8
Layer0000
  6
DIVIDE
 62
    56
370
    25
100
AcDbLine
 10
123.7404915912023
 20
-29.3969669937558
 30
0.0
 11
123.7404915912023
 21
-54.3969669937558
 31
0.0
  0
LINE
  5
29C
330
1F
100
AcDbEntity
  8
Layer0000
  6
DIVIDE
 62
    56
370
    25
100
AcDbLine
 10
122.7404915912023
 20
-55.3969669937558
 30
0.0
 11
123.7404915912023
 21
-54.3969669937558
 31
0.0
  0
LINE
  5
29D
330
1F
100
AcDbEntity
  8
Layer0000
  6
DIVIDE
 62
    56
370
    25
100
AcDbLine
 10
-39.25950840879779
 20
-33.59696699375562
 30
0.0
 11
-39.25950840879779
 21
-54.3969669937558
 31
0.0
  0
LINE
  5
29E
330
1F
100
AcDbEntity
  8
Layer0000
  6
DIVIDE
 62
    56
370
    25
100
AcDbLine
 10
-38.25950840879779
 20
-55.3969669937558
 30
0.0
 11
-39.25950840879779
 21
-54.3969669937558
 31
0.0
  0
LINE
  5
29F
330
1F
100
AcDbEntity
  8
Layer0000
  6
DIVIDE
 62
    56
370
    25
100
AcDbLine
 10
-4.059508408797768
 20
-28.39696699375558
 30
0.0
 11
24.74049159120221
 21
-28.39696699375558
 31
0.0
  0
LINE
  5
2A0
330
1F
100
AcDbEntity
  8
Layer0000
  6
DIVIDE
 62
    56
370
    25
100
AcDbLine
 10
25.74049159120221
 20
-29.39696699375558
 30
0.0
 11
24.74049159120221
 21
-28.39696699375558
 31
0.0
  0
LINE
  5
2A1
330
1F
100
AcDbEntity
  8
Layer0000
  6
DIVIDE
 62
    56
370
    25
100
AcDbLine
 10
25.74049159120221
 20
-29.39696699375558
 30
0.0
 11
25.74049159120221
 21
-54.3969669937558
 31
0.0
  0
LINE
  5
2A2
330
1F
100
AcDbEntity
  8
Layer0000
  6
DIVIDE
 62
    56
370
    25
100
AcDbLine
 10
24.74049159120221
 20
-55.3969669937558
 30
0.0
 11
25.74049159120221
 21
-54.3969669937558
 31
0.0
  0
LINE
  5
2A3
330
1F
100
AcDbEntity
  8
Layer0000
  6
DIVIDE
 62
    56
370
    25
100
AcDbLine
 10
290.8917240751454
 20
229.7792289610727
 30
0.0
 11
290.8917240751454
 21
388.7792289610729
 31
0.0
  0
LINE
  5
2A4
330
1F
100
AcDbEntity
  8
Layer0000
  6
DIVIDE
 62
    56
370
    25
100
AcDbLine
 10
290.8917240751454
 20
229.7792289610727
 30
0.0
 11
291.3917240751454
 21
229.2792289610727
 31
0.0
  0
LINE
  5
2A5
330
1F
100
AcDbEntity
  8
Layer0000
  6
DIVIDE
 62
    56
370
    25
100
AcDbLine
 10
290.8917240751454
 20
388.7792289610729
 30
0.0
 11
291.3917240751454
 21
389.2792289610729
 31
0.0
  0
LINE
  5
2A6
330
1F
100
AcDbEntity
  8
Layer0000
  6
DIVIDE
 62
    56
370
    25
100
AcDbLine
 10
321.8917240751454
 20
229.2792289610727
 30
0.0
 11
321.8917240751454
 21
229.7792289610727
 31
0.0
  0
LINE
  5
2A7
330
1F
100
AcDbEntity
  8
Layer0000
  6
DIVIDE
 62
    56
370
    25
100
AcDbLine
 10
321.8917240751454
 20
388.7792289610729
 30
0.0
 11
321.8917240751454
 21
389.2792289610729
 31
0.0
  0
LINE
  5
2A8
330
1F
100
AcDbEntity
  8
Layer0000
  6
DIVIDE
 62
    56
370
    25
100
AcDbLine
 10
291.3917240751454
 20
389.2792289610729
 30
0.0
 11
321.8917240751454
 21
389.2792289610729
 31
0.0
  0
LINE
  5
2A9
330
1F
100
AcDbEntity
  8
Layer0000
  6
DIVIDE
 62
    56
370
    25
100
AcDbLine
 10
291.3917240751454
 20
229.2792289610727
 30
0.0
 11
321.8917240751454
 21
229.2792289610727
 31
0.0
  0
LINE
  5
2AA
330
1F
100
AcDbEntity
  8
Layer0000
  6
DIVIDE
 62
    56
370
    25
100
AcDbLine
 10
-518.7595084087976
 20
-28.39703701066427
 30
0.0
 11
-547.5595084087977
 21
-28.39703701066427
 31
0.0
  0
LINE
  5
2AB
330
1F
100
AcDbEntity
  8
Layer0000
  6
DIVIDE
 62
    56
370
    25
100
AcDbLine
 10
-548.5595084087977
 20
-29.39703701066427
 30
0.0
 11
-547.5595084087977
 21
-28.39703701066427
 31
0.0
  0
LINE
  5
2AC
330
1F
100
AcDbEntity
  8
Layer0000
  6
DIVIDE
 62
    56
370
    25
100
AcDbLine
 10
-518.5595084087977
 20
-32.8969669937558
 30
0.0
 11
-518.5595084087977
 21
-28.59703701066432
 31
0.0
  0
ARC
  5
2AD
330
1F
100
AcDbEntity
  8
Layer0000
  6
DIVIDE
 62
    56
370
    25
100
AcDbCircle
 10
-518.5595084087977
 20
-33.3969669937558
 30
0.0
 40
0.5
100
AcDbArc
 50
90.0
 51
0.0
  0
LINE
  5
2AE
330
1F
100
AcDbEntity
  8
Layer0000
  6
DIVIDE
 62
    56
370
    25
100
AcDbLine
 10
-518.7595084087976
 20
-28.39703701066427
 30
0.0
 11
-518.5595084087977
 21
-28.59703701066432
 31
0.0
  0
LINE
  5
2AF
330
1F
100
AcDbEntity
  8
Layer0000
  6
DIVIDE
 62
    56
370
    25
100
AcDbLine
 10
-4.059508408797768
 20
-28.39696699375558
 30
0.0
 11
-4.259508408797785
 21
-28.59696699375562
 31
0.0
  0
ARC
  5
2B0
330
1F
100
AcDbEntity
  8
Layer0000
  6
DIVIDE
 62
    56
370
    25
100
AcDbCircle
 10
-4.259508408797785
 20
-33.39696699375558
 30
0.0
 40
0.5
100
AcDbArc
 50
180.0
 51
90.0
  0
LINE
  5
2B1
330
1F
100
AcDbEntity
  8
Layer0000
  6
DIVIDE
 62
    56
370
    25
100
AcDbLine
 10
-4.759508408797785
 20
-33.39696699375558
 30
0.0
 11
-39.0595084087978
 21
-33.39696699375558
 31
0.0
  0
LINE
  5
2B2
330
1F
100
AcDbEntity
  8
Layer0000
  6
DIVIDE
 62
    56
370
    25
100
AcDbLine
 10
-39.0595084087978
 20
-33.39696699375558
 30
0.0
 11
-39.25950840879779
 21
-33.59696699375562
 31
0.0
  0
LINE
  5
2B3
330
1F
100
AcDbEntity
  8
Layer0000
  6
DIVIDE
 62
    56
370
    25
100
AcDbLine
 10
-4.259508408797785
 20
-32.89696699375558
 30
0.0
 11
-4.259508408797785
 21
-28.59696699375562
 31
0.0
  0
LINE
  5
2B4
330
1F
100
AcDbEntity
  8
Layer0000
  6
DIVIDE
 62
    56
370
    25
100
AcDbLine
 10
93.94049159120235
 20
-28.3969669937558
 30
0.0
 11
93.74049159120233
 21
-28.59696699375585
 31
0.0
  0
ARC
  5
2B5
330
1F
100
AcDbEntity
  8
Layer0000
  6
DIVIDE
 62
    56
370
    25
100
AcDbCircle
 10
93.74049159120233
 20
-33.3969669937558
 30
0.0
 40
0.5
100
AcDbArc
 50
180.0
 51
90.0
  0
LINE
  5
2B6
330
1F
100
AcDbEntity
  8
Layer0000
  6
DIVIDE
 62
    56
370
    25
100
AcDbLine
 10
93.24049159120233
 20
-33.3969669937558
 30
0.0
 11
58.94049159120232
 21
-33.3969669937558
 31
0.0
  0
LINE
  5
2B7
330
1F
100
AcDbEntity
  8
Layer0000
  6
DIVIDE
 62
    56
370
    25
100
AcDbLine
 10
58.94049159120232
 20
-33.3969669937558
 30
0.0
 11
58.74049159120233
 21
-33.59696699375585
 31
0.0
  0
LINE
  5
2B8
330
1F
100
AcDbEntity
  8
Layer0000
  6
DIVIDE
 62
    56
370
    25
100
AcDbLine
 10
93.74049159120233
 20
-32.8969669937558
 30
0.0
 11
93.74049159120233
 21
-28.59696699375585
 31
0.0
  0
LINE
  5
2B9
330
1F
100
AcDbEntity
  8
Layer0000
  6
Continuous
 62
     3
370
    25
100
AcDbLine
 10
-522.5595084087977
 20
-120.3969669937556
 30
0.0
 11
-502.5595084087976
 21
-120.3969669937556
 31
0.0
  0
LINE
  5
2BA
330
1F
100
AcDbEntity
  8
Layer0000
  6
Continuous
 62
     3
370
    25
100
AcDbLine
 10
-559.5595084087977
 20
-110.3969669937556
 30
0.0
 11
-523.5595084087977
 21
-110.3969669937556
 31
0.0
  0
LINE
  5
2BB
330
1F
100
AcDbEntity
  8
Layer0000
  6
Continuous
 62
     3
370
    25
100
AcDbLine
 10
-501.5595084087976
 20
-110.3969669937556
 30
0.0
 11
-49.25950840879761
 21
-110.3969669937556
 31
0.0
  0
LINE
  5
2BC
330
1F
100
AcDbEntity
  8
Layer0000
  6
Continuous
 62
     3
370
    25
100
AcDbLine
 10
59.44049159120237
 20
-168.8969669937556
 30
0.0
 11
-560.5595084087977
 21
-168.8969669937556
 31
0.0
  0
LINE
  5
2BD
330
1F
100
AcDbEntity
  8
Layer0000
  6
Continuous
 62
     3
370
    25
100
AcDbLine
 10
-560.5595084087977
 20
-111.3969669937556
 30
0.0
 11
-560.5595084087977
 21
-199.3969669937556
 31
0.0
  0
CIRCLE
  5
2BE
330
1F
100
AcDbEntity
  8
Layer0000
  6
Continuous
 62
     3
370
    25
100
AcDbCircle
 10
-395.5595084087976
 20
-148.3969669937556
 30
0.0
 40
10.0
  0
CIRCLE
  5
2BF
330
1F
100
AcDbEntity
  8
Layer0000
  6
Continuous
 62
     3
370
    25
100
AcDbCircle
 10
-315.5595084087976
 20
-148.3969669937556
 30
0.0
 40
10.0
  0
CIRCLE
  5
2C0
330
1F
100
AcDbEntity
  8
Layer0000
  6
Continuous
 62
     3
370
    25
100
AcDbCircle
 10
-235.5595084087976
 20
-148.3969669937556
 30
0.0
 40
10.0
  0
CIRCLE
  5
2C1
330
1F
100
AcDbEntity
  8
Layer0000
  6
Continuous
 62
     3
370
    25
100
AcDbCircle
 10
-155.5595084087976
 20
-148.3969669937556
 30
0.0
 40
10.0
  0
LINE
  5
2C2
330
1F
100
AcDbEntity
  8
Layer0000
  6
Continuous
 62
     3
370
    25
100
AcDbLine
 10
-389.5595084087976
 20
-196.3969669937556
 30
0.0
 11
-371.5595084087976
 21
-196.3969669937556
 31
0.0
  0
LINE
  5
2C3
330
1F
100
AcDbEntity
  8
Layer0000
  6
Continuous
 62
     3
370
    25
100
AcDbLine
 10
-560.5595084087977
 20
-111.3969669937556
 30
0.0
 11
-559.5595084087977
 21
-110.3969669937556
 31
0.0
  0
LINE
  5
2C4
330
1F
100
AcDbEntity
  8
Layer0000
  6
Continuous
 62
     3
370
    25
100
AcDbLine
 10
58.44049159120237
 20
-200.3969669937556
 30
0.0
 11
59.44049159120237
 21
-199.3969669937556
 31
0.0
  0
LINE
  5
2C5
330
1F
100
AcDbEntity
  8
Layer0000
  6
Continuous
 62
     3
370
    25
100
AcDbLine
 10
-559.5595084087977
 20
-200.3969669937556
 30
0.0
 11
-560.5595084087977
 21
-199.3969669937556
 31
0.0
  0
LINE
  5
2C6
330
1F
100
AcDbEntity
  8
Layer0000
  6
Continuous
 62
     3
370
    25
100
AcDbLine
 10
-473.7595084087977
 20
-109.8969669937556
 30
0.0
 11
-473.7595084087977
 21
-105.3969669937556
 31
0.0
  0
LINE
  5
2C7
330
1F
100
AcDbEntity
  8
Layer0000
  6
Continuous
 62
     3
370
    25
100
AcDbLine
 10
-473.7595084087977
 20
-105.3969669937556
 30
0.0
 11
-473.5595084087976
 21
-105.3969669937556
 31
0.0
  0
LINE
  5
2C8
330
1F
100
AcDbEntity
  8
Layer0000
  6
Continuous
 62
     3
370
    25
100
AcDbLine
 10
-473.5595084087976
 20
-109.3969669937556
 30
0.0
 11
-473.5595084087976
 21
-55.39696699375558
 31
0.0
  0
LINE
  5
2C9
330
1F
100
AcDbEntity
  8
Layer0000
  6
Continuous
 62
     3
370
    25
100
AcDbLine
 10
-474.0595084087976
 20
-55.39696699375558
 30
0.0
 11
-513.0595084087977
 21
-55.39696699375558
 31
0.0
  0
LINE
  5
2CA
330
1F
100
AcDbEntity
  8
Layer0000
  6
Continuous
 62
     3
370
    25
100
AcDbLine
 10
-513.5595084087977
 20
-55.89696699375558
 30
0.0
 11
-513.5595084087977
 21
-59.89696699375558
 31
0.0
  0
LINE
  5
2CB
330
1F
100
AcDbEntity
  8
Layer0000
  6
Continuous
 62
     3
370
    25
100
AcDbLine
 10
-513.5595084087977
 20
-59.89696699375558
 30
0.0
 11
-529.5595084087977
 21
-59.89696699375558
 31
0.0
  0
LINE
  5
2CC
330
1F
100
AcDbEntity
  8
Layer0000
  6
Continuous
 62
     3
370
    25
100
AcDbLine
 10
-529.5595084087977
 20
-59.89696699375558
 30
0.0
 11
-529.5595084087977
 21
-55.89696699375558
 31
0.0
  0
LINE
  5
2CD
330
1F
100
AcDbEntity
  8
Layer0000
  6
Continuous
 62
     3
370
    25
100
AcDbLine
 10
-530.0595084087977
 20
-55.39696699375558
 30
0.0
 11
-559.5595084087977
 21
-55.39696699375558
 31
0.0
  0
LINE
  5
2CE
330
1F
100
AcDbEntity
  8
Layer0000
  6
Continuous
 62
     3
370
    25
100
AcDbLine
 10
-560.5595084087977
 20
-56.39696699375558
 30
0.0
 11
-560.5595084087977
 21
-109.3969669937556
 31
0.0
  0
LINE
  5
2CF
330
1F
100
AcDbEntity
  8
Layer0000
  6
Continuous
 62
     3
370
    25
100
AcDbLine
 10
-522.5595084087977
 20
-111.3969669937556
 30
0.0
 11
-522.5595084087977
 21
-120.3969669937556
 31
0.0
  0
LINE
  5
2D0
330
1F
100
AcDbEntity
  8
Layer0000
  6
Continuous
 62
     3
370
    25
100
AcDbLine
 10
-522.0595084087977
 20
-119.8969669937556
 30
0.0
 11
-503.0595084087976
 21
-119.8969669937556
 31
0.0
  0
LINE
  5
2D1
330
1F
100
AcDbEntity
  8
Layer0000
  6
Continuous
 62
     3
370
    25
100
AcDbLine
 10
-522.5595084087977
 20
-119.3969669937556
 30
0.0
 11
-522.0595084087977
 21
-119.8969669937556
 31
0.0
  0
LINE
  5
2D2
330
1F
100
AcDbEntity
  8
Layer0000
  6
Continuous
 62
     3
370
    25
100
AcDbLine
 10
-522.3934830050132
 20
-111.5969669937556
 30
0.0
 11
-522.5595084087977
 21
-111.8845314284572
 31
0.0
  0
LINE
  5
2D3
330
1F
100
AcDbEntity
  8
Layer0000
  6
Continuous
 62
     3
370
    25
100
AcDbLine
 10
-523.7595084087977
 20
-110.2309415899711
 30
0.0
 11
-524.0470728434996
 21
-110.3969669937556
 31
0.0
  0
ARC
  5
2D4
330
1F
100
AcDbEntity
  8
Layer0000
  6
Continuous
 62
     3
370
    25
100
AcDbCircle
 10
-523.2595084087977
 20
-111.0969669937556
 30
0.0
 40
1.0
100
AcDbArc
 50
329.9999999999999
 51
119.9999999999965
  0
LINE
  5
2D5
330
1F
100
AcDbEntity
  8
Layer0000
  6
Continuous
 62
     3
370
    25
100
AcDbLine
 10
-502.5595084087976
 20
-111.3969669937556
 30
0.0
 11
-502.5595084087976
 21
-120.3969669937556
 31
0.0
  0
LINE
  5
2D6
330
1F
100
AcDbEntity
  8
Layer0000
  6
Continuous
 62
     3
370
    25
100
AcDbLine
 10
-502.5595084087976
 20
-119.3969669937556
 30
0.0
 11
-503.0595084087976
 21
-119.8969669937556
 31
0.0
  0
LINE
  5
2D7
330
1F
100
AcDbEntity
  8
Layer0000
  6
Continuous
 62
     3
370
    25
100
AcDbLine
 10
-502.725533812582
 20
-111.5969669937556
 30
0.0
 11
-502.5595084087976
 21
-111.8845314284572
 31
0.0
  0
LINE
  5
2D8
330
1F
100
AcDbEntity
  8
Layer0000
  6
Continuous
 62
     3
370
    25
100
AcDbLine
 10
-501.3595084087976
 20
-110.2309415899711
 30
0.0
 11
-501.0719439740959
 21
-110.3969669937556
 31
0.0
  0
ARC
  5
2D9
330
1F
100
AcDbEntity
  8
Layer0000
  6
Continuous
 62
     3
370
    25
100
AcDbCircle
 10
-501.8595084087976
 20
-111.0969669937556
 30
0.0
 40
1.0
100
AcDbArc
 50
60.0000000000035
 51
210.0000000000001
  0
LINE
  5
2DA
330
1F
100
AcDbEntity
  8
Layer0000
  6
Continuous
 62
     3
370
    25
100
AcDbLine
 10
-529.5595084087977
 20
-55.89696699375558
 30
0.0
 11
-530.0595084087977
 21
-55.39696699375558
 31
0.0
  0
LINE
  5
2DB
330
1F
100
AcDbEntity
  8
Layer0000
  6
Continuous
 62
     3
370
    25
100
AcDbLine
 10
-513.0595084087977
 20
-55.39696699375558
 30
0.0
 11
-513.5595084087977
 21
-55.89696699375558
 31
0.0
  0
LINE
  5
2DC
330
1F
100
AcDbEntity
  8
Layer0000
  6
Continuous
 62
     3
370
    25
100
AcDbLine
 10
-559.5595084087977
 20
-110.3969669937556
 30
0.0
 11
-560.5595084087977
 21
-109.3969669937556
 31
0.0
  0
LINE
  5
2DD
330
1F
100
AcDbEntity
  8
Layer0000
  6
Continuous
 62
     3
370
    25
100
AcDbLine
 10
-560.5595084087977
 20
-56.39696699375558
 30
0.0
 11
-559.5595084087977
 21
-55.39696699375558
 31
0.0
  0
LINE
  5
2DE
330
1F
100
AcDbEntity
  8
Layer0000
  6
Continuous
 62
     3
370
    25
100
AcDbLine
 10
-474.0595084087976
 20
-55.39696699375558
 30
0.0
 11
-473.5595084087976
 21
-55.89696699375558
 31
0.0
  0
LINE
  5
2DF
330
1F
100
AcDbEntity
  8
Layer0000
  6
Continuous
 62
     3
370
    25
100
AcDbLine
 10
-474.2595084087977
 20
-110.3969669937556
 30
0.0
 11
-473.7595084087977
 21
-109.8969669937556
 31
0.0
  0
LINE
  5
2E0
330
1F
100
AcDbEntity
  8
Layer0000
  6
Continuous
 62
     3
370
    25
100
AcDbLine
 10
-502.5595084087976
 20
-111.3969669937556
 30
0.0
 11
-501.5595084087976
 21
-110.3969669937556
 31
0.0
  0
LINE
  5
2E1
330
1F
100
AcDbEntity
  8
Layer0000
  6
Continuous
 62
     3
370
    25
100
AcDbLine
 10
-523.5595084087977
 20
-110.3969669937556
 30
0.0
 11
-522.5595084087977
 21
-111.3969669937556
 31
0.0
  0
CIRCLE
  5
2E2
330
1F
100
AcDbEntity
  8
Layer0000
  6
Continuous
 62
     3
370
    25
100
AcDbCircle
 10
-520.5595084087977
 20
-77.39696699375557
 30
0.0
 40
6.899999999999977
  0
LINE
  5
2E3
330
1F
100
AcDbEntity
  8
Layer0000
  6
Continuous
 62
     3
370
    25
100
AcDbLine
 10
-560.5595084087977
 20
-109.3969669937556
 30
0.0
 11
-473.7595084087977
 21
-109.3969669937556
 31
0.0
  0
LINE
  5
2E4
330
1F
100
AcDbEntity
  8
Layer0000
  6
Continuous
 62
     3
370
    25
100
AcDbLine
 10
-455.5595084087976
 20
-54.59696699375562
 30
0.0
 11
-455.5595084087976
 21
-108.3969669937556
 31
0.0
  0
LINE
  5
2E5
330
1F
100
AcDbEntity
  8
Layer0000
  6
Continuous
 62
     3
370
    25
100
AcDbLine
 10
-455.7595084087976
 20
-54.39696699375558
 30
0.0
 11
-472.5595084087976
 21
-54.39696699375558
 31
0.0
  0
LINE
  5
2E6
330
1F
100
AcDbEntity
  8
Layer0000
  6
Continuous
 62
     3
370
    25
100
AcDbLine
 10
-473.5595084087976
 20
-55.39696699375558
 30
0.0
 11
-472.5595084087976
 21
-54.39696699375558
 31
0.0
  0
LINE
  5
2E7
330
1F
100
AcDbEntity
  8
Layer0000
  6
Continuous
 62
     3
370
    25
100
AcDbLine
 10
-472.5595084087976
 20
-110.3969669937556
 30
0.0
 11
-473.5595084087976
 21
-109.3969669937556
 31
0.0
  0
LINE
  5
2E8
330
1F
100
AcDbEntity
  8
Layer0000
  6
Continuous
 62
     3
370
    25
100
AcDbLine
 10
59.44049159120237
 20
-178.3969669937556
 30
0.0
 11
-560.5595084087977
 21
-178.3969669937556
 31
0.0
  0
LINE
  5
2E9
330
1F
100
AcDbEntity
  8
Layer0000
  6
Continuous
 62
     3
370
    25
100
AcDbLine
 10
59.44049159120237
 20
-125.3969669937556
 30
0.0
 11
59.44049159120237
 21
-199.3969669937556
 31
0.0
  0
LINE
  5
2EA
330
1F
100
AcDbEntity
  8
Layer0000
  6
Continuous
 62
     3
370
    25
100
AcDbLine
 10
-389.0595084087976
 20
-208.3969669937556
 30
0.0
 11
-372.0595084087976
 21
-208.3969669937556
 31
0.0
  0
LINE
  5
2EB
330
1F
100
AcDbEntity
  8
Layer0000
  6
Continuous
 62
     3
370
    25
100
AcDbLine
 10
-371.5595084087976
 20
-207.8969669937556
 30
0.0
 11
-372.0595084087976
 21
-208.3969669937556
 31
0.0
  0
LINE
  5
2EC
330
1F
100
AcDbEntity
  8
Layer0000
  6
Continuous
 62
     3
370
    25
100
AcDbLine
 10
-389.5595084087976
 20
-207.8969669937556
 30
0.0
 11
-389.0595084087976
 21
-208.3969669937556
 31
0.0
  0
LINE
  5
2ED
330
1F
100
AcDbEntity
  8
Layer0000
  6
Continuous
 62
     3
370
    25
100
AcDbLine
 10
-389.5595084087976
 20
-196.8969669937556
 30
0.0
 11
-389.0595084087976
 21
-196.3969669937556
 31
0.0
  0
LINE
  5
2EE
330
1F
100
AcDbEntity
  8
Layer0000
  6
Continuous
 62
     3
370
    25
100
AcDbLine
 10
-372.0595084087976
 20
-196.3969669937556
 30
0.0
 11
-371.5595084087976
 21
-196.8969669937556
 31
0.0
  0
LINE
  5
2EF
330
1F
100
AcDbEntity
  8
Layer0000
  6
Continuous
 62
     3
370
    25
100
AcDbLine
 10
128.7404915912024
 20
-125.3969669937556
 30
0.0
 11
-440.5595084087976
 21
-125.3969669937556
 31
0.0
  0
LINE
  5
2F0
330
1F
100
AcDbEntity
  8
Layer0000
  6
Continuous
 62
     3
370
    25
100
AcDbLine
 10
-455.7595084087976
 20
-54.39696699375558
 30
0.0
 11
-455.5595084087976
 21
-54.59696699375562
 31
0.0
  0
LINE
  5
2F1
330
1F
100
AcDbEntity
  8
Layer0000
  6
Continuous
 62
     3
370
    25
100
AcDbLine
 10
-457.5595084087976
 20
-110.3969669937556
 30
0.0
 11
-455.5595084087976
 21
-108.3969669937556
 31
0.0
  0
LINE
  5
2F2
330
1F
100
AcDbEntity
  8
Layer0000
  6
Continuous
 62
     3
370
    25
100
AcDbLine
 10
-48.75950840879761
 20
-55.3969669937558
 30
0.0
 11
-49.25950840879761
 21
-55.8969669937558
 31
0.0
  0
LINE
  5
2F3
330
1F
100
AcDbEntity
  8
Layer0000
  6
Continuous
 62
     3
370
    25
100
AcDbLine
 10
-50.25950840879761
 20
-54.39696699375558
 30
0.0
 11
-67.05950840879757
 21
-54.39696699375558
 31
0.0
  0
LINE
  5
2F4
330
1F
100
AcDbEntity
  8
Layer0000
  6
Continuous
 62
     3
370
    25
100
AcDbLine
 10
-49.25950840879761
 20
-55.39696699375558
 30
0.0
 11
-50.25950840879761
 21
-54.39696699375558
 31
0.0
  0
LINE
  5
2F5
330
1F
100
AcDbEntity
  8
Layer0000
  6
Continuous
 62
     3
370
    25
100
AcDbLine
 10
-67.05950840879757
 20
-54.39696699375558
 30
0.0
 11
-67.25950840879761
 21
-54.59696699375562
 31
0.0
  0
LINE
  5
2F6
330
1F
100
AcDbEntity
  8
Layer0000
  6
Continuous
 62
     3
370
    25
100
AcDbLine
 10
-67.25950840879761
 20
-54.59696699375562
 30
0.0
 11
-67.25950840879761
 21
-108.3969669937556
 31
0.0
  0
LINE
  5
2F7
330
1F
100
AcDbEntity
  8
Layer0000
  6
Continuous
 62
     3
370
    25
100
AcDbLine
 10
-49.25950840879761
 20
-109.3969669937556
 30
0.0
 11
-50.25950840879761
 21
-110.3969669937556
 31
0.0
  0
LINE
  5
2F8
330
1F
100
AcDbEntity
  8
Layer0000
  6
Continuous
 62
     3
370
    25
100
AcDbLine
 10
-65.25950840879761
 20
-110.3969669937556
 30
0.0
 11
-67.25950840879761
 21
-108.3969669937556
 31
0.0
  0
LINE
  5
2F9
330
1F
100
AcDbEntity
  8
Layer0000
  6
Continuous
 62
     3
370
    25
100
AcDbLine
 10
-49.25950840879761
 20
-55.39696699375558
 30
0.0
 11
-49.25950840879761
 21
-125.3969669937556
 31
0.0
  0
LINE
  5
2FA
330
1F
100
AcDbEntity
  8
Layer0000
  6
Continuous
 62
     3
370
    25
100
AcDbLine
 10
128.7404915912024
 20
-55.3969669937558
 30
0.0
 11
129.7404915912024
 21
-56.3969669937558
 31
0.0
  0
LINE
  5
2FB
330
1F
100
AcDbEntity
  8
Layer0000
  6
Continuous
 62
     3
370
    25
100
AcDbLine
 10
129.7404915912024
 20
-56.3969669937558
 30
0.0
 11
129.7404915912024
 21
-124.3969669937556
 31
0.0
  0
LINE
  5
2FC
330
1F
100
AcDbEntity
  8
Layer0000
  6
Continuous
 62
     3
370
    25
100
AcDbLine
 10
18.24049159120251
 20
-135.3969669937556
 30
0.0
 11
-48.75950840879759
 21
-135.3969669937556
 31
0.0
  0
LINE
  5
2FD
330
1F
100
AcDbEntity
  8
Layer0000
  6
Continuous
 62
     3
370
    25
100
AcDbLine
 10
18.24049159120251
 20
-135.3969669937556
 30
0.0
 11
18.74049159120251
 21
-134.8969669937556
 31
0.0
  0
LINE
  5
2FE
330
1F
100
AcDbEntity
  8
Layer0000
  6
Continuous
 62
     3
370
    25
100
AcDbLine
 10
-49.25950840879759
 20
-134.8969669937556
 30
0.0
 11
-48.75950840879759
 21
-135.3969669937556
 31
0.0
  0
LINE
  5
2FF
330
1F
100
AcDbEntity
  8
Layer0000
  6
Continuous
 62
     3
370
    25
100
AcDbLine
 10
-43.25950840879752
 20
-135.3969669937556
 30
0.0
 11
-41.52745760122868
 21
-136.3969669937556
 31
0.0
  0
LINE
  5
300
330
1F
100
AcDbEntity
  8
Layer0000
  6
Continuous
 62
     3
370
    25
100
AcDbLine
 10
-27.25950840879752
 20
-135.3969669937556
 30
0.0
 11
-28.99155921636635
 21
-136.3969669937556
 31
0.0
  0
LINE
  5
301
330
1F
100
AcDbEntity
  8
Layer0000
  6
Continuous
 62
     3
370
    25
100
AcDbLine
 10
-41.52745760122868
 20
-136.3969669937556
 30
0.0
 11
-28.99155921636635
 21
-136.3969669937556
 31
0.0
  0
LINE
  5
302
330
1F
100
AcDbEntity
  8
Layer0000
  6
Continuous
 62
     3
370
    25
100
AcDbLine
 10
-23.25950840879746
 20
-135.3969669937556
 30
0.0
 11
-21.52745760122862
 21
-136.3969669937556
 31
0.0
  0
LINE
  5
303
330
1F
100
AcDbEntity
  8
Layer0000
  6
Continuous
 62
     3
370
    25
100
AcDbLine
 10
-7.259508408797458
 20
-135.3969669937556
 30
0.0
 11
-8.991559216366298
 21
-136.3969669937556
 31
0.0
  0
LINE
  5
304
330
1F
100
AcDbEntity
  8
Layer0000
  6
Continuous
 62
     3
370
    25
100
AcDbLine
 10
-21.52745760122862
 20
-136.3969669937556
 30
0.0
 11
-8.991559216366298
 21
-136.3969669937556
 31
0.0
  0
LINE
  5
305
330
1F
100
AcDbEntity
  8
Layer0000
  6
Continuous
 62
     3
370
    25
100
AcDbLine
 10
-3.259508408797458
 20
-135.3969669937556
 30
0.0
 11
-1.527457601228619
 21
-136.3969669937556
 31
0.0
  0
LINE
  5
306
330
1F
100
AcDbEntity
  8
Layer0000
  6
Continuous
 62
     3
370
    25
100
AcDbLine
 10
12.74049159120254
 20
-135.3969669937556
 30
0.0
 11
11.0084407836337
 21
-136.3969669937556
 31
0.0
  0
LINE
  5
307
330
1F
100
AcDbEntity
  8
Layer0000
  6
Continuous
 62
     3
370
    25
100
AcDbLine
 10
-1.527457601228619
 20
-136.3969669937556
 30
0.0
 11
11.0084407836337
 21
-136.3969669937556
 31
0.0
  0
LINE
  5
308
330
1F
100
AcDbEntity
  8
Layer0000
  6
Continuous
 62
     3
370
    25
100
AcDbLine
 10
18.74049159120251
 20
-134.8969669937556
 30
0.0
 11
18.74049159120251
 21
-125.8969669937556
 31
0.0
  0
LINE
  5
309
330
1F
100
AcDbEntity
  8
Layer0000
  6
Continuous
 62
     3
370
    25
100
AcDbLine
 10
18.24049159120251
 20
-125.3969669937556
 30
0.0
 11
18.74049159120251
 21
-125.8969669937556
 31
0.0
  0
LINE
  5
30A
330
1F
100
AcDbEntity
  8
Layer0000
  6
Continuous
 62
     3
370
    25
100
AcDbLine
 10
-49.2595084087976
 20
-125.8969669937556
 30
0.0
 11
-49.25950840879759
 21
-134.8969669937556
 31
0.0
  0
LINE
  5
30B
330
1F
100
AcDbEntity
  8
Layer0000
  6
Continuous
 62
     3
370
    25
100
AcDbLine
 10
-49.2595084087976
 20
-125.8969669937556
 30
0.0
 11
-48.7595084087976
 21
-125.3969669937556
 31
0.0
  0
LINE
  5
30C
330
1F
100
AcDbEntity
  8
Layer0000
  6
Continuous
 62
     3
370
    25
100
AcDbLine
 10
150.9404915911975
 20
-101.3969669937556
 30
0.0
 11
146.9404915912
 21
-101.3969669937556
 31
0.0
  0
LINE
  5
30D
330
1F
100
AcDbEntity
  8
Layer0000
  6
Continuous
 62
     3
370
    25
100
AcDbLine
 10
150.9404915911975
 20
-79.39696699375557
 30
0.0
 11
150.9404915911975
 21
-101.3969669937556
 31
0.0
  0
LINE
  5
30E
330
1F
100
AcDbEntity
  8
Layer0000
  6
Continuous
 62
     3
370
    25
100
AcDbLine
 10
150.9404915911975
 20
-79.59696699375561
 30
0.0
 11
151.4404915911975
 21
-79.59696699375561
 31
0.0
  0
LINE
  5
30F
330
1F
100
AcDbEntity
  8
Layer0000
  6
Continuous
 62
     3
370
    25
100
AcDbLine
 10
151.4404915911975
 20
-101.3969669937556
 30
0.0
 11
151.4404915911975
 21
-79.39696699375557
 31
0.0
  0
LINE
  5
310
330
1F
100
AcDbEntity
  8
Layer0000
  6
Continuous
 62
     3
370
    25
100
AcDbLine
 10
153.9404915911975
 20
-79.39696699375557
 30
0.0
 11
153.9404915911975
 21
-101.3969669937556
 31
0.0
  0
LINE
  5
311
330
1F
100
AcDbEntity
  8
Layer0000
  6
Continuous
 62
     3
370
    25
100
AcDbLine
 10
153.9404915911975
 20
-79.59696699375561
 30
0.0
 11
154.4404915911975
 21
-79.59696699375561
 31
0.0
  0
LINE
  5
312
330
1F
100
AcDbEntity
  8
Layer0000
  6
Continuous
 62
     3
370
    25
100
AcDbLine
 10
154.4404915911975
 20
-101.3969669937556
 30
0.0
 11
154.4404915911975
 21
-79.39696699375557
 31
0.0
  0
LINE
  5
313
330
1F
100
AcDbEntity
  8
Layer0000
  6
Continuous
 62
     3
370
    25
100
AcDbLine
 10
156.9404915911975
 20
-79.39696699375557
 30
0.0
 11
156.9404915911975
 21
-101.3969669937556
 31
0.0
  0
LINE
  5
314
330
1F
100
AcDbEntity
  8
Layer0000
  6
Continuous
 62
     3
370
    25
100
AcDbLine
 10
156.9404915911975
 20
-79.59696699375561
 30
0.0
 11
157.4404915911975
 21
-79.59696699375561
 31
0.0
  0
LINE
  5
315
330
1F
100
AcDbEntity
  8
Layer0000
  6
Continuous
 62
     3
370
    25
100
AcDbLine
 10
157.4404915911975
 20
-101.3969669937556
 30
0.0
 11
157.4404915911975
 21
-79.39696699375557
 31
0.0
  0
LINE
  5
316
330
1F
100
AcDbEntity
  8
Layer0000
  6
Continuous
 62
     3
370
    25
100
AcDbLine
 10
151.4404915911975
 20
-79.39696699375557
 30
0.0
 11
153.9404915911975
 21
-79.39696699375557
 31
0.0
  0
LINE
  5
317
330
1F
100
AcDbEntity
  8
Layer0000
  6
Continuous
 62
     3
370
    25
100
AcDbLine
 10
154.4404915911975
 20
-79.39696699375557
 30
0.0
 11
156.9404915911975
 21
-79.39696699375557
 31
0.0
  0
LINE
  5
318
330
1F
100
AcDbEntity
  8
Layer0000
  6
Continuous
 62
     3
370
    25
100
AcDbLine
 10
157.4404915911975
 20
-79.39696699375557
 30
0.0
 11
166.5744661874177
 21
-79.39696699375557
 31
0.0
  0
LINE
  5
319
330
1F
100
AcDbEntity
  8
Layer0000
  6
Continuous
 62
     3
370
    25
100
AcDbLine
 10
150.9404915911975
 20
-101.1969669937555
 30
0.0
 11
151.4404915911975
 21
-101.1969669937555
 31
0.0
  0
LINE
  5
31A
330
1F
100
AcDbEntity
  8
Layer0000
  6
Continuous
 62
     3
370
    25
100
AcDbLine
 10
153.9404915911975
 20
-101.1969669937555
 30
0.0
 11
154.4404915911975
 21
-101.1969669937555
 31
0.0
  0
LINE
  5
31B
330
1F
100
AcDbEntity
  8
Layer0000
  6
Continuous
 62
     3
370
    25
100
AcDbLine
 10
156.9404915911975
 20
-101.1969669937555
 30
0.0
 11
157.4404915911975
 21
-101.1969669937555
 31
0.0
  0
LINE
  5
31C
330
1F
100
AcDbEntity
  8
Layer0000
  6
Continuous
 62
     3
370
    25
100
AcDbLine
 10
151.4404915911975
 20
-101.3969669937556
 30
0.0
 11
153.9404915911975
 21
-101.3969669937556
 31
0.0
  0
LINE
  5
31D
330
1F
100
AcDbEntity
  8
Layer0000
  6
Continuous
 62
     3
370
    25
100
AcDbLine
 10
154.4404915911975
 20
-101.3969669937556
 30
0.0
 11
156.9404915911975
 21
-101.3969669937556
 31
0.0
  0
LINE
  5
31E
330
1F
100
AcDbEntity
  8
Layer0000
  6
Continuous
 62
     3
370
    25
100
AcDbLine
 10
157.4404915911975
 20
-101.3969669937556
 30
0.0
 11
166.5744661874173
 21
-101.3969669937556
 31
0.0
  0
LINE
  5
31F
330
1F
100
AcDbEntity
  8
Layer0000
  6
Continuous
 62
     3
370
    25
100
AcDbLine
 10
150.9404915911975
 20
-79.39696699375557
 30
0.0
 11
146.9404915912
 21
-79.39696699375557
 31
0.0
  0
LINE
  5
320
330
1F
100
AcDbEntity
  8
Layer0000
  6
Continuous
 62
     3
370
    25
100
AcDbLine
 10
129.7404915912024
 20
-72.39696699375557
 30
0.0
 11
145.4404915912
 21
-72.39696699375557
 31
0.0
  0
LINE
  5
321
330
1F
100
AcDbEntity
  8
Layer0000
  6
Continuous
 62
     3
370
    25
100
AcDbLine
 10
129.7404915912024
 20
-108.3969669937565
 30
0.0
 11
145.4404915911985
 21
-108.3969669937572
 31
0.0
  0
LINE
  5
322
330
1F
100
AcDbEntity
  8
Layer0000
  6
Continuous
 62
     3
370
    25
100
AcDbLine
 10
146.9404915912
 20
-106.8969669937556
 30
0.0
 11
145.4404915912
 21
-108.3969669937556
 31
0.0
  0
LINE
  5
323
330
1F
100
AcDbEntity
  8
Layer0000
  6
Continuous
 62
     3
370
    25
100
AcDbLine
 10
146.9404915912
 20
-106.8969669937556
 30
0.0
 11
146.9404915912
 21
-73.89696699375557
 31
0.0
  0
LINE
  5
324
330
1F
100
AcDbEntity
  8
Layer0000
  6
Continuous
 62
     3
370
    25
100
AcDbLine
 10
146.9404915912
 20
-74.52499609612985
 30
0.0
 11
145.4404915912
 21
-72.39696699375557
 31
0.0
  0
LINE
  5
325
330
1F
100
AcDbEntity
  8
Layer0000
  6
Continuous
 62
     3
370
    25
100
AcDbLine
 10
145.4404915912
 20
-72.39696699375557
 30
0.0
 11
146.9404915912
 21
-73.89696699375557
 31
0.0
  0
LINE
  5
326
330
1F
100
AcDbEntity
  8
Layer0000
  6
Continuous
 62
     3
370
    25
100
AcDbLine
 10
145.4404915912
 20
-98.64317824499065
 30
0.0
 11
146.9404915912
 21
-94.42809586790489
 31
0.0
  0
LINE
  5
327
330
1F
100
AcDbEntity
  8
Layer0000
  6
Continuous
 62
     3
370
    25
100
AcDbLine
 10
145.4404915912
 20
-82.15075574252049
 30
0.0
 11
146.9404915911905
 21
-86.36583811960625
 31
0.0
  0
LINE
  5
328
330
1F
100
AcDbEntity
  8
Layer0000
  6
Continuous
 62
     3
370
    25
100
AcDbLine
 10
145.4404915912
 20
-100.1302678286891
 30
0.0
 11
145.4404915912
 21
-98.64317824499065
 31
0.0
  0
LINE
  5
329
330
1F
100
AcDbEntity
  8
Layer0000
  6
Continuous
 62
     3
370
    25
100
AcDbLine
 10
145.4404915912
 20
-82.15075574252049
 30
0.0
 11
145.4404915912
 21
-80.66366615882205
 31
0.0
  0
LINE
  5
32A
330
1F
100
AcDbEntity
  8
Layer0000
  6
Continuous
 62
     3
370
    25
100
AcDbLine
 10
146.9404915912
 20
-102.237809017232
 30
0.0
 11
145.4404915912
 21
-100.1302678286891
 31
0.0
  0
LINE
  5
32B
330
1F
100
AcDbEntity
  8
Layer0000
  6
Continuous
 62
     3
370
    25
100
AcDbLine
 10
146.94049159119
 20
-78.55612497027917
 30
0.0
 11
145.4404915912
 21
-80.66366615882205
 31
0.0
  0
LINE
  5
32C
330
1F
100
AcDbEntity
  8
Layer0000
  6
Continuous
 62
     3
370
    25
100
AcDbLine
 10
145.4404915912
 20
-82.15075574252049
 30
0.0
 11
131.9404915911985
 21
-82.15075574252049
 31
0.0
  0
LINE
  5
32D
330
1F
100
AcDbEntity
  8
Layer0000
  6
Continuous
 62
     3
370
    25
100
AcDbLine
 10
145.4404915912
 20
-80.66366615882205
 30
0.0
 11
131.9404915911985
 21
-80.66366615882205
 31
0.0
  0
LINE
  5
32E
330
1F
100
AcDbEntity
  8
Layer0000
  6
Continuous
 62
     3
370
    25
100
AcDbLine
 10
145.4404915912
 20
-98.64317824499065
 30
0.0
 11
131.9404915911985
 21
-98.64317824499065
 31
0.0
  0
LINE
  5
32F
330
1F
100
AcDbEntity
  8
Layer0000
  6
Continuous
 62
     3
370
    25
100
AcDbLine
 10
145.4404915912
 20
-100.1302678286891
 30
0.0
 11
131.9404915911985
 21
-100.1302678286891
 31
0.0
  0
LINE
  5
330
330
1F
100
AcDbEntity
  8
Layer0000
  6
Continuous
 62
     3
370
    25
100
AcDbLine
 10
131.9404915911985
 20
-82.15075574252049
 30
0.0
 11
131.9404915911985
 21
-98.64317824499065
 31
0.0
  0
LINE
  5
331
330
1F
100
AcDbEntity
  8
Layer0000
  6
Continuous
 62
     3
370
    25
100
AcDbLine
 10
146.9404915911918
 20
-106.2689378913813
 30
0.0
 11
145.4404915912
 21
-108.3969669937556
 31
0.0
  0
LINE
  5
332
330
1F
100
AcDbEntity
  8
Layer0000
  6
Continuous
 62
     3
370
    25
100
AcDbLine
 10
131.9404915911995
 20
-108.3969669937556
 30
0.0
 11
131.9404915911985
 21
-100.1302678286891
 31
0.0
  0
LINE
  5
333
330
1F
100
AcDbEntity
  8
Layer0000
  6
Continuous
 62
     3
370
    25
100
AcDbLine
 10
131.9404915911984
 20
-72.39696699375557
 30
0.0
 11
131.9404915911985
 21
-80.66366615882205
 31
0.0
  0
LINE
  5
334
330
1F
100
AcDbEntity
  8
Layer0000
  6
Continuous
 62
     3
370
    25
100
AcDbLine
 10
167.4404915912026
 20
-79.89696699375557
 30
0.0
 11
167.4404915912026
 21
-100.8969669937556
 31
0.0
  0
LINE
  5
335
330
1F
100
AcDbEntity
  8
Layer0000
  6
Continuous
 62
     3
370
    25
100
AcDbLine
 10
166.5744661874218
 20
-79.39696699375557
 30
0.0
 11
166.5744661874218
 21
-101.3969669937556
 31
0.0
  0
LINE
  5
336
330
1F
100
AcDbEntity
  8
Layer0000
  6
Continuous
 62
     3
370
    25
100
AcDbLine
 10
167.4404915912027
 20
-79.89696699375557
 30
0.0
 11
183.440491591204
 21
-79.89696699375557
 31
0.0
  0
LINE
  5
337
330
1F
100
AcDbEntity
  8
Layer0000
  6
Continuous
 62
     3
370
    25
100
AcDbLine
 10
167.4404915912026
 20
-100.8969669937556
 30
0.0
 11
183.440491591204
 21
-100.8969669937556
 31
0.0
  0
LINE
  5
338
330
1F
100
AcDbEntity
  8
Layer0000
  6
Continuous
 62
     3
370
    25
100
AcDbLine
 10
184.440491591204
 20
-80.89696699375557
 30
0.0
 11
184.440491591204
 21
-99.89696699375557
 31
0.0
  0
LINE
  5
339
330
1F
100
AcDbEntity
  8
Layer0000
  6
Continuous
 62
     3
370
    25
100
AcDbLine
 10
183.440491591204
 20
-100.8969669937556
 30
0.0
 11
184.440491591204
 21
-99.89696699375557
 31
0.0
  0
LINE
  5
33A
330
1F
100
AcDbEntity
  8
Layer0000
  6
Continuous
 62
     3
370
    25
100
AcDbLine
 10
183.440491591204
 20
-79.89696699375557
 30
0.0
 11
184.440491591204
 21
-80.89696699375557
 31
0.0
  0
LINE
  5
33B
330
1F
100
AcDbEntity
  8
Layer0000
  6
Continuous
 62
     3
370
    25
100
AcDbLine
 10
167.4404915912026
 20
-85.92483103875591
 30
0.0
 11
183.440491591204
 21
-85.92483103875591
 31
0.0
  0
LINE
  5
33C
330
1F
100
AcDbEntity
  8
Layer0000
  6
Continuous
 62
     3
370
    25
100
AcDbLine
 10
167.4404915912026
 20
-84.40579363530313
 30
0.0
 11
183.440491591204
 21
-84.40579363530313
 31
0.0
  0
LINE
  5
33D
330
1F
100
AcDbEntity
  8
Layer0000
  6
Continuous
 62
     3
370
    25
100
AcDbLine
 10
167.4404915912026
 20
-96.38814035220801
 30
0.0
 11
183.440491591204
 21
-96.38814035220801
 31
0.0
  0
LINE
  5
33E
330
1F
100
AcDbEntity
  8
Layer0000
  6
Continuous
 62
     3
370
    25
100
AcDbLine
 10
183.440491591204
 20
-94.869102948755
 30
0.0
 11
167.4404915912026
 21
-94.869102948755
 31
0.0
  0
LINE
  5
33F
330
1F
100
AcDbEntity
  8
Layer0000
  6
Continuous
 62
     3
370
    25
100
AcDbLine
 10
183.440491591204
 20
-84.40579363530313
 30
0.0
 11
183.440491591204
 21
-85.92483103875591
 31
0.0
  0
LINE
  5
340
330
1F
100
AcDbEntity
  8
Layer0000
  6
Continuous
 62
     3
370
    25
100
AcDbLine
 10
183.440491591204
 20
-94.869102948755
 30
0.0
 11
183.440491591204
 21
-96.38814035220801
 31
0.0
  0
ARC
  5
341
330
1F
100
AcDbEntity
  8
Layer0000
  6
Continuous
 62
     3
370
    25
100
AcDbCircle
 10
173.9404915912045
 20
-90.39696699375557
 30
0.0
 40
10.49999999999956
100
AcDbArc
 50
334.7912347032412
 51
25.20876529675892
  0
ARC
  5
342
330
1F
100
AcDbEntity
  8
Layer0000
  6
Continuous
 62
     3
370
    25
100
AcDbCircle
 10
181.3993018807648
 20
-82.15138031452855
 30
0.0
 40
3.041189710439299
100
AcDbArc
 50
312.1583048916353
 51
42.1583048916778
  0
ARC
  5
343
330
1F
100
AcDbEntity
  8
Layer0000
  6
Continuous
 62
     3
370
    25
100
AcDbCircle
 10
181.3993018807648
 20
-98.64255367298259
 30
0.0
 40
3.041189710439299
100
AcDbArc
 50
317.8416951083222
 51
47.84169510836464
  0
LINE
  5
344
330
1F
100
AcDbEntity
  8
Layer0000
  6
Continuous
 62
     3
370
    25
100
AcDbLine
 10
166.5744661874177
 20
-79.39696699375557
 30
0.0
 11
167.4404915912016
 21
-79.89696699375534
 31
0.0
  0
LINE
  5
345
330
1F
100
AcDbEntity
  8
Layer0000
  6
Continuous
 62
     3
370
    25
100
AcDbLine
 10
166.5744661874218
 20
-101.3969669937531
 30
0.0
 11
167.440491591201
 21
-100.896966993756
 31
0.0
  0
LINE
  5
346
330
1F
100
AcDbEntity
  8
Layer0000
  6
Continuous
 62
     3
370
    25
100
AcDbLine
 10
128.7404915912024
 20
-125.3969669937556
 30
0.0
 11
129.7404915912024
 21
-124.3969669937556
 31
0.0
  0
LINE
  5
347
330
1F
100
AcDbEntity
  8
Layer0000
  6
Continuous
 62
     3
370
    25
100
AcDbLine
 10
6.740491591202243
 20
-55.8969669937558
 30
0.0
 11
6.740491591202243
 21
-59.8969669937558
 31
0.0
  0
LINE
  5
348
330
1F
100
AcDbEntity
  8
Layer0000
  6
Continuous
 62
     3
370
    25
100
AcDbLine
 10
-9.259508408797771
 20
-55.8969669937558
 30
0.0
 11
-9.259508408797771
 21
-59.8969669937558
 31
0.0
  0
LINE
  5
349
330
1F
100
AcDbEntity
  8
Layer0000
  6
Continuous
 62
     3
370
    25
100
AcDbLine
 10
6.740491591202243
 20
-59.8969669937558
 30
0.0
 11
-9.259508408797771
 21
-59.8969669937558
 31
0.0
  0
LINE
  5
34A
330
1F
100
AcDbEntity
  8
Layer0000
  6
Continuous
 62
     3
370
    25
100
AcDbLine
 10
7.240491591202257
 20
-55.3969669937558
 30
0.0
 11
6.740491591202257
 21
-55.8969669937558
 31
0.0
  0
LINE
  5
34B
330
1F
100
AcDbEntity
  8
Layer0000
  6
Continuous
 62
     3
370
    25
100
AcDbLine
 10
-9.759508408797771
 20
-55.3969669937558
 30
0.0
 11
-9.259508408797771
 21
-55.8969669937558
 31
0.0
  0
LINE
  5
34C
330
1F
100
AcDbEntity
  8
Layer0000
  6
Continuous
 62
     3
370
    25
100
AcDbLine
 10
104.7404915912024
 20
-55.8969669937558
 30
0.0
 11
104.7404915912024
 21
-59.8969669937558
 31
0.0
  0
LINE
  5
34D
330
1F
100
AcDbEntity
  8
Layer0000
  6
Continuous
 62
     3
370
    25
100
AcDbLine
 10
88.74049159120233
 20
-55.8969669937558
 30
0.0
 11
88.74049159120233
 21
-59.8969669937558
 31
0.0
  0
LINE
  5
34E
330
1F
100
AcDbEntity
  8
Layer0000
  6
Continuous
 62
     3
370
    25
100
AcDbLine
 10
104.7404915912024
 20
-59.8969669937558
 30
0.0
 11
88.74049159120233
 21
-59.8969669937558
 31
0.0
  0
LINE
  5
34F
330
1F
100
AcDbEntity
  8
Layer0000
  6
Continuous
 62
     3
370
    25
100
AcDbLine
 10
105.2404915912024
 20
-55.3969669937558
 30
0.0
 11
104.7404915912024
 21
-55.8969669937558
 31
0.0
  0
LINE
  5
350
330
1F
100
AcDbEntity
  8
Layer0000
  6
Continuous
 62
     3
370
    25
100
AcDbLine
 10
88.24049159120233
 20
-55.3969669937558
 30
0.0
 11
88.74049159120233
 21
-55.8969669937558
 31
0.0
  0
LINE
  5
351
330
1F
100
AcDbEntity
  8
Layer0000
  6
Continuous
 62
     3
370
    25
100
AcDbLine
 10
-48.75950840879761
 20
-55.3969669937558
 30
0.0
 11
128.7404915912024
 21
-55.3969669937558
 31
0.0
  0
LINE
  5
352
330
1F
100
AcDbEntity
  8
Layer0000
  6
Continuous
 62
     3
370
    25
100
AcDbLine
 10
-560.5595084087977
 20
-127.8969669937556
 30
0.0
 11
-49.2595084087976
 21
-127.8969669937556
 31
0.0
  0
LINE
  5
353
330
1F
100
AcDbEntity
  8
Layer0000
  6
Continuous
 62
     3
370
    25
100
AcDbLine
 10
18.74049159120251
 20
-127.8969669937556
 30
0.0
 11
59.44049159120237
 21
-127.8969669937556
 31
0.0
  0
LINE
  5
354
330
1F
100
AcDbEntity
  8
Layer0000
  6
Continuous
 62
     3
370
    25
100
AcDbLine
 10
150.9404915911976
 20
298.2792289610729
 30
0.0
 11
146.9404915912001
 21
298.2792289610729
 31
0.0
  0
LINE
  5
355
330
1F
100
AcDbEntity
  8
Layer0000
  6
Continuous
 62
     3
370
    25
100
AcDbLine
 10
150.9404915911976
 20
320.2792289610729
 30
0.0
 11
146.9404915912001
 21
320.2792289610729
 31
0.0
  0
LINE
  5
356
330
1F
100
AcDbEntity
  8
Layer0000
  6
Continuous
 62
     3
370
    25
100
AcDbLine
 10
129.7404915912026
 20
387.7792289610729
 30
0.0
 11
129.7404915912026
 21
230.779228961073
 31
0.0
  0
LINE
  5
357
330
1F
100
AcDbEntity
  8
Layer0000
  6
Continuous
 62
     3
370
    25
100
AcDbLine
 10
150.9404915911976
 20
320.2792289610729
 30
0.0
 11
150.9404915911976
 21
298.2792289610729
 31
0.0
  0
LINE
  5
358
330
1F
100
AcDbEntity
  8
Layer0000
  6
Continuous
 62
     3
370
    25
100
AcDbLine
 10
150.9404915911976
 20
320.0792289610729
 30
0.0
 11
151.4404915911976
 21
320.0792289610729
 31
0.0
  0
LINE
  5
359
330
1F
100
AcDbEntity
  8
Layer0000
  6
Continuous
 62
     3
370
    25
100
AcDbLine
 10
151.4404915911976
 20
298.2792289610729
 30
0.0
 11
151.4404915911976
 21
320.2792289610729
 31
0.0
  0
LINE
  5
35A
330
1F
100
AcDbEntity
  8
Layer0000
  6
Continuous
 62
     3
370
    25
100
AcDbLine
 10
153.9404915911976
 20
320.2792289610729
 30
0.0
 11
153.9404915911976
 21
298.2792289610729
 31
0.0
  0
LINE
  5
35B
330
1F
100
AcDbEntity
  8
Layer0000
  6
Continuous
 62
     3
370
    25
100
AcDbLine
 10
153.9404915911976
 20
320.0792289610729
 30
0.0
 11
154.4404915911976
 21
320.0792289610729
 31
0.0
  0
LINE
  5
35C
330
1F
100
AcDbEntity
  8
Layer0000
  6
Continuous
 62
     3
370
    25
100
AcDbLine
 10
154.4404915911976
 20
298.2792289610729
 30
0.0
 11
154.4404915911976
 21
320.2792289610729
 31
0.0
  0
LINE
  5
35D
330
1F
100
AcDbEntity
  8
Layer0000
  6
Continuous
 62
     3
370
    25
100
AcDbLine
 10
156.9404915911976
 20
320.2792289610729
 30
0.0
 11
156.9404915911976
 21
298.2792289610729
 31
0.0
  0
LINE
  5
35E
330
1F
100
AcDbEntity
  8
Layer0000
  6
Continuous
 62
     3
370
    25
100
AcDbLine
 10
156.9404915911976
 20
320.0792289610729
 30
0.0
 11
157.4404915911976
 21
320.0792289610729
 31
0.0
  0
LINE
  5
35F
330
1F
100
AcDbEntity
  8
Layer0000
  6
Continuous
 62
     3
370
    25
100
AcDbLine
 10
157.4404915911976
 20
298.2792289610729
 30
0.0
 11
157.4404915911976
 21
320.2792289610729
 31
0.0
  0
LINE
  5
360
330
1F
100
AcDbEntity
  8
Layer0000
  6
Continuous
 62
     3
370
    25
100
AcDbLine
 10
151.4404915911976
 20
320.2792289610729
 30
0.0
 11
153.9404915911976
 21
320.2792289610729
 31
0.0
  0
LINE
  5
361
330
1F
100
AcDbEntity
  8
Layer0000
  6
Continuous
 62
     3
370
    25
100
AcDbLine
 10
154.4404915911976
 20
320.2792289610729
 30
0.0
 11
156.9404915911976
 21
320.2792289610729
 31
0.0
  0
LINE
  5
362
330
1F
100
AcDbEntity
  8
Layer0000
  6
Continuous
 62
     3
370
    25
100
AcDbLine
 10
157.4404915911976
 20
320.2792289610729
 30
0.0
 11
166.5744661874176
 21
320.2792289610729
 31
0.0
  0
LINE
  5
363
330
1F
100
AcDbEntity
  8
Layer0000
  6
Continuous
 62
     3
370
    25
100
AcDbLine
 10
150.9404915911976
 20
298.479228961073
 30
0.0
 11
151.4404915911976
 21
298.479228961073
 31
0.0
  0
LINE
  5
364
330
1F
100
AcDbEntity
  8
Layer0000
  6
Continuous
 62
     3
370
    25
100
AcDbLine
 10
153.9404915911976
 20
298.479228961073
 30
0.0
 11
154.4404915911976
 21
298.479228961073
 31
0.0
  0
LINE
  5
365
330
1F
100
AcDbEntity
  8
Layer0000
  6
Continuous
 62
     3
370
    25
100
AcDbLine
 10
156.9404915911976
 20
298.479228961073
 30
0.0
 11
157.4404915911976
 21
298.479228961073
 31
0.0
  0
LINE
  5
366
330
1F
100
AcDbEntity
  8
Layer0000
  6
Continuous
 62
     3
370
    25
100
AcDbLine
 10
151.4404915911976
 20
298.2792289610729
 30
0.0
 11
153.9404915911976
 21
298.2792289610729
 31
0.0
  0
LINE
  5
367
330
1F
100
AcDbEntity
  8
Layer0000
  6
Continuous
 62
     3
370
    25
100
AcDbLine
 10
154.4404915911976
 20
298.2792289610729
 30
0.0
 11
156.9404915911976
 21
298.2792289610729
 31
0.0
  0
LINE
  5
368
330
1F
100
AcDbEntity
  8
Layer0000
  6
Continuous
 62
     3
370
    25
100
AcDbLine
 10
157.4404915911976
 20
298.2792289610729
 30
0.0
 11
166.5744661874174
 21
298.2792289610729
 31
0.0
  0
LINE
  5
369
330
1F
100
AcDbEntity
  8
Layer0000
  6
Continuous
 62
     3
370
    25
100
AcDbLine
 10
167.4404915912026
 20
319.7792289610729
 30
0.0
 11
167.4404915912026
 21
298.7792289610729
 31
0.0
  0
LINE
  5
36A
330
1F
100
AcDbEntity
  8
Layer0000
  6
Continuous
 62
     3
370
    25
100
AcDbLine
 10
-49.25950840879764
 20
388.2792289610729
 30
0.0
 11
-49.25950840879764
 21
230.279228961073
 31
0.0
  0
LINE
  5
36B
330
1F
100
AcDbEntity
  8
Layer0000
  6
Continuous
 62
     3
370
    25
100
AcDbLine
 10
-67.25950840879764
 20
229.479228961073
 30
0.0
 11
-67.25950840879764
 21
389.0792289610729
 31
0.0
  0
LINE
  5
36C
330
1F
100
AcDbEntity
  8
Layer0000
  6
Continuous
 62
     3
370
    25
100
AcDbLine
 10
-50.25950840879764
 20
229.279228961073
 30
0.0
 11
-49.25950840879764
 21
230.279228961073
 31
0.0
  0
LINE
  5
36D
330
1F
100
AcDbEntity
  8
Layer0000
  6
Continuous
 62
     3
370
    25
100
AcDbLine
 10
-50.25950840879764
 20
389.2792289610729
 30
0.0
 11
-49.25950840879764
 21
388.2792289610729
 31
0.0
  0
LINE
  5
36E
330
1F
100
AcDbEntity
  8
Layer0000
  6
Continuous
 62
     3
370
    25
100
AcDbLine
 10
128.7404915912026
 20
388.7792289610729
 30
0.0
 11
129.7404915912026
 21
387.7792289610729
 31
0.0
  0
LINE
  5
36F
330
1F
100
AcDbEntity
  8
Layer0000
  6
Continuous
 62
     3
370
    25
100
AcDbLine
 10
-49.25950840879764
 20
387.7792289610729
 30
0.0
 11
-48.25950840879764
 21
388.7792289610729
 31
0.0
  0
LINE
  5
370
330
1F
100
AcDbEntity
  8
Layer0000
  6
Continuous
 62
     3
370
    25
100
AcDbLine
 10
-49.25950840879764
 20
230.779228961073
 30
0.0
 11
-48.25950840879764
 21
229.779228961073
 31
0.0
  0
LINE
  5
371
330
1F
100
AcDbEntity
  8
Layer0000
  6
Continuous
 62
     3
370
    25
100
AcDbLine
 10
166.5744661874176
 20
320.2792289610729
 30
0.0
 11
166.5744661874176
 21
298.2792289610729
 31
0.0
  0
LINE
  5
372
330
1F
100
AcDbEntity
  8
Layer0000
  6
Continuous
 62
     3
370
    25
100
AcDbLine
 10
-105.5595084087977
 20
334.2792289610729
 30
0.0
 11
-105.5595084087977
 21
284.2792289610729
 31
0.0
  0
LINE
  5
373
330
1F
100
AcDbEntity
  8
Layer0000
  6
Continuous
 62
     3
370
    25
100
AcDbLine
 10
-91.70310194824661
 20
334.2792289610729
 30
0.0
 11
-91.70310194824661
 21
284.2792289610729
 31
0.0
  0
ARC
  5
374
330
1F
100
AcDbEntity
  8
Layer0000
  6
Continuous
 62
     3
370
    25
100
AcDbCircle
 10
-100.5595084087977
 20
334.2792289610729
 30
0.0
 40
5.0
100
AcDbArc
 50
90.0
 51
180.0
  0
ARC
  5
375
330
1F
100
AcDbEntity
  8
Layer0000
  6
Continuous
 62
     3
370
    25
100
AcDbCircle
 10
-100.5595084087977
 20
284.2792289610729
 30
0.0
 40
5.0
100
AcDbArc
 50
180.0
 51
270.0
  0
LINE
  5
376
330
1F
100
AcDbEntity
  8
Layer0000
  6
Continuous
 62
     3
370
    25
100
AcDbLine
 10
-455.5595084087976
 20
339.2792289610729
 30
0.0
 11
-67.25950840879764
 21
339.2792289610729
 31
0.0
  0
LINE
  5
377
330
1F
100
AcDbEntity
  8
Layer0000
  6
Continuous
 62
     3
370
    25
100
AcDbLine
 10
-455.5595084087976
 20
279.2792289610729
 30
0.0
 11
-67.25950840879764
 21
279.2792289610729
 31
0.0
  0
LINE
  5
378
330
1F
100
AcDbEntity
  8
Layer0000
  6
Continuous
 62
     3
370
    25
100
AcDbLine
 10
-559.5595084087977
 20
229.279228961073
 30
0.0
 11
-560.5595084087977
 21
230.279228961073
 31
0.0
  0
LINE
  5
379
330
1F
100
AcDbEntity
  8
Layer0000
  6
Continuous
 62
     3
370
    25
100
AcDbLine
 10
-560.5595084087977
 20
388.2792289610727
 30
0.0
 11
-559.5595084087977
 21
389.2792289610727
 31
0.0
  0
LINE
  5
37A
330
1F
100
AcDbEntity
  8
Layer0000
  6
Continuous
 62
     3
370
    25
100
AcDbLine
 10
-473.5595084087976
 20
388.2792289610727
 30
0.0
 11
-473.5595084087976
 21
230.279228961073
 31
0.0
  0
LINE
  5
37B
330
1F
100
AcDbEntity
  8
Layer0000
  6
Continuous
 62
     3
370
    25
100
AcDbLine
 10
-560.5595084087977
 20
230.279228961073
 30
0.0
 11
-560.5595084087977
 21
388.2792289610727
 31
0.0
  0
LINE
  5
37C
330
1F
100
AcDbEntity
  8
Layer0000
  6
Continuous
 62
     3
370
    25
100
AcDbLine
 10
-455.5595084087976
 20
389.0792289610729
 30
0.0
 11
-455.5595084087976
 21
229.479228961073
 31
0.0
  0
LINE
  5
37D
330
1F
100
AcDbEntity
  8
Layer0000
  6
Continuous
 62
     3
370
    25
100
AcDbLine
 10
-472.5595084087976
 20
229.279228961073
 30
0.0
 11
-473.5595084087976
 21
230.279228961073
 31
0.0
  0
LINE
  5
37E
330
1F
100
AcDbEntity
  8
Layer0000
  6
Continuous
 62
     3
370
    25
100
AcDbLine
 10
-472.5595084087976
 20
389.2792289610727
 30
0.0
 11
-473.5595084087976
 21
388.2792289610727
 31
0.0
  0
LINE
  5
37F
330
1F
100
AcDbEntity
  8
Layer0000
  6
Continuous
 62
     3
370
    25
100
AcDbLine
 10
-559.5595084087977
 20
389.2792289610727
 30
0.0
 11
58.44049159120237
 21
389.2792289610732
 31
0.0
  0
LINE
  5
380
330
1F
100
AcDbEntity
  8
Layer0000
  6
Continuous
 62
     3
370
    25
100
AcDbLine
 10
-559.5595084087977
 20
229.279228961073
 30
0.0
 11
58.44049159120237
 21
229.279228961073
 31
0.0
  0
LINE
  5
381
330
1F
100
AcDbEntity
  8
Layer0000
  6
Continuous
 62
     3
370
    25
100
AcDbLine
 10
-455.5595084087976
 20
246.779228961073
 30
0.0
 11
-67.25950840879764
 21
246.779228961073
 31
0.0
  0
LINE
  5
382
330
1F
100
AcDbEntity
  8
Layer0000
  6
Continuous
 62
     3
370
    25
100
AcDbLine
 10
-455.5595084087976
 20
371.7792289610729
 30
0.0
 11
-67.25950840879764
 21
371.7792289610729
 31
0.0
  0
LINE
  5
383
330
1F
100
AcDbEntity
  8
Layer0000
  6
Continuous
 62
     3
370
    25
100
AcDbLine
 10
58.84049159120232
 20
229.6792289610729
 30
0.0
 11
58.44049159120237
 21
229.279228961073
 31
0.0
  0
LINE
  5
384
330
1F
100
AcDbEntity
  8
Layer0000
  6
Continuous
 62
     3
370
    25
100
AcDbLine
 10
-560.5595084087977
 20
230.779228961073
 30
0.0
 11
-559.5595084087977
 21
229.779228961073
 31
0.0
  0
LINE
  5
385
330
1F
100
AcDbEntity
  8
Layer0000
  6
Continuous
 62
     3
370
    25
100
AcDbLine
 10
-474.5595084087976
 20
229.779228961073
 30
0.0
 11
-473.5595084087976
 21
230.779228961073
 31
0.0
  0
LINE
  5
386
330
1F
100
AcDbEntity
  8
Layer0000
  6
Continuous
 62
     3
370
    25
100
AcDbLine
 10
-560.5595084087977
 20
387.7792289610727
 30
0.0
 11
-559.5595084087977
 21
388.7792289610727
 31
0.0
  0
LINE
  5
387
330
1F
100
AcDbEntity
  8
Layer0000
  6
Continuous
 62
     3
370
    25
100
AcDbLine
 10
-474.5595084087976
 20
388.7792289610727
 30
0.0
 11
-473.5595084087976
 21
387.7792289610727
 31
0.0
  0
LINE
  5
388
330
1F
100
AcDbEntity
  8
Layer0000
  6
Continuous
 62
     3
370
    25
100
AcDbLine
 10
-455.7595084087977
 20
229.279228961073
 30
0.0
 11
-455.5595084087976
 21
229.479228961073
 31
0.0
  0
LINE
  5
389
330
1F
100
AcDbEntity
  8
Layer0000
  6
Continuous
 62
     3
370
    25
100
AcDbLine
 10
-455.7595084087977
 20
389.2792289610729
 30
0.0
 11
-455.5595084087976
 21
389.0792289610729
 31
0.0
  0
LINE
  5
38A
330
1F
100
AcDbEntity
  8
Layer0000
  6
Continuous
 62
     3
370
    25
100
AcDbLine
 10
-67.05950840879764
 20
389.2792289610729
 30
0.0
 11
-67.25950840879764
 21
389.0792289610729
 31
0.0
  0
LINE
  5
38B
330
1F
100
AcDbEntity
  8
Layer0000
  6
Continuous
 62
     3
370
    25
100
AcDbLine
 10
-67.05950840879764
 20
229.279228961073
 30
0.0
 11
-67.25950840879764
 21
229.479228961073
 31
0.0
  0
LINE
  5
38C
330
1F
100
AcDbEntity
  8
Layer0000
  6
Continuous
 62
     3
370
    25
100
AcDbLine
 10
-559.5595084087977
 20
229.779228961073
 30
0.0
 11
-474.5595084087976
 21
229.779228961073
 31
0.0
  0
LINE
  5
38D
330
1F
100
AcDbEntity
  8
Layer0000
  6
Continuous
 62
     3
370
    25
100
AcDbLine
 10
167.4404915912026
 20
318.7792289610729
 30
0.0
 11
184.4404915911999
 21
318.7792289610729
 31
0.0
  0
LINE
  5
38E
330
1F
100
AcDbEntity
  8
Layer0000
  6
Continuous
 62
     3
370
    25
100
AcDbLine
 10
167.4404915912026
 20
299.7792289610729
 30
0.0
 11
184.4404915911999
 21
299.7792289610729
 31
0.0
  0
LINE
  5
38F
330
1F
100
AcDbEntity
  8
Layer0000
  6
Continuous
 62
     3
370
    25
100
AcDbLine
 10
184.4404915911999
 20
299.7792289610729
 30
0.0
 11
184.4404915911999
 21
318.7792289610729
 31
0.0
  0
LINE
  5
390
330
1F
100
AcDbEntity
  8
Layer0000
  6
Continuous
 62
     3
370
    25
100
AcDbLine
 10
167.4404915912026
 20
310.1562456148656
 30
0.0
 11
183.4404915911999
 21
310.1562456148656
 31
0.0
  0
LINE
  5
391
330
1F
100
AcDbEntity
  8
Layer0000
  6
Continuous
 62
     3
370
    25
100
AcDbLine
 10
183.4404915911999
 20
308.4022123072803
 30
0.0
 11
167.4404915912026
 21
308.4022123072803
 31
0.0
  0
LINE
  5
392
330
1F
100
AcDbEntity
  8
Layer0000
  6
Continuous
 62
     3
370
    25
100
AcDbLine
 10
183.4404915911999
 20
300.6562456148654
 30
0.0
 11
167.4404915912026
 21
300.6562456148654
 31
0.0
  0
LINE
  5
393
330
1F
100
AcDbEntity
  8
Layer0000
  6
Continuous
 62
     3
370
    25
100
AcDbLine
 10
167.4404915912026
 20
317.9022123072803
 30
0.0
 11
183.4404915911999
 21
317.9022123072803
 31
0.0
  0
LINE
  5
394
330
1F
100
AcDbEntity
  8
Layer0000
  6
Continuous
 62
     3
370
    25
100
AcDbLine
 10
183.4404915911999
 20
317.9022123072803
 30
0.0
 11
183.4404915911999
 21
318.7792289610729
 31
0.0
  0
LINE
  5
395
330
1F
100
AcDbEntity
  8
Layer0000
  6
Continuous
 62
     3
370
    25
100
AcDbLine
 10
183.4404915911999
 20
299.7792289610729
 30
0.0
 11
183.4404915911999
 21
300.6562456148654
 31
0.0
  0
LINE
  5
396
330
1F
100
AcDbEntity
  8
Layer0000
  6
Continuous
 62
     3
370
    25
100
AcDbLine
 10
183.4404915911999
 20
308.4022123072803
 30
0.0
 11
183.4404915911999
 21
310.1562456148656
 31
0.0
  0
ARC
  5
397
330
1F
100
AcDbEntity
  8
Layer0000
  6
Continuous
 62
     3
370
    25
100
AcDbCircle
 10
176.4404915911998
 20
304.5292289610729
 30
0.0
 40
8.000000000000044
100
AcDbArc
 50
331.0449756281404
 51
28.95502437185956
  0
ARC
  5
398
330
1F
100
AcDbEntity
  8
Layer0000
  6
Continuous
 62
     3
370
    25
100
AcDbCircle
 10
176.4404915912
 20
314.0292289610729
 30
0.0
 40
7.999999999999895
100
AcDbArc
 50
331.0449756281398
 51
28.95502437186017
  0
LINE
  5
399
330
1F
100
AcDbEntity
  8
Layer0000
  6
Continuous
 62
     3
370
    25
100
AcDbLine
 10
-559.5595084087977
 20
388.7792289610727
 30
0.0
 11
-474.5595084087976
 21
388.7792289610727
 31
0.0
  0
LINE
  5
39A
330
1F
100
AcDbEntity
  8
Layer0000
  6
Continuous
 62
     3
370
    25
100
AcDbLine
 10
129.7404915912026
 20
327.2792289610729
 30
0.0
 11
131.9404915912001
 21
327.2792289610729
 31
0.0
  0
LINE
  5
39B
330
1F
100
AcDbEntity
  8
Layer0000
  6
Continuous
 62
     3
370
    25
100
AcDbLine
 10
129.7404915912026
 20
291.2792289610729
 30
0.0
 11
131.9404915912001
 21
291.2792289610729
 31
0.0
  0
LINE
  5
39C
330
1F
100
AcDbEntity
  8
Layer0000
  6
Continuous
 62
     3
370
    25
100
AcDbLine
 10
146.9404915912001
 20
293.2792289610729
 30
0.0
 11
146.9404915912001
 21
325.2792289610729
 31
0.0
  0
LINE
  5
39D
330
1F
100
AcDbEntity
  8
Layer0000
  6
Continuous
 62
     3
370
    25
100
AcDbLine
 10
131.9404915912001
 20
327.2792289610729
 30
0.0
 11
131.9404915912001
 21
325.2792289610729
 31
0.0
  0
LINE
  5
39E
330
1F
100
AcDbEntity
  8
Layer0000
  6
Continuous
 62
     3
370
    25
100
AcDbLine
 10
131.9404915912001
 20
291.2792289610729
 30
0.0
 11
131.9404915912001
 21
293.2792289610729
 31
0.0
  0
LINE
  5
39F
330
1F
100
AcDbEntity
  8
Layer0000
  6
Continuous
 62
     3
370
    25
100
AcDbLine
 10
131.9404915912001
 20
325.2792289610729
 30
0.0
 11
146.9404915912001
 21
325.2792289610729
 31
0.0
  0
LINE
  5
3A0
330
1F
100
AcDbEntity
  8
Layer0000
  6
Continuous
 62
     3
370
    25
100
AcDbLine
 10
131.9404915912001
 20
293.2792289610729
 30
0.0
 11
146.9404915912001
 21
293.2792289610729
 31
0.0
  0
LINE
  5
3A1
330
1F
100
AcDbEntity
  8
Layer0000
  6
Continuous
 62
     3
370
    25
100
AcDbLine
 10
145.4404915912
 20
294.13780053253
 30
0.0
 11
131.9404915912001
 21
294.13780053253
 31
0.0
  0
LINE
  5
3A2
330
1F
100
AcDbEntity
  8
Layer0000
  6
Continuous
 62
     3
370
    25
100
AcDbLine
 10
131.9404915912001
 20
294.13780053253
 30
0.0
 11
131.9404915912001
 21
308.4206573896158
 31
0.0
  0
LINE
  5
3A3
330
1F
100
AcDbEntity
  8
Layer0000
  6
Continuous
 62
     3
370
    25
100
AcDbLine
 10
131.9404915912001
 20
308.4206573896158
 30
0.0
 11
145.4404915912
 21
308.4206573896158
 31
0.0
  0
LINE
  5
3A4
330
1F
100
AcDbEntity
  8
Layer0000
  6
Continuous
 62
     3
370
    25
100
AcDbLine
 10
145.4404915912
 20
308.4206573896158
 30
0.0
 11
146.9404915912001
 21
304.7702889720154
 31
0.0
  0
LINE
  5
3A5
330
1F
100
AcDbEntity
  8
Layer0000
  6
Continuous
 62
     3
370
    25
100
AcDbLine
 10
145.4404915912
 20
294.13780053253
 30
0.0
 11
146.9404915912001
 21
297.7881689501305
 31
0.0
  0
LINE
  5
3A6
330
1F
100
AcDbEntity
  8
Layer0000
  6
Continuous
 62
     3
370
    25
100
AcDbLine
 10
145.4404915912
 20
324.4206573896158
 30
0.0
 11
131.9404915912001
 21
324.4206573896158
 31
0.0
  0
LINE
  5
3A7
330
1F
100
AcDbEntity
  8
Layer0000
  6
Continuous
 62
     3
370
    25
100
AcDbLine
 10
131.9404915912001
 20
324.4206573896158
 30
0.0
 11
131.9404915912001
 21
310.13780053253
 31
0.0
  0
LINE
  5
3A8
330
1F
100
AcDbEntity
  8
Layer0000
  6
Continuous
 62
     3
370
    25
100
AcDbLine
 10
131.9404915912001
 20
310.13780053253
 30
0.0
 11
145.4404915912
 21
310.13780053253
 31
0.0
  0
LINE
  5
3A9
330
1F
100
AcDbEntity
  8
Layer0000
  6
Continuous
 62
     3
370
    25
100
AcDbLine
 10
145.4404915912
 20
310.13780053253
 30
0.0
 11
146.9404915912001
 21
313.7881689501305
 31
0.0
  0
LINE
  5
3AA
330
1F
100
AcDbEntity
  8
Layer0000
  6
Continuous
 62
     3
370
    25
100
AcDbLine
 10
145.4404915912
 20
324.4206573896158
 30
0.0
 11
146.9404915912001
 21
320.7702889720154
 31
0.0
  0
LINE
  5
3AB
330
1F
100
AcDbEntity
  8
Layer0000
  6
Continuous
 62
     3
370
    25
100
AcDbLine
 10
58.94049159120229
 20
388.7792289610729
 30
0.0
 11
58.44049159120235
 21
389.2792289610729
 31
0.0
  0
LINE
  5
3AC
330
1F
100
AcDbEntity
  8
Layer0000
  6
Continuous
 62
     3
370
    25
100
AcDbLine
 10
128.7404915912026
 20
229.779228961073
 30
0.0
 11
129.7404915912026
 21
230.779228961073
 31
0.0
  0
LINE
  5
3AD
330
1F
100
AcDbEntity
  8
Layer0000
  6
Continuous
 62
     3
370
    25
100
AcDbLine
 10
-9.259508408797473
 20
262.2792289610727
 30
0.0
 11
-49.25950840879742
 21
262.2792289610727
 31
0.0
  0
LINE
  5
3AE
330
1F
100
AcDbEntity
  8
Layer0000
  6
Continuous
 62
     3
370
    25
100
AcDbLine
 10
129.7404915912026
 20
278.2792289610727
 30
0.0
 11
-49.25950840879742
 21
278.2792289610727
 31
0.0
  0
LINE
  5
3AF
330
1F
100
AcDbEntity
  8
Layer0000
  6
Continuous
 62
     3
370
    25
100
AcDbLine
 10
-9.259508408797473
 20
356.2792289610729
 30
0.0
 11
-49.25950840879742
 21
356.2792289610729
 31
0.0
  0
LINE
  5
3B0
330
1F
100
AcDbEntity
  8
Layer0000
  6
Continuous
 62
     3
370
    25
100
AcDbLine
 10
129.7404915912026
 20
340.2792289610729
 30
0.0
 11
-49.25950840879742
 21
340.2792289610729
 31
0.0
  0
LINE
  5
3B1
330
1F
100
AcDbEntity
  8
Layer0000
  6
Continuous
 62
     3
370
    25
100
AcDbLine
 10
-9.259508408797473
 20
229.779228961073
 30
0.0
 11
-9.259508408797473
 21
262.2792289610727
 31
0.0
  0
LINE
  5
3B2
330
1F
100
AcDbEntity
  8
Layer0000
  6
Continuous
 62
     3
370
    25
100
AcDbLine
 10
6.740491591202527
 20
262.2792289610727
 30
0.0
 11
6.740491591202527
 21
229.779228961073
 31
0.0
  0
LINE
  5
3B3
330
1F
100
AcDbEntity
  8
Layer0000
  6
Continuous
 62
     3
370
    25
100
AcDbLine
 10
-9.259508408797473
 20
388.7792289610729
 30
0.0
 11
-9.259508408797473
 21
356.2792289610729
 31
0.0
  0
LINE
  5
3B4
330
1F
100
AcDbEntity
  8
Layer0000
  6
Continuous
 62
     3
370
    25
100
AcDbLine
 10
6.740491591202527
 20
356.2792289610729
 30
0.0
 11
6.740491591202527
 21
388.7792289610729
 31
0.0
  0
LINE
  5
3B5
330
1F
100
AcDbEntity
  8
Layer0000
  6
Continuous
 62
     3
370
    25
100
AcDbLine
 10
-48.25950840879764
 20
388.7792289610729
 30
0.0
 11
128.7404915912026
 21
388.7792289610729
 31
0.0
  0
LINE
  5
3B6
330
1F
100
AcDbEntity
  8
Layer0000
  6
Continuous
 62
     3
370
    25
100
AcDbLine
 10
-48.25950840879764
 20
229.779228961073
 30
0.0
 11
128.7404915912026
 21
229.779228961073
 31
0.0
  0
LINE
  5
3B7
330
1F
100
AcDbEntity
  8
Layer0000
  6
Continuous
 62
     3
370
    25
100
AcDbLine
 10
167.4404915912026
 20
319.7792289610729
 30
0.0
 11
166.5744661874176
 21
320.2792289610729
 31
0.0
  0
LINE
  5
3B8
330
1F
100
AcDbEntity
  8
Layer0000
  6
Continuous
 62
     3
370
    25
100
AcDbLine
 10
166.5744661874174
 20
298.2792289610729
 30
0.0
 11
167.4404915912026
 21
298.7792289610734
 31
0.0
  0
LINE
  5
3B9
330
1F
100
AcDbEntity
  8
Layer0000
  6
Continuous
 62
     3
370
    25
100
AcDbLine
 10
461.8917240751454
 20
389.2792289610727
 30
0.0
 11
441.8917240751454
 21
389.2792289610727
 31
0.0
  0
LINE
  5
3BA
330
1F
100
AcDbEntity
  8
Layer0000
  6
Continuous
 62
     3
370
    25
100
AcDbLine
 10
372.8917240751454
 20
340.7792289610729
 30
0.0
 11
372.8917240751454
 21
370.7792289610729
 31
0.0
  0
LINE
  5
3BB
330
1F
100
AcDbEntity
  8
Layer0000
  6
Continuous
 62
     3
370
    25
100
AcDbLine
 10
373.8917240751454
 20
371.7792289610729
 30
0.0
 11
387.3917240751454
 21
371.7792289610729
 31
0.0
  0
LINE
  5
3BC
330
1F
100
AcDbEntity
  8
Layer0000
  6
Continuous
 62
     3
370
    25
100
AcDbLine
 10
387.8917240751454
 20
388.2792289610729
 30
0.0
 11
387.8917240751454
 21
361.7792289610729
 31
0.0
  0
LINE
  5
3BD
330
1F
100
AcDbEntity
  8
Layer0000
  6
Continuous
 62
     3
370
    25
100
AcDbLine
 10
440.8917240751454
 20
388.2792289610727
 30
0.0
 11
440.8917240751454
 21
367.7771755643066
 31
0.0
  0
LINE
  5
3BE
330
1F
100
AcDbEntity
  8
Layer0000
  6
Continuous
 62
     3
370
    25
100
AcDbLine
 10
431.3917240751454
 20
361.7792289610727
 30
0.0
 11
431.3917240751454
 21
360.7792289610727
 31
0.0
  0
LINE
  5
3BF
330
1F
100
AcDbEntity
  8
Layer0000
  6
Continuous
 62
     3
370
    25
100
AcDbLine
 10
431.3917240751454
 20
360.7792289610727
 30
0.0
 11
390.3917240751454
 21
360.7792289610729
 31
0.0
  0
LINE
  5
3C0
330
1F
100
AcDbEntity
  8
Layer0000
  6
Continuous
 62
     3
370
    25
100
AcDbLine
 10
390.3917240751454
 20
360.7792289610729
 30
0.0
 11
390.3917240751454
 21
361.7792289610729
 31
0.0
  0
LINE
  5
3C1
330
1F
100
AcDbEntity
  8
Layer0000
  6
Continuous
 62
     3
370
    25
100
AcDbLine
 10
387.8917240751454
 20
361.7792289610729
 30
0.0
 11
390.3917240751454
 21
361.7792289610729
 31
0.0
  0
LINE
  5
3C2
330
1F
100
AcDbEntity
  8
Layer0000
  6
Continuous
 62
     3
370
    25
100
AcDbLine
 10
435.9122580428069
 20
361.7792289610727
 30
0.0
 11
431.3917240751454
 21
361.7792289610727
 31
0.0
  0
LINE
  5
3C3
330
1F
100
AcDbEntity
  8
Layer0000
  6
Continuous
 62
     3
370
    25
100
AcDbLine
 10
384.8917240751454
 20
339.2792289610729
 30
0.0
 11
427.8917240751454
 21
339.2792289610727
 31
0.0
  0
LINE
  5
3C4
330
1F
100
AcDbEntity
  8
Layer0000
  6
Continuous
 62
     3
370
    25
100
AcDbLine
 10
429.8917240751454
 20
337.2792289610727
 30
0.0
 11
429.8917240751454
 21
281.2792289610727
 31
0.0
  0
ARC
  5
3C5
330
1F
100
AcDbEntity
  8
Layer0000
  6
Continuous
 62
     3
370
    25
100
AcDbCircle
 10
427.8917240751454
 20
337.2792289610727
 30
0.0
 40
2.0
100
AcDbArc
 50
0.0
 51
90.0
  0
LINE
  5
3C6
330
1F
100
AcDbEntity
  8
Layer0000
  6
Continuous
 62
     3
370
    25
100
AcDbLine
 10
461.8917240751454
 20
229.2792289610727
 30
0.0
 11
441.8917240751454
 21
229.2792289610727
 31
0.0
  0
LINE
  5
3C7
330
1F
100
AcDbEntity
  8
Layer0000
  6
Continuous
 62
     3
370
    25
100
AcDbLine
 10
372.8917240751454
 20
277.7792289610727
 30
0.0
 11
372.8917240751454
 21
247.779228961073
 31
0.0
  0
LINE
  5
3C8
330
1F
100
AcDbEntity
  8
Layer0000
  6
Continuous
 62
     3
370
    25
100
AcDbLine
 10
373.8917240751454
 20
246.779228961073
 30
0.0
 11
387.3917240751454
 21
246.779228961073
 31
0.0
  0
LINE
  5
3C9
330
1F
100
AcDbEntity
  8
Layer0000
  6
Continuous
 62
     3
370
    25
100
AcDbLine
 10
440.8917240751454
 20
230.2792289610727
 30
0.0
 11
440.8917240751454
 21
251.7761520095366
 31
0.0
  0
LINE
  5
3CA
330
1F
100
AcDbEntity
  8
Layer0000
  6
Continuous
 62
     3
370
    25
100
AcDbLine
 10
431.3917240751454
 20
256.7792289610727
 30
0.0
 11
431.3917240751454
 21
257.7792289610727
 31
0.0
  0
LINE
  5
3CB
330
1F
100
AcDbEntity
  8
Layer0000
  6
Continuous
 62
     3
370
    25
100
AcDbLine
 10
431.3917240751454
 20
257.7792289610727
 30
0.0
 11
390.3917240751454
 21
257.7792289610729
 31
0.0
  0
LINE
  5
3CC
330
1F
100
AcDbEntity
  8
Layer0000
  6
Continuous
 62
     3
370
    25
100
AcDbLine
 10
390.3917240751454
 20
257.7792289610729
 30
0.0
 11
390.3917240751454
 21
256.7792289610729
 31
0.0
  0
LINE
  5
3CD
330
1F
100
AcDbEntity
  8
Layer0000
  6
Continuous
 62
     3
370
    25
100
AcDbLine
 10
387.8917240751454
 20
256.7792289610729
 30
0.0
 11
390.3917240751454
 21
256.7792289610729
 31
0.0
  0
LINE
  5
3CE
330
1F
100
AcDbEntity
  8
Layer0000
  6
Continuous
 62
     3
370
    25
100
AcDbLine
 10
435.8917250219085
 20
256.7792289610727
 30
0.0
 11
431.3917240751454
 21
256.7792289610727
 31
0.0
  0
LINE
  5
3CF
330
1F
100
AcDbEntity
  8
Layer0000
  6
Continuous
 62
     3
370
    25
100
AcDbLine
 10
384.8917240751454
 20
279.2792289610727
 30
0.0
 11
427.8917240751454
 21
279.2792289610727
 31
0.0
  0
ARC
  5
3D0
330
1F
100
AcDbEntity
  8
Layer0000
  6
Continuous
 62
     3
370
    25
100
AcDbCircle
 10
427.8917240751454
 20
281.2792289610727
 30
0.0
 40
2.0
100
AcDbArc
 50
270.0
 51
0.0
  0
LINE
  5
3D1
330
1F
100
AcDbEntity
  8
Layer0000
  6
Continuous
 62
     3
370
    25
100
AcDbLine
 10
440.8917240751454
 20
284.2792289610727
 30
0.0
 11
440.8917240751454
 21
334.2792289610727
 31
0.0
  0
LINE
  5
3D2
330
1F
100
AcDbEntity
  8
Layer0000
  6
Continuous
 62
     3
370
    25
100
AcDbLine
 10
440.8917240751454
 20
334.2792289610727
 30
0.0
 11
429.8917240751454
 21
334.2792289610727
 31
0.0
  0
LINE
  5
3D3
330
1F
100
AcDbEntity
  8
Layer0000
  6
Continuous
 62
     3
370
    25
100
AcDbLine
 10
440.8917240751454
 20
284.2792289610727
 30
0.0
 11
429.8917240751454
 21
284.2792289610727
 31
0.0
  0
LINE
  5
3D4
330
1F
100
AcDbEntity
  8
Layer0000
  6
Continuous
 62
     3
370
    25
100
AcDbLine
 10
372.8917240751454
 20
370.2792289610729
 30
0.0
 11
374.3917240751454
 21
371.7792289610729
 31
0.0
  0
LINE
  5
3D5
330
1F
100
AcDbEntity
  8
Layer0000
  6
Continuous
 62
     3
370
    25
100
AcDbLine
 10
372.8917240751454
 20
248.279228961073
 30
0.0
 11
374.3917240751454
 21
246.779228961073
 31
0.0
  0
LINE
  5
3D6
330
1F
100
AcDbEntity
  8
Layer0000
  6
Continuous
 62
     3
370
    25
100
AcDbLine
 10
387.3917240751454
 20
246.779228961073
 30
0.0
 11
387.8917240751454
 21
247.279228961073
 31
0.0
  0
LINE
  5
3D7
330
1F
100
AcDbEntity
  8
Layer0000
  6
Continuous
 62
     3
370
    25
100
AcDbLine
 10
387.3917240751454
 20
371.7792289610729
 30
0.0
 11
387.8917240751454
 21
371.2792289610729
 31
0.0
  0
LINE
  5
3D8
330
1F
100
AcDbEntity
  8
Layer0000
  6
Continuous
 62
     3
370
    25
100
AcDbLine
 10
441.8917240751454
 20
389.2792289610727
 30
0.0
 11
440.8917240751454
 21
388.2792289610727
 31
0.0
  0
LINE
  5
3D9
330
1F
100
AcDbEntity
  8
Layer0000
  6
Continuous
 62
     3
370
    25
100
AcDbLine
 10
441.8917240751454
 20
229.2792289610727
 30
0.0
 11
440.8917240751454
 21
230.2792289610727
 31
0.0
  0
LINE
  5
3DA
330
1F
100
AcDbEntity
  8
Layer0000
  6
Continuous
 62
     3
370
    25
100
AcDbLine
 10
374.3917240751454
 20
278.7792289610729
 30
0.0
 11
392.8917240751454
 21
278.7792289610729
 31
0.0
  0
LINE
  5
3DB
330
1F
100
AcDbEntity
  8
Layer0000
  6
Continuous
 62
     3
370
    25
100
AcDbLine
 10
392.8917240751454
 20
278.7792289610729
 30
0.0
 11
392.8917240751454
 21
279.2792289610729
 31
0.0
  0
LINE
  5
3DC
330
1F
100
AcDbEntity
  8
Layer0000
  6
Continuous
 62
     3
370
    25
100
AcDbLine
 10
372.8917240751454
 20
277.2792289610729
 30
0.0
 11
374.3917240751454
 21
278.7792289610729
 31
0.0
  0
ELLIPSE
  5
3DD
330
1F
100
AcDbEntity
  8
Layer0000
  6
Continuous
 62
     3
370
    25
100
AcDbEllipse
 10
435.9122580428069
 20
367.2792289610727
 30
0.0
 11
0.0
 21
5.5
 31
0.0
210
0.0
220
0.0
230
1.0
 40
0.9090909090909091
 41
3.141592653589793
 42
4.803048867585435
  0
ARC
  5
3DE
330
1F
100
AcDbEntity
  8
Layer0000
  6
Continuous
 62
     3
370
    25
100
AcDbCircle
 10
435.8917250219085
 20
251.7792289610727
 30
0.0
 40
5.0
100
AcDbArc
 50
359.9647407304174
 51
90.0
  0
LINE
  5
3DF
330
1F
100
AcDbEntity
  8
Layer0000
  6
Continuous
 62
     3
370
    25
100
AcDbLine
 10
462.8917240751454
 20
230.2792289610727
 30
0.0
 11
461.8917240751454
 21
229.2792289610727
 31
0.0
  0
LINE
  5
3E0
330
1F
100
AcDbEntity
  8
Layer0000
  6
Continuous
 62
     3
370
    25
100
AcDbLine
 10
462.8917240751454
 20
388.2792289610727
 30
0.0
 11
461.8917240751454
 21
389.2792289610727
 31
0.0
  0
LINE
  5
3E1
330
1F
100
AcDbEntity
  8
Layer0000
  6
Continuous
 62
     3
370
    25
100
AcDbLine
 10
362.6250249100789
 20
294.13780053253
 30
0.0
 11
370.8712361613142
 21
308.4206573896158
 31
0.0
  0
LINE
  5
3E2
330
1F
100
AcDbEntity
  8
Layer0000
  6
Continuous
 62
     3
370
    25
100
AcDbLine
 10
344.6455128239101
 20
293.2792289610729
 30
0.0
 11
361.1379353263807
 21
293.2792289610729
 31
0.0
  0
ARC
  5
3E3
330
1F
100
AcDbEntity
  8
Layer0000
  6
Continuous
 62
     3
370
    25
100
AcDbCircle
 10
352.8917240751454
 20
309.2792289610729
 30
0.0
 40
16.5
100
AcDbArc
 50
224.1411102339325
 51
255.8588897660675
  0
LINE
  5
3E4
330
1F
100
AcDbEntity
  8
Layer0000
  6
Continuous
 62
     3
370
    25
100
AcDbLine
 10
334.9122119889768
 20
308.4206573896156
 30
0.0
 11
343.1584232402121
 21
294.13780053253
 31
0.0
  0
ARC
  5
3E5
330
1F
100
AcDbEntity
  8
Layer0000
  6
Continuous
 62
     3
370
    25
100
AcDbCircle
 10
352.8917240751454
 20
309.2792289610729
 30
0.0
 40
16.5
100
AcDbArc
 50
284.1411102339325
 51
315.8588897660687
  0
CIRCLE
  5
3E6
330
1F
100
AcDbEntity
  8
Layer0000
  6
Continuous
 62
     3
370
    25
100
AcDbCircle
 10
352.8917240751454
 20
282.2792289610727
 30
0.0
 40
2.807179676972453
  0
CIRCLE
  5
3E7
330
1F
100
AcDbEntity
  8
Layer0000
  6
Continuous
 62
     3
370
    25
100
AcDbCircle
 10
352.8917240751454
 20
282.2792289610727
 30
0.0
 40
3.5
  0
LINE
  5
3E8
330
1F
100
AcDbEntity
  8
Layer0000
  6
Continuous
 62
     3
370
    25
100
AcDbLine
 10
352.8917240751454
 20
280.5471781535039
 30
0.0
 11
354.3917240751454
 21
281.4132035572884
 31
0.0
  0
LINE
  5
3E9
330
1F
100
AcDbEntity
  8
Layer0000
  6
Continuous
 62
     3
370
    25
100
AcDbLine
 10
354.3917240751454
 20
281.4132035572884
 30
0.0
 11
354.3917240751454
 21
283.1452543648572
 31
0.0
  0
LINE
  5
3EA
330
1F
100
AcDbEntity
  8
Layer0000
  6
Continuous
 62
     3
370
    25
100
AcDbLine
 10
354.3917240751454
 20
283.1452543648572
 30
0.0
 11
352.8917240751454
 21
284.0112797686418
 31
0.0
  0
LINE
  5
3EB
330
1F
100
AcDbEntity
  8
Layer0000
  6
Continuous
 62
     3
370
    25
100
AcDbLine
 10
352.8917240751454
 20
284.0112797686418
 30
0.0
 11
351.3917240751454
 21
283.1452543648572
 31
0.0
  0
LINE
  5
3EC
330
1F
100
AcDbEntity
  8
Layer0000
  6
Continuous
 62
     3
370
    25
100
AcDbLine
 10
351.3917240751454
 20
283.1452543648572
 30
0.0
 11
351.3917240751454
 21
281.4132035572884
 31
0.0
  0
LINE
  5
3ED
330
1F
100
AcDbEntity
  8
Layer0000
  6
Continuous
 62
     3
370
    25
100
AcDbLine
 10
351.3917240751454
 20
281.4132035572884
 30
0.0
 11
352.8917240751454
 21
280.5471781535039
 31
0.0
  0
LINE
  5
3EE
330
1F
100
AcDbEntity
  8
Layer0000
  6
Continuous
 62
     3
370
    25
100
AcDbLine
 10
377.8917240751454
 20
280.7792289610727
 30
0.0
 11
372.3917240751454
 21
280.7792289610727
 31
0.0
  0
LINE
  5
3EF
330
1F
100
AcDbEntity
  8
Layer0000
  6
Continuous
 62
     3
370
    25
100
AcDbLine
 10
372.8917240751454
 20
277.7792289610727
 30
0.0
 11
372.3917240751454
 21
277.7792289610727
 31
0.0
  0
LINE
  5
3F0
330
1F
100
AcDbEntity
  8
Layer0000
  6
Continuous
 62
     3
370
    25
100
AcDbLine
 10
372.3917240751454
 20
277.7792289610727
 30
0.0
 11
372.3917240751454
 21
280.7792289610727
 31
0.0
  0
LINE
  5
3F1
330
1F
100
AcDbEntity
  8
Layer0000
  6
Continuous
 62
     3
370
    25
100
AcDbLine
 10
386.8917240751454
 20
299.2792289610729
 30
0.0
 11
377.8917240751454
 21
280.7792289610727
 31
0.0
  0
LINE
  5
3F2
330
1F
100
AcDbEntity
  8
Layer0000
  6
Continuous
 62
     3
370
    25
100
AcDbLine
 10
317.8917240751454
 20
387.7792289610729
 30
0.0
 11
317.8917240751454
 21
230.7792289610727
 31
0.0
  0
LINE
  5
3F3
330
1F
100
AcDbEntity
  8
Layer0000
  6
Continuous
 62
     3
370
    25
100
AcDbLine
 10
317.8917240751454
 20
387.7792289610729
 30
0.0
 11
318.8917240751454
 21
388.7792289610729
 31
0.0
  0
LINE
  5
3F4
330
1F
100
AcDbEntity
  8
Layer0000
  6
Continuous
 62
     3
370
    25
100
AcDbLine
 10
317.8917240751454
 20
230.7792289610727
 30
0.0
 11
318.8917240751454
 21
229.7792289610727
 31
0.0
  0
LINE
  5
3F5
330
1F
100
AcDbEntity
  8
Layer0000
  6
Continuous
 62
     3
370
    25
100
AcDbLine
 10
387.8917240751454
 20
388.2792289610729
 30
0.0
 11
387.3917240751454
 21
388.7792289610729
 31
0.0
  0
LINE
  5
3F6
330
1F
100
AcDbEntity
  8
Layer0000
  6
Continuous
 62
     3
370
    25
100
AcDbLine
 10
387.8917240751454
 20
230.2792289610727
 30
0.0
 11
387.3917240751454
 21
229.7792289610727
 31
0.0
  0
LINE
  5
3F7
330
1F
100
AcDbEntity
  8
Layer0000
  6
Continuous
 62
     3
370
    25
100
AcDbLine
 10
387.8917240751454
 20
372.2792289610729
 30
0.0
 11
387.3917240751454
 21
371.7792289610729
 31
0.0
  0
LINE
  5
3F8
330
1F
100
AcDbEntity
  8
Layer0000
  6
Continuous
 62
     3
370
    25
100
AcDbLine
 10
387.3917240751454
 20
246.779228961073
 30
0.0
 11
387.8917240751454
 21
246.279228961073
 31
0.0
  0
ARC
  5
3F9
330
1F
100
AcDbEntity
  8
Layer0000
  6
Continuous
 62
     3
370
    25
100
AcDbCircle
 10
372.8917240751454
 20
246.779228961073
 30
0.0
 40
1.0
100
AcDbArc
 50
89.99999999999999
 51
0.0
  0
ARC
  5
3FA
330
1F
100
AcDbEntity
  8
Layer0000
  6
Continuous
 62
     3
370
    25
100
AcDbCircle
 10
372.8917240751454
 20
371.7792289610729
 30
0.0
 40
1.0
100
AcDbArc
 50
0.0
 51
270.0
  0
LINE
  5
3FB
330
1F
100
AcDbEntity
  8
Layer0000
  6
Continuous
 62
     3
370
    25
100
AcDbLine
 10
388.3917240751454
 20
229.7792289610727
 30
0.0
 11
397.3917240751454
 21
229.7792289610727
 31
0.0
  0
LINE
  5
3FC
330
1F
100
AcDbEntity
  8
Layer0000
  6
Continuous
 62
     3
370
    25
100
AcDbLine
 10
397.8917240751454
 20
230.2792289610727
 30
0.0
 11
397.8917240751454
 21
254.2792289610727
 31
0.0
  0
LINE
  5
3FD
330
1F
100
AcDbEntity
  8
Layer0000
  6
Continuous
 62
     3
370
    25
100
AcDbLine
 10
397.3917240751454
 20
254.7792289610727
 30
0.0
 11
388.3917240751454
 21
254.7792289610727
 31
0.0
  0
LINE
  5
3FE
330
1F
100
AcDbEntity
  8
Layer0000
  6
Continuous
 62
     3
370
    25
100
AcDbLine
 10
387.8917240751454
 20
256.7792289610729
 30
0.0
 11
387.8917240751454
 21
230.2792289610727
 31
0.0
  0
LINE
  5
3FF
330
1F
100
AcDbEntity
  8
Layer0000
  6
Continuous
 62
     3
370
    25
100
AcDbLine
 10
397.8917240751454
 20
254.2792289610727
 30
0.0
 11
397.3917240751454
 21
254.7792289610727
 31
0.0
  0
LINE
  5
400
330
1F
100
AcDbEntity
  8
Layer0000
  6
Continuous
 62
     3
370
    25
100
AcDbLine
 10
397.3917240751454
 20
229.7792289610727
 30
0.0
 11
397.8917240751454
 21
230.2792289610727
 31
0.0
  0
LINE
  5
401
330
1F
100
AcDbEntity
  8
Layer0000
  6
Continuous
 62
     3
370
    25
100
AcDbLine
 10
388.3917240751454
 20
229.7792289610727
 30
0.0
 11
387.8917240751454
 21
230.2792289610727
 31
0.0
  0
LINE
  5
402
330
1F
100
AcDbEntity
  8
Layer0000
  6
Continuous
 62
     3
370
    25
100
AcDbLine
 10
387.8917240751454
 20
254.2792289610727
 30
0.0
 11
388.3917240751454
 21
254.7792289610727
 31
0.0
  0
LINE
  5
403
330
1F
100
AcDbEntity
  8
Layer0000
  6
Continuous
 62
     3
370
    25
100
AcDbLine
 10
397.8917240751454
 20
231.7792289610727
 30
0.0
 11
398.8917240751454
 21
233.5112797686416
 31
0.0
  0
LINE
  5
404
330
1F
100
AcDbEntity
  8
Layer0000
  6
Continuous
 62
     3
370
    25
100
AcDbLine
 10
397.8917240751454
 20
247.7792289610727
 30
0.0
 11
398.8917240751454
 21
246.0471781535039
 31
0.0
  0
LINE
  5
405
330
1F
100
AcDbEntity
  8
Layer0000
  6
Continuous
 62
     3
370
    25
100
AcDbLine
 10
398.8917240751454
 20
233.5112797686416
 30
0.0
 11
398.8917240751454
 21
246.0471781535039
 31
0.0
  0
LINE
  5
406
330
1F
100
AcDbEntity
  8
Layer0000
  6
Continuous
 62
     3
370
    25
100
AcDbLine
 10
397.8917240751454
 20
388.2792289610729
 30
0.0
 11
397.8917240751454
 21
364.2792289610729
 31
0.0
  0
LINE
  5
407
330
1F
100
AcDbEntity
  8
Layer0000
  6
Continuous
 62
     3
370
    25
100
AcDbLine
 10
397.8917240751454
 20
364.2792289610729
 30
0.0
 11
397.3917240751454
 21
363.7792289610729
 31
0.0
  0
LINE
  5
408
330
1F
100
AcDbEntity
  8
Layer0000
  6
Continuous
 62
     3
370
    25
100
AcDbLine
 10
397.3917240751454
 20
388.7792289610729
 30
0.0
 11
397.8917240751454
 21
388.2792289610729
 31
0.0
  0
LINE
  5
409
330
1F
100
AcDbEntity
  8
Layer0000
  6
Continuous
 62
     3
370
    25
100
AcDbLine
 10
397.8917240751454
 20
386.7792289610729
 30
0.0
 11
398.8917240751454
 21
385.0471781535041
 31
0.0
  0
LINE
  5
40A
330
1F
100
AcDbEntity
  8
Layer0000
  6
Continuous
 62
     3
370
    25
100
AcDbLine
 10
397.8917240751454
 20
370.7792289610729
 30
0.0
 11
398.8917240751454
 21
372.5112797686418
 31
0.0
  0
LINE
  5
40B
330
1F
100
AcDbEntity
  8
Layer0000
  6
Continuous
 62
     3
370
    25
100
AcDbLine
 10
398.8917240751454
 20
385.0471781535041
 30
0.0
 11
398.8917240751454
 21
372.5112797686418
 31
0.0
  0
LINE
  5
40C
330
1F
100
AcDbEntity
  8
Layer0000
  6
Continuous
 62
     3
370
    25
100
AcDbLine
 10
397.3917240751454
 20
363.7792289610729
 30
0.0
 11
388.3917240751454
 21
363.7792289610729
 31
0.0
  0
LINE
  5
40D
330
1F
100
AcDbEntity
  8
Layer0000
  6
Continuous
 62
     3
370
    25
100
AcDbLine
 10
387.8917240751454
 20
364.2792289610729
 30
0.0
 11
388.3917240751454
 21
363.7792289610729
 31
0.0
  0
LINE
  5
40E
330
1F
100
AcDbEntity
  8
Layer0000
  6
Continuous
 62
     3
370
    25
100
AcDbLine
 10
388.3917240751454
 20
388.7792289610729
 30
0.0
 11
397.3917240751454
 21
388.7792289610729
 31
0.0
  0
LINE
  5
40F
330
1F
100
AcDbEntity
  8
Layer0000
  6
Continuous
 62
     3
370
    25
100
AcDbLine
 10
388.3917240751454
 20
388.7792289610729
 30
0.0
 11
387.8917240751454
 21
388.2792289610729
 31
0.0
  0
LINE
  5
410
330
1F
100
AcDbEntity
  8
Layer0000
  6
Continuous
 62
     3
370
    25
100
AcDbLine
 10
390.8917240751454
 20
279.2792289610727
 30
0.0
 11
390.8917240751454
 21
339.2792289610729
 31
0.0
  0
LINE
  5
411
330
1F
100
AcDbEntity
  8
Layer0000
  6
Continuous
 62
     3
370
    25
100
AcDbLine
 10
402.4276224600077
 20
366.7792289610729
 30
0.0
 11
419.3558256902833
 21
366.7792289610727
 31
0.0
  0
LINE
  5
412
330
1F
100
AcDbEntity
  8
Layer0000
  6
Continuous
 62
     3
370
    25
100
AcDbLine
 10
401.8917240751454
 20
364.7792289610729
 30
0.0
 11
419.8917240751454
 21
364.7792289610729
 31
0.0
  0
LINE
  5
413
330
1F
100
AcDbEntity
  8
Layer0000
  6
Continuous
 62
     3
370
    25
100
AcDbLine
 10
419.8917240751454
 20
364.7792289610729
 30
0.0
 11
419.3558256902833
 21
366.7792289610727
 31
0.0
  0
LINE
  5
414
330
1F
100
AcDbEntity
  8
Layer0000
  6
Continuous
 62
     3
370
    25
100
AcDbLine
 10
401.8917240751454
 20
364.7792289610729
 30
0.0
 11
402.4276224600077
 21
366.7792289610729
 31
0.0
  0
LINE
  5
415
330
1F
100
AcDbEntity
  8
Layer0000
  6
Continuous
 62
     3
370
    25
100
AcDbLine
 10
399.8917240751454
 20
257.7792289610729
 30
0.0
 11
399.8917240751454
 21
248.279228961073
 31
0.0
  0
LINE
  5
416
330
1F
100
AcDbEntity
  8
Layer0000
  6
Continuous
 62
     3
370
    25
100
AcDbLine
 10
399.8917240751454
 20
248.279228961073
 30
0.0
 11
400.3917240751454
 21
247.779228961073
 31
0.0
  0
LINE
  5
417
330
1F
100
AcDbEntity
  8
Layer0000
  6
Continuous
 62
     3
370
    25
100
AcDbLine
 10
399.8917240751454
 20
237.779228961073
 30
0.0
 11
399.8917240751454
 21
240.279228961073
 31
0.0
  0
LINE
  5
418
330
1F
100
AcDbEntity
  8
Layer0000
  6
Continuous
 62
     3
370
    25
100
AcDbLine
 10
399.8917240751454
 20
240.279228961073
 30
0.0
 11
400.3917240751454
 21
240.779228961073
 31
0.0
  0
LINE
  5
419
330
1F
100
AcDbEntity
  8
Layer0000
  6
Continuous
 62
     3
370
    25
100
AcDbLine
 10
399.8917240751454
 20
237.779228961073
 30
0.0
 11
400.8917240751454
 21
236.779228961073
 31
0.0
  0
LINE
  5
41A
330
1F
100
AcDbEntity
  8
Layer0000
  6
Continuous
 62
     3
370
    25
100
AcDbLine
 10
400.8917240751454
 20
236.779228961073
 30
0.0
 11
420.8917240751454
 21
236.779228961073
 31
0.0
  0
LINE
  5
41B
330
1F
100
AcDbEntity
  8
Layer0000
  6
Continuous
 62
     3
370
    25
100
AcDbLine
 10
420.8917240751454
 20
236.779228961073
 30
0.0
 11
421.8917240751454
 21
237.779228961073
 31
0.0
  0
LINE
  5
41C
330
1F
100
AcDbEntity
  8
Layer0000
  6
Continuous
 62
     3
370
    25
100
AcDbLine
 10
421.8917240751454
 20
257.7792289610727
 30
0.0
 11
421.8917240751454
 21
248.279228961073
 31
0.0
  0
LINE
  5
41D
330
1F
100
AcDbEntity
  8
Layer0000
  6
Continuous
 62
     3
370
    25
100
AcDbLine
 10
421.8917240751454
 20
248.279228961073
 30
0.0
 11
421.3917240751454
 21
247.779228961073
 31
0.0
  0
LINE
  5
41E
330
1F
100
AcDbEntity
  8
Layer0000
  6
Continuous
 62
     3
370
    25
100
AcDbLine
 10
421.8917240751454
 20
237.779228961073
 30
0.0
 11
421.8917240751454
 21
240.279228961073
 31
0.0
  0
LINE
  5
41F
330
1F
100
AcDbEntity
  8
Layer0000
  6
Continuous
 62
     3
370
    25
100
AcDbLine
 10
421.8917240751454
 20
240.279228961073
 30
0.0
 11
421.3917240751454
 21
240.779228961073
 31
0.0
  0
LINE
  5
420
330
1F
100
AcDbEntity
  8
Layer0000
  6
Continuous
 62
     3
370
    25
100
AcDbLine
 10
399.8917240751454
 20
237.779228961073
 30
0.0
 11
421.8917240751454
 21
237.779228961073
 31
0.0
  0
LINE
  5
421
330
1F
100
AcDbEntity
  8
Layer0000
  6
Continuous
 62
     3
370
    25
100
AcDbLine
 10
400.3917240751454
 20
240.779228961073
 30
0.0
 11
421.3917240751454
 21
240.779228961073
 31
0.0
  0
LINE
  5
422
330
1F
100
AcDbEntity
  8
Layer0000
  6
Continuous
 62
     3
370
    25
100
AcDbLine
 10
400.3917240751454
 20
247.779228961073
 30
0.0
 11
421.3917240751454
 21
247.779228961073
 31
0.0
  0
LINE
  5
423
330
1F
100
AcDbEntity
  8
Layer0000
  6
Continuous
 62
     3
370
    25
100
AcDbLine
 10
399.8917240751454
 20
248.279228961073
 30
0.0
 11
421.8917240751454
 21
248.279228961073
 31
0.0
  0
LINE
  5
424
330
1F
100
AcDbEntity
  8
Layer0000
  6
Continuous
 62
     3
370
    25
100
AcDbLine
 10
399.8917240751454
 20
240.279228961073
 30
0.0
 11
421.8917240751454
 21
240.279228961073
 31
0.0
  0
ARC
  5
425
330
1F
100
AcDbEntity
  8
Layer0000
  6
Continuous
 62
     3
370
    25
100
AcDbCircle
 10
399.1917240751453
 20
244.279228961073
 30
0.0
 40
3.700000000000005
100
AcDbArc
 50
288.9246444160511
 51
71.07535558394896
  0
ARC
  5
426
330
1F
100
AcDbEntity
  8
Layer0000
  6
Continuous
 62
     3
370
    25
100
AcDbCircle
 10
422.5917240751454
 20
244.279228961073
 30
0.0
 40
3.700000000000006
100
AcDbArc
 50
108.9246444160512
 51
251.0753555839489
  0
LINE
  5
427
330
1F
100
AcDbEntity
  8
Layer0000
  6
Continuous
 62
     3
370
    25
100
AcDbLine
 10
420.8917240751454
 20
360.7792289610727
 30
0.0
 11
420.8917240751454
 21
361.7792289610743
 31
0.0
  0
LINE
  5
428
330
1F
100
AcDbEntity
  8
Layer0000
  6
Continuous
 62
     3
370
    25
100
AcDbLine
 10
400.8917240751454
 20
360.7792289610729
 30
0.0
 11
400.8917240751454
 21
361.7792289610732
 31
0.0
  0
LINE
  5
429
330
1F
100
AcDbEntity
  8
Layer0000
  6
Continuous
 62
     3
370
    25
100
AcDbLine
 10
401.8917240751454
 20
364.7792289610729
 30
0.0
 11
401.8917240751454
 21
362.7792289610725
 31
0.0
  0
LINE
  5
42A
330
1F
100
AcDbEntity
  8
Layer0000
  6
Continuous
 62
     3
370
    25
100
AcDbLine
 10
419.8917240751454
 20
364.7792289610729
 30
0.0
 11
419.8917240751454
 21
362.7792289610732
 31
0.0
  0
LINE
  5
42B
330
1F
100
AcDbEntity
  8
Layer0000
  6
Continuous
 62
     3
370
    25
100
AcDbLine
 10
401.8917240751454
 20
362.7792289610725
 30
0.0
 11
419.8917240751454
 21
362.7792289610732
 31
0.0
  0
LINE
  5
42C
330
1F
100
AcDbEntity
  8
Layer0000
  6
Continuous
 62
     3
370
    25
100
AcDbLine
 10
400.8917240751454
 20
361.7792289610732
 30
0.0
 11
420.8917240751454
 21
361.7792289610743
 31
0.0
  0
LINE
  5
42D
330
1F
100
AcDbEntity
  8
Layer0000
  6
Continuous
 62
     3
370
    25
100
AcDbLine
 10
420.8917240751454
 20
361.7792289610743
 30
0.0
 11
419.8917240751474
 21
362.7792289610732
 31
0.0
  0
LINE
  5
42E
330
1F
100
AcDbEntity
  8
Layer0000
  6
Continuous
 62
     3
370
    25
100
AcDbLine
 10
400.8917240751454
 20
361.7792289610732
 30
0.0
 11
401.8917240751454
 21
362.7792289610732
 31
0.0
  0
LINE
  5
42F
330
1F
100
AcDbEntity
  8
Layer0000
  6
Continuous
 62
     3
370
    25
100
AcDbLine
 10
317.8917240751456
 20
278.2792289610727
 30
0.0
 11
322.3917240751456
 21
278.2792289610727
 31
0.0
  0
LINE
  5
430
330
1F
100
AcDbEntity
  8
Layer0000
  6
Continuous
 62
     3
370
    25
100
AcDbLine
 10
317.8917240751456
 20
262.2792289610727
 30
0.0
 11
322.3917240751456
 21
262.2792289610727
 31
0.0
  0
LINE
  5
431
330
1F
100
AcDbEntity
  8
Layer0000
  6
Continuous
 62
     3
370
    25
100
AcDbLine
 10
317.8917240751456
 20
340.2792289610727
 30
0.0
 11
322.3917240751456
 21
340.2792289610727
 31
0.0
  0
LINE
  5
432
330
1F
100
AcDbEntity
  8
Layer0000
  6
Continuous
 62
     3
370
    25
100
AcDbLine
 10
317.8917240751456
 20
356.2792289610729
 30
0.0
 11
322.3917240751456
 21
356.2792289610729
 31
0.0
  0
LINE
  5
433
330
1F
100
AcDbEntity
  8
Layer0000
  6
Continuous
 62
     3
370
    25
100
AcDbLine
 10
322.3917240751456
 20
278.2792289610727
 30
0.0
 11
322.3917240751456
 21
262.2792289610727
 31
0.0
  0
LINE
  5
434
330
1F
100
AcDbEntity
  8
Layer0000
  6
Continuous
 62
     3
370
    25
100
AcDbLine
 10
322.3917240751456
 20
340.2792289610727
 30
0.0
 11
322.3917240751456
 21
356.2792289610729
 31
0.0
  0
ARC
  5
435
330
1F
100
AcDbEntity
  8
Layer0000
  6
Continuous
 62
     3
370
    25
100
AcDbCircle
 10
352.8917240751454
 20
309.2792289610729
 30
0.0
 40
16.5
100
AcDbArc
 50
344.1411102339315
 51
0.0
  0
ARC
  5
436
330
1F
100
AcDbEntity
  8
Layer0000
  6
Continuous
 62
     3
370
    25
100
AcDbCircle
 10
352.8917240751454
 20
309.2792289610729
 30
0.0
 40
16.5
100
AcDbArc
 50
180.0
 51
195.8588897660674
  0
ARC
  5
437
330
1F
100
AcDbEntity
  8
Layer0000
  6
Continuous
 62
     3
370
    25
100
AcDbCircle
 10
378.8917240751454
 20
279.7792289610727
 30
0.0
 40
6.0
100
AcDbArc
 50
0.0
 51
76.93027676579484
  0
LINE
  5
438
330
1F
100
AcDbEntity
  8
Layer0000
  6
Continuous
 62
     3
370
    25
100
AcDbLine
 10
384.8917240751454
 20
279.7792289610727
 30
0.0
 11
384.8917240751454
 21
279.2792289610727
 31
0.0
  0
LINE
  5
439
330
1F
100
AcDbEntity
  8
Layer0000
  6
Continuous
 62
     3
370
    25
100
AcDbLine
 10
386.8917240751454
 20
319.2792289610727
 30
0.0
 11
386.8917240751454
 21
299.2792289610729
 31
0.0
  0
LINE
  5
43A
330
1F
100
AcDbEntity
  8
Layer0000
  6
Continuous
 62
     3
370
    25
100
AcDbLine
 10
462.8917240751454
 20
230.2792289610727
 30
0.0
 11
462.8917240751454
 21
388.2792289610727
 31
0.0
  0
LINE
  5
43B
330
1F
100
AcDbEntity
  8
Layer0000
  6
Continuous
 62
     3
370
    25
100
AcDbLine
 10
318.8917240751454
 20
388.7792289610729
 30
0.0
 11
387.3917240751454
 21
388.7792289610729
 31
0.0
  0
LINE
  5
43C
330
1F
100
AcDbEntity
  8
Layer0000
  6
Continuous
 62
     3
370
    25
100
AcDbLine
 10
318.8917240751454
 20
229.7792289610727
 30
0.0
 11
387.3917240751454
 21
229.7792289610727
 31
0.0
  0
LINE
  5
43D
330
1F
100
AcDbEntity
  8
Layer0000
  6
Continuous
 62
     3
370
    25
100
AcDbLine
 10
358.8828974335978
 20
300.6562456148654
 30
0.0
 11
363.3550333885975
 21
308.4022123072803
 31
0.0
  0
LINE
  5
43E
330
1F
100
AcDbEntity
  8
Layer0000
  6
Continuous
 62
     3
370
    25
100
AcDbLine
 10
342.4284147616935
 20
308.4022123072803
 30
0.0
 11
346.9005507166931
 21
300.6562456148654
 31
0.0
  0
LINE
  5
43F
330
1F
100
AcDbEntity
  8
Layer0000
  6
Continuous
 62
     3
370
    25
100
AcDbLine
 10
348.4195881201459
 20
299.7792289610729
 30
0.0
 11
357.363860030145
 21
299.7792289610729
 31
0.0
  0
ARC
  5
440
330
1F
100
AcDbEntity
  8
Layer0000
  6
Continuous
 62
     3
370
    25
100
AcDbCircle
 10
352.8917240751454
 20
309.2792289610729
 30
0.0
 40
10.5
100
AcDbArc
 50
235.2087652967585
 51
244.7912347032416
  0
ARC
  5
441
330
1F
100
AcDbEntity
  8
Layer0000
  6
Continuous
 62
     3
370
    25
100
AcDbCircle
 10
352.8917240751454
 20
309.2792289610729
 30
0.0
 40
10.5
100
AcDbArc
 50
295.2087652967583
 51
304.7912347032418
  0
ARC
  5
442
330
1F
100
AcDbEntity
  8
Layer0000
  6
Continuous
 62
     3
370
    25
100
AcDbCircle
 10
352.8917240751454
 20
309.2792289610729
 30
0.0
 40
10.5
100
AcDbArc
 50
355.2087652967584
 51
0.0
  0
ARC
  5
443
330
1F
100
AcDbEntity
  8
Layer0000
  6
Continuous
 62
     3
370
    25
100
AcDbCircle
 10
352.8917240751454
 20
309.2792289610729
 30
0.0
 40
10.5
100
AcDbArc
 50
180.0
 51
184.7912347032415
  0
LINE
  5
444
330
1F
100
AcDbEntity
  8
Layer0000
  6
Continuous
 62
     3
370
    25
100
AcDbLine
 10
422.8917240751488
 20
339.2792289610727
 30
0.0
 11
429.8917240751454
 21
329.2792289610727
 31
0.0
  0
LINE
  5
445
330
1F
100
AcDbEntity
  8
Layer0000
  6
Continuous
 62
     3
370
    25
100
AcDbLine
 10
422.8917240751488
 20
279.2792289610727
 30
0.0
 11
429.8917240751454
 21
289.2792289610727
 31
0.0
  0
LINE
  5
446
330
1F
100
AcDbEntity
  8
Layer0000
  6
Continuous
 62
     3
370
    25
100
AcDbLine
 10
374.3917240751454
 20
339.7792289610729
 30
0.0
 11
392.8917240751454
 21
339.7792289610729
 31
0.0
  0
LINE
  5
447
330
1F
100
AcDbEntity
  8
Layer0000
  6
Continuous
 62
     3
370
    25
100
AcDbLine
 10
392.8917240751454
 20
339.7792289610729
 30
0.0
 11
392.8917240751454
 21
339.2792289610729
 31
0.0
  0
LINE
  5
448
330
1F
100
AcDbEntity
  8
Layer0000
  6
Continuous
 62
     3
370
    25
100
AcDbLine
 10
372.8917240751454
 20
341.2792289610729
 30
0.0
 11
374.3917240751454
 21
339.7792289610729
 31
0.0
  0
LINE
  5
449
330
1F
100
AcDbEntity
  8
Layer0000
  6
Continuous
 62
     3
370
    25
100
AcDbLine
 10
377.8917240751454
 20
337.7792289610729
 30
0.0
 11
372.3917240751454
 21
337.7792289610729
 31
0.0
  0
LINE
  5
44A
330
1F
100
AcDbEntity
  8
Layer0000
  6
Continuous
 62
     3
370
    25
100
AcDbLine
 10
372.8917240751454
 20
340.7792289610729
 30
0.0
 11
372.3917240751454
 21
340.7792289610729
 31
0.0
  0
LINE
  5
44B
330
1F
100
AcDbEntity
  8
Layer0000
  6
Continuous
 62
     3
370
    25
100
AcDbLine
 10
372.3917240751454
 20
340.7792289610729
 30
0.0
 11
372.3917240751454
 21
337.7792289610729
 31
0.0
  0
LINE
  5
44C
330
1F
100
AcDbEntity
  8
Layer0000
  6
Continuous
 62
     3
370
    25
100
AcDbLine
 10
384.8917240751454
 20
338.7792289610729
 30
0.0
 11
384.8917240751454
 21
339.2792289610729
 31
0.0
  0
ARC
  5
44D
330
1F
100
AcDbEntity
  8
Layer0000
  6
Continuous
 62
     3
370
    25
100
AcDbCircle
 10
378.8917240751454
 20
338.7792289610729
 30
0.0
 40
6.0
100
AcDbArc
 50
283.0697232342051
 51
0.0
  0
LINE
  5
44E
330
1F
100
AcDbEntity
  8
Layer0000
  6
Continuous
 62
     3
370
    25
100
AcDbLine
 10
386.8917240751454
 20
319.2792289610729
 30
0.0
 11
377.8917240751454
 21
337.7792289610729
 31
0.0
  0
ARC
  5
44F
330
1F
100
AcDbEntity
  8
Layer0000
  6
Continuous
 62
     3
370
    25
100
AcDbCircle
 10
352.8917240751454
 20
309.2792289610729
 30
0.0
 40
16.5
100
AcDbArc
 50
164.1411102339325
 51
180.0
  0
ARC
  5
450
330
1F
100
AcDbEntity
  8
Layer0000
  6
Continuous
 62
     3
370
    25
100
AcDbCircle
 10
352.8917240751454
 20
309.2792289610729
 30
0.0
 40
16.5
100
AcDbArc
 50
104.1411102339325
 51
135.8588897660674
  0
LINE
  5
451
330
1F
100
AcDbEntity
  8
Layer0000
  6
Continuous
 62
     3
370
    25
100
AcDbLine
 10
344.6455128239101
 20
325.2792289610729
 30
0.0
 11
361.1379353263807
 21
325.2792289610729
 31
0.0
  0
ARC
  5
452
330
1F
100
AcDbEntity
  8
Layer0000
  6
Continuous
 62
     3
370
    25
100
AcDbCircle
 10
352.8917240751454
 20
309.2792289610729
 30
0.0
 40
16.5
100
AcDbArc
 50
44.14111023393129
 51
75.85888976606753
  0
LINE
  5
453
330
1F
100
AcDbEntity
  8
Layer0000
  6
Continuous
 62
     3
370
    25
100
AcDbLine
 10
362.6250249100789
 20
324.4206573896158
 30
0.0
 11
370.8712361613142
 21
310.13780053253
 31
0.0
  0
ARC
  5
454
330
1F
100
AcDbEntity
  8
Layer0000
  6
Continuous
 62
     3
370
    25
100
AcDbCircle
 10
352.8917240751454
 20
309.2792289610729
 30
0.0
 40
16.5
100
AcDbArc
 50
0.0
 51
15.85888976606849
  0
LINE
  5
455
330
1F
100
AcDbEntity
  8
Layer0000
  6
Continuous
 62
     3
370
    25
100
AcDbLine
 10
334.9122119889768
 20
310.13780053253
 30
0.0
 11
343.1584232402121
 21
324.4206573896158
 31
0.0
  0
LINE
  5
456
330
1F
100
AcDbEntity
  8
Layer0000
  6
Continuous
 62
     3
370
    25
100
AcDbLine
 10
342.4284147616935
 20
310.1562456148656
 30
0.0
 11
346.9005507166931
 21
317.9022123072803
 31
0.0
  0
ARC
  5
457
330
1F
100
AcDbEntity
  8
Layer0000
  6
Continuous
 62
     3
370
    25
100
AcDbCircle
 10
352.8917240751454
 20
309.2792289610729
 30
0.0
 40
10.5
100
AcDbArc
 50
115.2087652967583
 51
124.7912347032415
  0
ARC
  5
458
330
1F
100
AcDbEntity
  8
Layer0000
  6
Continuous
 62
     3
370
    25
100
AcDbCircle
 10
352.8917240751454
 20
309.2792289610729
 30
0.0
 40
10.5
100
AcDbArc
 50
175.2087652967584
 51
180.0
  0
LINE
  5
459
330
1F
100
AcDbEntity
  8
Layer0000
  6
Continuous
 62
     3
370
    25
100
AcDbLine
 10
348.4195881201459
 20
318.7792289610729
 30
0.0
 11
357.363860030145
 21
318.7792289610729
 31
0.0
  0
ARC
  5
45A
330
1F
100
AcDbEntity
  8
Layer0000
  6
Continuous
 62
     3
370
    25
100
AcDbCircle
 10
352.8917240751454
 20
309.2792289610729
 30
0.0
 40
10.5
100
AcDbArc
 50
55.20876529675822
 51
64.79123470324167
  0
LINE
  5
45B
330
1F
100
AcDbEntity
  8
Layer0000
  6
Continuous
 62
     3
370
    25
100
AcDbLine
 10
358.8828974335978
 20
317.9022123072803
 30
0.0
 11
363.3550333885975
 21
310.1562456148654
 31
0.0
  0
ARC
  5
45C
330
1F
100
AcDbEntity
  8
Layer0000
  6
Continuous
 62
     3
370
    25
100
AcDbCircle
 10
352.8917240751454
 20
309.2792289610729
 30
0.0
 40
10.5
100
AcDbArc
 50
0.0
 51
4.791234703241557
  0
CIRCLE
  5
45D
330
1F
100
AcDbEntity
  8
Layer0000
  6
Continuous
 62
     3
370
    25
100
AcDbCircle
 10
352.8917240751454
 20
309.2792289610729
 30
0.0
 40
11.0
  0
CIRCLE
  5
45E
330
1F
100
AcDbEntity
  8
Layer0000
  6
Continuous
 62
     3
370
    25
100
AcDbCircle
 10
352.8917240751454
 20
309.2792289610729
 30
0.0
 40
9.5
  0
CIRCLE
  5
45F
330
1F
100
AcDbEntity
  8
Layer0000
  6
Continuous
 62
     3
370
    25
100
AcDbCircle
 10
352.8917240751454
 20
309.2792289610729
 30
0.0
 40
13.99999998577749
  0
CIRCLE
  5
460
330
1F
100
AcDbEntity
  8
Layer0000
  6
Continuous
 62
     3
370
    25
100
AcDbCircle
 10
352.8917240751454
 20
309.2792289610729
 30
0.0
 40
18.0
  0
CIRCLE
  5
461
330
1F
100
AcDbEntity
  8
Layer0000
  6
Continuous
 62
     3
370
    25
100
AcDbCircle
 10
352.8917240751454
 20
336.2792289610729
 30
0.0
 40
2.807179676972453
  0
CIRCLE
  5
462
330
1F
100
AcDbEntity
  8
Layer0000
  6
Continuous
 62
     3
370
    25
100
AcDbCircle
 10
352.8917240751454
 20
336.2792289610729
 30
0.0
 40
3.5
  0
LINE
  5
463
330
1F
100
AcDbEntity
  8
Layer0000
  6
Continuous
 62
     3
370
    25
100
AcDbLine
 10
352.8917240751454
 20
338.0112797686418
 30
0.0
 11
354.3917240751454
 21
337.1452543648572
 31
0.0
  0
LINE
  5
464
330
1F
100
AcDbEntity
  8
Layer0000
  6
Continuous
 62
     3
370
    25
100
AcDbLine
 10
354.3917240751454
 20
337.1452543648572
 30
0.0
 11
354.3917240751454
 21
335.4132035572884
 31
0.0
  0
LINE
  5
465
330
1F
100
AcDbEntity
  8
Layer0000
  6
Continuous
 62
     3
370
    25
100
AcDbLine
 10
354.3917240751454
 20
335.4132035572884
 30
0.0
 11
352.8917240751454
 21
334.5471781535041
 31
0.0
  0
LINE
  5
466
330
1F
100
AcDbEntity
  8
Layer0000
  6
Continuous
 62
     3
370
    25
100
AcDbLine
 10
352.8917240751454
 20
334.5471781535041
 30
0.0
 11
351.3917240751454
 21
335.4132035572884
 31
0.0
  0
LINE
  5
467
330
1F
100
AcDbEntity
  8
Layer0000
  6
Continuous
 62
     3
370
    25
100
AcDbLine
 10
351.3917240751454
 20
335.4132035572884
 30
0.0
 11
351.3917240751454
 21
337.1452543648572
 31
0.0
  0
LINE
  5
468
330
1F
100
AcDbEntity
  8
Layer0000
  6
Continuous
 62
     3
370
    25
100
AcDbLine
 10
351.3917240751454
 20
337.1452543648572
 30
0.0
 11
352.8917240751454
 21
338.0112797686418
 31
0.0
  0
CIRCLE
  5
469
330
1F
100
AcDbEntity
  8
Layer0000
  6
Continuous
 62
     3
370
    25
100
AcDbCircle
 10
352.8917240751454
 20
309.2792289610729
 30
0.0
 40
31.74999999999994
  0
CIRCLE
  5
46A
330
1F
100
AcDbEntity
  8
Layer0000
  6
Continuous
 62
     3
370
    25
100
AcDbCircle
 10
352.8917240751454
 20
309.2792289610729
 30
0.0
 40
31.24999999999997
  0
CIRCLE
  5
46B
330
1F
100
AcDbEntity
  8
Layer0000
  6
Continuous
 62
     3
370
    25
100
AcDbCircle
 10
325.8917240751454
 20
309.2792289610729
 30
0.0
 40
2.807179676972453
  0
CIRCLE
  5
46C
330
1F
100
AcDbEntity
  8
Layer0000
  6
Continuous
 62
     3
370
    25
100
AcDbCircle
 10
325.8917240751454
 20
309.2792289610729
 30
0.0
 40
3.5
  0
LINE
  5
46D
330
1F
100
AcDbEntity
  8
Layer0000
  6
Continuous
 62
     3
370
    25
100
AcDbLine
 10
325.8917240751454
 20
311.0112797686418
 30
0.0
 11
327.3917240751454
 21
310.1452543648572
 31
0.0
  0
LINE
  5
46E
330
1F
100
AcDbEntity
  8
Layer0000
  6
Continuous
 62
     3
370
    25
100
AcDbLine
 10
327.3917240751454
 20
310.1452543648572
 30
0.0
 11
327.3917240751454
 21
308.4132035572884
 31
0.0
  0
LINE
  5
46F
330
1F
100
AcDbEntity
  8
Layer0000
  6
Continuous
 62
     3
370
    25
100
AcDbLine
 10
327.3917240751454
 20
308.4132035572884
 30
0.0
 11
325.8917240751454
 21
307.5471781535039
 31
0.0
  0
LINE
  5
470
330
1F
100
AcDbEntity
  8
Layer0000
  6
Continuous
 62
     3
370
    25
100
AcDbLine
 10
325.8917240751454
 20
307.5471781535039
 30
0.0
 11
324.3917240751454
 21
308.4132035572884
 31
0.0
  0
LINE
  5
471
330
1F
100
AcDbEntity
  8
Layer0000
  6
Continuous
 62
     3
370
    25
100
AcDbLine
 10
324.3917240751454
 20
308.4132035572884
 30
0.0
 11
324.3917240751454
 21
310.1452543648572
 31
0.0
  0
LINE
  5
472
330
1F
100
AcDbEntity
  8
Layer0000
  6
Continuous
 62
     3
370
    25
100
AcDbLine
 10
324.3917240751454
 20
310.1452543648572
 30
0.0
 11
325.8917240751454
 21
311.0112797686418
 31
0.0
  0
CIRCLE
  5
473
330
1F
100
AcDbEntity
  8
Layer0000
  6
Continuous
 62
     3
370
    25
100
AcDbCircle
 10
379.8917240751456
 20
309.2792289610729
 30
0.0
 40
2.807179676972453
  0
CIRCLE
  5
474
330
1F
100
AcDbEntity
  8
Layer0000
  6
Continuous
 62
     3
370
    25
100
AcDbCircle
 10
379.8917240751456
 20
309.2792289610729
 30
0.0
 40
3.5
  0
LINE
  5
475
330
1F
100
AcDbEntity
  8
Layer0000
  6
Continuous
 62
     3
370
    25
100
AcDbLine
 10
379.8917240751456
 20
311.0112797686418
 30
0.0
 11
381.3917240751456
 21
310.1452543648572
 31
0.0
  0
LINE
  5
476
330
1F
100
AcDbEntity
  8
Layer0000
  6
Continuous
 62
     3
370
    25
100
AcDbLine
 10
381.3917240751456
 20
310.1452543648572
 30
0.0
 11
381.3917240751456
 21
308.4132035572884
 31
0.0
  0
LINE
  5
477
330
1F
100
AcDbEntity
  8
Layer0000
  6
Continuous
 62
     3
370
    25
100
AcDbLine
 10
381.3917240751456
 20
308.4132035572884
 30
0.0
 11
379.8917240751456
 21
307.5471781535039
 31
0.0
  0
LINE
  5
478
330
1F
100
AcDbEntity
  8
Layer0000
  6
Continuous
 62
     3
370
    25
100
AcDbLine
 10
379.8917240751456
 20
307.5471781535039
 30
0.0
 11
378.3917240751456
 21
308.4132035572884
 31
0.0
  0
LINE
  5
479
330
1F
100
AcDbEntity
  8
Layer0000
  6
Continuous
 62
     3
370
    25
100
AcDbLine
 10
378.3917240751456
 20
308.4132035572884
 30
0.0
 11
378.3917240751456
 21
310.1452543648572
 31
0.0
  0
LINE
  5
47A
330
1F
100
AcDbEntity
  8
Layer0000
  6
Continuous
 62
     3
370
    25
100
AcDbLine
 10
378.3917240751456
 20
310.1452543648572
 30
0.0
 11
379.8917240751456
 21
311.0112797686418
 31
0.0
  0
CIRCLE
  5
47B
330
1F
100
AcDbEntity
  8
Layer0000
  6
Continuous
 62
     3
370
    25
100
AcDbCircle
 10
-75.55950840879754
 20
-148.3969669937556
 30
0.0
 40
10.0
  0
LINE
  5
47C
330
1F
100
AcDbEntity
  8
Layer0000
  6
Continuous
 62
     3
370
    25
100
AcDbLine
 10
-371.5595084087976
 20
-196.3969669937556
 30
0.0
 11
-371.5595084087976
 21
-207.8969669937556
 31
0.0
  0
LINE
  5
47D
330
1F
100
AcDbEntity
  8
Layer0000
  6
Continuous
 62
     3
370
    25
100
AcDbLine
 10
-389.5595084087976
 20
-207.8969669937556
 30
0.0
 11
-389.5595084087976
 21
-196.3969669937556
 31
0.0
  0
LINE
  5
47E
330
1F
100
AcDbEntity
  8
Layer0000
  6
Continuous
 62
     3
370
    25
100
AcDbLine
 10
-559.5595084087977
 20
-200.3969669937556
 30
0.0
 11
-389.5595084087976
 21
-200.3969669937556
 31
0.0
  0
LINE
  5
47F
330
1F
100
AcDbEntity
  8
Layer0000
  6
Continuous
 62
     3
370
    25
100
AcDbLine
 10
-371.5595084087976
 20
-200.3969669937556
 30
0.0
 11
58.44049159120237
 21
-200.3969669937556
 31
0.0
  0
CIRCLE
  5
480
330
1F
100
AcDbEntity
  8
Layer0000
  6
Continuous
 62
     3
370
    25
100
AcDbCircle
 10
-503.5595084087977
 20
309.2792289610729
 30
0.0
 40
4.189999999999998
  0
CIRCLE
  5
481
330
1F
100
AcDbEntity
  8
Layer0000
  6
Continuous
 62
     3
370
    25
100
AcDbCircle
 10
-503.5595084087977
 20
309.2792289610729
 30
0.0
 40
5.0
  0
LINE
  5
482
330
1F
100
AcDbEntity
  8
Layer0000
  6
Continuous
 62
     3
370
    25
100
AcDbLine
 10
-501.0595084087977
 20
310.722604634047
 30
0.0
 11
-501.0595084087977
 21
307.8358532880989
 31
0.0
  0
LINE
  5
483
330
1F
100
AcDbEntity
  8
Layer0000
  6
Continuous
 62
     3
370
    25
100
AcDbLine
 10
-506.0595084087977
 20
310.722604634047
 30
0.0
 11
-506.0595084087977
 21
307.8358532880989
 31
0.0
  0
LINE
  5
484
330
1F
100
AcDbEntity
  8
Layer0000
  6
Continuous
 62
     3
370
    25
100
AcDbLine
 10
-501.0595084087977
 20
307.8358532880989
 30
0.0
 11
-503.5595084087977
 21
306.3924776151248
 31
0.0
  0
LINE
  5
485
330
1F
100
AcDbEntity
  8
Layer0000
  6
Continuous
 62
     3
370
    25
100
AcDbLine
 10
-503.5595084087977
 20
312.1659803070211
 30
0.0
 11
-506.0595084087977
 21
310.722604634047
 31
0.0
  0
LINE
  5
486
330
1F
100
AcDbEntity
  8
Layer0000
  6
Continuous
 62
     3
370
    25
100
AcDbLine
 10
-503.5595084087977
 20
312.1659803070211
 30
0.0
 11
-501.0595084087977
 21
310.722604634047
 31
0.0
  0
LINE
  5
487
330
1F
100
AcDbEntity
  8
Layer0000
  6
Continuous
 62
     3
370
    25
100
AcDbLine
 10
-506.0595084087977
 20
307.8358532880989
 30
0.0
 11
-503.5595084087977
 21
306.3924776151248
 31
0.0
  0
CIRCLE
  5
488
330
1F
100
AcDbEntity
  8
Layer0000
  6
Continuous
 62
     3
370
    25
100
AcDbCircle
 10
-503.5595084087977
 20
249.279228961073
 30
0.0
 40
4.189999999999998
  0
CIRCLE
  5
489
330
1F
100
AcDbEntity
  8
Layer0000
  6
Continuous
 62
     3
370
    25
100
AcDbCircle
 10
-503.5595084087977
 20
249.279228961073
 30
0.0
 40
5.0
  0
LINE
  5
48A
330
1F
100
AcDbEntity
  8
Layer0000
  6
Continuous
 62
     3
370
    25
100
AcDbLine
 10
-501.0595084087977
 20
250.722604634047
 30
0.0
 11
-501.0595084087977
 21
247.8358532880989
 31
0.0
  0
LINE
  5
48B
330
1F
100
AcDbEntity
  8
Layer0000
  6
Continuous
 62
     3
370
    25
100
AcDbLine
 10
-506.0595084087977
 20
250.722604634047
 30
0.0
 11
-506.0595084087977
 21
247.8358532880989
 31
0.0
  0
LINE
  5
48C
330
1F
100
AcDbEntity
  8
Layer0000
  6
Continuous
 62
     3
370
    25
100
AcDbLine
 10
-501.0595084087977
 20
247.8358532880989
 30
0.0
 11
-503.5595084087977
 21
246.3924776151248
 31
0.0
  0
LINE
  5
48D
330
1F
100
AcDbEntity
  8
Layer0000
  6
Continuous
 62
     3
370
    25
100
AcDbLine
 10
-503.5595084087977
 20
252.1659803070211
 30
0.0
 11
-506.0595084087977
 21
250.722604634047
 31
0.0
  0
LINE
  5
48E
330
1F
100
AcDbEntity
  8
Layer0000
  6
Continuous
 62
     3
370
    25
100
AcDbLine
 10
-503.5595084087977
 20
252.1659803070211
 30
0.0
 11
-501.0595084087977
 21
250.722604634047
 31
0.0
  0
LINE
  5
48F
330
1F
100
AcDbEntity
  8
Layer0000
  6
Continuous
 62
     3
370
    25
100
AcDbLine
 10
-506.0595084087977
 20
247.8358532880989
 30
0.0
 11
-503.5595084087977
 21
246.3924776151248
 31
0.0
  0
CIRCLE
  5
490
330
1F
100
AcDbEntity
  8
Layer0000
  6
Continuous
 62
     3
370
    25
100
AcDbCircle
 10
-503.5595084087977
 20
369.2792289610729
 30
0.0
 40
4.189999999999998
  0
CIRCLE
  5
491
330
1F
100
AcDbEntity
  8
Layer0000
  6
Continuous
 62
     3
370
    25
100
AcDbCircle
 10
-503.5595084087977
 20
369.2792289610729
 30
0.0
 40
5.0
  0
LINE
  5
492
330
1F
100
AcDbEntity
  8
Layer0000
  6
Continuous
 62
     3
370
    25
100
AcDbLine
 10
-501.0595084087977
 20
367.8358532880989
 30
0.0
 11
-501.0595084087977
 21
370.722604634047
 31
0.0
  0
LINE
  5
493
330
1F
100
AcDbEntity
  8
Layer0000
  6
Continuous
 62
     3
370
    25
100
AcDbLine
 10
-506.0595084087977
 20
367.8358532880989
 30
0.0
 11
-506.0595084087977
 21
370.722604634047
 31
0.0
  0
LINE
  5
494
330
1F
100
AcDbEntity
  8
Layer0000
  6
Continuous
 62
     3
370
    25
100
AcDbLine
 10
-501.0595084087977
 20
370.722604634047
 30
0.0
 11
-503.5595084087977
 21
372.1659803070211
 31
0.0
  0
LINE
  5
495
330
1F
100
AcDbEntity
  8
Layer0000
  6
Continuous
 62
     3
370
    25
100
AcDbLine
 10
-503.5595084087977
 20
366.3924776151248
 30
0.0
 11
-506.0595084087977
 21
367.8358532880989
 31
0.0
  0
LINE
  5
496
330
1F
100
AcDbEntity
  8
Layer0000
  6
Continuous
 62
     3
370
    25
100
AcDbLine
 10
-503.5595084087977
 20
366.3924776151248
 30
0.0
 11
-501.0595084087977
 21
367.8358532880989
 31
0.0
  0
LINE
  5
497
330
1F
100
AcDbEntity
  8
Layer0000
  6
Continuous
 62
     3
370
    25
100
AcDbLine
 10
-506.0595084087977
 20
370.722604634047
 30
0.0
 11
-503.5595084087977
 21
372.1659803070211
 31
0.0
  0
CIRCLE
  5
498
330
1F
100
AcDbEntity
  8
Layer0000
  6
Continuous
 62
     3
370
    25
100
AcDbCircle
 10
-489.5595084087979
 20
351.2792289610729
 30
0.0
 40
12.99999999999983
  0
CIRCLE
  5
499
330
1F
100
AcDbEntity
  8
Layer0000
  6
Continuous
 62
     3
370
    25
100
AcDbCircle
 10
-489.5595084087979
 20
267.2792289610729
 30
0.0
 40
12.99999999999983
  0
CIRCLE
  5
49A
330
1F
100
AcDbEntity
  8
Layer0000
  6
Continuous
 62
     3
370
    25
100
AcDbCircle
 10
-544.5595084087977
 20
267.2792289610729
 30
0.0
 40
12.99999999999983
  0
CIRCLE
  5
49B
330
1F
100
AcDbEntity
  8
Layer0000
  6
Continuous
 62
     3
370
    25
100
AcDbCircle
 10
-544.5595084087977
 20
351.2792289610729
 30
0.0
 40
12.99999999999983
  0
LINE
  5
49C
330
1F
100
AcDbEntity
  8
Layer0000
  6
Continuous
 62
     3
370
    25
100
AcDbLine
 10
-513.5595084087977
 20
229.779228961073
 30
0.0
 11
-513.5595084087977
 21
388.7792289610728
 31
0.0
  0
LINE
  5
49D
330
1F
100
AcDbEntity
  8
Layer0000
  6
Continuous
 62
     3
370
    25
100
AcDbLine
 10
-529.5595084087977
 20
229.779228961073
 30
0.0
 11
-529.5595084087977
 21
388.7792289610728
 31
0.0
  0
LINE
  5
49E
330
1F
100
AcDbEntity
  8
Layer0000
  6
Continuous
 62
     3
370
    25
100
AcDbLine
 10
104.7404915912024
 20
262.2792289610727
 30
0.0
 11
104.7404915912024
 21
229.779228961073
 31
0.0
  0
LINE
  5
49F
330
1F
100
AcDbEntity
  8
Layer0000
  6
Continuous
 62
     3
370
    25
100
AcDbLine
 10
88.74049159120233
 20
229.779228961073
 30
0.0
 11
88.74049159120233
 21
262.2792289610727
 31
0.0
  0
LINE
  5
4A0
330
1F
100
AcDbEntity
  8
Layer0000
  6
Continuous
 62
     3
370
    25
100
AcDbLine
 10
104.7404915912024
 20
388.7792289610729
 30
0.0
 11
104.7404915912024
 21
356.2792289610729
 31
0.0
  0
LINE
  5
4A1
330
1F
100
AcDbEntity
  8
Layer0000
  6
Continuous
 62
     3
370
    25
100
AcDbLine
 10
88.74049159120233
 20
356.2792289610729
 30
0.0
 11
88.74049159120233
 21
388.7792289610729
 31
0.0
  0
LINE
  5
4A2
330
1F
100
AcDbEntity
  8
Layer0000
  6
Continuous
 62
     3
370
    25
100
AcDbLine
 10
129.7404915912026
 20
356.2792289610729
 30
0.0
 11
104.7404915912024
 21
356.2792289610729
 31
0.0
  0
LINE
  5
4A3
330
1F
100
AcDbEntity
  8
Layer0000
  6
Continuous
 62
     3
370
    25
100
AcDbLine
 10
88.74049159120233
 20
356.2792289610729
 30
0.0
 11
6.740491591202527
 21
356.2792289610729
 31
0.0
  0
LINE
  5
4A4
330
1F
100
AcDbEntity
  8
Layer0000
  6
Continuous
 62
     3
370
    25
100
AcDbLine
 10
129.7404915912026
 20
262.2792289610727
 30
0.0
 11
104.7404915912024
 21
262.2792289610727
 31
0.0
  0
LINE
  5
4A5
330
1F
100
AcDbEntity
  8
Layer0000
  6
Continuous
 62
     3
370
    25
100
AcDbLine
 10
88.74049159120233
 20
262.2792289610727
 30
0.0
 11
6.740491591202527
 21
262.2792289610727
 31
0.0
  0
CIRCLE
  5
4A6
330
1F
100
AcDbEntity
  8
Layer0000
  6
Continuous
 62
     3
370
    25
100
AcDbCircle
 10
78.74049159120227
 20
249.279228961073
 30
0.0
 40
4.189999999999998
  0
CIRCLE
  5
4A7
330
1F
100
AcDbEntity
  8
Layer0000
  6
Continuous
 62
     3
370
    25
100
AcDbCircle
 10
78.74049159120227
 20
249.279228961073
 30
0.0
 40
5.0
  0
LINE
  5
4A8
330
1F
100
AcDbEntity
  8
Layer0000
  6
Continuous
 62
     3
370
    25
100
AcDbLine
 10
81.24049159120227
 20
247.8358532880989
 30
0.0
 11
81.24049159120227
 21
250.722604634047
 31
0.0
  0
LINE
  5
4A9
330
1F
100
AcDbEntity
  8
Layer0000
  6
Continuous
 62
     3
370
    25
100
AcDbLine
 10
76.24049159120227
 20
247.8358532880989
 30
0.0
 11
76.24049159120227
 21
250.722604634047
 31
0.0
  0
LINE
  5
4AA
330
1F
100
AcDbEntity
  8
Layer0000
  6
Continuous
 62
     3
370
    25
100
AcDbLine
 10
81.24049159120227
 20
250.722604634047
 30
0.0
 11
78.74049159120227
 21
252.1659803070211
 31
0.0
  0
LINE
  5
4AB
330
1F
100
AcDbEntity
  8
Layer0000
  6
Continuous
 62
     3
370
    25
100
AcDbLine
 10
78.74049159120227
 20
246.3924776151248
 30
0.0
 11
76.24049159120227
 21
247.8358532880989
 31
0.0
  0
LINE
  5
4AC
330
1F
100
AcDbEntity
  8
Layer0000
  6
Continuous
 62
     3
370
    25
100
AcDbLine
 10
78.74049159120227
 20
246.3924776151248
 30
0.0
 11
81.24049159120227
 21
247.8358532880989
 31
0.0
  0
LINE
  5
4AD
330
1F
100
AcDbEntity
  8
Layer0000
  6
Continuous
 62
     3
370
    25
100
AcDbLine
 10
76.24049159120227
 20
250.722604634047
 30
0.0
 11
78.74049159120227
 21
252.1659803070211
 31
0.0
  0
CIRCLE
  5
4AE
330
1F
100
AcDbEntity
  8
Layer0000
  6
Continuous
 62
     3
370
    25
100
AcDbCircle
 10
-19.25950840879761
 20
249.279228961073
 30
0.0
 40
4.189999999999998
  0
CIRCLE
  5
4AF
330
1F
100
AcDbEntity
  8
Layer0000
  6
Continuous
 62
     3
370
    25
100
AcDbCircle
 10
-19.25950840879761
 20
249.279228961073
 30
0.0
 40
5.0
  0
LINE
  5
4B0
330
1F
100
AcDbEntity
  8
Layer0000
  6
Continuous
 62
     3
370
    25
100
AcDbLine
 10
-16.75950840879761
 20
247.8358532880989
 30
0.0
 11
-16.75950840879761
 21
250.722604634047
 31
0.0
  0
LINE
  5
4B1
330
1F
100
AcDbEntity
  8
Layer0000
  6
Continuous
 62
     3
370
    25
100
AcDbLine
 10
-21.75950840879761
 20
247.8358532880989
 30
0.0
 11
-21.75950840879761
 21
250.722604634047
 31
0.0
  0
LINE
  5
4B2
330
1F
100
AcDbEntity
  8
Layer0000
  6
Continuous
 62
     3
370
    25
100
AcDbLine
 10
-16.75950840879761
 20
250.722604634047
 30
0.0
 11
-19.25950840879761
 21
252.1659803070211
 31
0.0
  0
LINE
  5
4B3
330
1F
100
AcDbEntity
  8
Layer0000
  6
Continuous
 62
     3
370
    25
100
AcDbLine
 10
-19.25950840879761
 20
246.3924776151248
 30
0.0
 11
-21.75950840879761
 21
247.8358532880989
 31
0.0
  0
LINE
  5
4B4
330
1F
100
AcDbEntity
  8
Layer0000
  6
Continuous
 62
     3
370
    25
100
AcDbLine
 10
-19.25950840879761
 20
246.3924776151248
 30
0.0
 11
-16.75950840879761
 21
247.8358532880989
 31
0.0
  0
LINE
  5
4B5
330
1F
100
AcDbEntity
  8
Layer0000
  6
Continuous
 62
     3
370
    25
100
AcDbLine
 10
-21.75950840879761
 20
250.722604634047
 30
0.0
 11
-19.25950840879761
 21
252.1659803070211
 31
0.0
  0
CIRCLE
  5
4B6
330
1F
100
AcDbEntity
  8
Layer0000
  6
Continuous
 62
     3
370
    25
100
AcDbCircle
 10
-19.25950840879761
 20
369.2792289610729
 30
0.0
 40
4.189999999999998
  0
CIRCLE
  5
4B7
330
1F
100
AcDbEntity
  8
Layer0000
  6
Continuous
 62
     3
370
    25
100
AcDbCircle
 10
-19.25950840879761
 20
369.2792289610729
 30
0.0
 40
5.0
  0
LINE
  5
4B8
330
1F
100
AcDbEntity
  8
Layer0000
  6
Continuous
 62
     3
370
    25
100
AcDbLine
 10
-16.75950840879761
 20
367.8358532880989
 30
0.0
 11
-16.75950840879761
 21
370.722604634047
 31
0.0
  0
LINE
  5
4B9
330
1F
100
AcDbEntity
  8
Layer0000
  6
Continuous
 62
     3
370
    25
100
AcDbLine
 10
-21.75950840879761
 20
367.8358532880989
 30
0.0
 11
-21.75950840879761
 21
370.722604634047
 31
0.0
  0
LINE
  5
4BA
330
1F
100
AcDbEntity
  8
Layer0000
  6
Continuous
 62
     3
370
    25
100
AcDbLine
 10
-16.75950840879761
 20
370.722604634047
 30
0.0
 11
-19.25950840879761
 21
372.1659803070211
 31
0.0
  0
LINE
  5
4BB
330
1F
100
AcDbEntity
  8
Layer0000
  6
Continuous
 62
     3
370
    25
100
AcDbLine
 10
-19.25950840879761
 20
366.3924776151248
 30
0.0
 11
-21.75950840879761
 21
367.8358532880989
 31
0.0
  0
LINE
  5
4BC
330
1F
100
AcDbEntity
  8
Layer0000
  6
Continuous
 62
     3
370
    25
100
AcDbLine
 10
-19.25950840879761
 20
366.3924776151248
 30
0.0
 11
-16.75950840879761
 21
367.8358532880989
 31
0.0
  0
LINE
  5
4BD
330
1F
100
AcDbEntity
  8
Layer0000
  6
Continuous
 62
     3
370
    25
100
AcDbLine
 10
-21.75950840879761
 20
370.722604634047
 30
0.0
 11
-19.25950840879761
 21
372.1659803070211
 31
0.0
  0
CIRCLE
  5
4BE
330
1F
100
AcDbEntity
  8
Layer0000
  6
Continuous
 62
     3
370
    25
100
AcDbCircle
 10
78.74049159120227
 20
369.2792289610729
 30
0.0
 40
4.189999999999998
  0
CIRCLE
  5
4BF
330
1F
100
AcDbEntity
  8
Layer0000
  6
Continuous
 62
     3
370
    25
100
AcDbCircle
 10
78.74049159120227
 20
369.2792289610729
 30
0.0
 40
5.0
  0
LINE
  5
4C0
330
1F
100
AcDbEntity
  8
Layer0000
  6
Continuous
 62
     3
370
    25
100
AcDbLine
 10
81.24049159120227
 20
367.8358532880989
 30
0.0
 11
81.24049159120227
 21
370.722604634047
 31
0.0
  0
LINE
  5
4C1
330
1F
100
AcDbEntity
  8
Layer0000
  6
Continuous
 62
     3
370
    25
100
AcDbLine
 10
76.24049159120227
 20
367.8358532880989
 30
0.0
 11
76.24049159120227
 21
370.722604634047
 31
0.0
  0
LINE
  5
4C2
330
1F
100
AcDbEntity
  8
Layer0000
  6
Continuous
 62
     3
370
    25
100
AcDbLine
 10
81.24049159120227
 20
370.722604634047
 30
0.0
 11
78.74049159120227
 21
372.1659803070211
 31
0.0
  0
LINE
  5
4C3
330
1F
100
AcDbEntity
  8
Layer0000
  6
Continuous
 62
     3
370
    25
100
AcDbLine
 10
78.74049159120227
 20
366.3924776151248
 30
0.0
 11
76.24049159120227
 21
367.8358532880989
 31
0.0
  0
LINE
  5
4C4
330
1F
100
AcDbEntity
  8
Layer0000
  6
Continuous
 62
     3
370
    25
100
AcDbLine
 10
78.74049159120227
 20
366.3924776151248
 30
0.0
 11
81.24049159120227
 21
367.8358532880989
 31
0.0
  0
LINE
  5
4C5
330
1F
100
AcDbEntity
  8
Layer0000
  6
Continuous
 62
     3
370
    25
100
AcDbLine
 10
76.24049159120227
 20
370.722604634047
 30
0.0
 11
78.74049159120227
 21
372.1659803070211
 31
0.0
  0
LINE
  5
4C6
330
1F
100
AcDbEntity
  8
Layer0000
  6
Continuous
 62
     3
370
    25
100
AcDbLine
 10
-560.5595084087977
 20
-124.8969669937556
 30
0.0
 11
-440.5595084087976
 21
-124.8969669937556
 31
0.0
  0
LINE
  5
4C7
330
1F
100
AcDbEntity
  8
Layer0000
  6
Continuous
 62
     3
370
    25
100
AcDbLine
 10
-440.5595084087976
 20
-124.8969669937556
 30
0.0
 11
-440.5595084087976
 21
-125.3969669937556
 31
0.0
  0
LINE
  5
4C8
330
1F
100
AcDbEntity
  8
Layer0000
  6
Continuous
 62
     3
370
    25
100
AcDbLine
 10
461.8917240751456
 20
389.2792289610727
 30
0.0
 11
441.8917240751456
 21
389.2792289610728
 31
0.0
  0
LINE
  5
4C9
330
1F
100
AcDbEntity
  8
Layer0000
  6
Continuous
 62
     3
370
    25
100
AcDbLine
 10
441.8917240751456
 20
389.2792289610728
 30
0.0
 11
440.8917240751456
 21
388.2792289610728
 31
0.0
  0
LINE
  5
4CA
330
1F
100
AcDbEntity
  8
Layer0000
  6
Continuous
 62
     3
370
    25
100
AcDbLine
 10
462.8917240751456
 20
388.2792289610727
 30
0.0
 11
461.8917240751456
 21
389.2792289610727
 31
0.0
  0
LINE
  5
4CB
330
1F
100
AcDbEntity
  8
Layer0000
  6
Continuous
 62
     3
370
    25
100
AcDbLine
 10
-273.6193184372773
 20
-322.5307665969125
 30
0.0
 11
-273.6193184372773
 21
-344.5307665969126
 31
0.0
  0
LINE
  5
4CC
330
1F
100
AcDbEntity
  8
Layer0000
  6
Continuous
 62
     3
370
    25
100
AcDbLine
 10
-272.7532930334923
 20
-323.0307665969126
 30
0.0
 11
-256.7532930334925
 21
-323.0307665969126
 31
0.0
  0
LINE
  5
4CD
330
1F
100
AcDbEntity
  8
Layer0000
  6
Continuous
 62
     3
370
    25
100
AcDbLine
 10
-272.7532930334924
 20
-344.0307665969126
 30
0.0
 11
-256.7532930334925
 21
-344.0307665969126
 31
0.0
  0
LINE
  5
4CE
330
1F
100
AcDbEntity
  8
Layer0000
  6
Continuous
 62
     3
370
    25
100
AcDbLine
 10
-255.7532930334925
 20
-324.0307665969126
 30
0.0
 11
-255.7532930334925
 21
-343.0307665969126
 31
0.0
  0
LINE
  5
4CF
330
1F
100
AcDbEntity
  8
Layer0000
  6
Continuous
 62
     3
370
    25
100
AcDbLine
 10
-256.7532930334925
 20
-344.0307665969126
 30
0.0
 11
-255.7532930334925
 21
-343.0307665969126
 31
0.0
  0
LINE
  5
4D0
330
1F
100
AcDbEntity
  8
Layer0000
  6
Continuous
 62
     3
370
    25
100
AcDbLine
 10
-256.7532930334925
 20
-323.0307665969126
 30
0.0
 11
-255.7532930334925
 21
-324.0307665969126
 31
0.0
  0
LINE
  5
4D1
330
1F
100
AcDbEntity
  8
Layer0000
  6
Continuous
 62
     3
370
    25
100
AcDbLine
 10
-272.7532930334924
 20
-329.0586306419131
 30
0.0
 11
-256.7532930334925
 21
-329.0586306419131
 31
0.0
  0
LINE
  5
4D2
330
1F
100
AcDbEntity
  8
Layer0000
  6
Continuous
 62
     3
370
    25
100
AcDbLine
 10
-272.7532930334924
 20
-327.53959323846
 30
0.0
 11
-256.7532930334925
 21
-327.53959323846
 31
0.0
  0
LINE
  5
4D3
330
1F
100
AcDbEntity
  8
Layer0000
  6
Continuous
 62
     3
370
    25
100
AcDbLine
 10
-272.7532930334924
 20
-339.521939955365
 30
0.0
 11
-256.7532930334925
 21
-339.521939955365
 31
0.0
  0
LINE
  5
4D4
330
1F
100
AcDbEntity
  8
Layer0000
  6
Continuous
 62
     3
370
    25
100
AcDbLine
 10
-256.7532930334925
 20
-338.002902551912
 30
0.0
 11
-272.7532930334924
 21
-338.002902551912
 31
0.0
  0
LINE
  5
4D5
330
1F
100
AcDbEntity
  8
Layer0000
  6
Continuous
 62
     3
370
    25
100
AcDbLine
 10
-256.7532930334925
 20
-327.53959323846
 30
0.0
 11
-256.7532930334925
 21
-329.0586306419131
 31
0.0
  0
LINE
  5
4D6
330
1F
100
AcDbEntity
  8
Layer0000
  6
Continuous
 62
     3
370
    25
100
AcDbLine
 10
-256.7532930334925
 20
-338.002902551912
 30
0.0
 11
-256.7532930334925
 21
-339.521939955365
 31
0.0
  0
ARC
  5
4D7
330
1F
100
AcDbEntity
  8
Layer0000
  6
Continuous
 62
     3
370
    25
100
AcDbCircle
 10
-266.2532930334921
 20
-333.5307665969125
 30
0.0
 40
10.49999999999956
100
AcDbArc
 50
334.7912347032412
 51
25.20876529675892
  0
ARC
  5
4D8
330
1F
100
AcDbEntity
  8
Layer0000
  6
Continuous
 62
     3
370
    25
100
AcDbCircle
 10
-258.7944827439317
 20
-325.2851799176856
 30
0.0
 40
3.041189710439299
100
AcDbArc
 50
312.1583048916353
 51
42.1583048916778
  0
ARC
  5
4D9
330
1F
100
AcDbEntity
  8
Layer0000
  6
Continuous
 62
     3
370
    25
100
AcDbCircle
 10
-258.7944827439317
 20
-341.7763532761396
 30
0.0
 40
3.041189710439299
100
AcDbArc
 50
317.8416951083222
 51
47.84169510836464
  0
LINE
  5
4DA
330
1F
100
AcDbEntity
  8
Layer0000
  6
Continuous
 62
     3
370
    25
100
AcDbLine
 10
-575.7532930334949
 20
-319.5307665969125
 30
0.0
 11
-575.7532930334949
 21
-347.5307665969125
 31
0.0
  0
LINE
  5
4DB
330
1F
100
AcDbEntity
  8
Layer0000
  6
Continuous
 62
     3
370
    25
100
AcDbLine
 10
-574.7532930334949
 20
-318.5307665969125
 30
0.0
 11
-505.7532930334948
 21
-318.5307665969125
 31
0.0
  0
LINE
  5
4DC
330
1F
100
AcDbEntity
  8
Layer0000
  6
Continuous
 62
     3
370
    25
100
AcDbLine
 10
-574.7532930334949
 20
-348.5307665969125
 30
0.0
 11
-505.7532930334948
 21
-348.5307665969125
 31
0.0
  0
LINE
  5
4DD
330
1F
100
AcDbEntity
  8
Layer0000
  6
Continuous
 62
     3
370
    25
100
AcDbLine
 10
-574.7532930334949
 20
-318.5307665969125
 30
0.0
 11
-575.7532930334949
 21
-319.5307665969125
 31
0.0
  0
LINE
  5
4DE
330
1F
100
AcDbEntity
  8
Layer0000
  6
Continuous
 62
     3
370
    25
100
AcDbLine
 10
-574.7532930334949
 20
-348.5307665969125
 30
0.0
 11
-575.7532930334949
 21
-347.5307665969125
 31
0.0
  0
LINE
  5
4DF
330
1F
100
AcDbEntity
  8
Layer0000
  6
Continuous
 62
     3
370
    25
100
AcDbLine
 10
-505.7532930334948
 20
-348.5307665969125
 30
0.0
 11
-505.7532930334948
 21
-318.5307665969125
 31
0.0
  0
LINE
  5
4E0
330
1F
100
AcDbEntity
  8
Layer0000
  6
Continuous
 62
     3
370
    25
100
AcDbLine
 10
-505.7532930334948
 20
-318.5307665969123
 30
0.0
 11
-501.7532930334947
 21
-322.5307665969125
 31
0.0
  0
LINE
  5
4E1
330
1F
100
AcDbEntity
  8
Layer0000
  6
Continuous
 62
     3
370
    25
100
AcDbLine
 10
-501.7532930334924
 20
-344.5307665969126
 30
0.0
 11
-505.7532930334948
 21
-348.5307665969125
 31
0.0
  0
LINE
  5
4E2
330
1F
100
AcDbEntity
  8
Layer0000
  6
Continuous
 62
     3
370
    25
100
AcDbLine
 10
-272.7532930334924
 20
-323.0307665969125
 30
0.0
 11
-272.7532930334924
 21
-327.53959323846
 31
0.0
  0
LINE
  5
4E3
330
1F
100
AcDbEntity
  8
Layer0000
  6
Continuous
 62
     3
370
    25
100
AcDbLine
 10
-272.7532930334924
 20
-329.0586306419131
 30
0.0
 11
-272.7532930334924
 21
-338.002902551912
 31
0.0
  0
LINE
  5
4E4
330
1F
100
AcDbEntity
  8
Layer0000
  6
Continuous
 62
     3
370
    25
100
AcDbLine
 10
-272.7532930334924
 20
-339.521939955365
 30
0.0
 11
-272.7532930334924
 21
-344.0307665969126
 31
0.0
  0
LINE
  5
4E5
330
1F
100
AcDbEntity
  8
Layer0000
  6
Continuous
 62
     3
370
    25
100
AcDbLine
 10
-501.7532930334924
 20
-344.5307665969126
 30
0.0
 11
-501.7532930334924
 21
-322.5307665969125
 31
0.0
  0
LINE
  5
4E6
330
1F
100
AcDbEntity
  8
Layer0000
  6
Continuous
 62
     3
370
    25
100
AcDbLine
 10
-305.7532930334924
 20
-344.5307665969126
 30
0.0
 11
-305.7532930334924
 21
-322.5307665969125
 31
0.0
  0
LINE
  5
4E7
330
1F
100
AcDbEntity
  8
Layer0000
  6
Continuous
 62
     3
370
    25
100
AcDbLine
 10
-273.6193184372765
 20
-344.5307665969126
 30
0.0
 11
-305.7532930334924
 21
-344.5307665969126
 31
0.0
  0
LINE
  5
4E8
330
1F
100
AcDbEntity
  8
Layer0000
  6
Continuous
 62
     3
370
    25
100
AcDbLine
 10
-305.7532930334924
 20
-344.5307665969126
 30
0.0
 11
-501.7532930334924
 21
-344.5307665969126
 31
0.0
  0
LINE
  5
4E9
330
1F
100
AcDbEntity
  8
Layer0000
  6
Continuous
 62
     3
370
    25
100
AcDbLine
 10
-273.6193184372773
 20
-322.5307665969125
 30
0.0
 11
-305.7532930334924
 21
-322.5307665969125
 31
0.0
  0
LINE
  5
4EA
330
1F
100
AcDbEntity
  8
Layer0000
  6
Continuous
 62
     3
370
    25
100
AcDbLine
 10
-305.7532930334924
 20
-322.5307665969125
 30
0.0
 11
-501.7532930334924
 21
-322.5307665969125
 31
0.0
  0
LINE
  5
4EB
330
1F
100
AcDbEntity
  8
Layer0000
  6
CENTER
 62
     2
370
    25
100
AcDbLine
 10
-380.5595084087976
 20
-209.3969669937556
 30
0.0
 11
-380.5595084087976
 21
-195.3969669937556
 31
0.0
  0
LINE
  5
4EC
330
1F
100
AcDbEntity
  8
Layer0000
  6
CENTER
 62
     2
370
    25
100
AcDbLine
 10
-511.5595084087976
 20
-77.39696699375557
 30
0.0
 11
-529.5595084087977
 21
-77.39696699375557
 31
0.0
  0
LINE
  5
4ED
330
1F
100
AcDbEntity
  8
Layer0000
  6
CENTER
 62
     2
370
    25
100
AcDbLine
 10
-520.5595084087977
 20
-68.39696699375557
 30
0.0
 11
-520.5595084087977
 21
-86.39696699375557
 31
0.0
  0
LINE
  5
4EE
330
1F
100
AcDbEntity
  8
Layer0000
  6
CENTER
 62
     2
370
    25
100
AcDbLine
 10
-384.5595084087976
 20
-148.3969669937556
 30
0.0
 11
-406.5595084087976
 21
-148.3969669937556
 31
0.0
  0
LINE
  5
4EF
330
1F
100
AcDbEntity
  8
Layer0000
  6
CENTER
 62
     2
370
    25
100
AcDbLine
 10
-395.5595084087976
 20
-137.3969669937556
 30
0.0
 11
-395.5595084087976
 21
-159.3969669937556
 31
0.0
  0
LINE
  5
4F0
330
1F
100
AcDbEntity
  8
Layer0000
  6
CENTER
 62
     2
370
    25
100
AcDbLine
 10
-304.5595084087976
 20
-148.3969669937556
 30
0.0
 11
-326.5595084087976
 21
-148.3969669937556
 31
0.0
  0
LINE
  5
4F1
330
1F
100
AcDbEntity
  8
Layer0000
  6
CENTER
 62
     2
370
    25
100
AcDbLine
 10
-315.5595084087976
 20
-137.3969669937556
 30
0.0
 11
-315.5595084087976
 21
-159.3969669937556
 31
0.0
  0
LINE
  5
4F2
330
1F
100
AcDbEntity
  8
Layer0000
  6
CENTER
 62
     2
370
    25
100
AcDbLine
 10
-224.5595084087976
 20
-148.3969669937556
 30
0.0
 11
-246.5595084087976
 21
-148.3969669937556
 31
0.0
  0
LINE
  5
4F3
330
1F
100
AcDbEntity
  8
Layer0000
  6
CENTER
 62
     2
370
    25
100
AcDbLine
 10
-235.5595084087976
 20
-137.3969669937556
 30
0.0
 11
-235.5595084087976
 21
-159.3969669937556
 31
0.0
  0
LINE
  5
4F4
330
1F
100
AcDbEntity
  8
Layer0000
  6
CENTER
 62
     2
370
    25
100
AcDbLine
 10
-144.5595084087976
 20
-148.3969669937556
 30
0.0
 11
-166.5595084087976
 21
-148.3969669937556
 31
0.0
  0
LINE
  5
4F5
330
1F
100
AcDbEntity
  8
Layer0000
  6
CENTER
 62
     2
370
    25
100
AcDbLine
 10
-155.5595084087976
 20
-137.3969669937556
 30
0.0
 11
-155.5595084087976
 21
-159.3969669937556
 31
0.0
  0
LINE
  5
4F6
330
1F
100
AcDbEntity
  8
Layer0000
  6
CENTER
 62
     2
370
    25
100
AcDbLine
 10
186.4404915912
 20
-90.39696699375557
 30
0.0
 11
127.7404915912024
 21
-90.39696699375557
 31
0.0
  0
LINE
  5
4F7
330
1F
100
AcDbEntity
  8
Layer0000
  6
CENTER
 62
     2
370
    25
100
AcDbLine
 10
410.8917240751454
 20
367.7792289610729
 30
0.0
 11
410.8917240751454
 21
235.779228961073
 31
0.0
  0
LINE
  5
4F8
330
1F
100
AcDbEntity
  8
Layer0000
  6
CENTER
 62
     2
370
    25
100
AcDbLine
 10
352.8917240751454
 20
342.0292289610727
 30
0.0
 11
352.8917240751454
 21
276.5292289610729
 31
0.0
  0
LINE
  5
4F9
330
1F
100
AcDbEntity
  8
Layer0000
  6
CENTER
 62
     2
370
    25
100
AcDbLine
 10
288.8917240751454
 20
309.2792289610729
 30
0.0
 11
464.8917240751454
 21
309.2792289610727
 31
0.0
  0
CIRCLE
  5
4FA
330
1F
100
AcDbEntity
  8
Layer0000
  6
CENTER
 62
     2
370
    25
100
AcDbCircle
 10
352.8917240751454
 20
309.2792289610729
 30
0.0
 40
27.00000000000006
  0
LINE
  5
4FB
330
1F
100
AcDbEntity
  8
Layer0000
  6
CENTER
 62
     2
370
    25
100
AcDbLine
 10
-562.5595084087977
 20
309.2792289610729
 30
0.0
 11
-389.5595084087976
 21
309.2792289610729
 31
0.0
  0
LINE
  5
4FC
330
1F
100
AcDbEntity
  8
Layer0000
  6
CENTER
 62
     2
370
    25
100
AcDbLine
 10
-351.5595084087976
 20
309.2792289610729
 30
0.0
 11
186.4404915911999
 21
309.2792289610729
 31
0.0
  0
LINE
  5
4FD
330
1F
100
AcDbEntity
  8
Layer0000
  6
CENTER
 62
     2
370
    25
100
AcDbLine
 10
-64.55950840879754
 20
-148.3969669937556
 30
0.0
 11
-86.55950840879754
 21
-148.3969669937556
 31
0.0
  0
LINE
  5
4FE
330
1F
100
AcDbEntity
  8
Layer0000
  6
CENTER
 62
     2
370
    25
100
AcDbLine
 10
-75.55950840879754
 20
-137.3969669937556
 30
0.0
 11
-75.55950840879754
 21
-159.3969669937556
 31
0.0
  0
LINE
  5
4FF
330
1F
100
AcDbEntity
  8
Layer0000
  6
CENTER
 62
     2
370
    25
100
AcDbLine
 10
-503.5595084087977
 20
303.2792289610729
 30
0.0
 11
-503.5595084087977
 21
315.2792289610729
 31
0.0
  0
LINE
  5
500
330
1F
100
AcDbEntity
  8
Layer0000
  6
CENTER
 62
     2
370
    25
100
AcDbLine
 10
-497.5595084087977
 20
249.279228961073
 30
0.0
 11
-509.5595084087977
 21
249.279228961073
 31
0.0
  0
LINE
  5
501
330
1F
100
AcDbEntity
  8
Layer0000
  6
CENTER
 62
     2
370
    25
100
AcDbLine
 10
-503.5595084087977
 20
255.279228961073
 30
0.0
 11
-503.5595084087977
 21
243.279228961073
 31
0.0
  0
LINE
  5
502
330
1F
100
AcDbEntity
  8
Layer0000
  6
CENTER
 62
     2
370
    25
100
AcDbLine
 10
-497.5595084087977
 20
369.2792289610729
 30
0.0
 11
-509.5595084087977
 21
369.2792289610729
 31
0.0
  0
LINE
  5
503
330
1F
100
AcDbEntity
  8
Layer0000
  6
CENTER
 62
     2
370
    25
100
AcDbLine
 10
-503.5595084087977
 20
363.2792289610729
 30
0.0
 11
-503.5595084087977
 21
375.2792289610729
 31
0.0
  0
LINE
  5
504
330
1F
100
AcDbEntity
  8
Layer0000
  6
CENTER
 62
     2
370
    25
100
AcDbLine
 10
-475.559508408798
 20
351.2792289610729
 30
0.0
 11
-503.5595084087977
 21
351.2792289610729
 31
0.0
  0
LINE
  5
505
330
1F
100
AcDbEntity
  8
Layer0000
  6
CENTER
 62
     2
370
    25
100
AcDbLine
 10
-489.5595084087979
 20
365.2792289610728
 30
0.0
 11
-489.5595084087979
 21
337.2792289610731
 31
0.0
  0
LINE
  5
506
330
1F
100
AcDbEntity
  8
Layer0000
  6
CENTER
 62
     2
370
    25
100
AcDbLine
 10
-544.5595084087977
 20
365.2792289610728
 30
0.0
 11
-544.5595084087977
 21
337.2792289610731
 31
0.0
  0
LINE
  5
507
330
1F
100
AcDbEntity
  8
Layer0000
  6
CENTER
 62
     2
370
    25
100
AcDbLine
 10
-530.5595084087978
 20
351.2792289610729
 30
0.0
 11
-558.5595084087975
 21
351.2792289610729
 31
0.0
  0
LINE
  5
508
330
1F
100
AcDbEntity
  8
Layer0000
  6
CENTER
 62
     2
370
    25
100
AcDbLine
 10
-544.5595084087977
 20
281.2792289610728
 30
0.0
 11
-544.5595084087977
 21
253.2792289610731
 31
0.0
  0
LINE
  5
509
330
1F
100
AcDbEntity
  8
Layer0000
  6
CENTER
 62
     2
370
    25
100
AcDbLine
 10
-530.5595084087978
 20
267.2792289610729
 30
0.0
 11
-558.5595084087975
 21
267.2792289610729
 31
0.0
  0
LINE
  5
50A
330
1F
100
AcDbEntity
  8
Layer0000
  6
CENTER
 62
     2
370
    25
100
AcDbLine
 10
-489.5595084087979
 20
281.2792289610728
 30
0.0
 11
-489.5595084087979
 21
253.2792289610731
 31
0.0
  0
LINE
  5
50B
330
1F
100
AcDbEntity
  8
Layer0000
  6
CENTER
 62
     2
370
    25
100
AcDbLine
 10
-475.559508408798
 20
267.2792289610729
 30
0.0
 11
-503.5595084087977
 21
267.2792289610729
 31
0.0
  0
LINE
  5
50C
330
1F
100
AcDbEntity
  8
Layer0000
  6
CENTER
 62
     2
370
    25
100
AcDbLine
 10
84.74049159120227
 20
249.279228961073
 30
0.0
 11
72.74049159120227
 21
249.279228961073
 31
0.0
  0
LINE
  5
50D
330
1F
100
AcDbEntity
  8
Layer0000
  6
CENTER
 62
     2
370
    25
100
AcDbLine
 10
78.74049159120227
 20
243.279228961073
 30
0.0
 11
78.74049159120227
 21
255.279228961073
 31
0.0
  0
LINE
  5
50E
330
1F
100
AcDbEntity
  8
Layer0000
  6
CENTER
 62
     2
370
    25
100
AcDbLine
 10
-13.25950840879761
 20
249.279228961073
 30
0.0
 11
-25.25950840879761
 21
249.279228961073
 31
0.0
  0
LINE
  5
50F
330
1F
100
AcDbEntity
  8
Layer0000
  6
CENTER
 62
     2
370
    25
100
AcDbLine
 10
-19.25950840879761
 20
243.279228961073
 30
0.0
 11
-19.25950840879761
 21
255.279228961073
 31
0.0
  0
LINE
  5
510
330
1F
100
AcDbEntity
  8
Layer0000
  6
CENTER
 62
     2
370
    25
100
AcDbLine
 10
-13.25950840879761
 20
369.2792289610729
 30
0.0
 11
-25.25950840879761
 21
369.2792289610729
 31
0.0
  0
LINE
  5
511
330
1F
100
AcDbEntity
  8
Layer0000
  6
CENTER
 62
     2
370
    25
100
AcDbLine
 10
-19.25950840879761
 20
363.2792289610729
 30
0.0
 11
-19.25950840879761
 21
375.2792289610729
 31
0.0
  0
LINE
  5
512
330
1F
100
AcDbEntity
  8
Layer0000
  6
CENTER
 62
     2
370
    25
100
AcDbLine
 10
84.74049159120227
 20
369.2792289610729
 30
0.0
 11
72.74049159120227
 21
369.2792289610729
 31
0.0
  0
LINE
  5
513
330
1F
100
AcDbEntity
  8
Layer0000
  6
CENTER
 62
     2
370
    25
100
AcDbLine
 10
78.74049159120227
 20
363.2792289610729
 30
0.0
 11
78.74049159120227
 21
375.2792289610729
 31
0.0
  0
LINE
  5
514
330
1F
100
AcDbEntity
  8
Layer0000
  6
CENTER
 62
     2
370
    25
100
AcDbLine
 10
-305.7532930334924
 20
-333.5307665969125
 30
0.0
 11
-253.7532930334924
 21
-333.5307665969125
 31
0.0
  0
LINE
  5
515
330
1F
100
AcDbEntity
  8
Layer0000
  6
CENTER
 62
     2
370
    25
100
AcDbLine
 10
-563.7532930334573
 20
-333.5307665969125
 30
0.0
 11
-528.7532930334966
 21
-333.5307665969125
 31
0.0
  0
LINE
  5
516
330
1F
100
AcDbEntity
  8
Layer0000
  6
CENTER
 62
     2
370
    25
100
AcDbLine
 10
-528.7532930334966
 20
-333.5307665969125
 30
0.0
 11
-305.7532930334924
 21
-333.5307665969125
 31
0.0
  0
LINE
  5
517
330
1F
100
AcDbEntity
  8
Layer0000
  6
CENTER
 62
     2
370
    25
100
AcDbLine
 10
-577.7532930334949
 20
-333.5307665969125
 30
0.0
 11
-563.7532930334573
 21
-333.5307665969125
 31
0.0
  0
CIRCLE
  5
518
330
1F
100
AcDbEntity
  8
Layer0000
  6
Continuous
 62
     4
370
    25
100
AcDbCircle
 10
-520.5595084087977
 20
-77.39696699375557
 30
0.0
 40
8.0
  0
LINE
  5
519
330
1F
100
AcDbEntity
  8
Layer0000
  6
DASHED2
 62
     5
370
    25
100
AcDbLine
 10
458.8917240751454
 20
318.2792289610727
 30
0.0
 11
458.8917240751454
 21
300.2792289610727
 31
0.0
  0
LINE
  5
51A
330
1F
100
AcDbEntity
  8
Layer0000
  6
DASHED2
 62
     5
370
    25
100
AcDbLine
 10
458.8917240751454
 20
300.2792289610727
 30
0.0
 11
462.8917240751454
 21
300.2792289610727
 31
0.0
  0
LINE
  5
51B
330
1F
100
AcDbEntity
  8
Layer0000
  6
DASHED2
 62
     5
370
    25
100
AcDbLine
 10
458.8917240751454
 20
318.2792289610727
 30
0.0
 11
462.8917240751454
 21
318.2792289610727
 31
0.0
  0
LINE
  5
51C
330
1F
100
AcDbEntity
  8
Layer0015
  6
Continuous
 62
     2
370
    25
100
AcDbLine
 10
-561.5595084087976
 20
229.279228961073
 30
0.0
 11
-593.7595084087977
 21
229.279228961073
 31
0.0
  0
LINE
  5
51D
330
1F
100
AcDbEntity
  8
Layer0015
  6
Continuous
 62
     2
370
    25
100
AcDbLine
 10
-561.5595084087976
 20
389.2792289610725
 30
0.0
 11
-593.7595084087977
 21
389.2792289610725
 31
0.0
  0
LINE
  5
51E
330
1F
100
AcDbEntity
  8
Layer0015
  6
Continuous
 62
     2
370
    25
100
AcDbLine
 10
-594.1595084087976
 20
-200.3969669937556
 30
0.0
 11
-612.1595084087977
 21
-200.3969669937556
 31
0.0
  0
LINE
  5
51F
330
1F
100
AcDbEntity
  8
Layer0015
  6
Continuous
 62
     2
370
    25
100
AcDbLine
 10
59.4404915912024
 20
-201.3969669937556
 30
0.0
 11
59.4404915912024
 21
-269.9969669937557
 31
0.0
  0
LINE
  5
520
330
1F
100
AcDbEntity
  8
Layer0015
  6
Continuous
 62
     2
370
    25
100
AcDbLine
 10
184.440491591204
 20
-101.8969669937556
 30
0.0
 11
184.440491591204
 21
-269.9969669937557
 31
0.0
  0
LINE
  5
521
330
1F
100
AcDbEntity
  8
Layer0015
  6
Continuous
 62
     2
370
    25
100
AcDbLine
 10
273.4404915912061
 20
-228.3969669937556
 30
0.0
 11
273.4404915912061
 21
-269.9969669937557
 31
0.0
  0
LINE
  5
522
330
1F
100
AcDbEntity
  8
Layer0015
  6
Continuous
 62
     2
370
    25
100
AcDbLine
 10
-561.5595084087977
 20
-200.3969669937556
 30
0.0
 11
-592.1595084087976
 21
-200.3969669937556
 31
0.0
  0
LINE
  5
523
330
1F
100
AcDbEntity
  8
Layer0015
  6
Continuous
 62
     2
370
    25
100
AcDbLine
 10
-561.5595084087977
 20
-55.39696699375558
 30
0.0
 11
-592.1595084087976
 21
-55.39696699375558
 31
0.0
  0
LINE
  5
524
330
1F
100
AcDbEntity
  8
Layer0015
  6
Continuous
 62
     2
370
    25
100
AcDbLine
 10
-549.5595084087976
 20
-28.39696699375558
 30
0.0
 11
-612.1595084087977
 21
-28.39696699375558
 31
0.0
  0
LINE
  5
525
330
1F
100
AcDbEntity
  8
Layer0015
  6
Continuous
 62
     2
370
    25
100
AcDbLine
 10
-560.5595084087976
 20
-201.3969669937556
 30
0.0
 11
-560.5595084087976
 21
-269.9969669937557
 31
0.0
  0
LINE
  5
526
330
1F
100
AcDbEntity
  8
Layer0015
  6
Continuous
 62
     2
370
    25
100
AcDbLine
 10
-415.5595084087976
 20
-208.3969669937556
 30
0.0
 11
-415.5595084087976
 21
-200.3969669937556
 31
0.0
  0
LINE
  5
527
330
1F
100
AcDbEntity
  8
Layer0015
  6
Continuous
 62
     2
370
    25
100
AcDbLine
 10
-371.5595084087976
 20
-209.8969669937558
 30
0.0
 11
-371.5595084087976
 21
-229.9969669937557
 31
0.0
  0
LINE
  5
528
330
1F
100
AcDbEntity
  8
Layer0015
  6
Continuous
 62
     2
370
    25
100
AcDbLine
 10
-453.7595084087976
 20
-54.39696699375558
 30
0.0
 11
-413.9595084087975
 21
-54.39696699375558
 31
0.0
  0
LINE
  5
529
330
1F
100
AcDbEntity
  8
Layer0015
  6
Continuous
 62
     2
370
    25
100
AcDbLine
 10
-391.0595084087976
 20
-208.3969669937556
 30
0.0
 11
-417.1595084087976
 21
-208.3969669937556
 31
0.0
  0
LINE
  5
52A
330
1F
100
AcDbEntity
  8
Layer0015
  6
Continuous
 62
     2
370
    25
100
AcDbLine
 10
-389.5595084087976
 20
-209.8969669937558
 30
0.0
 11
-389.5595084087976
 21
-229.9969669937557
 31
0.0
  0
LINE
  5
52B
330
1F
100
AcDbEntity
  8
Layer0015
  6
Continuous
 62
     2
370
    25
100
AcDbLine
 10
-389.5595084087976
 20
-228.3969669937558
 30
0.0
 11
-371.5595084087976
 21
-228.3969669937558
 31
0.0
  0
LINE
  5
52C
330
1F
100
AcDbEntity
  8
Layer0015
  6
Continuous
 62
     2
370
    25
100
AcDbLine
 10
-481.7595084087976
 20
-33.39696699375558
 30
0.0
 11
-353.9595084087975
 21
-33.39696699375558
 31
0.0
  0
LINE
  5
52D
330
1F
100
AcDbEntity
  8
Layer0015
  6
Continuous
 62
     2
370
    25
100
AcDbLine
 10
-380.5595084087976
 20
-210.3969669937556
 30
0.0
 11
-380.5595084087975
 21
-249.9969669937553
 31
0.0
  0
LINE
  5
52E
330
1F
100
AcDbEntity
  8
Layer0015
  6
Continuous
 62
     2
370
    25
100
AcDbLine
 10
-455.5595084087976
 20
-110.3969669937556
 30
0.0
 11
-455.5595084087976
 21
-249.9969669937555
 31
0.0
  0
LINE
  5
52F
330
1F
100
AcDbEntity
  8
Layer0015
  6
Continuous
 62
     2
370
    25
100
AcDbLine
 10
-592.1595084087976
 20
229.279228961073
 30
0.0
 11
-592.1595084087976
 21
389.2792289610725
 31
0.0
  0
INSERT
  5
530
330
1F
100
AcDbEntity
  8
Layer0015
 62
     2
100
AcDbBlockReference
  2
_OPEN30
 10
-592.1595084087976
 20
229.279228961073
 30
0.0
 41
7.646601831087536
 42
5.031938088706951
 50
270.0
  0
INSERT
  5
531
330
1F
100
AcDbEntity
  8
Layer0015
 62
     2
100
AcDbBlockReference
  2
_OPEN30
 10
-592.1595084087976
 20
389.2792289610725
 30
0.0
 41
7.646601831087536
 42
5.031938088706951
 50
90.0
  0
LINE
  5
532
330
1F
100
AcDbEntity
  8
Layer0015
  6
Continuous
 62
     2
370
    25
100
AcDbLine
 10
-355.5595084087976
 20
246.779228961073
 30
0.0
 11
-355.5595084087976
 21
371.7792289610729
 31
0.0
  0
INSERT
  5
533
330
1F
100
AcDbEntity
  8
Layer0015
 62
     2
100
AcDbBlockReference
  2
_OPEN30
 10
-355.5595084087976
 20
246.779228961073
 30
0.0
 41
7.646601831087536
 42
5.031938088706951
 50
270.0
  0
INSERT
  5
534
330
1F
100
AcDbEntity
  8
Layer0015
 62
     2
100
AcDbBlockReference
  2
_OPEN30
 10
-355.5595084087976
 20
371.7792289610729
 30
0.0
 41
7.646601831087536
 42
5.031938088706951
 50
90.0
  0
LINE
  5
535
330
1F
100
AcDbEntity
  8
Layer0015
  6
Continuous
 62
     2
370
    25
100
AcDbLine
 10
-375.5595084087976
 20
279.2792289610729
 30
0.0
 11
-375.5595084087976
 21
339.2792289610729
 31
0.0
  0
INSERT
  5
536
330
1F
100
AcDbEntity
  8
Layer0015
 62
     2
100
AcDbBlockReference
  2
_OPEN30
 10
-375.5595084087976
 20
279.2792289610729
 30
0.0
 41
7.646601831087536
 42
5.031938088706951
 50
270.0
  0
INSERT
  5
537
330
1F
100
AcDbEntity
  8
Layer0015
 62
     2
100
AcDbBlockReference
  2
_OPEN30
 10
-375.5595084087976
 20
339.2792289610729
 30
0.0
 41
7.646601831087536
 42
5.031938088706951
 50
90.0
  0
LINE
  5
538
330
1F
100
AcDbEntity
  8
Layer0015
  6
Continuous
 62
     2
370
    25
100
AcDbLine
 10
-590.5595084087977
 20
-200.3969669937556
 30
0.0
 11
-590.5595084087977
 21
-55.39696699375558
 31
0.0
  0
INSERT
  5
539
330
1F
100
AcDbEntity
  8
Layer0015
 62
     2
100
AcDbBlockReference
  2
_OPEN30
 10
-590.5595084087977
 20
-200.3969669937556
 30
0.0
 41
7.646601831087536
 42
5.031938088706951
 50
270.0
  0
INSERT
  5
53A
330
1F
100
AcDbEntity
  8
Layer0015
 62
     2
100
AcDbBlockReference
  2
_OPEN30
 10
-590.5595084087977
 20
-55.39696699375558
 30
0.0
 41
7.646601831087536
 42
5.031938088706951
 50
90.0
  0
LINE
  5
53B
330
1F
100
AcDbEntity
  8
Layer0015
  6
Continuous
 62
     2
370
    25
100
AcDbLine
 10
-610.5595084087976
 20
-200.3969669937556
 30
0.0
 11
-610.5595084087976
 21
-28.39696699375558
 31
0.0
  0
INSERT
  5
53C
330
1F
100
AcDbEntity
  8
Layer0015
 62
     2
100
AcDbBlockReference
  2
_OPEN30
 10
-610.5595084087976
 20
-200.3969669937556
 30
0.0
 41
7.646601831087536
 42
5.031938088706951
 50
270.0
  0
INSERT
  5
53D
330
1F
100
AcDbEntity
  8
Layer0015
 62
     2
100
AcDbBlockReference
  2
_OPEN30
 10
-610.5595084087976
 20
-28.39696699375558
 30
0.0
 41
7.646601831087536
 42
5.031938088706951
 50
90.0
  0
LINE
  5
53E
330
1F
100
AcDbEntity
  8
Layer0015
  6
Continuous
 62
     2
370
    25
100
AcDbLine
 10
59.4404915912024
 20
-268.3969669937556
 30
0.0
 11
184.440491591204
 21
-268.3969669937556
 31
0.0
  0
INSERT
  5
53F
330
1F
100
AcDbEntity
  8
Layer0015
 62
     2
100
AcDbBlockReference
  2
_OPEN30
 10
59.4404915912024
 20
-268.3969669937556
 30
0.0
 41
7.646601831087536
 42
5.031938088706951
 50
180.0
  0
INSERT
  5
540
330
1F
100
AcDbEntity
  8
Layer0015
 62
     2
100
AcDbBlockReference
  2
_OPEN30
 10
184.440491591204
 20
-268.3969669937556
 30
0.0
 41
7.646601831087536
 42
5.031938088706951
 50
360.0
  0
LINE
  5
541
330
1F
100
AcDbEntity
  8
Layer0015
  6
Continuous
 62
     2
370
    25
100
AcDbLine
 10
184.440491591204
 20
-268.3969669937556
 30
0.0
 11
273.4404915912061
 21
-268.3969669937556
 31
0.0
  0
INSERT
  5
542
330
1F
100
AcDbEntity
  8
Layer0015
 62
     2
100
AcDbBlockReference
  2
_OPEN30
 10
184.440491591204
 20
-268.3969669937556
 30
0.0
 41
7.646601831087536
 42
5.031938088706951
 50
180.0
  0
INSERT
  5
543
330
1F
100
AcDbEntity
  8
Layer0015
 62
     2
100
AcDbBlockReference
  2
_OPEN30
 10
273.4404915912061
 20
-268.3969669937556
 30
0.0
 41
7.646601831087536
 42
5.031938088706951
 50
360.0
  0
LINE
  5
544
330
1F
100
AcDbEntity
  8
Layer0015
  6
Continuous
 62
     2
370
    25
100
AcDbLine
 10
-560.5595084087976
 20
-268.3969669937556
 30
0.0
 11
59.4404915912024
 21
-268.3969669937556
 31
0.0
  0
INSERT
  5
545
330
1F
100
AcDbEntity
  8
Layer0015
 62
     2
100
AcDbBlockReference
  2
_OPEN30
 10
-560.5595084087976
 20
-268.3969669937556
 30
0.0
 41
7.646601831087536
 42
5.031938088706951
 50
180.0
  0
INSERT
  5
546
330
1F
100
AcDbEntity
  8
Layer0015
 62
     2
100
AcDbBlockReference
  2
_OPEN30
 10
59.4404915912024
 20
-268.3969669937556
 30
0.0
 41
7.646601831087536
 42
5.031938088706951
 50
360.0
  0
LINE
  5
547
330
1F
100
AcDbEntity
  8
Layer0015
  6
Continuous
 62
     2
370
    25
100
AcDbLine
 10
-415.5595084087976
 20
-200.3969669937556
 30
0.0
 11
-415.5595084087976
 21
-110.3969669937556
 31
0.0
  0
INSERT
  5
548
330
1F
100
AcDbEntity
  8
Layer0015
 62
     2
100
AcDbBlockReference
  2
_OPEN30
 10
-415.5595084087976
 20
-200.3969669937556
 30
0.0
 41
7.646601831087536
 42
5.031938088706951
 50
270.0
  0
INSERT
  5
549
330
1F
100
AcDbEntity
  8
Layer0015
 62
     2
100
AcDbBlockReference
  2
_OPEN30
 10
-415.5595084087976
 20
-110.3969669937556
 30
0.0
 41
7.646601831087536
 42
5.031938088706951
 50
90.0
  0
LINE
  5
54A
330
1F
100
AcDbEntity
  8
Layer0015
  6
Continuous
 62
     2
370
    25
100
AcDbLine
 10
-415.5595084087976
 20
-110.3969669937556
 30
0.0
 11
-415.5595084087976
 21
-54.39696699375558
 31
0.0
  0
INSERT
  5
54B
330
1F
100
AcDbEntity
  8
Layer0015
 62
     2
100
AcDbBlockReference
  2
_OPEN30
 10
-415.5595084087976
 20
-110.3969669937556
 30
0.0
 41
7.646601831087536
 42
5.031938088706951
 50
270.0
  0
INSERT
  5
54C
330
1F
100
AcDbEntity
  8
Layer0015
 62
     2
100
AcDbBlockReference
  2
_OPEN30
 10
-415.5595084087976
 20
-54.39696699375558
 30
0.0
 41
7.646601831087536
 42
5.031938088706951
 50
90.0
  0
LINE
  5
54D
330
1F
100
AcDbEntity
  8
Layer0015
  6
Continuous
 62
     2
370
    25
100
AcDbLine
 10
-355.5595084087976
 20
-200.3969669937556
 30
0.0
 11
-355.5595084087976
 21
-33.39696699375558
 31
0.0
  0
INSERT
  5
54E
330
1F
100
AcDbEntity
  8
Layer0015
 62
     2
100
AcDbBlockReference
  2
_OPEN30
 10
-355.5595084087976
 20
-200.3969669937556
 30
0.0
 41
7.646601831087536
 42
5.031938088706951
 50
270.0
  0
INSERT
  5
54F
330
1F
100
AcDbEntity
  8
Layer0015
 62
     2
100
AcDbBlockReference
  2
_OPEN30
 10
-355.5595084087976
 20
-33.39696699375558
 30
0.0
 41
7.646601831087536
 42
5.031938088706951
 50
90.0
  0
LINE
  5
550
330
1F
100
AcDbEntity
  8
Layer0015
  6
Continuous
 62
     2
370
    25
100
AcDbLine
 10
-455.5595084087976
 20
-248.3969669937556
 30
0.0
 11
-380.5595084087975
 21
-248.3969669937556
 31
0.0
  0
INSERT
  5
551
330
1F
100
AcDbEntity
  8
Layer0015
 62
     2
100
AcDbBlockReference
  2
_OPEN30
 10
-455.5595084087976
 20
-248.3969669937556
 30
0.0
 41
7.646601831087536
 42
5.031938088706951
 50
180.0
  0
INSERT
  5
552
330
1F
100
AcDbEntity
  8
Layer0015
 62
     2
100
AcDbBlockReference
  2
_OPEN30
 10
-380.5595084087975
 20
-248.3969669937556
 30
0.0
 41
7.646601831087536
 42
5.031938088706951
 50
360.0
  0
LINE
  5
553
330
1F
100
AcDbEntity
  8
Layer0015
  6
Continuous
 62
     2
370
    25
100
AcDbLine
 10
-415.5595084087976
 20
-222.3058069937556
 30
0.0
 11
-415.5595084087976
 21
-208.3969669937556
 31
0.0
  0
INSERT
  5
554
330
1F
100
AcDbEntity
  8
Layer0015
 62
     2
100
AcDbBlockReference
  2
_OPEN30
 10
-415.5595084087976
 20
-208.3969669937556
 30
0.0
 41
7.646601831087536
 42
5.031938088706951
 50
90.0
  0
LINE
  5
555
330
1F
100
AcDbEntity
  8
Layer0015
  6
Continuous
 62
     2
370
    25
100
AcDbLine
 10
-349.6506684087976
 20
-228.3969669937558
 30
0.0
 11
-371.5595084087976
 21
-228.3969669937558
 31
0.0
  0
INSERT
  5
556
330
1F
100
AcDbEntity
  8
Layer0015
 62
     2
100
AcDbBlockReference
  2
_OPEN30
 10
-371.5595084087976
 20
-228.3969669937558
 30
0.0
 41
7.646601831087536
 42
5.031938088706951
 50
180.0
  0
LINE
  5
557
330
1F
100
AcDbEntity
  8
Layer0015
  6
Continuous
 62
     2
370
    25
100
AcDbLine
 10
-397.5595084087976
 20
-228.3969669937558
 30
0.0
 11
-389.5595084087976
 21
-228.3969669937558
 31
0.0
  0
INSERT
  5
558
330
1F
100
AcDbEntity
  8
Layer0015
 62
     2
100
AcDbBlockReference
  2
_OPEN30
 10
-389.5595084087976
 20
-228.3969669937558
 30
0.0
 41
7.646601831087536
 42
5.031938088706951
 50
360.0
  0
TEXT
  5
559
330
1F
100
AcDbEntity
  8
Layer0015
 62
     2
100
AcDbText
 10
-594.1595084087976
 20
294.2792289610729
 30
0.0
 40
12.5
  1
160
 50
90.0
 41
0.8
  7
dcStyle0
 72
     5
 11
-594.1595084087976
 21
324.2792289610729
 31
0.0
100
AcDbText
  0
TEXT
  5
55A
330
1F
100
AcDbEntity
  8
Layer0015
 62
     2
100
AcDbText
 10
-357.5595084087976
 20
294.2792289610729
 30
0.0
 40
12.5
  1
125
 50
90.0
 41
0.8
  7
dcStyle0
 72
     5
 11
-357.5595084087976
 21
324.2792289610729
 31
0.0
100
AcDbText
  0
TEXT
  5
55B
330
1F
100
AcDbEntity
  8
Layer0015
 62
     2
100
AcDbText
 10
-377.5595084087976
 20
299.2792289610729
 30
0.0
 40
12.5
  1
60
 50
90.0
 41
0.8
  7
dcStyle0
 72
     5
 11
-377.5595084087976
 21
319.2792289610729
 31
0.0
100
AcDbText
  0
TEXT
  5
55C
330
1F
100
AcDbEntity
  8
Layer0015
 62
     2
100
AcDbText
 10
-592.5595084087977
 20
-142.8969669937556
 30
0.0
 40
12.5
  1
145
 50
90.0
 41
0.8
  7
dcStyle0
 72
     5
 11
-592.5595084087977
 21
-112.8969669937556
 31
0.0
100
AcDbText
  0
TEXT
  5
55D
330
1F
100
AcDbEntity
  8
Layer0015
 62
     2
100
AcDbText
 10
-265.5595084087976
 20
-266.3969669937556
 30
0.0
 40
12.5
  1
620
 41
0.8
  7
dcStyle0
 72
     5
 11
-235.5595084087976
 21
-266.3969669937556
 31
0.0
100
AcDbText
  0
TEXT
  5
55E
330
1F
100
AcDbEntity
  8
Layer0015
 62
     2
100
AcDbText
 10
106.9404915912032
 20
-266.3969669937556
 30
0.0
 40
12.5
  1
122
 41
0.8
  7
dcStyle0
 72
     5
 11
136.9404915912032
 21
-266.3969669937556
 31
0.0
100
AcDbText
  0
TEXT
  5
55F
330
1F
100
AcDbEntity
  8
Layer0015
 62
     2
100
AcDbText
 10
218.940491591205
 20
-266.3969669937556
 30
0.0
 40
12.5
  1
89
 41
0.8
  7
dcStyle0
 72
     5
 11
238.940491591205
 21
-266.3969669937556
 31
0.0
100
AcDbText
  0
TEXT
  5
560
330
1F
100
AcDbEntity
  8
Layer0015
 62
     2
100
AcDbText
 10
-365.6506684087976
 20
-226.3969669937558
 30
0.0
 40
12.5
  1
18
 41
0.8
  7
dcStyle0
 72
     5
 11
-345.6506684087976
 21
-226.3969669937558
 31
0.0
100
AcDbText
  0
TEXT
  5
561
330
1F
100
AcDbEntity
  8
Layer0015
 62
     2
100
AcDbText
 10
-417.5595084087976
 20
-165.3969669937556
 30
0.0
 40
12.5
  1
90
 50
90.0
 41
0.8
  7
dcStyle0
 72
     5
 11
-417.5595084087976
 21
-145.3969669937556
 31
0.0
100
AcDbText
  0
TEXT
  5
562
330
1F
100
AcDbEntity
  8
Layer0015
 62
     2
100
AcDbText
 10
-417.5595084087976
 20
-92.39696699375557
 30
0.0
 40
12.5
  1
56
 50
90.0
 41
0.8
  7
dcStyle0
 72
     5
 11
-417.5595084087976
 21
-72.39696699375557
 31
0.0
100
AcDbText
  0
TEXT
  5
563
330
1F
100
AcDbEntity
  8
Layer0015
 62
     2
100
AcDbText
 10
-357.5595084087976
 20
-112.8969669937556
 30
0.0
 40
12.5
  1
167
 50
90.0
 41
0.8
  7
dcStyle0
 72
     5
 11
-357.5595084087976
 21
-82.89696699375557
 31
0.0
100
AcDbText
  0
TEXT
  5
564
330
1F
100
AcDbEntity
  8
Layer0015
 62
     2
100
AcDbText
 10
-417.5595084087976
 20
-224.3058069937556
 30
0.0
 40
12.5
  1
8
 50
90.0
 41
0.8
  7
dcStyle0
 72
     5
 11
-417.5595084087976
 21
-214.3058069937556
 31
0.0
100
AcDbText
  0
TEXT
  5
565
330
1F
100
AcDbEntity
  8
Layer0015
 62
     2
100
AcDbText
 10
-428.0595084087976
 20
-246.3969669937556
 30
0.0
 40
12.5
  1
75
 41
0.8
  7
dcStyle0
 72
     5
 11
-408.0595084087976
 21
-246.3969669937556
 31
0.0
100
AcDbText
  0
TEXT
  5
566
330
1F
100
AcDbEntity
  8
Layer0015
 62
     2
100
AcDbText
 10
-612.5595084087976
 20
-129.3969669937556
 30
0.0
 40
12.5
  1
172
 50
90.0
 41
0.8
  7
dcStyle0
 72
     5
 11
-612.5595084087976
 21
-99.39696699375557
 31
0.0
100
AcDbText
  0
LINE
  5
567
330
1F
100
AcDbEntity
  8
Layer0000
  6
Continuous
 62
     3
370
    18
100
AcDbLine
 10
-179.2532930334946
 20
-311.5307665969125
 30
0.0
 11
-108.2532930334946
 21
-311.5307665969125
 31
0.0
  0
LINE
  5
568
330
1F
100
AcDbEntity
  8
Layer0000
  6
Continuous
 62
     3
370
    18
100
AcDbLine
 10
-179.2532930334946
 20
-355.5307665969125
 30
0.0
 11
-108.2532930334946
 21
-355.5307665969125
 31
0.0
  0
LINE
  5
569
330
1F
100
AcDbEntity
  8
Layer0000
  6
Continuous
 62
     3
370
    18
100
AcDbLine
 10
-97.75329303349456
 20
-323.0307665969125
 30
0.0
 11
-80.75329303349456
 21
-323.0307665969125
 31
0.0
  0
LINE
  5
56A
330
1F
100
AcDbEntity
  8
Layer0000
  6
Continuous
 62
     3
370
    18
100
AcDbLine
 10
-97.75329303349456
 20
-344.0307665969125
 30
0.0
 11
-80.75329303349456
 21
-344.0307665969125
 31
0.0
  0
LINE
  5
56B
330
1F
100
AcDbEntity
  8
Layer0000
  6
Continuous
 62
     3
370
    18
100
AcDbLine
 10
-79.75329303349456
 20
-324.7628174044814
 30
0.0
 11
-79.75329303349456
 21
-342.2987157893437
 31
0.0
  0
LINE
  5
56C
330
1F
100
AcDbEntity
  8
Layer0000
  6
Continuous
 62
     3
370
    18
100
AcDbLine
 10
-107.7532930334946
 20
-355.0307665969125
 30
0.0
 11
-107.7532930334946
 21
-312.0307665969125
 31
0.0
  0
LINE
  5
56D
330
1F
100
AcDbEntity
  8
Layer0000
  6
Continuous
 62
     3
370
    18
100
AcDbLine
 10
-179.7532930334946
 20
-312.0307665969125
 30
0.0
 11
-179.7532930334946
 21
-355.0307665969125
 31
0.0
  0
LINE
  5
56E
330
1F
100
AcDbEntity
  8
Layer0000
  6
Continuous
 62
     3
370
    18
100
AcDbLine
 10
-108.2532930334946
 20
-311.5307665969125
 30
0.0
 11
-107.7532930334946
 21
-312.0307665969125
 31
0.0
  0
LINE
  5
56F
330
1F
100
AcDbEntity
  8
Layer0000
  6
Continuous
 62
     3
370
    18
100
AcDbLine
 10
-179.2532930334946
 20
-311.5307665969125
 30
0.0
 11
-179.7532930334946
 21
-312.0307665969125
 31
0.0
  0
LINE
  5
570
330
1F
100
AcDbEntity
  8
Layer0000
  6
Continuous
 62
     3
370
    18
100
AcDbLine
 10
-179.7532930334946
 20
-355.0307665969125
 30
0.0
 11
-179.2532930334946
 21
-355.5307665969125
 31
0.0
  0
LINE
  5
571
330
1F
100
AcDbEntity
  8
Layer0000
  6
Continuous
 62
     3
370
    18
100
AcDbLine
 10
-107.7532930334946
 20
-355.0307665969125
 30
0.0
 11
-108.2532930334946
 21
-355.5307665969125
 31
0.0
  0
LINE
  5
572
330
1F
100
AcDbEntity
  8
Layer0000
  6
Continuous
 62
     3
370
    18
100
AcDbLine
 10
-107.2532930334946
 20
-344.5307665969125
 30
0.0
 11
-107.2532930334946
 21
-322.5307665969125
 31
0.0
  0
LINE
  5
573
330
1F
100
AcDbEntity
  8
Layer0000
  6
Continuous
 62
     3
370
    18
100
AcDbLine
 10
-108.2532930334946
 20
-355.5307665969125
 30
0.0
 11
-108.2532930334946
 21
-311.5307665969125
 31
0.0
  0
LINE
  5
574
330
1F
100
AcDbEntity
  8
Layer0000
  6
Continuous
 62
     3
370
    18
100
AcDbLine
 10
-179.2532930334946
 20
-355.5307665969125
 30
0.0
 11
-179.2532930334946
 21
-311.5307665969125
 31
0.0
  0
LINE
  5
575
330
1F
100
AcDbEntity
  8
Layer0000
  6
Continuous
 62
     3
370
    18
100
AcDbLine
 10
-80.75329303349456
 20
-329.058630641913
 30
0.0
 11
-97.75329303349456
 21
-329.058630641913
 31
0.0
  0
LINE
  5
576
330
1F
100
AcDbEntity
  8
Layer0000
  6
Continuous
 62
     3
370
    18
100
AcDbLine
 10
-80.75329303349456
 20
-327.5395932384602
 30
0.0
 11
-97.75329303349456
 21
-327.5395932384602
 31
0.0
  0
LINE
  5
577
330
1F
100
AcDbEntity
  8
Layer0000
  6
Continuous
 62
     3
370
    18
100
AcDbLine
 10
-80.75329303349456
 20
-338.0029025519121
 30
0.0
 11
-97.75329303349456
 21
-338.0029025519121
 31
0.0
  0
LINE
  5
578
330
1F
100
AcDbEntity
  8
Layer0000
  6
Continuous
 62
     3
370
    18
100
AcDbLine
 10
-80.75329303349456
 20
-339.5219399553649
 30
0.0
 11
-97.75329303349456
 21
-339.5219399553649
 31
0.0
  0
LINE
  5
579
330
1F
100
AcDbEntity
  8
Layer0000
  6
Continuous
 62
     3
370
    18
100
AcDbLine
 10
-80.75329303349456
 20
-327.5395932384602
 30
0.0
 11
-80.75329303349456
 21
-329.058630641913
 31
0.0
  0
LINE
  5
57A
330
1F
100
AcDbEntity
  8
Layer0000
  6
Continuous
 62
     3
370
    18
100
AcDbLine
 10
-80.75329303349456
 20
-339.5219399553649
 30
0.0
 11
-80.75329303349456
 21
-338.0029025519121
 31
0.0
  0
ARC
  5
57B
330
1F
100
AcDbEntity
  8
Layer0000
  6
Continuous
 62
     3
370
    18
100
AcDbCircle
 10
-82.79448274393575
 20
-325.2851799176864
 30
0.0
 40
3.041189710441189
100
AcDbArc
 50
312.1583048916936
 51
12.15830489169361
  0
ARC
  5
57C
330
1F
100
AcDbEntity
  8
Layer0000
  6
Continuous
 62
     3
370
    18
100
AcDbCircle
 10
-90.2532930334945
 20
-333.5307665969125
 30
0.0
 40
10.49999999999994
100
AcDbArc
 50
334.7912347032415
 51
25.20876529675846
  0
ARC
  5
57D
330
1F
100
AcDbEntity
  8
Layer0000
  6
Continuous
 62
     3
370
    18
100
AcDbCircle
 10
-82.79448274393575
 20
-341.7763532761387
 30
0.0
 40
3.041189710441189
100
AcDbArc
 50
347.8416951083055
 51
47.84169510830637
  0
LINE
  5
57E
330
1F
100
AcDbEntity
  8
Layer0000
  6
Continuous
 62
     3
370
    18
100
AcDbLine
 10
-80.75329303349459
 20
-323.0307665969125
 30
0.0
 11
-79.75329303349459
 21
-324.7628174044814
 31
0.0
  0
LINE
  5
57F
330
1F
100
AcDbEntity
  8
Layer0000
  6
Continuous
 62
     3
370
    18
100
AcDbLine
 10
-80.75329303349459
 20
-344.0307665969125
 30
0.0
 11
-79.75329303349459
 21
-342.2987157893437
 31
0.0
  0
LINE
  5
580
330
1F
100
AcDbEntity
  8
Layer0000
  6
Continuous
 62
     3
370
    18
100
AcDbLine
 10
-97.75329303349456
 20
-322.5307665969125
 30
0.0
 11
-97.75329303349456
 21
-344.5307665969125
 31
0.0
  0
LINE
  5
581
330
1F
100
AcDbEntity
  8
Layer0000
  6
Continuous
 62
     3
370
    18
100
AcDbLine
 10
-107.2532930334946
 20
-322.5307665969125
 30
0.0
 11
-97.75329303349456
 21
-322.5307665969125
 31
0.0
  0
LINE
  5
582
330
1F
100
AcDbEntity
  8
Layer0000
  6
Continuous
 62
     3
370
    18
100
AcDbLine
 10
-107.2532930334946
 20
-344.5307665969125
 30
0.0
 11
-97.75329303349456
 21
-344.5307665969125
 31
0.0
  0
LINE
  5
583
330
1F
100
AcDbEntity
  8
Layer0000
  6
Continuous
 62
     3
370
    18
100
AcDbLine
 10
-107.2532930334946
 20
-344.5307665969125
 30
0.0
 11
-107.7532930334946
 21
-345.0307665969125
 31
0.0
  0
LINE
  5
584
330
1F
100
AcDbEntity
  8
Layer0000
  6
Continuous
 62
     3
370
    18
100
AcDbLine
 10
-107.2532930334946
 20
-322.5307665969125
 30
0.0
 11
-107.7532930334946
 21
-322.0307665969125
 31
0.0
  0
LINE
  5
585
330
1F
100
AcDbEntity
  8
Layer0000
  6
DASHED2
 62
    30
370
    18
100
AcDbLine
 10
-179.7532930334946
 20
-315.5307665969125
 30
0.0
 11
-154.7532930334946
 21
-315.5307665969125
 31
0.0
  0
LINE
  5
586
330
1F
100
AcDbEntity
  8
Layer0000
  6
DASHED2
 62
    30
370
    18
100
AcDbLine
 10
-179.7532930334946
 20
-323.7974657619791
 30
0.0
 11
-154.7532930334946
 21
-323.7974657619791
 31
0.0
  0
LINE
  5
587
330
1F
100
AcDbEntity
  8
Layer0000
  6
DASHED2
 62
    30
370
    18
100
AcDbLine
 10
-179.7532930334946
 20
-325.2845553456777
 30
0.0
 11
-154.7532930334946
 21
-325.2845553456777
 31
0.0
  0
LINE
  5
588
330
1F
100
AcDbEntity
  8
Layer0000
  6
DASHED2
 62
    30
370
    18
100
AcDbLine
 10
-154.7532930334946
 20
-315.5307665969125
 30
0.0
 11
-154.7532930334946
 21
-333.5307665969125
 31
0.0
  0
ARC
  5
589
330
1F
100
AcDbEntity
  8
Layer0000
  6
DASHED2
 62
    30
370
    18
100
AcDbCircle
 10
-183.0244377263517
 20
-319.6641161794458
 30
0.0
 40
5.271144692857096
100
AcDbArc
 50
308.3581926761688
 51
51.64180732383124
  0
ARC
  5
58A
330
1F
100
AcDbEntity
  8
Layer0000
  6
DASHED2
 62
    30
370
    18
100
AcDbCircle
 10
-195.7532930334924
 20
-333.5307665969125
 30
0.0
 40
17.99999999999785
100
AcDbArc
 50
0.000000000000007
 51
27.26604445073447
  0
LINE
  5
58B
330
1F
100
AcDbEntity
  8
Layer0000
  6
DASHED2
 62
    30
370
    18
100
AcDbLine
 10
-154.7532930334946
 20
-320.0307665969125
 30
0.0
 11
-115.7532930334946
 21
-320.0307665969125
 31
0.0
  0
LINE
  5
58C
330
1F
100
AcDbEntity
  8
Layer0000
  6
DASHED2
 62
    30
370
    18
100
AcDbLine
 10
-114.7532930334946
 20
-321.0307665969125
 30
0.0
 11
-114.7532930334946
 21
-333.5307665969125
 31
0.0
  0
LINE
  5
58D
330
1F
100
AcDbEntity
  8
Layer0000
  6
DASHED2
 62
    30
370
    18
100
AcDbLine
 10
-115.7532930334946
 20
-320.0307665969125
 30
0.0
 11
-114.7532930334946
 21
-321.0307665969125
 31
0.0
  0
LINE
  5
58E
330
1F
100
AcDbEntity
  8
Layer0000
  6
DASHED2
 62
    30
370
    18
100
AcDbLine
 10
-179.7532930334946
 20
-351.5307665969126
 30
0.0
 11
-154.7532930334946
 21
-351.5307665969126
 31
0.0
  0
LINE
  5
58F
330
1F
100
AcDbEntity
  8
Layer0000
  6
DASHED2
 62
    30
370
    18
100
AcDbLine
 10
-179.7532930334946
 20
-343.2640674318459
 30
0.0
 11
-154.7532930334946
 21
-343.2640674318459
 31
0.0
  0
LINE
  5
590
330
1F
100
AcDbEntity
  8
Layer0000
  6
DASHED2
 62
    30
370
    18
100
AcDbLine
 10
-179.7532930334946
 20
-341.7769778481473
 30
0.0
 11
-154.7532930334946
 21
-341.7769778481473
 31
0.0
  0
LINE
  5
591
330
1F
100
AcDbEntity
  8
Layer0000
  6
DASHED2
 62
    30
370
    18
100
AcDbLine
 10
-154.7532930334946
 20
-351.5307665969126
 30
0.0
 11
-154.7532930334946
 21
-333.5307665969125
 31
0.0
  0
ARC
  5
592
330
1F
100
AcDbEntity
  8
Layer0000
  6
DASHED2
 62
    30
370
    18
100
AcDbCircle
 10
-183.0244377263517
 20
-347.3974170143792
 30
0.0
 40
5.271144692857096
100
AcDbArc
 50
308.3581926761688
 51
51.64180732383124
  0
ARC
  5
593
330
1F
100
AcDbEntity
  8
Layer0000
  6
DASHED2
 62
    30
370
    18
100
AcDbCircle
 10
-195.7532930334924
 20
-333.5307665969125
 30
0.0
 40
17.99999999999785
100
AcDbArc
 50
332.7339555492655
 51
0.0
  0
LINE
  5
594
330
1F
100
AcDbEntity
  8
Layer0000
  6
DASHED2
 62
    30
370
    18
100
AcDbLine
 10
-154.7532930334946
 20
-347.0307665969125
 30
0.0
 11
-115.7532930334946
 21
-347.0307665969125
 31
0.0
  0
LINE
  5
595
330
1F
100
AcDbEntity
  8
Layer0000
  6
DASHED2
 62
    30
370
    18
100
AcDbLine
 10
-114.7532930334946
 20
-346.0307665969125
 30
0.0
 11
-114.7532930334946
 21
-333.5307665969125
 31
0.0
  0
LINE
  5
596
330
1F
100
AcDbEntity
  8
Layer0000
  6
DASHED2
 62
    30
370
    18
100
AcDbLine
 10
-115.7532930334946
 20
-347.0307665969125
 30
0.0
 11
-114.7532930334946
 21
-346.0307665969125
 31
0.0
  0
LINE
  5
597
330
1F
100
AcDbEntity
  8
Layer0000
  6
CENTER
 62
     2
370
    18
100
AcDbLine
 10
-181.7532930334946
 20
-333.5307665969125
 30
0.0
 11
-77.75329303349456
 21
-333.5307665969125
 31
0.0
  0
LINE
  5
598
330
1F
100
AcDbEntity
  8
Layer0000
  6
DASHED2
 62
    30
370
    25
100
AcDbLine
 10
-574.7532930334949
 20
-322.5307665969125
 30
0.0
 11
-569.7532930334949
 21
-322.5307665969125
 31
0.0
  0
LINE
  5
599
330
1F
100
AcDbEntity
  8
Layer0000
  6
DASHED2
 62
    30
370
    25
100
AcDbLine
 10
-574.7532930334949
 20
-344.5307665969125
 30
0.0
 11
-569.753293033495
 21
-344.5307665969125
 31
0.0
  0
LINE
  5
59A
330
1F
100
AcDbEntity
  8
Layer0000
  6
DASHED2
 62
    30
370
    25
100
AcDbLine
 10
-569.7532930334949
 20
-344.5004217115152
 30
0.0
 11
-551.7532930334949
 21
-344.5004217115152
 31
0.0
  0
LINE
  5
59B
330
1F
100
AcDbEntity
  8
Layer0000
  6
DASHED2
 62
    30
370
    25
100
AcDbLine
 10
-569.753293033495
 20
-344.5307665969125
 30
0.0
 11
-569.7532930334127
 21
-322.5307665969125
 31
0.0
  0
LINE
  5
59C
330
1F
100
AcDbEntity
  8
Layer0000
  6
DASHED2
 62
    30
370
    25
100
AcDbLine
 10
-569.7532930334949
 20
-322.5611114823097
 30
0.0
 11
-551.7532930334949
 21
-322.5611114823097
 31
0.0
  0
LINE
  5
59D
330
1F
100
AcDbEntity
  8
Layer0000
  6
DASHED2
 62
    30
370
    25
100
AcDbLine
 10
-574.7532930334949
 20
-322.5307665969125
 30
0.0
 11
-575.7532930334949
 21
-321.5307665969125
 31
0.0
  0
LINE
  5
59E
330
1F
100
AcDbEntity
  8
Layer0000
  6
DASHED2
 62
    30
370
    25
100
AcDbLine
 10
-574.7532930334949
 20
-344.5307665969125
 30
0.0
 11
-575.7532930334949
 21
-345.5307665969125
 31
0.0
  0
LINE
  5
59F
330
1F
100
AcDbEntity
  8
Layer0000
  6
DASHED2
 62
    30
370
    25
100
AcDbLine
 10
-551.7532930334966
 20
-322.0307665969125
 30
0.0
 11
-541.7532930334966
 21
-322.0307665969125
 31
0.0
  0
LINE
  5
5A0
330
1F
100
AcDbEntity
  8
Layer0000
  6
DASHED2
 62
    30
370
    25
100
AcDbLine
 10
-551.7532930334966
 20
-345.0307665969125
 30
0.0
 11
-551.7532930334181
 21
-322.0307665969125
 31
0.0
  0
LINE
  5
5A1
330
1F
100
AcDbEntity
  8
Layer0000
  6
DASHED2
 62
    30
370
    25
100
AcDbLine
 10
-551.7532930334966
 20
-345.0307665969125
 30
0.0
 11
-541.7532930334966
 21
-345.0307665969125
 31
0.0
  0
LINE
  5
5A2
330
1F
100
AcDbEntity
  8
Layer0000
  6
DASHED2
 62
    30
370
    25
100
AcDbLine
 10
-541.7532930334966
 20
-345.0307665969125
 30
0.0
 11
-541.7532930334966
 21
-322.0307665969125
 31
0.0
  0
LINE
  5
5A3
330
1F
100
AcDbEntity
  8
Layer0000
  6
DASHED2
 62
    30
370
    25
100
AcDbLine
 10
-541.7532930334966
 20
-343.0307665969083
 30
0.0
 11
-536.2684654761975
 21
-333.5307665969125
 31
0.0
  0
LINE
  5
5A4
330
1F
100
AcDbEntity
  8
Layer0000
  6
DASHED2
 62
    30
370
    25
100
AcDbLine
 10
-541.7532930334966
 20
-324.0307665969168
 30
0.0
 11
-536.2684654761975
 21
-333.5307665969125
 31
0.0
  0
LINE
  5
5A5
330
1F
100
AcDbEntity
  8
Layer0000
  6
DASHED2
 62
    30
370
    25
100
AcDbLine
 10
-574.7532930334949
 20
-322.5307665969125
 30
0.0
 11
-574.7532930334949
 21
-344.5307665969125
 31
0.0
  0
LINE
  5
5A6
330
1F
100
AcDbEntity
  8
Layer0000
  6
DASHED2
 62
    30
370
    25
100
AcDbLine
 10
-569.7532930334332
 20
-328.0459390396111
 30
0.0
 11
-551.7532930334386
 21
-328.0459390396111
 31
0.0
  0
LINE
  5
5A7
330
1F
100
AcDbEntity
  8
Layer0000
  6
DASHED2
 62
    30
370
    25
100
AcDbLine
 10
-569.7532930334332
 20
-339.015594154214
 30
0.0
 11
-551.7532930334386
 21
-339.015594154214
 31
0.0
  0
ARC
  5
5A8
330
1F
100
AcDbEntity
  8
Layer0000
  6
DASHED2
 62
    30
370
    25
100
AcDbCircle
 10
-573.0137097013032
 20
-325.3035252608919
 30
0.0
 40
4.26041666784944
100
AcDbArc
 50
319.9320129591628
 51
40.06798703485975
  0
ARC
  5
5A9
330
1F
100
AcDbEntity
  8
Layer0000
  6
DASHED2
 62
    30
370
    25
100
AcDbCircle
 10
-584.2949596979869
 20
-333.5307665968075
 30
0.0
 40
15.54166666453311
100
AcDbArc
 50
339.3345218143253
 51
20.66547818643462
  0
ARC
  5
5AA
330
1F
100
AcDbEntity
  8
Layer0000
  6
DASHED2
 62
    30
370
    25
100
AcDbCircle
 10
-573.0137097004838
 20
-341.7580079326832
 30
0.0
 40
4.260416667030052
100
AcDbArc
 50
319.9320129514803
 51
40.06798705011659
  0
LINE
  5
5AB
330
1F
100
AcDbEntity
  8
Layer0014
  6
DIVIDE
 62
     4
370
    25
100
AcDbLine
 10
-81.25950840879763
 20
-54.89696699375556
 30
0.0
 11
-81.25950840879761
 21
-106.3969669937556
 31
0.0
  0
LINE
  5
5AC
330
1F
100
AcDbEntity
  8
Layer0014
  6
DIVIDE
 62
     4
370
    25
100
AcDbLine
 10
-59.05918719372922
 20
-106.3969669937556
 30
0.0
 11
-75.9550113978404
 21
-54.39696699375556
 31
0.0
  0
LINE
  5
5AD
330
1F
100
AcDbEntity
  8
Layer0014
  6
DIVIDE
 62
     4
370
    25
100
AcDbLine
 10
-49.25950840879763
 20
-54.39696699375556
 30
0.0
 11
-75.9550113978404
 21
-54.39696699375556
 31
0.0
  0
LINE
  5
5AE
330
1F
100
AcDbEntity
  8
Layer0014
  6
DIVIDE
 62
     4
370
    25
100
AcDbLine
 10
-81.25950840879763
 20
-54.89696699375556
 30
0.0
 11
-75.79255154972392
 21
-54.89696699375556
 31
0.0
  0
LINE
  5
5AF
330
1F
100
AcDbEntity
  8
Layer0014
  6
DIVIDE
 62
     4
370
    25
100
AcDbLine
 10
-59.05918719372922
 20
-106.3969669937556
 30
0.0
 11
-68.45950840879762
 21
-106.3969669937556
 31
0.0
  0
LINE
  5
5B0
330
1F
100
AcDbEntity
  8
Layer0014
  6
DIVIDE
 62
     4
370
    25
100
AcDbLine
 10
-60.4595084087976
 20
-110.3969669937556
 30
0.0
 11
-60.4595084087976
 21
-109.3969669937556
 31
0.0
  0
LINE
  5
5B1
330
1F
100
AcDbEntity
  8
Layer0014
  6
DIVIDE
 62
     4
370
    25
100
AcDbLine
 10
-60.4595084087976
 20
-109.3969669937556
 30
0.0
 11
-73.45950840879762
 21
-109.3969669937556
 31
0.0
  0
LINE
  5
5B2
330
1F
100
AcDbEntity
  8
Layer0014
  6
DIVIDE
 62
     4
370
    25
100
AcDbLine
 10
-73.45950840879762
 20
-106.3969669937556
 30
0.0
 11
-73.45950840879762
 21
-109.3969669937556
 31
0.0
  0
LINE
  5
5B3
330
1F
100
AcDbEntity
  8
Layer0014
  6
DIVIDE
 62
     4
370
    25
100
AcDbLine
 10
-68.45950840879762
 20
-106.3969669937555
 30
0.0
 11
-68.45950840879762
 21
-105.8969669937555
 31
0.0
  0
LINE
  5
5B4
330
1F
100
AcDbEntity
  8
Layer0014
  6
DIVIDE
 62
     4
370
    25
100
AcDbLine
 10
-68.45950840879762
 20
-105.8969669937555
 30
0.0
 11
-59.22164704184569
 21
-105.8969669937555
 31
0.0
  0
LINE
  5
5B5
330
1F
100
AcDbEntity
  8
Layer0014
  6
DIVIDE
 62
     4
370
    25
100
AcDbLine
 10
-49.25950840879761
 20
-106.3969669937556
 30
0.0
 11
-59.05918719372922
 21
-106.3969669937556
 31
0.0
  0
LINE
  5
5B6
330
1F
100
AcDbEntity
  8
Layer0014
  6
DIVIDE
 62
     4
370
    25
100
AcDbLine
 10
-68.45950840879762
 20
-106.3969669937556
 30
0.0
 11
-81.25950840879761
 21
-106.3969669937556
 31
0.0
  0
LINE
  5
5B7
330
1F
100
AcDbEntity
  8
Layer0014
  6
DIVIDE
 62
     4
370
    25
100
AcDbLine
 10
-49.45950840879762
 20
-106.3969669937556
 30
0.0
 11
-49.45950840879762
 21
-110.3969669937556
 31
0.0
  0
LINE
  5
5B8
330
1F
100
AcDbEntity
  8
Layer0014
  6
DIVIDE
 62
     4
370
    25
100
AcDbLine
 10
-49.25950840879763
 20
-54.39696699375556
 30
0.0
 11
-49.25950840879763
 21
-106.3969669937556
 31
0.0
  0
LINE
  5
5B9
330
1F
100
AcDbEntity
  8
Layer0014
  6
DIVIDE
 62
     4
370
    25
100
AcDbLine
 10
-49.45950840879762
 20
-110.3969669937556
 30
0.0
 11
-60.4595084087976
 21
-110.3969669937556
 31
0.0
  0
LINE
  5
5BA
330
1F
100
AcDbEntity
  8
Layer0014
  6
Continuous
 62
     3
370
    25
100
AcDbLine
 10
404.638421733499
 20
-28.39696699375574
 30
0.0
 11
404.638421733499
 21
-55.39696699375567
 31
0.0
  0
LINE
  5
5BB
330
1F
100
AcDbEntity
  8
Layer0014
  6
Continuous
 62
     3
370
    25
100
AcDbLine
 10
374.638421733499
 20
-33.39696699375571
 30
0.0
 11
339.638421733499
 21
-33.39696699375568
 31
0.0
  0
LINE
  5
5BC
330
1F
100
AcDbEntity
  8
Layer0014
  6
Continuous
 62
     3
370
    25
100
AcDbLine
 10
374.638421733499
 20
-33.39696699375571
 30
0.0
 11
374.638421733499
 21
-28.39696699375574
 31
0.0
  0
LINE
  5
5BD
330
1F
100
AcDbEntity
  8
Layer0014
  6
Continuous
 62
     3
370
    25
100
AcDbLine
 10
374.938421733499
 20
-28.39696699375574
 30
0.0
 11
404.638421733499
 21
-28.39696699375574
 31
0.0
  0
LINE
  5
5BE
330
1F
100
AcDbEntity
  8
Layer0014
  6
Continuous
 62
     3
370
    25
100
AcDbLine
 10
332.3825537754668
 20
-55.39696699375567
 30
0.0
 11
404.6384217334991
 21
-55.3969669937557
 31
0.0
  0
LINE
  5
5BF
330
1F
100
AcDbEntity
  8
Layer0014
  6
Continuous
 62
     3
370
    25
100
AcDbLine
 10
332.3825537754668
 20
-125.3969669937557
 30
0.0
 11
405.638421733499
 21
-125.3969669937557
 31
0.0
  0
LINE
  5
5C0
330
1F
100
AcDbEntity
  8
Layer0014
  6
Continuous
 62
     3
370
    25
100
AcDbLine
 10
339.638421733499
 20
-33.39696699375568
 30
0.0
 11
339.638421733499
 21
-55.39696699375568
 31
0.0
  0
LINE
  5
5C1
330
1F
100
AcDbEntity
  8
Layer0014
  6
Continuous
 62
     3
370
    25
100
AcDbLine
 10
405.6384217334991
 20
-56.39696699375567
 30
0.0
 11
409.6384217334991
 21
-52.39696699375567
 31
0.0
  0
LINE
  5
5C2
330
1F
100
AcDbEntity
  8
Layer0014
  6
Continuous
 62
     3
370
    25
100
AcDbLine
 10
405.638421733499
 20
-125.3969669937557
 30
0.0
 11
405.6384217334991
 21
-56.39696699375567
 31
0.0
  0
LINE
  5
5C3
330
1F
100
AcDbEntity
  8
Layer0014
  6
Continuous
 62
     3
370
    25
100
AcDbLine
 10
448.8204910458768
 20
-52.39696699375571
 30
0.0
 11
481.1384217334984
 21
-71.05573297590573
 31
0.0
  0
LINE
  5
5C4
330
1F
100
AcDbEntity
  8
Layer0014
  6
Continuous
 62
     3
370
    25
100
AcDbLine
 10
448.8204910458768
 20
-52.39696699375571
 30
0.0
 11
409.6384217334991
 21
-52.39696699375567
 31
0.0
  0
LINE
  5
5C5
330
1F
100
AcDbEntity
  8
Layer0014
  6
Continuous
 62
     3
370
    25
100
AcDbLine
 10
481.1384217334984
 20
-71.05573297590573
 30
0.0
 11
481.1384217334984
 21
-124.3969669937557
 31
0.0
  0
LINE
  5
5C6
330
1F
100
AcDbEntity
  8
Layer0014
  6
Continuous
 62
     3
370
    25
100
AcDbLine
 10
481.1384217334984
 20
-124.3969669937557
 30
0.0
 11
405.6384217334991
 21
-124.3969669937557
 31
0.0
  0
LINE
  5
5C7
330
1F
100
AcDbEntity
  8
Layer0014
  6
Continuous
 62
     3
370
    25
100
AcDbLine
 10
404.6384217334991
 20
-55.3969669937557
 30
0.0
 11
405.6384217334991
 21
-56.3969669937557
 31
0.0
  0
LINE
  5
5C8
330
1F
100
AcDbEntity
  8
Layer0014
  6
Continuous
 62
     3
370
    25
100
AcDbLine
 10
459.8621422918676
 20
-45.4928111215651
 30
0.0
 11
454.1121422918676
 21
-55.45210326508619
 31
0.0
  0
LINE
  5
5C9
330
1F
100
AcDbEntity
  8
Layer0014
  6
Continuous
 62
     3
370
    25
100
AcDbLine
 10
478.9147011751253
 20
-56.4928111215651
 30
0.0
 11
473.1647011751253
 21
-66.45210326508618
 31
0.0
  0
LINE
  5
5CA
330
1F
100
AcDbEntity
  8
Layer0014
  6
Continuous
 62
     3
370
    25
100
AcDbLine
 10
469.0451549937592
 20
-30.58736655533889
 30
0.0
 11
487.2316884732323
 21
-41.08736655533889
 31
0.0
  0
LINE
  5
5CB
330
1F
100
AcDbEntity
  8
Layer0014
  6
Continuous
 62
     3
370
    25
100
AcDbLine
 10
478.9147011751253
 20
-56.4928111215651
 30
0.0
 11
478.7316884732331
 21
-55.80979841967289
 31
0.0
  0
LINE
  5
5CC
330
1F
100
AcDbEntity
  8
Layer0014
  6
Continuous
 62
     3
370
    25
100
AcDbLine
 10
478.7316884732331
 20
-55.80979841967289
 30
0.0
 11
488.231688473233
 21
-39.3553157477688
 31
0.0
  0
LINE
  5
5CD
330
1F
100
AcDbEntity
  8
Layer0014
  6
Continuous
 62
     3
370
    25
100
AcDbLine
 10
459.8621422918678
 20
-45.4928111215651
 30
0.0
 11
460.5451549937599
 21
-45.30979841967283
 31
0.0
  0
LINE
  5
5CE
330
1F
100
AcDbEntity
  8
Layer0014
  6
Continuous
 62
     3
370
    25
100
AcDbLine
 10
460.5451549937599
 20
-45.30979841967283
 30
0.0
 11
470.0451549937603
 21
-28.85531574776795
 31
0.0
  0
LINE
  5
5CF
330
1F
100
AcDbEntity
  8
Layer0014
  6
Continuous
 62
     3
370
    25
100
AcDbLine
 10
478.9147011751253
 20
-56.4928111215651
 30
0.0
 11
459.8621422918678
 21
-45.4928111215651
 31
0.0
  0
LINE
  5
5D0
330
1F
100
AcDbEntity
  8
Layer0014
  6
Continuous
 62
     3
370
    25
100
AcDbLine
 10
460.5451549937599
 20
-45.30979841967283
 30
0.0
 11
478.7316884732331
 21
-55.80979841967289
 31
0.0
  0
LINE
  5
5D1
330
1F
100
AcDbEntity
  8
Layer0014
  6
Continuous
 62
     3
370
    25
100
AcDbLine
 10
380.638421733499
 20
-55.89696699375569
 30
0.0
 11
380.638421733499
 21
-59.89696699375569
 31
0.0
  0
LINE
  5
5D2
330
1F
100
AcDbEntity
  8
Layer0014
  6
Continuous
 62
     3
370
    25
100
AcDbLine
 10
364.6384217334989
 20
-55.89696699375569
 30
0.0
 11
364.6384217334989
 21
-59.89696699375569
 31
0.0
  0
LINE
  5
5D3
330
1F
100
AcDbEntity
  8
Layer0014
  6
Continuous
 62
     3
370
    25
100
AcDbLine
 10
380.638421733499
 20
-59.89696699375569
 30
0.0
 11
364.6384217334989
 21
-59.89696699375569
 31
0.0
  0
LINE
  5
5D4
330
1F
100
AcDbEntity
  8
Layer0014
  6
Continuous
 62
     3
370
    25
100
AcDbLine
 10
381.138421733499
 20
-55.39696699375569
 30
0.0
 11
380.638421733499
 21
-55.89696699375569
 31
0.0
  0
LINE
  5
5D5
330
1F
100
AcDbEntity
  8
Layer0014
  6
Continuous
 62
     3
370
    25
100
AcDbLine
 10
364.1384217334989
 20
-55.39696699375569
 30
0.0
 11
364.6384217334989
 21
-55.89696699375569
 31
0.0
  0
LINE
  5
5D6
330
1F
100
AcDbEntity
  8
Layer0014
  6
Continuous
 62
    56
370
    25
100
AcDbLine
 10
487.8608535978334
 20
-52.99762059318331
 30
0.0
 11
489.8608535978336
 21
-49.53351897804563
 31
0.0
  0
LINE
  5
5D7
330
1F
100
AcDbEntity
  8
Layer0014
  6
Continuous
 62
    56
370
    25
100
AcDbLine
 10
492.5929044054027
 20
-48.80146817047691
 30
0.0
 11
494.5929044054027
 21
-45.33736655533917
 31
0.0
  0
ARC
  5
5D8
330
1F
100
AcDbEntity
  8
Layer0014
  6
Continuous
 62
    56
370
    25
100
AcDbCircle
 10
492.8608535978339
 20
-44.33736655533917
 30
0.0
 40
2.0
100
AcDbArc
 50
329.9999999999974
 51
59.99999999999724
  0
ARC
  5
5D9
330
1F
100
AcDbEntity
  8
Layer0014
  6
Continuous
 62
    56
370
    25
100
AcDbCircle
 10
490.8608535978337
 20
-47.80146817047691
 30
0.0
 40
2.0
100
AcDbArc
 50
239.9999999999974
 51
329.9999999999974
  0
LINE
  5
5DA
330
1F
100
AcDbEntity
  8
Layer0014
  6
Continuous
 62
    56
370
    25
100
AcDbLine
 10
487.8608535978334
 20
-52.99762059318331
 30
0.0
 11
486.9948281940489
 21
-52.4976205931832
 31
0.0
  0
LINE
  5
5DB
330
1F
100
AcDbEntity
  8
Layer0014
  6
Continuous
 62
    56
370
    25
100
AcDbLine
 10
480.9948281940486
 20
-62.88992543859595
 30
0.0
 11
486.9948281940489
 21
-52.4976205931832
 31
0.0
  0
LINE
  5
5DC
330
1F
100
AcDbEntity
  8
Layer0014
  6
Continuous
 62
    56
370
    25
100
AcDbLine
 10
479.6288027902643
 20
-63.25595084238032
 30
0.0
 11
480.9948281940486
 21
-62.88992543859595
 31
0.0
  0
LINE
  5
5DD
330
1F
100
AcDbEntity
  8
Layer0014
  6
Continuous
 62
    56
370
    25
100
AcDbLine
 10
479.6288027902643
 20
-63.25595084238032
 30
0.0
 11
476.1647011751253
 21
-61.25595084237963
 31
0.0
  0
LINE
  5
5DE
330
1F
100
AcDbEntity
  8
Layer0014
  6
Continuous
 62
    56
370
    25
100
AcDbLine
 10
458.4159898691635
 20
-35.99762059318195
 30
0.0
 11
459.4159898691634
 21
-34.26556978561305
 31
0.0
  0
ARC
  5
5DF
330
1F
100
AcDbEntity
  8
Layer0014
  6
Continuous
 62
    56
370
    25
100
AcDbCircle
 10
457.6839390615945
 20
-33.265569785613
 30
0.0
 40
2.0
100
AcDbArc
 50
329.9999999999973
 51
59.99999999999729
  0
LINE
  5
5E0
330
1F
100
AcDbEntity
  8
Layer0014
  6
Continuous
 62
    56
370
    25
100
AcDbLine
 10
459.2820152729479
 20
-36.49762059318201
 30
0.0
 11
458.4159898691635
 21
-35.99762059318195
 31
0.0
  0
LINE
  5
5E1
330
1F
100
AcDbEntity
  8
Layer0014
  6
Continuous
 62
    56
370
    25
100
AcDbLine
 10
453.6480406767315
 20
-48.25595084237975
 30
0.0
 11
453.282015272947
 21
-46.88992543859533
 31
0.0
  0
LINE
  5
5E2
330
1F
100
AcDbEntity
  8
Layer0014
  6
Continuous
 62
    56
370
    25
100
AcDbLine
 10
453.6480406767316
 20
-48.25595084238054
 30
0.0
 11
457.1121422918676
 21
-50.25595084237952
 31
0.0
  0
LINE
  5
5E3
330
1F
100
AcDbEntity
  8
Layer0014
  6
Continuous
 62
    56
370
    25
100
AcDbLine
 10
453.282015272947
 20
-46.88992543859533
 30
0.0
 11
459.2820152729479
 21
-36.49762059318201
 31
0.0
  0
LINE
  5
5E4
330
1F
100
AcDbEntity
  8
Layer0014
  6
Continuous
 62
    56
370
    25
100
AcDbLine
 10
360.0910176263872
 20
27.69853182952974
 30
0.0
 11
367.5910176263878
 21
40.68891288629592
 31
0.0
  0
LINE
  5
5E5
330
1F
100
AcDbEntity
  8
Layer0014
  6
Continuous
 62
    56
370
    25
100
AcDbLine
 10
367.5910176263878
 20
40.68891288629592
 30
0.0
 11
383.1794748945073
 21
31.68891288629518
 31
0.0
  0
LINE
  5
5E6
330
1F
100
AcDbEntity
  8
Layer0014
  6
Continuous
 62
    56
370
    25
100
AcDbLine
 10
379.6794748945069
 20
25.62673505980436
 30
0.0
 11
383.1794748945073
 21
31.68891288629518
 31
0.0
  0
ARC
  5
5E7
330
1F
100
AcDbEntity
  8
Layer0014
  6
Continuous
 62
    56
370
    25
100
AcDbCircle
 10
381.4115257020757
 20
24.6267350598043
 30
0.0
 40
2.0
100
AcDbArc
 50
149.9999999999973
 51
239.9999999999973
  0
ARC
  5
5E8
330
1F
100
AcDbEntity
  8
Layer0014
  6
Continuous
 62
    56
370
    25
100
AcDbCircle
 10
361.823068433956
 20
26.69853182952963
 30
0.0
 40
2.0
100
AcDbArc
 50
149.9999999999973
 51
239.9999999999973
  0
LINE
  5
5E9
330
1F
100
AcDbEntity
  8
Layer0014
  6
Continuous
 62
    56
370
    25
100
AcDbLine
 10
363.3541573471994
 20
22.35045561817728
 30
0.0
 11
369.4163351736905
 21
18.85045561817716
 31
0.0
  0
LINE
  5
5EA
330
1F
100
AcDbEntity
  8
Layer0014
  6
Continuous
 62
    56
370
    25
100
AcDbLine
 10
385.8134494907205
 20
38.25109071278811
 30
0.0
 11
371.9570430301695
 21
46.25109071278817
 31
0.0
  0
LINE
  5
5EB
330
1F
100
AcDbEntity
  8
Layer0014
  6
Continuous
 62
    56
370
    25
100
AcDbLine
 10
382.8134494907205
 20
33.05493829008148
 30
0.0
 11
385.8134494907205
 21
38.25109071278811
 31
0.0
  0
LINE
  5
5EC
330
1F
100
AcDbEntity
  8
Layer0014
  6
Continuous
 62
    56
370
    25
100
AcDbLine
 10
368.9570430301695
 20
41.05493829008154
 30
0.0
 11
371.9570430301695
 21
46.25109071278817
 31
0.0
  0
LINE
  5
5ED
330
1F
100
AcDbEntity
  8
Layer0014
  6
Continuous
 62
    56
370
    25
100
AcDbLine
 10
381.4474240869361
 20
32.68891288629706
 30
0.0
 11
382.8134494907205
 21
33.05493829008148
 31
0.0
  0
LINE
  5
5EE
330
1F
100
AcDbEntity
  8
Layer0014
  6
Continuous
 62
    56
370
    25
100
AcDbLine
 10
369.3230684339539
 20
39.68891288629712
 30
0.0
 11
368.9570430301695
 21
41.05493829008154
 31
0.0
  0
LINE
  5
5EF
330
1F
100
AcDbEntity
  8
Layer0014
  6
Continuous
 62
    56
370
    25
100
AcDbLine
 10
381.4474240869361
 20
32.68891288629706
 30
0.0
 11
369.3230684339539
 21
39.68891288629712
 31
0.0
  0
LINE
  5
5F0
330
1F
100
AcDbEntity
  8
Layer0014
  6
Continuous
 62
    56
370
    25
100
AcDbLine
 10
362.988131943421
 20
23.71648102195834
 30
0.0
 11
363.3541573471994
 21
22.35045561817728
 31
0.0
  0
LINE
  5
5F1
330
1F
100
AcDbEntity
  8
Layer0014
  6
Continuous
 62
    56
370
    25
100
AcDbLine
 10
370.7823605774647
 20
19.21648102196721
 30
0.0
 11
369.4163351736905
 21
18.85045561817716
 31
0.0
  0
LINE
  5
5F2
330
1F
100
AcDbEntity
  8
Layer0014
  6
Continuous
 62
    56
370
    25
100
AcDbLine
 10
370.5658542265286
 20
19.34148102196136
 30
0.0
 11
370.4408542265313
 21
19.12497467101971
 31
0.0
  0
LINE
  5
5F3
330
1F
100
AcDbEntity
  8
Layer0014
  6
Continuous
 62
    56
370
    25
100
AcDbLine
 10
363.204638294361
 20
23.59148102196136
 30
0.0
 11
363.0796382943635
 21
23.37497467101971
 31
0.0
  0
LINE
  5
5F4
330
1F
100
AcDbEntity
  8
Layer0014
  6
Continuous
 62
    56
370
    25
100
AcDbLine
 10
493.860853597834
 20
-42.60531574777039
 30
0.0
 11
380.4115257020757
 21
22.89468425223546
 31
0.0
  0
LINE
  5
5F5
330
1F
100
AcDbEntity
  8
Layer0014
  6
Continuous
 62
    56
370
    25
100
AcDbLine
 10
458.6839390615946
 20
-31.53351897804416
 30
0.0
 11
360.8230684339558
 21
24.9664810219609
 31
0.0
  0
LINE
  5
5F6
330
1F
100
AcDbEntity
  8
Layer0014
  6
Continuous
 62
    56
370
    25
100
AcDbLine
 10
592.1858258406129
 20
-106.3014681704682
 30
0.0
 11
599.6858258406122
 21
-93.31108711370129
 31
0.0
  0
LINE
  5
5F7
330
1F
100
AcDbEntity
  8
Layer0014
  6
Continuous
 62
    56
370
    25
100
AcDbLine
 10
599.6858258406122
 20
-93.31108711370129
 30
0.0
 11
584.0973685724917
 21
-84.31108711370197
 31
0.0
  0
LINE
  5
5F8
330
1F
100
AcDbEntity
  8
Layer0014
  6
Continuous
 62
    56
370
    25
100
AcDbLine
 10
580.5973685724922
 20
-90.37326494019325
 30
0.0
 11
584.0973685724917
 21
-84.31108711370197
 31
0.0
  0
ARC
  5
5F9
330
1F
100
AcDbEntity
  8
Layer0014
  6
Continuous
 62
    56
370
    25
100
AcDbCircle
 10
578.8653177649234
 20
-89.37326494019337
 30
0.0
 40
2.000000000000001
100
AcDbArc
 50
240.0000000000026
 51
330.0000000000026
  0
ARC
  5
5FA
330
1F
100
AcDbEntity
  8
Layer0014
  6
Continuous
 62
    56
370
    25
100
AcDbCircle
 10
590.4537750330438
 20
-105.3014681704683
 30
0.0
 40
2.000000000000001
100
AcDbArc
 50
240.0000000000026
 51
330.0000000000026
  0
LINE
  5
5FB
330
1F
100
AcDbEntity
  8
Layer0014
  6
Continuous
 62
    56
370
    25
100
AcDbLine
 10
585.9226861198002
 20
-106.1495443818229
 30
0.0
 11
579.8605082933091
 21
-102.649544381823
 31
0.0
  0
LINE
  5
5FC
330
1F
100
AcDbEntity
  8
Layer0014
  6
Continuous
 62
    56
370
    25
100
AcDbLine
 10
588.4633939762791
 20
-78.748909287212
 30
0.0
 11
602.3198004368302
 21
-86.748909287212
 31
0.0
  0
LINE
  5
5FD
330
1F
100
AcDbEntity
  8
Layer0014
  6
Continuous
 62
    56
370
    25
100
AcDbLine
 10
588.4633939762791
 20
-78.748909287212
 30
0.0
 11
620.4725290151949
 21
-15.31063003831943
 31
0.0
  0
LINE
  5
5FE
330
1F
100
AcDbEntity
  8
Layer0014
  6
Continuous
 62
    56
370
    25
100
AcDbLine
 10
602.3198004368302
 20
-86.748909287212
 30
0.0
 11
641.2543943192842
 21
-27.309045565898
 31
0.0
  0
LINE
  5
5FF
330
1F
100
AcDbEntity
  8
Layer0014
  6
Continuous
 62
    56
370
    25
100
AcDbLine
 10
640.9178743863444
 20
-25.89507890886281
 30
0.0
 11
621.8653155125309
 21
-14.89507891431541
 31
0.0
  0
ARC
  5
600
330
1F
100
AcDbEntity
  8
Layer0014
  6
Continuous
 62
    56
370
    25
100
AcDbCircle
 10
640.4178766481836
 20
-26.76110561851661
 30
0.0
 40
1.0
100
AcDbArc
 50
326.7742007758423
 51
60.00014964194798
  0
ARC
  5
601
330
1F
100
AcDbEntity
  8
Layer0014
  6
Continuous
 62
    56
370
    25
100
AcDbCircle
 10
621.3653177649259
 20
-15.76110561851672
 30
0.0
 40
1.0
100
AcDbArc
 50
59.99985035805289
 51
153.2257992241578
  0
LINE
  5
602
330
1F
100
AcDbEntity
  8
Layer0014
  6
Continuous
 62
    56
370
    25
100
AcDbLine
 10
641.2543943162956
 20
-27.30904556417246
 30
0.0
 11
620.4725290181835
 21
-15.31063004004497
 31
0.0
  0
LINE
  5
603
330
1F
100
AcDbEntity
  8
Layer0014
  6
Continuous
 62
    56
370
    25
100
AcDbLine
 10
585.463393976279
 20
-83.94506170991863
 30
0.0
 11
588.4633939762791
 21
-78.748909287212
 31
0.0
  0
LINE
  5
604
330
1F
100
AcDbEntity
  8
Layer0014
  6
Continuous
 62
    56
370
    25
100
AcDbLine
 10
599.3198004368302
 20
-91.94506170991863
 30
0.0
 11
602.3198004368302
 21
-86.748909287212
 31
0.0
  0
LINE
  5
605
330
1F
100
AcDbEntity
  8
Layer0014
  6
Continuous
 62
    56
370
    25
100
AcDbLine
 10
585.8294193800635
 20
-85.31108711370305
 30
0.0
 11
585.463393976279
 21
-83.94506170991863
 31
0.0
  0
LINE
  5
606
330
1F
100
AcDbEntity
  8
Layer0014
  6
Continuous
 62
    56
370
    25
100
AcDbLine
 10
597.9537750330456
 20
-92.31108711370305
 30
0.0
 11
599.3198004368302
 21
-91.94506170991863
 31
0.0
  0
LINE
  5
607
330
1F
100
AcDbEntity
  8
Layer0014
  6
Continuous
 62
    56
370
    25
100
AcDbLine
 10
585.8294193800635
 20
-85.31108711370305
 30
0.0
 11
597.9537750330456
 21
-92.31108711370305
 31
0.0
  0
LINE
  5
608
330
1F
100
AcDbEntity
  8
Layer0014
  6
Continuous
 62
    56
370
    25
100
AcDbLine
 10
587.2887115235787
 20
-105.783518978035
 30
0.0
 11
585.9226861198002
 21
-106.1495443818229
 31
0.0
  0
LINE
  5
609
330
1F
100
AcDbEntity
  8
Layer0014
  6
Continuous
 62
    56
370
    25
100
AcDbLine
 10
579.4944828895347
 20
-101.2835189780446
 30
0.0
 11
579.8605082933091
 21
-102.649544381823
 31
0.0
  0
LINE
  5
60A
330
1F
100
AcDbEntity
  8
Layer0014
  6
Continuous
 62
    56
370
    25
100
AcDbLine
 10
579.7109892404707
 20
-101.4085189780388
 30
0.0
 11
579.5859892404732
 21
-101.6250253289804
 31
0.0
  0
LINE
  5
60B
330
1F
100
AcDbEntity
  8
Layer0014
  6
Continuous
 62
    56
370
    25
100
AcDbLine
 10
587.0722051726383
 20
-105.6585189780387
 30
0.0
 11
586.9472051726409
 21
-105.8750253289804
 31
0.0
  0
LINE
  5
60C
330
1F
100
AcDbEntity
  8
Layer0014
  6
Continuous
 62
    56
370
    25
100
AcDbLine
 10
542.3252363408152
 20
-70.58624017053438
 30
0.0
 11
577.8653177649235
 21
-91.1053157477622
 31
0.0
  0
LINE
  5
60D
330
1F
100
AcDbEntity
  8
Layer0014
  6
Continuous
 62
    56
370
    25
100
AcDbLine
 10
538.695936360638
 20
-77.72846715704337
 30
0.0
 11
589.453775033044
 21
-107.0335189780373
 31
0.0
  0
LINE
  5
60E
330
1F
100
AcDbEntity
  8
Layer0014
  6
Continuous
 62
    56
370
    25
100
AcDbLine
 10
385.8134494907205
 20
38.25109071278811
 30
0.0
 11
424.7480433731748
 21
97.69095443410205
 31
0.0
  0
LINE
  5
60F
330
1F
100
AcDbEntity
  8
Layer0014
  6
Continuous
 62
    56
370
    25
100
AcDbLine
 10
371.9570430301695
 20
46.25109071278817
 30
0.0
 11
403.9661780690855
 21
109.6893699616806
 31
0.0
  0
LINE
  5
610
330
1F
100
AcDbEntity
  8
Layer0014
  6
Continuous
 62
    56
370
    25
100
AcDbLine
 10
405.358969080652
 20
110.1049184793924
 30
0.0
 11
424.4115279544655
 21
99.10491848484489
 31
0.0
  0
ARC
  5
611
330
1F
100
AcDbEntity
  8
Layer0014
  6
Continuous
 62
    56
370
    25
100
AcDbCircle
 10
404.8589668188164
 20
109.2388943814834
 30
0.0
 40
1.0
100
AcDbArc
 50
59.99985035805192
 51
153.2257992241576
  0
ARC
  5
612
330
1F
100
AcDbEntity
  8
Layer0014
  6
Continuous
 62
    56
370
    25
100
AcDbCircle
 10
423.911525702074
 20
98.23889438148328
 30
0.0
 40
1.0
100
AcDbArc
 50
326.7742007758421
 51
60.00014964194701
  0
LINE
  5
613
330
1F
100
AcDbEntity
  8
Layer0014
  6
Continuous
 62
    56
370
    25
100
AcDbLine
 10
403.9661780720741
 20
109.6893699599551
 30
0.0
 11
424.7480433701861
 21
97.69095443582754
 31
0.0
  0
LINE
  5
614
330
1F
100
AcDbEntity
  8
Layer0014
  6
CENTER
 62
    56
370
    25
100
AcDbLine
 10
582.8915972065521
 20
-104.3995443818215
 30
0.0
 11
631.3915972065503
 21
-20.39508021473378
 31
0.0
  0
LINE
  5
615
330
1F
100
AcDbEntity
  8
Layer0014
  6
CENTER
 62
    56
370
    25
100
AcDbLine
 10
366.3852462604475
 20
20.60045561817569
 30
0.0
 11
414.885246260446
 21
104.6049197852633
 31
0.0
  0
LINE
  5
616
330
1F
100
AcDbEntity
  8
Layer0014
  6
CENTER
 62
     2
370
    25
100
AcDbLine
 10
446.6384217334972
 20
-90.39696699375571
 30
0.0
 11
480.193166641936
 21
-32.27844397732682
 31
0.0
  0
LINE
  5
617
330
1F
100
AcDbEntity
  8
Layer0014
  6
CENTER
 62
     2
370
    25
100
AcDbLine
 10
446.6384217334972
 20
-90.39696699375571
 30
0.0
 11
405.6384217334991
 21
-90.39696699375571
 31
0.0
  0
LINE
  5
618
330
1F
100
AcDbEntity
  8
Layer0015
  6
Continuous
 62
     2
370
    18
100
AcDbLine
 10
407.6916043200706
 20
-200.3969669937556
 30
0.0
 11
548.8971539456661
 21
-200.3969669937556
 31
0.0
  0
DIMENSION
  5
619
330
1F
100
AcDbEntity
  8
Layer0015
  6
Continuous
370
    13
100
AcDbDimension
  2
*D1
 10
-455.5595084087976
 20
28.41164294954721
 30
0.0
 11
-508.0595084087977
 21
28.41164294954721
 31
0.0
 70
    32
 71
     8
 42
-1.0
  3
DaDimRotatedStyle
100
AcDbAlignedDimension
 13
-560.5595084087977
 23
-56.89696699375558
 33
0.0
 14
-455.5595084087976
 24
-55.09696699375562
 34
0.0
100
AcDbRotatedDimension
1001
ACAD
1000
DSTYLE
1002
{
1070
   274
1070
     4
1070
    41
1040
7.499992178923005
1070
   289
1070
     0
1070
    79
1070
     2
1070
   343
1005
DA
1070
   344
1005
DA
1070
   176
1070
     2
1070
   177
1070
     2
1070
   178
1070
     2
1070
   271
1070
     3
1070
    44
1040
1.600000000000001
1070
    42
1040
2.5
1070
   147
1040
2.0
1070
   173
1070
     1
1070
    77
1070
     3
1070
    73
1070
     0
1070
   172
1070
     1
1070
    74
1070
     0
1070
   283
1070
     0
1070
   340
1005
E4
1070
   140
1040
12.5
1070
   284
1070
     8
1070
   288
1070
     1
1070
    78
1070
     8
1002
}
  0
DIMENSION
  5
61B
330
1F
100
AcDbEntity
  8
Layer0015
  6
Continuous
370
    13
100
AcDbDimension
  2
*D2
 10
-67.25950840879761
 20
28.41164294954721
 30
0.0
 11
-261.4095084087976
 21
28.41164294954721
 31
0.0
 70
    32
  1
0～385
 71
     8
 42
-1.0
  3
DaDimRotatedStyle
100
AcDbAlignedDimension
 13
-455.5595084087976
 23
-55.09696699375562
 33
0.0
 14
-67.25950840879761
 24
-55.09696699375562
 34
0.0
100
AcDbRotatedDimension
1001
ACAD
1000
DSTYLE
1002
{
1070
   274
1070
     4
1070
    41
1040
7.499992178923005
1070
   289
1070
     0
1070
    79
1070
     2
1070
   343
1005
DA
1070
   344
1005
DA
1070
   176
1070
     2
1070
   177
1070
     2
1070
   178
1070
     2
1070
   271
1070
     3
1070
    44
1040
1.600000000000001
1070
    42
1040
2.5
1070
   147
1040
2.0
1070
   173
1070
     1
1070
    77
1070
     3
1070
    73
1070
     0
1070
   172
1070
     1
1070
    74
1070
     0
1070
   283
1070
     0
1070
   340
1005
E4
1070
   140
1040
12.5
1070
   284
1070
     8
1070
   288
1070
     1
1070
    78
1070
     8
1002
}
  0
DIMENSION
  5
61C
330
1F
100
AcDbEntity
  8
Layer0015
  6
Continuous
370
    13
100
AcDbDimension
  2
*D3
 10
184.440491591204
 20
28.41164294954721
 30
0.0
 11
58.5904915912032
 21
28.41164294954721
 31
0.0
 70
    32
  1
252
 71
     8
 42
-1.0
  3
DaDimRotatedStyle
100
AcDbAlignedDimension
 13
-67.25950840879761
 23
-55.09696699375562
 33
0.0
 14
184.440491591204
 24
-81.39696699375557
 34
0.0
100
AcDbRotatedDimension
1001
ACAD
1000
DSTYLE
1002
{
1070
   274
1070
     4
1070
    41
1040
7.499992178923005
1070
   289
1070
     0
1070
    79
1070
     2
1070
   343
1005
DA
1070
   344
1005
DA
1070
   176
1070
     2
1070
   177
1070
     2
1070
   178
1070
     2
1070
   271
1070
     3
1070
    44
1040
1.600000000000001
1070
    42
1040
2.5
1070
   147
1040
2.0
1070
   173
1070
     1
1070
    77
1070
     3
1070
    73
1070
     0
1070
   172
1070
     1
1070
    74
1070
     0
1070
   283
1070
     0
1070
   340
1005
E4
1070
   140
1040
12.5
1070
   284
1070
     8
1070
   288
1070
     1
1070
    78
1070
     8
1002
}
  0
INSERT
  5
61D
330
1F
100
AcDbEntity
  8
Layer0015
  6
Continuous
100
AcDbBlockReference
  2
DA_IMAGEDIMGROUP_1
 10
0.0
 20
0.0
 30
0.0
  0
DIMENSION
  5
61E
330
1F
100
AcDbEntity
  8
Layer0015
  6
Continuous
370
    13
100
AcDbDimension
  2
*D5
 10
184.4404915911999
 20
119.3562539462193
 30
0.0
 11
-188.0595084087988
 21
119.3562539462193
 31
0.0
 70
    32
  1
742
 71
     8
 42
-1.0
  3
DaDimRotatedStyle
100
AcDbAlignedDimension
 13
-560.5595084087977
 23
231.279228961073
 33
0.0
 14
184.4404915911999
 24
300.2792289610729
 34
0.0
100
AcDbRotatedDimension
1001
ACAD
1000
DSTYLE
1002
{
1070
   274
1070
     4
1070
    41
1040
7.499992178923005
1070
   289
1070
     0
1070
    79
1070
     2
1070
   343
1005
DA
1070
   344
1005
DA
1070
   176
1070
     2
1070
   177
1070
     2
1070
   178
1070
     2
1070
   271
1070
     3
1070
    44
1040
1.599999999999994
1070
    42
1040
2.5
1070
   147
1040
2.0
1070
   173
1070
     1
1070
    77
1070
     3
1070
    73
1070
     0
1070
   172
1070
     1
1070
    74
1070
     0
1070
   283
1070
     0
1070
   340
1005
E4
1070
   140
1040
12.5
1070
   284
1070
     8
1070
   288
1070
     1
1070
    78
1070
     8
1002
}
  0
DIMENSION
  5
61F
330
1F
100
AcDbEntity
  8
Layer0015
  6
Continuous
370
    13
100
AcDbDimension
  2
*D6
 10
492.699081521998
 20
229.2792289610727
 30
0.0
 11
492.699081521998
 21
206.2792289610728
 31
0.0
 70
    32
 71
     8
 42
-1.0
  3
DaDimRotatedStyle
100
AcDbAlignedDimension
 13
461.3917240751454
 23
183.279228961073
 33
0.0
 14
461.3917240751454
 24
229.2792289610727
 34
0.0
 50
90.0
100
AcDbRotatedDimension
1001
ACAD
1000
DSTYLE
1002
{
1070
   274
1070
     4
1070
    41
1040
7.499992178923005
1070
   289
1070
     0
1070
    79
1070
     2
1070
   343
1005
DA
1070
   344
1005
DA
1070
   176
1070
     2
1070
   177
1070
     2
1070
   178
1070
     2
1070
   271
1070
     3
1070
    44
1040
1.600000000000023
1070
    42
1040
2.5
1070
   147
1040
2.0
1070
   173
1070
     1
1070
    77
1070
     3
1070
    73
1070
     0
1070
   172
1070
     1
1070
    74
1070
     0
1070
   283
1070
     0
1070
   340
1005
E4
1070
   140
1040
12.5
1070
   284
1070
     8
1070
   288
1070
     1
1070
    78
1070
     8
1002
}
  0
DIMENSION
  5
620
330
1F
100
AcDbEntity
  8
Layer0015
  6
Continuous
370
    13
100
AcDbDimension
  2
*D7
 10
492.699081521998
 20
389.2792289610727
 30
0.0
 11
492.699081521998
 21
309.2792289610727
 31
0.0
 70
    32
 71
     8
 42
-1.0
  3
DaDimRotatedStyle
100
AcDbAlignedDimension
 13
461.3917240751454
 23
229.2792289610727
 33
0.0
 14
461.3917240751456
 24
389.2792289610727
 34
0.0
 50
90.0
100
AcDbRotatedDimension
1001
ACAD
1000
DSTYLE
1002
{
1070
   274
1070
     4
1070
    41
1040
7.499992178923005
1070
   289
1070
     0
1070
    79
1070
     2
1070
   343
1005
DA
1070
   344
1005
DA
1070
   176
1070
     2
1070
   177
1070
     2
1070
   178
1070
     2
1070
   271
1070
     3
1070
    44
1040
1.600000000000023
1070
    42
1040
2.5
1070
   147
1040
2.0
1070
   173
1070
     1
1070
    77
1070
     3
1070
    73
1070
     0
1070
   172
1070
     1
1070
    74
1070
     0
1070
   283
1070
     0
1070
   340
1005
E4
1070
   140
1040
12.5
1070
   284
1070
     8
1070
   288
1070
     1
1070
    78
1070
     8
1002
}
  0
DIMENSION
  5
621
330
1F
100
AcDbEntity
  8
Layer0015
  6
Continuous
370
    13
100
AcDbDimension
  2
*D8
 10
492.699081521998
 20
435.2792289610725
 30
0.0
 11
492.699081521998
 21
412.2792289610726
 31
0.0
 70
    32
 71
     8
 42
-1.0
  3
DaDimRotatedStyle
100
AcDbAlignedDimension
 13
461.3917240751456
 23
389.2792289610727
 33
0.0
 14
461.3917240751456
 24
435.2792289610725
 34
0.0
 50
90.0
100
AcDbRotatedDimension
1001
ACAD
1000
DSTYLE
1002
{
1070
   274
1070
     4
1070
    41
1040
7.499992178923005
1070
   289
1070
     0
1070
    79
1070
     2
1070
   343
1005
DA
1070
   344
1005
DA
1070
   176
1070
     2
1070
   177
1070
     2
1070
   178
1070
     2
1070
   271
1070
     3
1070
    44
1040
1.600000000000023
1070
    42
1040
2.5
1070
   147
1040
2.0
1070
   173
1070
     1
1070
    77
1070
     3
1070
    73
1070
     0
1070
   172
1070
     1
1070
    74
1070
     0
1070
   283
1070
     0
1070
   340
1005
E4
1070
   140
1040
12.5
1070
   284
1070
     8
1070
   288
1070
     1
1070
    78
1070
     8
1002
}
  0
DIMENSION
  5
622
330
1F
100
AcDbEntity
  8
Layer0015
  6
Continuous
370
    13
100
AcDbDimension
  2
*D9
 10
511.0609468942721
 20
435.2792289610725
 30
0.0
 11
511.0609468942721
 21
309.2792289610727
 31
0.0
 70
    32
 71
     8
 42
-1.0
  3
DaDimRotatedStyle
100
AcDbAlignedDimension
 13
493.799081521998
 23
183.279228961073
 33
0.0
 14
493.799081521998
 24
435.2792289610725
 34
0.0
 50
90.0
100
AcDbRotatedDimension
1001
ACAD
1000
DSTYLE
1002
{
1070
   274
1070
     4
1070
    41
1040
7.499992178923005
1070
   289
1070
     0
1070
    79
1070
     2
1070
   343
1005
DA
1070
   344
1005
DA
1070
   176
1070
     2
1070
   177
1070
     2
1070
   178
1070
     2
1070
   271
1070
     3
1070
    44
1040
1.600000000000023
1070
    42
1040
2.5
1070
   147
1040
2.0
1070
   173
1070
     1
1070
    77
1070
     3
1070
    73
1070
     0
1070
   172
1070
     1
1070
    74
1070
     0
1070
   283
1070
     0
1070
   340
1005
E4
1070
   140
1040
12.5
1070
   284
1070
     8
1070
   288
1070
     1
1070
    78
1070
     8
1002
}
  0
DIMENSION
  5
623
330
1F
100
AcDbEntity
  8
Layer0015
  6
Continuous
370
    13
100
AcDbDimension
  2
*D10
 10
-79.75329303349456
 20
-390.3851043561081
 30
0.0
 11
-129.7532930334946
 21
-390.3851043561081
 31
0.0
 70
    32
 71
     8
 42
-1.0
  3
DaDimRotatedStyle
100
AcDbAlignedDimension
 13
-179.7532930334946
 23
-354.5307665969125
 33
0.0
 14
-79.75329303349456
 24
-341.2763532761387
 34
0.0
100
AcDbRotatedDimension
1001
ACAD
1000
DSTYLE
1002
{
1070
   274
1070
     4
1070
    41
1040
7.499992178923005
1070
   289
1070
     0
1070
    79
1070
     2
1070
   343
1005
DA
1070
   344
1005
DA
1070
   176
1070
     2
1070
   177
1070
     2
1070
   178
1070
     2
1070
   271
1070
     2
1070
    44
1040
1.600000000000023
1070
    42
1040
2.5
1070
   147
1040
2.0
1070
   173
1070
     1
1070
    77
1070
     3
1070
    73
1070
     0
1070
   172
1070
     1
1070
    74
1070
     0
1070
   283
1070
     0
1070
   340
1005
E4
1070
   140
1040
12.5
1070
   284
1070
     8
1070
   288
1070
     1
1070
    78
1070
     8
1002
}
  0
INSERT
  5
624
330
1F
100
AcDbEntity
  8
Layer0015
  6
Continuous
100
AcDbBlockReference
  2
DA_IMAGEDIMGROUP_2
 10
0.0
 20
0.0
 30
0.0
  0
INSERT
  5
625
330
1F
100
AcDbEntity
  8
Layer0015
  6
Continuous
100
AcDbBlockReference
  2
DA_IMAGEDIMGROUP_3
 10
0.0
 20
0.0
 30
0.0
  0
INSERT
  5
626
330
1F
100
AcDbEntity
  8
Layer0015
  6
Continuous
100
AcDbBlockReference
  2
DA_IMAGEDIMGROUP_4
 10
0.0
 20
0.0
 30
0.0
  0
DIMENSION
  5
627
330
1F
100
AcDbEntity
  8
Layer0015
  6
Continuous
370
    13
100
AcDbDimension
  2
*D14
 10
-255.7532930334925
 20
-384.0886691224432
 30
0.0
 11
-415.7532930334937
 21
-384.0886691224432
 31
0.0
 70
    32
 71
     8
 42
-1.0
  3
DaDimRotatedStyle
100
AcDbAlignedDimension
 13
-575.7532930334949
 23
-347.5307665969125
 33
0.0
 14
-255.7532930334925
 24
-343.0307665969126
 34
0.0
100
AcDbRotatedDimension
1001
ACAD
1000
DSTYLE
1002
{
1070
   274
1070
     4
1070
    41
1040
7.499992178923005
1070
   289
1070
     0
1070
    79
1070
     2
1070
   343
1005
DA
1070
   344
1005
DA
1070
   176
1070
     2
1070
   177
1070
     2
1070
   178
1070
     2
1070
   271
1070
     3
1070
    44
1040
2.0
1070
    42
1040
2.5
1070
   147
1040
2.5
1070
   173
1070
     1
1070
    77
1070
     3
1070
    73
1070
     0
1070
   172
1070
     1
1070
    74
1070
     0
1070
   283
1070
     0
1070
   340
1005
E4
1070
   140
1040
10.0
1070
   284
1070
     8
1070
   288
1070
     1
1070
    78
1070
     8
1002
}
  0
DIMENSION
  5
628
330
1F
100
AcDbEntity
  8
Layer0015
  6
Continuous
370
    13
100
AcDbDimension
  2
*D15
 10
-81.25950840879763
 20
10.00388098318241
 30
0.0
 11
-268.4095084087976
 21
10.00388098318241
 31
0.0
 70
    32
  1
0～371
 71
     8
 42
-1.0
  3
DaDimRotatedStyle
100
AcDbAlignedDimension
 13
-455.5595084087976
 23
-55.09696699375562
 33
0.0
 14
-81.25950840879763
 24
-55.39696699375556
 34
0.0
100
AcDbRotatedDimension
1001
ACAD
1000
DSTYLE
1002
{
1070
   274
1070
     4
1070
    41
1040
7.499992178923005
1070
   289
1070
     0
1070
    79
1070
     2
1070
   343
1005
DA
1070
   344
1005
DA
1070
   176
1070
     2
1070
   177
1070
     2
1070
   178
1070
     2
1070
   271
1070
     2
1070
    44
1040
1.6
1070
    42
1040
2.5
1070
   147
1040
2.0
1070
   173
1070
     1
1070
    77
1070
     3
1070
    73
1070
     0
1070
   172
1070
     1
1070
    74
1070
     0
1070
   283
1070
     0
1070
   340
1005
E4
1070
   140
1040
12.5
1070
   284
1070
     8
1070
   288
1070
     1
1070
    78
1070
     8
1002
}
  0
INSERT
  5
629
330
1F
100
AcDbEntity
  8
Layer0015
  6
Continuous
100
AcDbBlockReference
  2
DC_GROUP_ACE160L_1
 10
0.0
 20
0.0
 30
0.0
  0
INSERT
  5
62A
330
1F
100
AcDbEntity
  8
Layer0015
  6
Continuous
100
AcDbBlockReference
  2
DC_GROUP_ACE160L_2
 10
0.0
 20
0.0
 30
0.0
  0
DIMENSION
  5
62B
330
1F
100
AcDbEntity
  8
Layer0015
  6
Continuous
370
    13
100
AcDbDimension
  2
*D18
 10
536.045047606396
 20
110.1049197852648
 30
0.0
 11
536.045047606396
 21
22.68394484918936
 31
0.0
 70
    32
  1
311
 71
     8
 42
-1.0
  3
DaDimRotatedStyle
100
AcDbAlignedDimension
 13
536.045047606396
 23
-200.3969669937556
 33
0.0
 14
404.8589668188146
 24
110.1049197852648
 34
0.0
 50
90.0
100
AcDbRotatedDimension
1001
ACAD
1000
DSTYLE
1002
{
1070
   274
1070
     4
1070
    41
1040
7.499992178923005
1070
   289
1070
     0
1070
    79
1070
     2
1070
   343
1005
DA
1070
   344
1005
DA
1070
   176
1070
     2
1070
   177
1070
     2
1070
   178
1070
     2
1070
   271
1070
     2
1070
    44
1040
1.600000000000023
1070
    42
1040
2.5
1070
   147
1040
2.0
1070
   173
1070
     1
1070
    75
1070
     1
1070
    77
1070
     3
1070
    73
1070
     0
1070
   172
1070
     1
1070
    74
1070
     0
1070
   283
1070
     0
1070
   340
1005
E4
1070
   140
1040
12.5
1070
   284
1070
     8
1070
   288
1070
     1
1070
    78
1070
     8
1002
}
  0
DIMENSION
  5
62C
330
1F
100
AcDbEntity
  8
Layer0015
  6
Continuous
370
    13
100
AcDbDimension
  2
*D19
 10
517.7362971124602
 20
-30.58736655533889
 30
0.0
 11
517.7362971124602
 21
-115.4921667745472
 31
0.0
 70
    32
  1
170
 71
     8
 42
-1.0
  3
DaDimRotatedStyle
100
AcDbAlignedDimension
 13
517.7362971124602
 23
-200.3969669937556
 33
0.0
 14
468.5451549937592
 24
-30.58736655533889
 34
0.0
 50
90.0
100
AcDbRotatedDimension
1001
ACAD
1000
DSTYLE
1002
{
1070
   274
1070
     4
1070
    41
1040
7.499992178923005
1070
   289
1070
     0
1070
    79
1070
     2
1070
   343
1005
DA
1070
   344
1005
DA
1070
   176
1070
     2
1070
   177
1070
     2
1070
   178
1070
     2
1070
   271
1070
     2
1070
    44
1040
1.599999999999909
1070
    42
1040
2.5
1070
   147
1040
2.0
1070
   173
1070
     1
1070
    75
1070
     1
1070
    77
1070
     3
1070
    73
1070
     0
1070
   172
1070
     1
1070
    74
1070
     0
1070
   283
1070
     0
1070
   340
1005
E4
1070
   140
1040
12.5
1070
   284
1070
     8
1070
   288
1070
     1
1070
    78
1070
     8
1002
}
  0
DIMENSION
  5
62D
330
1F
100
AcDbEntity
  8
Layer0015
  6
Continuous
370
    13
100
AcDbDimension
  2
*D20
 10
674.6914028106385
 20
-14.76110561851672
 30
0.0
 11
674.6914028106385
 21
-107.5790363061361
 31
0.0
 70
    32
  1
186
 71
     8
 42
-1.0
  3
DaDimRotatedStyle
100
AcDbAlignedDimension
 13
548.8971539456661
 23
-200.3969669937556
 33
0.0
 14
621.3653177649259
 24
-14.76110561851672
 34
0.0
 50
90.0
100
AcDbRotatedDimension
1001
ACAD
1000
DSTYLE
1002
{
1070
   274
1070
     4
1070
    41
1040
7.499992178923005
1070
   289
1070
     0
1070
    79
1070
     2
1070
   343
1005
DA
1070
   344
1005
DA
1070
   176
1070
     2
1070
   177
1070
     2
1070
   178
1070
     2
1070
   271
1070
     2
1070
    44
1040
2.0
1070
    42
1040
2.5
1070
   147
1040
2.5
1070
   173
1070
     1
1070
    77
1070
     3
1070
    73
1070
     0
1070
   172
1070
     1
1070
    74
1070
     0
1070
   283
1070
     0
1070
   340
1005
E4
1070
   140
1040
12.5
1070
   284
1070
     8
1070
   288
1070
     1
1070
    78
1070
     8
1002
}
  0
INSERT
  5
62E
330
1F
100
AcDbEntity
  8
Layer0004
  6
Continuous
100
AcDbBlockReference
  2
DC_GROUP_ACE160L_3
 10
0.0
 20
0.0
 30
0.0
  0
INSERT
  5
62F
330
1F
100
AcDbEntity
  8
Layer0004
  6
Continuous
100
AcDbBlockReference
  2
DC_GROUP_ACE160L_4
 10
0.0
 20
0.0
 30
0.0
  0
INSERT
  5
630
330
1F
100
AcDbEntity
  8
Layer0004
  6
Continuous
100
AcDbBlockReference
  2
DC_GROUP_ACE160L_5
 10
0.0
 20
0.0
 30
0.0
  0
INSERT
  5
631
330
1F
100
AcDbEntity
  8
Layer0004
  6
Continuous
100
AcDbBlockReference
  2
DC_GROUP_ACE160L_6
 10
0.0
 20
0.0
 30
0.0
  0
INSERT
  5
632
330
1F
100
AcDbEntity
  8
Layer0004
  6
Continuous
100
AcDbBlockReference
  2
DC_GROUP_ACE160L_7
 10
0.0
 20
0.0
 30
0.0
  0
INSERT
  5
633
330
1F
100
AcDbEntity
  8
Layer0004
  6
Continuous
100
AcDbBlockReference
  2
DC_GROUP_ACE160L_8
 10
0.0
 20
0.0
 30
0.0
  0
INSERT
  5
634
330
1F
100
AcDbEntity
  8
Layer0004
  6
Continuous
100
AcDbBlockReference
  2
DC_GROUP_ACE160L_9
 10
0.0
 20
0.0
 30
0.0
  0
INSERT
  5
635
330
1F
100
AcDbEntity
  8
Layer0004
  6
Continuous
100
AcDbBlockReference
  2
DC_GROUP_ACE160L_13
 10
0.0
 20
0.0
 30
0.0
  0
INSERT
  5
636
330
1F
100
AcDbEntity
  8
Layer0004
  6
Continuous
100
AcDbBlockReference
  2
DC_GROUP_ACE160L_14
 10
0.0
 20
0.0
 30
0.0
  0
INSERT
  5
637
330
1F
100
AcDbEntity
  8
Layer0004
  6
Continuous
100
AcDbBlockReference
  2
DC_GROUP_ACE160L_15
 10
0.0
 20
0.0
 30
0.0
  0
INSERT
  5
638
330
1F
100
AcDbEntity
  8
Layer0014
  6
Continuous
100
AcDbBlockReference
  2
DC_GROUP_ACE160L_10
 10
0.0
 20
0.0
 30
0.0
  0
INSERT
  5
639
330
1F
100
AcDbEntity
  8
Layer0014
  6
Continuous
100
AcDbBlockReference
  2
DC_GROUP_ACE160L_11
 10
0.0
 20
0.0
 30
0.0
  0
INSERT
  5
63A
330
1F
100
AcDbEntity
  8
Layer0014
  6
Continuous
100
AcDbBlockReference
  2
DC_GROUP_ACE160L_12
 10
0.0
 20
0.0
 30
0.0
  0
VIEWPORT
  5
75
330
1B
100
AcDbEntity
 67
     1
  8
0
100
AcDbViewport
 10
25.81594720092039
 20
0.0000000000002274
 30
0.0
 40
3905.252733658308
 41
2611.675373766436
 68
     1
 69
     1
 12
25.81594720092039
 22
0.0000000000002274
 13
0.0
 23
0.0
 14
0.5
 24
0.5
 15
0.0
 25
0.0
 16
0.0
 26
0.0
 36
1.0
 17
0.0
 27
0.0
 37
0.0
 42
50.0
 43
0.0
 44
0.0
 45
2611.675373766436
 50
0.0
 51
0.0
 72
   100
 90
   557152
  1

281
     0
 71
     1
 74
     0
110
0.0
120
0.0
130
0.0
111
1.0
121
0.0
131
0.0
112
0.0
122
1.0
132
0.0
 79
     0
146
0.0
  0
ENDSEC
  0
SECTION
  2
OBJECTS
  0
DICTIONARY
  5
C
330
0
100
AcDbDictionary
281
     1
  3
ACAD_GROUP
350
D
  3
ACAD_LAYOUT
350
1A
  3
ACAD_MLEADERSTYLE
350
63C
  3
ACAD_MLINESTYLE
350
17
  3
ACAD_PLOTSETTINGS
350
19
  3
ACAD_PLOTSTYLENAME
350
E
  3
ACAD_TABLESTYLE
350
63B
  3
ACAD_VISUALSTYLE
350
2A
  0
DICTIONARY
  5
D
102
{ACAD_REACTORS
330
C
102
}
330
C
100
AcDbDictionary
281
     1
  0
DICTIONARY
  5
1A
102
{ACAD_REACTORS
330
C
102
}
330
C
100
AcDbDictionary
281
     1
  3
Layout1
350
1E
  3
Layout2
350
26
  3
Model
350
22
  0
DICTIONARY
  5
63C
102
{ACAD_REACTORS
330
C
102
}
330
C
100
AcDbDictionary
281
     1
  0
DICTIONARY
  5
17
102
{ACAD_REACTORS
330
C
102
}
330
C
100
AcDbDictionary
281
     1
  3
Standard
350
18
  0
DICTIONARY
  5
19
102
{ACAD_REACTORS
330
C
102
}
330
C
100
AcDbDictionary
281
     1
  0
ACDBDICTIONARYWDFLT
  5
E
102
{ACAD_REACTORS
330
C
102
}
330
C
100
AcDbDictionary
281
     1
  3
Normal
350
F
100
AcDbDictionaryWithDefault
340
F
  0
DICTIONARY
  5
63B
102
{ACAD_REACTORS
330
C
102
}
330
C
100
AcDbDictionary
281
     1
  0
DICTIONARY
  5
2A
102
{ACAD_REACTORS
330
C
102
}
330
C
100
AcDbDictionary
281
     1
  3
2dWireframe
350
2F
  3
3D Hidden
350
31
  3
3dWireframe
350
30
  3
Basic
350
32
  3
Brighten
350
36
  3
ColorChange
350
3A
  3
Conceptual
350
34
  3
Dim
350
35
  3
Facepattern
350
39
  3
Flat
350
2B
  3
FlatWithEdges
350
2C
  3
Gouraud
350
2D
  3
GouraudWithEdges
350
2E
  3
Linepattern
350
38
  3
Realistic
350
33
  3
Thicken
350
37
  0
LAYOUT
  5
1E
102
{ACAD_REACTORS
330
1A
102
}
330
1A
100
AcDbPlotSettings
  1

  2
none_device
  4

  6

 40
0.0
 41
0.0
 42
0.0
 43
0.0
 44
0.0
 45
0.0
 46
0.0
 47
0.0
 48
0.0
 49
0.0
140
0.0
141
0.0
142
1.0
143
1.0
 70
   688
 72
     0
 73
     0
 74
     5
  7

 75
    16
147
1.0
148
0.0
149
0.0
100
AcDbLayout
  1
Layout1
 70
     0
 71
     1
 10
0.0
 20
0.0
 11
12.0
 21
9.0
 12
0.0
 22
0.0
 32
0.0
 14
1.000000000000000E+20
 24
1.000000000000000E+20
 34
1.000000000000000E+20
 15
-1.000000000000000E+20
 25
-1.000000000000000E+20
 35
-1.000000000000000E+20
146
0.0
 13
0.0
 23
0.0
 33
0.0
 16
1.0
 26
0.0
 36
0.0
 17
0.0
 27
1.0
 37
0.0
 76
     0
330
1B
331
75
  0
LAYOUT
  5
26
102
{ACAD_REACTORS
330
1A
102
}
330
1A
100
AcDbPlotSettings
  1

  2
none_device
  4

  6

 40
0.0
 41
0.0
 42
0.0
 43
0.0
 44
0.0
 45
0.0
 46
0.0
 47
0.0
 48
0.0
 49
0.0
140
0.0
141
0.0
142
1.0
143
1.0
 70
   688
 72
     0
 73
     0
 74
     5
  7

 75
    16
147
1.0
148
0.0
149
0.0
100
AcDbLayout
  1
Layout2
 70
     1
 71
     2
 10
0.0
 20
0.0
 11
0.0
 21
0.0
 12
0.0
 22
0.0
 32
0.0
 14
0.0
 24
0.0
 34
0.0
 15
0.0
 25
0.0
 35
0.0
146
0.0
 13
0.0
 23
0.0
 33
0.0
 16
1.0
 26
0.0
 36
0.0
 17
0.0
 27
1.0
 37
0.0
 76
     0
330
23
  0
LAYOUT
  5
22
102
{ACAD_REACTORS
330
1A
102
}
330
1A
100
AcDbPlotSettings
  1

  2
none_device
  4

  6

 40
0.0
 41
0.0
 42
0.0
 43
0.0
 44
0.0
 45
0.0
 46
0.0
 47
0.0
 48
0.0
 49
0.0
140
0.0
141
0.0
142
1.0
143
1.0
 70
  1712
 72
     0
 73
     0
 74
     0
  7

 75
     0
147
1.0
148
0.0
149
0.0
100
AcDbLayout
  1
Model
 70
     1
 71
     0
 10
-696.25
 20
-508.75
 11
696.25
 21
508.75
 12
0.0
 22
0.0
 32
0.0
 14
-1926.810419628234
 24
-1305.837686883218
 34
0.0
 15
1978.442314030075
 25
1305.837686883218
 35
0.0
146
0.0
 13
0.0
 23
0.0
 33
0.0
 16
1.0
 26
0.0
 36
0.0
 17
0.0
 27
1.0
 37
0.0
 76
     0
330
1F
331
29
  0
MLINESTYLE
  5
18
102
{ACAD_REACTORS
330
17
102
}
330
17
100
AcDbMlineStyle
  2
Standard
 70
     0
  3

 62
   256
 51
90.0
 52
90.0
 71
     2
 49
0.5
 62
   256
  6
BYLAYER
 49
-0.5
 62
   256
  6
BYLAYER
  0
ACDBPLACEHOLDER
  5
F
102
{ACAD_REACTORS
330
E
102
}
330
E
  0
VISUALSTYLE
  5
2F
102
{ACAD_REACTORS
330
2A
102
}
330
2A
100
AcDbVisualStyle
  2
2dWireframe
 70
     4
 71
     0
 72
     2
 73
     0
 90
        0
 40
-0.6
 41
-30.0
 62
     5
 63
     7
 74
     1
 91
        4
 64
     7
 65
   257
 75
     1
175
     1
 42
1.0
 92
        0
 66
   257
 43
1.0
 76
     1
 77
     6
 78
     2
 67
     7
 79
     5
170
     0
171
     0
290
     0
174
     0
 93
        1
 44
0.0
173
     0
291
     0
 45
0.0
1001
ACAD
1000
AcDbSavedByObjectVersion
1070
     0
  0
VISUALSTYLE
  5
31
102
{ACAD_REACTORS
330
2A
102
}
330
2A
100
AcDbVisualStyle
  2
3D Hidden
 70
     6
 71
     1
 72
     2
 73
     2
 90
        0
 40
-0.6
 41
-30.0
 62
     5
 63
     7
 74
     2
 91
        2
 64
     7
 65
   257
 75
     2
175
     1
 42
40.0
 92
        0
 66
   257
 43
1.0
 76
     1
 77
     6
 78
     2
 67
     7
 79
     3
170
     0
171
     0
290
     0
174
     0
 93
        1
 44
0.0
173
     0
291
     0
 45
0.0
1001
ACAD
1000
AcDbSavedByObjectVersion
1070
     0
  0
VISUALSTYLE
  5
30
102
{ACAD_REACTORS
330
2A
102
}
330
2A
100
AcDbVisualStyle
  2
3dWireframe
 70
     5
 71
     0
 72
     2
 73
     0
 90
        0
 40
-0.6
 41
-30.0
 62
     5
 63
     7
 74
     1
 91
        4
 64
     7
 65
   257
 75
     1
175
     1
 42
1.0
 92
        0
 66
   257
 43
1.0
 76
     1
 77
     6
 78
     2
 67
     7
 79
     5
170
     0
171
     0
290
     0
174
     0
 93
        1
 44
0.0
173
     0
291
     0
 45
0.0
1001
ACAD
1000
AcDbSavedByObjectVersion
1070
     0
  0
VISUALSTYLE
  5
32
102
{ACAD_REACTORS
330
2A
102
}
330
2A
100
AcDbVisualStyle
  2
Basic
 70
     7
 71
     1
 72
     0
 73
     1
 90
        0
 40
-0.6
 41
-30.0
 62
     5
 63
     7
 74
     0
 91
        4
 64
     7
 65
   257
 75
     1
175
     1
 42
1.0
 92
        8
 66
     7
 43
1.0
 76
     1
 77
     6
 78
     2
 67
     7
 79
     5
170
     0
171
     0
290
     0
174
     0
 93
        1
 44
0.0
173
     0
291
     1
 45
0.0
1001
ACAD
1000
AcDbSavedByObjectVersion
1070
     0
  0
VISUALSTYLE
  5
36
102
{ACAD_REACTORS
330
2A
102
}
330
2A
100
AcDbVisualStyle
  2
Brighten
 70
    12
 71
     2
 72
     2
 73
     0
 90
        0
 40
-0.6
 41
-30.0
 62
     5
 63
     7
 74
     1
 91
        4
 64
     7
 65
   257
 75
     1
175
     1
 42
1.0
 92
        8
 66
     7
 43
1.0
 76
     1
 77
     6
 78
     2
 67
     7
 79
     5
170
     0
171
     0
290
     0
174
     0
 93
        1
 44
50.0
173
     0
291
     1
 45
0.0
1001
ACAD
1000
AcDbSavedByObjectVersion
1070
     0
  0
VISUALSTYLE
  5
3A
102
{ACAD_REACTORS
330
2A
102
}
330
2A
100
AcDbVisualStyle
  2
ColorChange
 70
    16
 71
     2
 72
     2
 73
     3
 90
        0
 40
-0.6
 41
-30.0
 62
     5
 63
     8
 74
     1
 91
        4
 64
     7
 65
   257
 75
     1
175
     1
 42
1.0
 92
        8
 66
     8
 43
1.0
 76
     1
 77
     6
 78
     2
 67
     7
 79
     5
170
     0
171
     0
290
     0
174
     0
 93
        1
 44
0.0
173
     0
291
     1
 45
0.0
1001
ACAD
1000
AcDbSavedByObjectVersion
1070
     0
  0
VISUALSTYLE
  5
34
102
{ACAD_REACTORS
330
2A
102
}
330
2A
100
AcDbVisualStyle
  2
Conceptual
 70
     9
 71
     3
 72
     2
 73
     0
 90
        0
 40
-0.6
 41
-30.0
 62
     5
 63
     7
 74
     2
 91
        2
 64
     7
 65
   257
 75
     1
175
     1
 42
40.0
 92
        8
 66
     7
 43
1.0
 76
     1
 77
     6
 78
     2
 67
     7
 79
     3
170
     0
171
     0
290
     0
174
     0
 93
        1
 44
0.0
173
     0
291
     0
 45
0.0
1001
ACAD
1000
AcDbSavedByObjectVersion
1070
     0
  0
VISUALSTYLE
  5
35
102
{ACAD_REACTORS
330
2A
102
}
330
2A
100
AcDbVisualStyle
  2
Dim
 70
    11
 71
     2
 72
     2
 73
     0
 90
        0
 40
-0.6
 41
-30.0
 62
     5
 63
     7
 74
     1
 91
        4
 64
     7
 65
   257
 75
     1
175
     1
 42
1.0
 92
        8
 66
     7
 43
1.0
 76
     1
 77
     6
 78
     2
 67
     7
 79
     5
170
     0
171
     0
290
     0
174
     0
 93
        1
 44
-50.0
173
     0
291
     1
 45
0.0
1001
ACAD
1000
AcDbSavedByObjectVersion
1070
     0
  0
VISUALSTYLE
  5
39
102
{ACAD_REACTORS
330
2A
102
}
330
2A
100
AcDbVisualStyle
  2
Facepattern
 70
    15
 71
     2
 72
     2
 73
     0
 90
        0
 40
-0.6
 41
-30.0
 62
     5
 63
     7
 74
     1
 91
        4
 64
     7
 65
   257
 75
     1
175
     1
 42
1.0
 92
        8
 66
     7
 43
1.0
 76
     1
 77
     6
 78
     2
 67
     7
 79
     5
170
     0
171
     0
290
     0
174
     0
 93
        1
 44
0.0
173
     0
291
     1
 45
0.0
1001
ACAD
1000
AcDbSavedByObjectVersion
1070
     0
  0
VISUALSTYLE
  5
2B
102
{ACAD_REACTORS
330
2A
102
}
330
2A
100
AcDbVisualStyle
  2
Flat
 70
     0
 71
     2
 72
     1
 73
     1
 90
        2
 40
-0.6
 41
30.0
 62
     5
 63
     7
 74
     0
 91
        4
 64
     7
 65
   257
 75
     1
175
     1
 42
1.0
 92
        8
 66
     7
 43
1.0
 76
     1
 77
     6
 78
     2
 67
     7
 79
     5
170
     0
171
     0
290
     0
174
     0
 93
       13
 44
0.0
173
     0
291
     1
 45
0.0
1001
ACAD
1000
AcDbSavedByObjectVersion
1070
     0
  0
VISUALSTYLE
  5
2C
102
{ACAD_REACTORS
330
2A
102
}
330
2A
100
AcDbVisualStyle
  2
FlatWithEdges
 70
     1
 71
     2
 72
     1
 73
     1
 90
        2
 40
-0.6
 41
30.0
 62
     5
 63
     7
 74
     1
 91
        4
 64
     7
 65
   257
 75
     1
175
     1
 42
1.0
 92
        0
 66
   257
 43
1.0
 76
     1
 77
     6
 78
     2
 67
     7
 79
     5
170
     0
171
     0
290
     0
174
     0
 93
       13
 44
0.0
173
     0
291
     1
 45
0.0
1001
ACAD
1000
AcDbSavedByObjectVersion
1070
     0
  0
VISUALSTYLE
  5
2D
102
{ACAD_REACTORS
330
2A
102
}
330
2A
100
AcDbVisualStyle
  2
Gouraud
 70
     2
 71
     2
 72
     2
 73
     1
 90
        2
 40
-0.6
 41
30.0
 62
     5
 63
     7
 74
     0
 91
        4
 64
     7
 65
   257
 75
     1
175
     1
 42
1.0
 92
        0
 66
     7
 43
1.0
 76
     1
 77
     6
 78
     2
 67
     7
 79
     5
170
     0
171
     0
290
     0
174
     0
 93
       13
 44
0.0
173
     0
291
     1
 45
0.0
1001
ACAD
1000
AcDbSavedByObjectVersion
1070
     0
  0
VISUALSTYLE
  5
2E
102
{ACAD_REACTORS
330
2A
102
}
330
2A
100
AcDbVisualStyle
  2
GouraudWithEdges
 70
     3
 71
     2
 72
     2
 73
     1
 90
        2
 40
-0.6
 41
30.0
 62
     5
 63
     7
 74
     1
 91
        4
 64
     7
 65
   257
 75
     1
175
     1
 42
1.0
 92
        0
 66
   257
 43
1.0
 76
     1
 77
     6
 78
     2
 67
     7
 79
     5
170
     0
171
     0
290
     0
174
     0
 93
       13
 44
0.0
173
     0
291
     1
 45
0.0
1001
ACAD
1000
AcDbSavedByObjectVersion
1070
     0
  0
VISUALSTYLE
  5
38
102
{ACAD_REACTORS
330
2A
102
}
330
2A
100
AcDbVisualStyle
  2
Linepattern
 70
    14
 71
     2
 72
     2
 73
     0
 90
        0
 40
-0.6
 41
-30.0
 62
     5
 63
     7
 74
     1
 91
        4
 64
     7
 65
   257
 75
     7
175
     7
 42
1.0
 92
        8
 66
     7
 43
1.0
 76
     1
 77
     6
 78
     2
 67
     7
 79
     5
170
     0
171
     0
290
     0
174
     0
 93
        1
 44
0.0
173
     0
291
     1
 45
0.0
1001
ACAD
1000
AcDbSavedByObjectVersion
1070
     0
  0
VISUALSTYLE
  5
33
102
{ACAD_REACTORS
330
2A
102
}
330
2A
100
AcDbVisualStyle
  2
Realistic
 70
     8
 71
     2
 72
     2
 73
     0
 90
        0
 40
-0.6
 41
-30.0
 62
     5
 63
     7
 74
     1
 91
        0
 64
     7
 65
   257
 75
     1
175
     1
 42
1.0
 92
        8
 66
     8
 43
1.0
 76
     1
 77
     6
 78
     2
 67
     7
 79
     5
170
     0
171
     0
290
     0
174
     0
 93
       13
 44
0.0
173
     0
291
     0
 45
0.0
1001
ACAD
1000
AcDbSavedByObjectVersion
1070
     0
  0
VISUALSTYLE
  5
37
102
{ACAD_REACTORS
330
2A
102
}
330
2A
100
AcDbVisualStyle
  2
Thicken
 70
    13
 71
     2
 72
     2
 73
     0
 90
        0
 40
-0.6
 41
-30.0
 62
     5
 63
     7
 74
     1
 91
        4
 64
     7
 65
   257
 75
     1
175
     1
 42
1.0
 92
       12
 66
     7
 43
1.0
 76
     1
 77
     6
 78
     2
 67
     7
 79
     5
170
     0
171
     0
290
     0
174
     0
 93
        1
 44
0.0
173
     0
291
     1
 45
0.0
1001
ACAD
1000
AcDbSavedByObjectVersion
1070
     0
  0
ENDSEC
  0
EOF
