  0
SECTION
  2
HEADER
  9
$ACADVER
  1
AC1015
  9
$ACADMAINTVER
 70
     6
  9
$DWGCODEPAGE
  3
ANSI_932
  9
$INSBASE
 10
0.0
 20
0.0
 30
0.0
  9
$EXTMIN
 10
-1801.086353928476
 20
-1412.451676857193
 30
0.0
  9
$EXTMAX
 10
1872.481461830371
 20
1457.947158470331
 30
0.0
  9
$LIMMIN
 10
-696.25
 20
-508.75
  9
$LIMMAX
 10
696.25
 20
508.75
  9
$ORTHOMODE
 70
     0
  9
$REGENMODE
 70
     1
  9
$FILLMODE
 70
     1
  9
$QTEXTMODE
 70
     0
  9
$MIRRTEXT
 70
     1
  9
$LTSCALE
 40
0.625
  9
$ATTMODE
 70
     1
  9
$TEXTSIZE
 40
0.2
  9
$TRACEWID
 40
0.05
  9
$TEXTSTYLE
  7
Standard
  9
$CLAYER
  8
0
  9
$CELTYPE
  6
ByLayer
  9
$CECOLOR
 62
   256
  9
$CELTSCALE
 40
1.0
  9
$DISPSILH
 70
     0
  9
$DIMSCALE
 40
1.0
  9
$DIMASZ
 40
6.25
  9
$DIMEXO
 40
0.0625
  9
$DIMDLI
 40
0.38
  9
$DIMRND
 40
0.0
  9
$DIMDLE
 40
0.0
  9
$DIMEXE
 40
0.18
  9
$DIMTP
 40
0.0
  9
$DIMTM
 40
0.0
  9
$DIMTXT
 40
0.18
  9
$DIMCEN
 40
0.09
  9
$DIMTSZ
 40
0.0
  9
$DIMTOL
 70
     0
  9
$DIMLIM
 70
     0
  9
$DIMTIH
 70
     1
  9
$DIMTOH
 70
     1
  9
$DIMSE1
 70
     0
  9
$DIMSE2
 70
     0
  9
$DIMTAD
 70
     3
  9
$DIMZIN
 70
     0
  9
$DIMBLK
  1

  9
$DIMASO
 70
     1
  9
$DIMSHO
 70
     1
  9
$DIMPOST
  1

  9
$DIMAPOST
  1

  9
$DIMALT
 70
     0
  9
$DIMALTD
 70
     2
  9
$DIMALTF
 40
25.4
  9
$DIMLFAC
 40
1.0
  9
$DIMTOFL
 70
     0
  9
$DIMTVP
 40
0.0
  9
$DIMTIX
 70
     0
  9
$DIMSOXD
 70
     0
  9
$DIMSAH
 70
     0
  9
$DIMBLK1
  1

  9
$DIMBLK2
  1

  9
$DIMSTYLE
  2
Standard
  9
$DIMCLRD
 70
     0
  9
$DIMCLRE
 70
     0
  9
$DIMCLRT
 70
     0
  9
$DIMTFAC
 40
1.0
  9
$DIMGAP
 40
0.09
  9
$DIMJUST
 70
     0
  9
$DIMSD1
 70
     0
  9
$DIMSD2
 70
     0
  9
$DIMTOLJ
 70
     1
  9
$DIMTZIN
 70
     0
  9
$DIMALTZ
 70
     0
  9
$DIMALTTZ
 70
     0
  9
$DIMUPT
 70
     0
  9
$DIMDEC
 70
     4
  9
$DIMTDEC
 70
     4
  9
$DIMALTU
 70
     2
  9
$DIMALTTD
 70
     2
  9
$DIMTXSTY
  7
Standard
  9
$DIMAUNIT
 70
     0
  9
$DIMADEC
 70
     0
  9
$DIMALTRND
 40
0.0
  9
$DIMAZIN
 70
     0
  9
$DIMDSEP
 70
    46
  9
$DIMATFIT
 70
     3
  9
$DIMFRAC
 70
     0
  9
$DIMLDRBLK
  1

  9
$DIMLUNIT
 70
     2
  9
$DIMLWD
 70
    -2
  9
$DIMLWE
 70
    -2
  9
$DIMTMOVE
 70
     0
  9
$LUNITS
 70
     2
  9
$LUPREC
 70
     4
  9
$SKETCHINC
 40
0.1
  9
$FILLETRAD
 40
0.5
  9
$AUNITS
 70
     0
  9
$AUPREC
 70
     0
  9
$MENU
  1
.
  9
$ELEVATION
 40
0.0
  9
$PELEVATION
 40
0.0
  9
$THICKNESS
 40
0.0
  9
$LIMCHECK
 70
     0
  9
$CHAMFERA
 40
0.5
  9
$CHAMFERB
 40
0.5
  9
$CHAMFERC
 40
1.0
  9
$CHAMFERD
 40
0.0
  9
$SKPOLY
 70
     0
  9
$TDCREATE
 40
2454973.737185683
  9
$TDUCREATE
 40
2454973.362185683
  9
$TDUPDATE
 40
2454973.737185694
  9
$TDUUPDATE
 40
2454973.362185694
  9
$TDINDWG
 40
0.0000000116
  9
$TDUSRTIMER
 40
0.0000000116
  9
$USRTIMER
 70
     1
  9
$ANGBASE
 50
0.0
  9
$ANGDIR
 70
     0
  9
$PDMODE
 70
     0
  9
$PDSIZE
 40
1.0
  9
$PLINEWID
 40
0.0
  9
$SPLFRAME
 70
     0
  9
$SPLINETYPE
 70
     6
  9
$SPLINESEGS
 70
     8
  9
$HANDSEED
  5
642
  9
$SURFTAB1
 70
     6
  9
$SURFTAB2
 70
     6
  9
$SURFTYPE
 70
     6
  9
$SURFU
 70
     6
  9
$SURFV
 70
     6
  9
$UCSBASE
  2

  9
$UCSNAME
  2

  9
$UCSORG
 10
0.0
 20
0.0
 30
0.0
  9
$UCSXDIR
 10
1.0
 20
0.0
 30
0.0
  9
$UCSYDIR
 10
0.0
 20
1.0
 30
0.0
  9
$UCSORTHOREF
  2

  9
$UCSORTHOVIEW
 70
     0
  9
$UCSORGTOP
 10
0.0
 20
0.0
 30
0.0
  9
$UCSORGBOTTOM
 10
0.0
 20
0.0
 30
0.0
  9
$UCSORGLEFT
 10
0.0
 20
0.0
 30
0.0
  9
$UCSORGRIGHT
 10
0.0
 20
0.0
 30
0.0
  9
$UCSORGFRONT
 10
0.0
 20
0.0
 30
0.0
  9
$UCSORGBACK
 10
0.0
 20
0.0
 30
0.0
  9
$PUCSBASE
  2

  9
$PUCSNAME
  2

  9
$PUCSORG
 10
0.0
 20
0.0
 30
0.0
  9
$PUCSXDIR
 10
1.0
 20
0.0
 30
0.0
  9
$PUCSYDIR
 10
0.0
 20
1.0
 30
0.0
  9
$PUCSORTHOREF
  2

  9
$PUCSORTHOVIEW
 70
     0
  9
$PUCSORGTOP
 10
0.0
 20
0.0
 30
0.0
  9
$PUCSORGBOTTOM
 10
0.0
 20
0.0
 30
0.0
  9
$PUCSORGLEFT
 10
0.0
 20
0.0
 30
0.0
  9
$PUCSORGRIGHT
 10
0.0
 20
0.0
 30
0.0
  9
$PUCSORGFRONT
 10
0.0
 20
0.0
 30
0.0
  9
$PUCSORGBACK
 10
0.0
 20
0.0
 30
0.0
  9
$USERI1
 70
     0
  9
$USERI2
 70
     0
  9
$USERI3
 70
     0
  9
$USERI4
 70
     0
  9
$USERI5
 70
     0
  9
$USERR1
 40
0.0
  9
$USERR2
 40
0.0
  9
$USERR3
 40
0.0
  9
$USERR4
 40
0.0
  9
$USERR5
 40
0.0
  9
$WORLDVIEW
 70
     1
  9
$SHADEDGE
 70
     3
  9
$SHADEDIF
 70
    70
  9
$TILEMODE
 70
     1
  9
$MAXACTVP
 70
    64
  9
$PINSBASE
 10
0.0
 20
0.0
 30
0.0
  9
$PLIMCHECK
 70
     0
  9
$PEXTMIN
 10
1.000000000000000E+20
 20
1.000000000000000E+20
 30
1.000000000000000E+20
  9
$PEXTMAX
 10
-1.000000000000000E+20
 20
-1.000000000000000E+20
 30
-1.000000000000000E+20
  9
$PLIMMIN
 10
0.0
 20
0.0
  9
$PLIMMAX
 10
12.0
 20
9.0
  9
$UNITMODE
 70
     0
  9
$VISRETAIN
 70
     0
  9
$PLINEGEN
 70
     1
  9
$PSLTSCALE
 70
     0
  9
$TREEDEPTH
 70
  3020
  9
$CMLSTYLE
  2
Standard
  9
$CMLJUST
 70
     0
  9
$CMLSCALE
 40
1.0
  9
$PROXYGRAPHICS
 70
     0
  9
$MEASUREMENT
 70
     1
  9
$CELWEIGHT
370
    -1
  9
$ENDCAPS
280
     0
  9
$JOINSTYLE
280
     0
  9
$LWDISPLAY
290
     1
  9
$INSUNITS
 70
     4
  9
$HYPERLINKBASE
  1

  9
$STYLESHEET
  1

  9
$XEDIT
290
     1
  9
$CEPSNTYPE
380
     0
  9
$PSTYLEMODE
290
     1
  9
$FINGERPRINTGUID
  2
{DA9A4616-4E1C-42A4-A5B0-07B668B16577}
  9
$VERSIONGUID
  2
{FAEB1C32-E019-11D5-929B-00C0DF256EC4}
  9
$EXTNAMES
290
     1
  9
$PSVPSCALE
 40
0.0
  9
$OLESTARTUP
290
     0
  0
ENDSEC
  0
SECTION
  2
CLASSES
  0
CLASS
  1
ACDBDICTIONARYWDFLT
  2
AcDbDictionaryWithDefault
  3
ObjectDBX Classes
 90
        0
280
     0
281
     0
  0
CLASS
  1
VISUALSTYLE
  2
AcDbVisualStyle
  3
ObjectDBX Classes
 90
     4095
280
     0
281
     0
  0
CLASS
  1
ACDBPLACEHOLDER
  2
AcDbPlaceHolder
  3
ObjectDBX Classes
 90
        0
280
     0
281
     0
  0
CLASS
  1
LAYOUT
  2
AcDbLayout
  3
ObjectDBX Classes
 90
        0
280
     0
281
     0
  0
ENDSEC
  0
SECTION
  2
TABLES
  0
TABLE
  2
VPORT
  5
8
330
0
100
AcDbSymbolTable
 70
     1
  0
VPORT
  5
29
330
8
100
AcDbSymbolTableRecord
100
AcDbViewportTableRecord
  2
*Active
 70
     0
 10
0.0
 20
0.0
 11
1.0
 21
1.0
 12
0.0
 22
0.0
 13
0.0
 23
0.0
 14
0.5
 24
0.5
 15
0.5
 25
0.5
 16
0.0
 26
0.0
 36
1.0
 17
35.69755395094739
 27
-22.7477408065688
 37
0.0
 40
975.9356040113582
 41
1.279810934475828
 42
50.0
 43
0.0
 44
0.0
 50
0.0
 51
0.0
 71
     0
 72
  1000
 73
     1
 74
     1
 75
     0
 76
     0
 77
     0
 78
     0
281
     0
 65
     1
110
0.0
120
0.0
130
0.0
111
1.0
121
0.0
131
0.0
112
0.0
122
1.0
132
0.0
 79
     0
146
0.0
  0
ENDTAB
  0
TABLE
  2
LTYPE
  5
5
330
0
100
AcDbSymbolTable
 70
    53
  0
LTYPE
  5
14
330
5
100
AcDbSymbolTableRecord
100
AcDbLinetypeTableRecord
  2
ByBlock
 70
     0
  3

 72
    65
 73
     0
 40
0.0
  0
LTYPE
  5
15
330
5
100
AcDbSymbolTableRecord
100
AcDbLinetypeTableRecord
  2
ByLayer
 70
     0
  3

 72
    65
 73
     0
 40
0.0
  0
LTYPE
  5
16
330
5
100
AcDbSymbolTableRecord
100
AcDbLinetypeTableRecord
  2
Continuous
 70
     0
  3
Solid line
 72
    65
 73
     0
 40
0.0
  0
LTYPE
  5
3C
330
5
100
AcDbSymbolTableRecord
100
AcDbLinetypeTableRecord
  2
HIDDENX2
 70
     0
  3
Hidden (2x) ____ ____ ____ ____ ____ ____ ____ 
 72
    65
 73
     2
 40
19.05
 49
12.7
 74
     0
 49
-6.35
 74
     0
  0
LTYPE
  5
3D
330
5
100
AcDbSymbolTableRecord
100
AcDbLinetypeTableRecord
  2
HIDDEN
 70
     0
  3
Hidden __ __ __ __ __ __ __ __ __ __ __ __ __ __
 72
    65
 73
     2
 40
9.524999999999999
 49
6.35
 74
     0
 49
-3.175
 74
     0
  0
LTYPE
  5
3E
330
5
100
AcDbSymbolTableRecord
100
AcDbLinetypeTableRecord
  2
HIDDEN2
 70
     0
  3
Hidden (.5x) _ _ _ _ _ _ _ _ _ _ _ _ _ _ _ _ _ 
 72
    65
 73
     2
 40
4.762499999999999
 49
3.175
 74
     0
 49
-1.5875
 74
     0
  0
LTYPE
  5
3F
330
5
100
AcDbSymbolTableRecord
100
AcDbLinetypeTableRecord
  2
DASHED
 70
     0
  3
Dashed __ __ __ __ __ __ __ __ __ __ __ __ __ _
 72
    65
 73
     2
 40
19.05
 49
12.7
 74
     0
 49
-6.35
 74
     0
  0
LTYPE
  5
40
330
5
100
AcDbSymbolTableRecord
100
AcDbLinetypeTableRecord
  2
DASHED2
 70
     0
  3
Dashed (.5x) _ _ _ _ _ _ _ _ _ _ _ _ _ _ _ _ _ 
 72
    65
 73
     2
 40
9.524999999999999
 49
6.35
 74
     0
 49
-3.175
 74
     0
  0
LTYPE
  5
41
330
5
100
AcDbSymbolTableRecord
100
AcDbLinetypeTableRecord
  2
DASHEDX2
 70
     0
  3
Dashed (2x) ____  ____  ____  ____  ____  ___
 72
    65
 73
     2
 40
38.09999999999999
 49
25.4
 74
     0
 49
-12.7
 74
     0
  0
LTYPE
  5
42
330
5
100
AcDbSymbolTableRecord
100
AcDbLinetypeTableRecord
  2
DOTX2
 70
     0
  3
Dot (2x) .  .  .  .  .  .  .  .  .  .  .  .  .  .
 72
    65
 73
     2
 40
12.7
 49
0.0
 74
     0
 49
-12.7
 74
     0
  0
LTYPE
  5
43
330
5
100
AcDbSymbolTableRecord
100
AcDbLinetypeTableRecord
  2
DOT
 70
     0
  3
Dot . . . . . . . . . . . . . . . . . . . . . . . .
 72
    65
 73
     2
 40
6.35
 49
0.0
 74
     0
 49
-6.35
 74
     0
  0
LTYPE
  5
44
330
5
100
AcDbSymbolTableRecord
100
AcDbLinetypeTableRecord
  2
DOT2
 70
     0
  3
Dot (.5x) ........................................
 72
    65
 73
     2
 40
3.175
 49
0.0
 74
     0
 49
-3.175
 74
     0
  0
LTYPE
  5
45
330
5
100
AcDbSymbolTableRecord
100
AcDbLinetypeTableRecord
  2
CENTERX2
 70
     0
  3
Center (2x) ________  __  ________  __  _____
 72
    65
 73
     4
 40
101.6
 49
63.5
 74
     0
 49
-12.7
 74
     0
 49
12.7
 74
     0
 49
-12.7
 74
     0
  0
LTYPE
  5
46
330
5
100
AcDbSymbolTableRecord
100
AcDbLinetypeTableRecord
  2
CENTER
 70
     0
  3
Center ____ _ ____ _ ____ _ ____ _ ____ _ ____
 72
    65
 73
     4
 40
50.8
 49
31.75
 74
     0
 49
-6.35
 74
     0
 49
6.35
 74
     0
 49
-6.35
 74
     0
  0
LTYPE
  5
47
330
5
100
AcDbSymbolTableRecord
100
AcDbLinetypeTableRecord
  2
CENTER2
 70
     0
  3
Center (.5x) ___ _ ___ _ ___ _ ___ _ ___ _ ___
 72
    65
 73
     4
 40
28.575
 49
19.05
 74
     0
 49
-3.175
 74
     0
 49
3.175
 74
     0
 49
-3.175
 74
     0
  0
LTYPE
  5
48
330
5
100
AcDbSymbolTableRecord
100
AcDbLinetypeTableRecord
  2
DASHDOTX2
 70
     0
  3
Dash dot (2x) ____  .  ____  .  ____  .  ___
 72
    65
 73
     4
 40
50.8
 49
25.4
 74
     0
 49
-12.7
 74
     0
 49
0.0
 74
     0
 49
-12.7
 74
     0
  0
LTYPE
  5
49
330
5
100
AcDbSymbolTableRecord
100
AcDbLinetypeTableRecord
  2
DASHDOT
 70
     0
  3
Dash dot __ . __ . __ . __ . __ . __ . __ . __
 72
    65
 73
     4
 40
25.4
 49
12.7
 74
     0
 49
-6.35
 74
     0
 49
0.0
 74
     0
 49
-6.35
 74
     0
  0
LTYPE
  5
4A
330
5
100
AcDbSymbolTableRecord
100
AcDbLinetypeTableRecord
  2
DASHDOT2
 70
     0
  3
Dash dot (.5x) _._._._._._._._._._._._._._._.
 72
    65
 73
     4
 40
12.7
 49
6.35
 74
     0
 49
-3.175
 74
     0
 49
0.0
 74
     0
 49
-3.175
 74
     0
  0
LTYPE
  5
4B
330
5
100
AcDbSymbolTableRecord
100
AcDbLinetypeTableRecord
  2
DIVIDEX2
 70
     0
  3
Divide (2x) ________  .  .  ________  .  .  _
 72
    65
 73
     6
 40
63.5
 49
25.4
 74
     0
 49
-12.7
 74
     0
 49
0.0
 74
     0
 49
-12.7
 74
     0
 49
0.0
 74
     0
 49
-12.7
 74
     0
  0
LTYPE
  5
4C
330
5
100
AcDbSymbolTableRecord
100
AcDbLinetypeTableRecord
  2
DIVIDE
 70
     0
  3
Divide ____ . . ____ . . ____ . . ____ . . ____
 72
    65
 73
     6
 40
31.75
 49
12.7
 74
     0
 49
-6.35
 74
     0
 49
0.0
 74
     0
 49
-6.35
 74
     0
 49
0.0
 74
     0
 49
-6.35
 74
     0
  0
LTYPE
  5
4D
330
5
100
AcDbSymbolTableRecord
100
AcDbLinetypeTableRecord
  2
DIVIDE2
 70
     0
  3
Divide (.5x) __..__..__..__..__..__..__..__.._
 72
    65
 73
     6
 40
15.875
 49
6.35
 74
     0
 49
-3.175
 74
     0
 49
0.0
 74
     0
 49
-3.175
 74
     0
 49
0.0
 74
     0
 49
-3.175
 74
     0
  0
LTYPE
  5
4E
330
5
100
AcDbSymbolTableRecord
100
AcDbLinetypeTableRecord
  2
BORDERX2
 70
     0
  3
Border (2x) ____  ____  .  ____  ____  .  ___
 72
    65
 73
     6
 40
88.89999999999999
 49
25.4
 74
     0
 49
-12.7
 74
     0
 49
25.4
 74
     0
 49
-12.7
 74
     0
 49
0.0
 74
     0
 49
-12.7
 74
     0
  0
LTYPE
  5
4F
330
5
100
AcDbSymbolTableRecord
100
AcDbLinetypeTableRecord
  2
BORDER
 70
     0
  3
Border __ __ . __ __ . __ __ . __ __ . __ __ .
 72
    65
 73
     6
 40
44.45
 49
12.7
 74
     0
 49
-6.35
 74
     0
 49
12.7
 74
     0
 49
-6.35
 74
     0
 49
0.0
 74
     0
 49
-6.35
 74
     0
  0
LTYPE
  5
50
330
5
100
AcDbSymbolTableRecord
100
AcDbLinetypeTableRecord
  2
BORDER2
 70
     0
  3
Border (.5x) __.__.__.__.__.__.__.__.__.__.__.
 72
    65
 73
     6
 40
22.225
 49
6.35
 74
     0
 49
-3.175
 74
     0
 49
6.35
 74
     0
 49
-3.175
 74
     0
 49
0.0
 74
     0
 49
-3.175
 74
     0
  0
LTYPE
  5
51
330
5
100
AcDbSymbolTableRecord
100
AcDbLinetypeTableRecord
  2
PHANTOMX2
 70
     0
  3
Phantom (2x) ____________    ____    ____   _
 72
    65
 73
     6
 40
127.0
 49
63.5
 74
     0
 49
-12.7
 74
     0
 49
12.7
 74
     0
 49
-12.7
 74
     0
 49
12.7
 74
     0
 49
-12.7
 74
     0
  0
LTYPE
  5
52
330
5
100
AcDbSymbolTableRecord
100
AcDbLinetypeTableRecord
  2
PHANTOM
 70
     0
  3
Phantom ______  __  __  ______  __  __  ______ 
 72
    65
 73
     6
 40
63.5
 49
31.75
 74
     0
 49
-6.35
 74
     0
 49
6.35
 74
     0
 49
-6.35
 74
     0
 49
6.35
 74
     0
 49
-6.35
 74
     0
  0
LTYPE
  5
53
330
5
100
AcDbSymbolTableRecord
100
AcDbLinetypeTableRecord
  2
PHANTOM2
 70
     0
  3
Phantom (.5x) ___ _ _ ___ _ _ ___ _ _ ___ _ _
 72
    65
 73
     6
 40
31.75
 49
15.875
 74
     0
 49
-3.175
 74
     0
 49
3.175
 74
     0
 49
-3.175
 74
     0
 49
3.175
 74
     0
 49
-3.175
 74
     0
  0
LTYPE
  5
54
330
5
100
AcDbSymbolTableRecord
100
AcDbLinetypeTableRecord
  2
ACAD_ISO06W100
 70
     0
  3
ISO long-dash triple-dot ____ ... ____ ... ____
 72
    65
 73
     8
 40
36.0
 49
24.0
 74
     0
 49
-3.0
 74
     0
 49
0.0
 74
     0
 49
-3.0
 74
     0
 49
0.0
 74
     0
 49
-3.0
 74
     0
 49
0.0
 74
     0
 49
-3.0
 74
     0
  0
LTYPE
  5
55
330
5
100
AcDbSymbolTableRecord
100
AcDbLinetypeTableRecord
  2
ACAD_ISO13W100
 70
     0
  3
ISO double-dash double-dot __ __ . . __ __ . . _
 72
    65
 73
     8
 40
36.0
 49
12.0
 74
     0
 49
-3.0
 74
     0
 49
12.0
 74
     0
 49
-3.0
 74
     0
 49
0.0
 74
     0
 49
-3.0
 74
     0
 49
0.0
 74
     0
 49
-3.0
 74
     0
  0
LTYPE
  5
56
330
5
100
AcDbSymbolTableRecord
100
AcDbLinetypeTableRecord
  2
ACAD_ISO14W100
 70
     0
  3
ISO dash triple-dot __ . . . __ . . . __ . . . _
 72
    65
 73
     8
 40
24.0
 49
12.0
 74
     0
 49
-3.0
 74
     0
 49
0.0
 74
     0
 49
-3.0
 74
     0
 49
0.0
 74
     0
 49
-3.0
 74
     0
 49
0.0
 74
     0
 49
-3.0
 74
     0
  0
LTYPE
  5
57
330
5
100
AcDbSymbolTableRecord
100
AcDbLinetypeTableRecord
  2
ACAD_ISO02W100
 70
     0
  3
ISO dash __ __ __ __ __ __ __ __ __ __ __ __ __
 72
    65
 73
     2
 40
15.0
 49
12.0
 74
     0
 49
-3.0
 74
     0
  0
LTYPE
  5
58
330
5
100
AcDbSymbolTableRecord
100
AcDbLinetypeTableRecord
  2
ACAD_ISO03W100
 70
     0
  3
ISO dash space __    __    __    __    __    __
 72
    65
 73
     2
 40
30.0
 49
12.0
 74
     0
 49
-18.0
 74
     0
  0
LTYPE
  5
59
330
5
100
AcDbSymbolTableRecord
100
AcDbLinetypeTableRecord
  2
ACAD_ISO04W100
 70
     0
  3
ISO long-dash dot ____ . ____ . ____ . ____ . _
 72
    65
 73
     4
 40
30.0
 49
24.0
 74
     0
 49
-3.0
 74
     0
 49
0.0
 74
     0
 49
-3.0
 74
     0
  0
LTYPE
  5
5A
330
5
100
AcDbSymbolTableRecord
100
AcDbLinetypeTableRecord
  2
ACAD_ISO05W100
 70
     0
  3
ISO long-dash double-dot ____ .. ____ .. ____ . 
 72
    65
 73
     6
 40
33.0
 49
24.0
 74
     0
 49
-3.0
 74
     0
 49
0.0
 74
     0
 49
-3.0
 74
     0
 49
0.0
 74
     0
 49
-3.0
 74
     0
  0
LTYPE
  5
5B
330
5
100
AcDbSymbolTableRecord
100
AcDbLinetypeTableRecord
  2
ACAD_ISO07W100
 70
     0
  3
ISO dot . . . . . . . . . . . . . . . . . . . . 
 72
    65
 73
     2
 40
3.0
 49
0.0
 74
     0
 49
-3.0
 74
     0
  0
LTYPE
  5
5C
330
5
100
AcDbSymbolTableRecord
100
AcDbLinetypeTableRecord
  2
ACAD_ISO08W100
 70
     0
  3
ISO long-dash short-dash ____ __ ____ __ ____ _
 72
    65
 73
     4
 40
36.0
 49
24.0
 74
     0
 49
-3.0
 74
     0
 49
6.0
 74
     0
 49
-3.0
 74
     0
  0
LTYPE
  5
5D
330
5
100
AcDbSymbolTableRecord
100
AcDbLinetypeTableRecord
  2
ACAD_ISO09W100
 70
     0
  3
ISO long-dash double-short-dash ____ __ __ ____
 72
    65
 73
     6
 40
45.0
 49
24.0
 74
     0
 49
-3.0
 74
     0
 49
6.0
 74
     0
 49
-3.0
 74
     0
 49
6.0
 74
     0
 49
-3.0
 74
     0
  0
LTYPE
  5
5E
330
5
100
AcDbSymbolTableRecord
100
AcDbLinetypeTableRecord
  2
ACAD_ISO10W100
 70
     0
  3
ISO dash dot __ . __ . __ . __ . __ . __ . __ . 
 72
    65
 73
     4
 40
18.0
 49
12.0
 74
     0
 49
-3.0
 74
     0
 49
0.0
 74
     0
 49
-3.0
 74
     0
  0
LTYPE
  5
5F
330
5
100
AcDbSymbolTableRecord
100
AcDbLinetypeTableRecord
  2
ACAD_ISO11W100
 70
     0
  3
ISO double-dash dot __ __ . __ __ . __ __ . __ _
 72
    65
 73
     6
 40
33.0
 49
12.0
 74
     0
 49
-3.0
 74
     0
 49
12.0
 74
     0
 49
-3.0
 74
     0
 49
0.0
 74
     0
 49
-3.0
 74
     0
  0
LTYPE
  5
60
330
5
100
AcDbSymbolTableRecord
100
AcDbLinetypeTableRecord
  2
ACAD_ISO12W100
 70
     0
  3
ISO dash double-dot __ . . __ . . __ . . __ . . 
 72
    65
 73
     6
 40
21.0
 49
12.0
 74
     0
 49
-3.0
 74
     0
 49
0.0
 74
     0
 49
-3.0
 74
     0
 49
0.0
 74
     0
 49
-3.0
 74
     0
  0
LTYPE
  5
61
330
5
100
AcDbSymbolTableRecord
100
AcDbLinetypeTableRecord
  2
ACAD_ISO15W100
 70
     0
  3
ISO double-dash triple-dot __ __ . . . __ __ . .
 72
    65
 73
    10
 40
39.0
 49
12.0
 74
     0
 49
-3.0
 74
     0
 49
12.0
 74
     0
 49
-3.0
 74
     0
 49
0.0
 74
     0
 49
-3.0
 74
     0
 49
0.0
 74
     0
 49
-3.0
 74
     0
 49
0.0
 74
     0
 49
-3.0
 74
     0
  0
LTYPE
  5
62
330
5
100
AcDbSymbolTableRecord
100
AcDbLinetypeTableRecord
  2
JIS_02_0.7
 70
     0
  3
HIDDEN0.75 _ _ _ _ _ _ _ _ _ _ _ _ _ _ _ _ _ 
 72
    65
 73
     2
 40
1.35
 49
0.75
 74
     0
 49
-0.6
 74
     0
  0
LTYPE
  5
63
330
5
100
AcDbSymbolTableRecord
100
AcDbLinetypeTableRecord
  2
JIS_02_1.0
 70
     0
  3
HIDDEN01 _ _ _ _ _ _ _ _ _ _ _ _ _ _ _ _ _ 
 72
    65
 73
     2
 40
2.0
 49
1.0
 74
     0
 49
-1.0
 74
     0
  0
LTYPE
  5
64
330
5
100
AcDbSymbolTableRecord
100
AcDbLinetypeTableRecord
  2
JIS_02_1.2
 70
     0
  3
HIDDEN01.25  _ _ _ _ _ _ _ _ _ _ _ _ _ _ _ _ _ 
 72
    65
 73
     2
 40
2.5
 49
1.25
 74
     0
 49
-1.25
 74
     0
  0
LTYPE
  5
65
330
5
100
AcDbSymbolTableRecord
100
AcDbLinetypeTableRecord
  2
JIS_02_2.0
 70
     0
  3
HIDDEN02 __ __ __ __ __ __ __ __ __ __ __ 
 72
    65
 73
     2
 40
3.0
 49
2.0
 74
     0
 49
-1.0
 74
     0
  0
LTYPE
  5
66
330
5
100
AcDbSymbolTableRecord
100
AcDbLinetypeTableRecord
  2
JIS_02_4.0
 70
     0
  3
HIDDEN04 ____ ____ ____ ____ ____ ____ ____ 
 72
    65
 73
     2
 40
5.5
 49
4.0
 74
     0
 49
-1.5
 74
     0
  0
LTYPE
  5
67
330
5
100
AcDbSymbolTableRecord
100
AcDbLinetypeTableRecord
  2
JIS_08_11
 70
     0
  3
1SASEN11 ___ _ ___ _ ___ _ ___ _ ___ _ ___
 72
    65
 73
     4
 40
12.8
 49
11.0
 74
     0
 49
-0.6
 74
     0
 49
0.6
 74
     0
 49
-0.6
 74
     0
  0
LTYPE
  5
68
330
5
100
AcDbSymbolTableRecord
100
AcDbLinetypeTableRecord
  2
JIS_08_15
 70
     0
  3
1SASEN15 ____ _ ____ _ ____ _ ____ _ ____ 
 72
    65
 73
     4
 40
17.25
 49
15.0
 74
     0
 49
-0.75
 74
     0
 49
0.75
 74
     0
 49
-0.75
 74
     0
  0
LTYPE
  5
69
330
5
100
AcDbSymbolTableRecord
100
AcDbLinetypeTableRecord
  2
JIS_08_25
 70
     0
  3
1SASEN25 ________  __  ________  __  _____
 72
    65
 73
     4
 40
28.0
 49
25.0
 74
     0
 49
-1.125
 74
     0
 49
0.75
 74
     0
 49
-1.125
 74
     0
  0
LTYPE
  5
6A
330
5
100
AcDbSymbolTableRecord
100
AcDbLinetypeTableRecord
  2
JIS_08_37
 70
     0
  3
1SASEN37 ________  __  ________  __  _____
 72
    65
 73
     4
 40
40.5
 49
37.5
 74
     0
 49
-1.125
 74
     0
 49
0.75
 74
     0
 49
-1.125
 74
     0
  0
LTYPE
  5
6B
330
5
100
AcDbSymbolTableRecord
100
AcDbLinetypeTableRecord
  2
JIS_08_50
 70
     0
  3
1SASEN50 _______________  __  ____________
 72
    65
 73
     4
 40
53.0
 49
50.0
 74
     0
 49
-1.125
 74
     0
 49
0.75
 74
     0
 49
-1.125
 74
     0
  0
LTYPE
  5
6C
330
5
100
AcDbSymbolTableRecord
100
AcDbLinetypeTableRecord
  2
JIS_09_08
 70
     0
  3
2SASEN8 __ _ _ __ _ _ __ _ _ __ _ _ __ _ _ 
 72
    65
 73
     6
 40
10.75
 49
8.0
 74
     0
 49
-0.55
 74
     0
 49
0.55
 74
     0
 49
-0.55
 74
     0
 49
0.55
 74
     0
 49
-0.55
 74
     0
  0
LTYPE
  5
6D
330
5
100
AcDbSymbolTableRecord
100
AcDbLinetypeTableRecord
  2
JIS_09_15
 70
     0
  3
2SASEN15 ___ _ _ ___ _ _ ___ _ _ ___ _ _ ___ 
 72
    65
 73
     6
 40
18.9
 49
15.0
 74
     0
 49
-0.9
 74
     0
 49
0.6
 74
     0
 49
-0.9
 74
     0
 49
0.6
 74
     0
 49
-0.9
 74
     0
  0
LTYPE
  5
6E
330
5
100
AcDbSymbolTableRecord
100
AcDbLinetypeTableRecord
  2
JIS_09_29
 70
     0
  3
2SASEN29 ______　__  __  ______　__  __  ___
 72
    65
 73
     6
 40
34.0
 49
29.0
 74
     0
 49
-1.2
 74
     0
 49
0.7
 74
     0
 49
-1.2
 74
     0
 49
0.7
 74
     0
 49
-1.2
 74
     0
  0
LTYPE
  5
6F
330
5
100
AcDbSymbolTableRecord
100
AcDbLinetypeTableRecord
  2
JIS_09_50
 70
     0
  3
2SASEN50 ____________　__  __  _____________
 72
    65
 73
     6
 40
55.0
 49
50.0
 74
     0
 49
-1.2
 74
     0
 49
0.7
 74
     0
 49
-1.2
 74
     0
 49
0.7
 74
     0
 49
-1.2
 74
     0
  0
ENDTAB
  0
TABLE
  2
LAYER
  5
2
330
0
100
AcDbSymbolTable
 70
     6
  0
LAYER
  5
10
330
2
100
AcDbSymbolTableRecord
100
AcDbLayerTableRecord
  2
0
 70
     0
 62
     7
  6
Continuous
370
    -3
390
F
  0
LAYER
  5
70
330
2
100
AcDbSymbolTableRecord
100
AcDbLayerTableRecord
  2
Layer0000
 70
     0
 62
     7
  6
Continuous
370
    -3
390
F
  0
LAYER
  5
71
330
2
100
AcDbSymbolTableRecord
100
AcDbLayerTableRecord
  2
Layer0001
 70
     0
 62
     7
  6
Continuous
370
    -3
390
F
  0
LAYER
  5
72
330
2
100
AcDbSymbolTableRecord
100
AcDbLayerTableRecord
  2
Layer0004
 70
     0
 62
     7
  6
Continuous
370
    -3
390
F
  0
LAYER
  5
73
330
2
100
AcDbSymbolTableRecord
100
AcDbLayerTableRecord
  2
Layer0014
 70
     0
 62
     7
  6
Continuous
370
    -3
390
F
  0
LAYER
  5
74
330
2
100
AcDbSymbolTableRecord
100
AcDbLayerTableRecord
  2
Layer0015
 70
     0
 62
     7
  6
Continuous
370
    -3
390
F
  0
ENDTAB
  0
TABLE
  2
STYLE
  5
3
330
0
100
AcDbSymbolTable
 70
     2
  0
STYLE
  5
11
330
3
100
AcDbSymbolTableRecord
100
AcDbTextStyleTableRecord
  2
Standard
 70
     0
 40
0.0
 41
1.0
 50
0.0
 71
     0
 42
0.2
  3
txt
  4

  0
STYLE
  5
F6
330
3
100
AcDbSymbolTableRecord
100
AcDbTextStyleTableRecord
  2
dcStyle0
 70
     0
 40
0.0
 41
0.8
 50
0.0
 71
     0
 42
0.2
  3
txt.shx
  4
bigfont
  0
ENDTAB
  0
TABLE
  2
VIEW
  5
6
330
0
100
AcDbSymbolTable
 70
     0
  0
ENDTAB
  0
TABLE
  2
UCS
  5
7
330
0
100
AcDbSymbolTable
 70
     0
  0
ENDTAB
  0
TABLE
  2
APPID
  5
9
330
0
100
AcDbSymbolTable
 70
     2
  0
APPID
  5
12
330
9
100
AcDbSymbolTableRecord
100
AcDbRegAppTableRecord
  2
ACAD
 70
     0
  0
APPID
  5
3B
330
9
100
AcDbSymbolTableRecord
100
AcDbRegAppTableRecord
  2
DaFusionOut
 70
     0
  0
ENDTAB
  0
TABLE
  2
DIMSTYLE
  5
A
330
0
100
AcDbSymbolTable
 70
     2
100
AcDbDimStyleTable
  0
DIMSTYLE
105
27
330
A
100
AcDbSymbolTableRecord
100
AcDbDimStyleTableRecord
  2
Standard
 70
     0
340
11
  0
DIMSTYLE
105
619
102
{ACAD_REACTORS
330
618
330
61A
330
61B
330
61C
330
61D
330
61E
330
61F
330
621
330
622
330
623
330
624
330
625
330
626
330
627
330
628
330
62C
330
62D
330
62E
330
62F
330
630
102
}
330
A
100
AcDbSymbolTableRecord
100
AcDbDimStyleTableRecord
  2
DaDimRotatedStyle
 70
     0
 41
7.499992178923005
 42
2.5
 44
2.0
 73
     0
 74
     0
 77
     3
 78
     8
 79
     2
140
10.0
147
2.5
172
     1
173
     1
176
     2
177
     2
178
     2
271
     3
274
     4
283
     0
284
     8
288
     1
289
     0
340
F6
343
EC
344
EC
  0
ENDTAB
  0
TABLE
  2
BLOCK_RECORD
  5
1
330
0
100
AcDbSymbolTable
 70
    41
  0
BLOCK_RECORD
  5
1F
330
1
100
AcDbSymbolTableRecord
100
AcDbBlockTableRecord
  2
*Model_Space
340
22
  0
BLOCK_RECORD
  5
1B
330
1
100
AcDbSymbolTableRecord
100
AcDbBlockTableRecord
  2
*Paper_Space
340
1E
  0
BLOCK_RECORD
  5
23
330
1
100
AcDbSymbolTableRecord
100
AcDbBlockTableRecord
  2
*Paper_Space0
340
26
  0
BLOCK_RECORD
  5
76
330
1
100
AcDbSymbolTableRecord
100
AcDbBlockTableRecord
  2
*D1
340
0
  0
BLOCK_RECORD
  5
79
330
1
100
AcDbSymbolTableRecord
100
AcDbBlockTableRecord
  2
*D2
340
0
  0
BLOCK_RECORD
  5
7C
330
1
100
AcDbSymbolTableRecord
100
AcDbBlockTableRecord
  2
*D3
340
0
  0
BLOCK_RECORD
  5
7F
330
1
100
AcDbSymbolTableRecord
100
AcDbBlockTableRecord
  2
*D4
340
0
  0
BLOCK_RECORD
  5
82
330
1
100
AcDbSymbolTableRecord
100
AcDbBlockTableRecord
  2
*D5
340
0
  0
BLOCK_RECORD
  5
85
330
1
100
AcDbSymbolTableRecord
100
AcDbBlockTableRecord
  2
*D6
340
0
  0
BLOCK_RECORD
  5
88
330
1
100
AcDbSymbolTableRecord
100
AcDbBlockTableRecord
  2
*D7
340
0
  0
BLOCK_RECORD
  5
8B
330
1
100
AcDbSymbolTableRecord
100
AcDbBlockTableRecord
  2
DA_IMAGEDIMGROUP_1
340
0
102
{BLKREFS
331
620
102
}
  0
BLOCK_RECORD
  5
8E
330
1
100
AcDbSymbolTableRecord
100
AcDbBlockTableRecord
  2
*D9
340
0
  0
BLOCK_RECORD
  5
91
330
1
100
AcDbSymbolTableRecord
100
AcDbBlockTableRecord
  2
*D10
340
0
  0
BLOCK_RECORD
  5
94
330
1
100
AcDbSymbolTableRecord
100
AcDbBlockTableRecord
  2
*D11
340
0
  0
BLOCK_RECORD
  5
97
330
1
100
AcDbSymbolTableRecord
100
AcDbBlockTableRecord
  2
*D12
340
0
  0
BLOCK_RECORD
  5
9A
330
1
100
AcDbSymbolTableRecord
100
AcDbBlockTableRecord
  2
*D13
340
0
  0
BLOCK_RECORD
  5
9D
330
1
100
AcDbSymbolTableRecord
100
AcDbBlockTableRecord
  2
*D14
340
0
  0
BLOCK_RECORD
  5
A0
330
1
100
AcDbSymbolTableRecord
100
AcDbBlockTableRecord
  2
*D15
340
0
  0
BLOCK_RECORD
  5
A3
330
1
100
AcDbSymbolTableRecord
100
AcDbBlockTableRecord
  2
*D16
340
0
  0
BLOCK_RECORD
  5
A6
330
1
100
AcDbSymbolTableRecord
100
AcDbBlockTableRecord
  2
DA_IMAGEDIMGROUP_2
340
0
102
{BLKREFS
331
629
102
}
  0
BLOCK_RECORD
  5
A9
330
1
100
AcDbSymbolTableRecord
100
AcDbBlockTableRecord
  2
DA_IMAGEDIMGROUP_3
340
0
102
{BLKREFS
331
62A
102
}
  0
BLOCK_RECORD
  5
AC
330
1
100
AcDbSymbolTableRecord
100
AcDbBlockTableRecord
  2
DA_IMAGEDIMGROUP_4
340
0
102
{BLKREFS
331
62B
102
}
  0
BLOCK_RECORD
  5
AF
330
1
100
AcDbSymbolTableRecord
100
AcDbBlockTableRecord
  2
*D20
340
0
  0
BLOCK_RECORD
  5
B2
330
1
100
AcDbSymbolTableRecord
100
AcDbBlockTableRecord
  2
*D21
340
0
  0
BLOCK_RECORD
  5
B5
330
1
100
AcDbSymbolTableRecord
100
AcDbBlockTableRecord
  2
*D22
340
0
  0
BLOCK_RECORD
  5
B8
330
1
100
AcDbSymbolTableRecord
100
AcDbBlockTableRecord
  2
*D23
340
0
  0
BLOCK_RECORD
  5
BB
330
1
100
AcDbSymbolTableRecord
100
AcDbBlockTableRecord
  2
*D24
340
0
  0
BLOCK_RECORD
  5
BE
330
1
100
AcDbSymbolTableRecord
100
AcDbBlockTableRecord
  2
DC_GROUP_ACE200_1
340
0
102
{BLKREFS
331
631
102
}
  0
BLOCK_RECORD
  5
C1
330
1
100
AcDbSymbolTableRecord
100
AcDbBlockTableRecord
  2
DC_GROUP_ACE200_2
340
0
102
{BLKREFS
331
632
102
}
  0
BLOCK_RECORD
  5
C4
330
1
100
AcDbSymbolTableRecord
100
AcDbBlockTableRecord
  2
DC_GROUP_ACE200_3
340
0
102
{BLKREFS
331
633
102
}
  0
BLOCK_RECORD
  5
C7
330
1
100
AcDbSymbolTableRecord
100
AcDbBlockTableRecord
  2
DC_GROUP_ACE200_4
340
0
102
{BLKREFS
331
634
102
}
  0
BLOCK_RECORD
  5
CA
330
1
100
AcDbSymbolTableRecord
100
AcDbBlockTableRecord
  2
DC_GROUP_ACE200_5
340
0
102
{BLKREFS
331
635
102
}
  0
BLOCK_RECORD
  5
CD
330
1
100
AcDbSymbolTableRecord
100
AcDbBlockTableRecord
  2
DC_GROUP_ACE200_6
340
0
102
{BLKREFS
331
636
102
}
  0
BLOCK_RECORD
  5
D0
330
1
100
AcDbSymbolTableRecord
100
AcDbBlockTableRecord
  2
DC_GROUP_ACE200_7
340
0
102
{BLKREFS
331
637
102
}
  0
BLOCK_RECORD
  5
D3
330
1
100
AcDbSymbolTableRecord
100
AcDbBlockTableRecord
  2
DC_GROUP_ACE200_8
340
0
102
{BLKREFS
331
638
102
}
  0
BLOCK_RECORD
  5
D6
330
1
100
AcDbSymbolTableRecord
100
AcDbBlockTableRecord
  2
DC_GROUP_ACE200_9
340
0
102
{BLKREFS
331
639
102
}
  0
BLOCK_RECORD
  5
D9
330
1
100
AcDbSymbolTableRecord
100
AcDbBlockTableRecord
  2
DC_GROUP_ACE200_10
340
0
102
{BLKREFS
331
63D
102
}
  0
BLOCK_RECORD
  5
DC
330
1
100
AcDbSymbolTableRecord
100
AcDbBlockTableRecord
  2
DC_GROUP_ACE200_11
340
0
102
{BLKREFS
331
63E
102
}
  0
BLOCK_RECORD
  5
DF
330
1
100
AcDbSymbolTableRecord
100
AcDbBlockTableRecord
  2
DC_GROUP_ACE200_12
340
0
102
{BLKREFS
331
63A
102
}
  0
BLOCK_RECORD
  5
E2
330
1
100
AcDbSymbolTableRecord
100
AcDbBlockTableRecord
  2
DC_GROUP_ACE200_13
340
0
102
{BLKREFS
331
63B
102
}
  0
BLOCK_RECORD
  5
E5
330
1
100
AcDbSymbolTableRecord
100
AcDbBlockTableRecord
  2
DC_GROUP_ACE200_14
340
0
102
{BLKREFS
331
63C
102
}
  0
BLOCK_RECORD
  5
E8
330
1
100
AcDbSymbolTableRecord
100
AcDbBlockTableRecord
  2
DC_GROUP_ACE200_15
340
0
102
{BLKREFS
331
63F
102
}
  0
BLOCK_RECORD
  5
EC
330
1
100
AcDbSymbolTableRecord
100
AcDbBlockTableRecord
  2
_OPEN30
340
0
102
{BLKREFS
331
F2
331
F3
331
F9
331
FA
331
FF
331
100
331
105
331
106
331
10B
331
10C
331
111
331
112
331
117
331
118
331
11F
331
120
331
123
331
124
331
129
331
12A
331
12F
331
130
331
135
331
136
331
13B
331
13C
331
141
331
142
331
147
331
148
331
14D
331
14E
331
156
331
158
331
15E
331
160
331
166
331
168
331
16B
331
16C
331
171
331
172
331
177
331
178
331
17D
331
17E
331
182
331
183
331
188
331
18C
331
19A
331
19E
331
1A5
331
54F
331
550
331
552
331
553
331
555
331
556
331
558
331
559
331
55B
331
55C
331
55E
331
55F
331
561
331
562
331
564
331
565
331
573
331
575
331
577
102
}
  0
ENDTAB
  0
ENDSEC
  0
SECTION
  2
BLOCKS
  0
BLOCK
  5
20
330
1F
100
AcDbEntity
  8
0
100
AcDbBlockBegin
  2
*Model_Space
 70
     0
 10
0.0
 20
0.0
 30
0.0
  3
*Model_Space
  1

  0
ENDBLK
  5
21
330
1F
100
AcDbEntity
  8
0
100
AcDbBlockEnd
  0
BLOCK
  5
1C
330
1B
100
AcDbEntity
 67
     1
  8
0
100
AcDbBlockBegin
  2
*Paper_Space
 70
     0
 10
0.0
 20
0.0
 30
0.0
  3
*Paper_Space
  1

  0
ENDBLK
  5
1D
330
1B
100
AcDbEntity
 67
     1
  8
0
100
AcDbBlockEnd
  0
BLOCK
  5
24
330
23
100
AcDbEntity
  8
0
100
AcDbBlockBegin
  2
*Paper_Space0
 70
     0
 10
0.0
 20
0.0
 30
0.0
  3
*Paper_Space0
  1

  0
ENDBLK
  5
25
330
23
100
AcDbEntity
  8
0
100
AcDbBlockEnd
  0
BLOCK
  5
77
330
76
100
AcDbEntity
  8
0
100
AcDbBlockBegin
  2
*D1
 70
     1
 10
0.0
 20
0.0
 30
0.0
  3
*D1
  1

  0
LINE
  5
EB
330
76
100
AcDbEntity
  8
Layer0015
  6
Continuous
 62
     2
370
    13
100
AcDbLine
 10
-549.2880483994694
 20
209.6520650813518
 30
0.0
 11
-549.2880483994694
 21
409.6520650813517
 31
0.0
  0
INSERT
  5
F2
330
76
100
AcDbEntity
  8
Layer0015
 62
     2
100
AcDbBlockReference
  2
_OPEN30
 10
-549.2880483994694
 20
209.6520650813518
 30
0.0
 41
7.646601831087536
 42
5.031938088706951
 50
270.0
  0
INSERT
  5
F3
330
76
100
AcDbEntity
  8
Layer0015
 62
     2
100
AcDbBlockReference
  2
_OPEN30
 10
-549.2880483994694
 20
409.6520650813517
 30
0.0
 41
7.646601831087536
 42
5.031938088706951
 50
90.0
  0
LINE
  5
F4
330
76
100
AcDbEntity
  8
Layer0015
  6
Continuous
 62
     2
370
    13
100
AcDbLine
 10
-520.25
 20
209.6520650813518
 30
0.0
 11
-551.2880483994694
 21
209.6520650813518
 31
0.0
  0
LINE
  5
F5
330
76
100
AcDbEntity
  8
Layer0015
  6
Continuous
 62
     2
370
    13
100
AcDbLine
 10
-520.25
 20
409.6520650813517
 30
0.0
 11
-551.2880483994694
 21
409.6520650813517
 31
0.0
  0
MTEXT
  5
F7
330
76
100
AcDbEntity
  8
Layer0015
 62
     2
100
AcDbMText
 10
-551.7880483994694
 20
309.6520650813517
 30
0.0
 40
10.0
 41
42.5
 71
     8
 72
     1
  1
\T1.00;200
  7
dcStyle0
 11
6.123031769111886E-17
 21
1.0
 31
0.0
 73
     1
 44
1.0
  0
ENDBLK
  5
78
330
76
100
AcDbEntity
  8
0
100
AcDbBlockEnd
  0
BLOCK
  5
7A
330
79
100
AcDbEntity
  8
0
100
AcDbBlockBegin
  2
*D2
 70
     1
 10
0.0
 20
0.0
 30
0.0
  3
*D2
  1

  0
LINE
  5
F8
330
79
100
AcDbEntity
  8
Layer0015
  6
Continuous
 62
     2
370
    13
100
AcDbLine
 10
-518.75
 20
102.0289685666772
 30
0.0
 11
198.2499999999975
 21
102.0289685666772
 31
0.0
  0
INSERT
  5
F9
330
79
100
AcDbEntity
  8
Layer0015
 62
     2
100
AcDbBlockReference
  2
_OPEN30
 10
-518.75
 20
102.0289685666772
 30
0.0
 41
7.646601831087536
 42
5.031938088706951
 50
180.0
  0
INSERT
  5
FA
330
79
100
AcDbEntity
  8
Layer0015
 62
     2
100
AcDbBlockReference
  2
_OPEN30
 10
198.2499999999975
 20
102.0289685666772
 30
0.0
 41
7.646601831087536
 42
5.031938088706951
 50
360.0
  0
LINE
  5
FB
330
79
100
AcDbEntity
  8
Layer0015
  6
Continuous
 62
     2
370
    13
100
AcDbLine
 10
-518.75
 20
208.1520650813505
 30
0.0
 11
-518.75
 21
100.0289685666772
 31
0.0
  0
LINE
  5
FC
330
79
100
AcDbEntity
  8
Layer0015
  6
Continuous
 62
     2
370
    13
100
AcDbLine
 10
198.2499999999975
 20
297.6520650813517
 30
0.0
 11
198.2499999999975
 21
100.0289685666772
 31
0.0
  0
MTEXT
  5
FD
330
79
100
AcDbEntity
  8
Layer0015
 62
     2
100
AcDbMText
 10
-160.2500000000013
 20
104.5289685666772
 30
0.0
 40
10.0
 41
42.5
 71
     8
 72
     1
  1
\T1.00;714
  7
dcStyle0
 73
     1
 44
1.0
  0
ENDBLK
  5
7B
330
79
100
AcDbEntity
  8
0
100
AcDbBlockEnd
  0
BLOCK
  5
7D
330
7C
100
AcDbEntity
  8
0
100
AcDbBlockBegin
  2
*D3
 70
     1
 10
0.0
 20
0.0
 30
0.0
  3
*D3
  1

  0
LINE
  5
FE
330
7C
100
AcDbEntity
  8
Layer0015
  6
Continuous
 62
     2
370
    13
100
AcDbLine
 10
549.4883394134243
 20
163.6520650813516
 30
0.0
 11
549.4883394134243
 21
209.6520650813517
 31
0.0
  0
INSERT
  5
FF
330
7C
100
AcDbEntity
  8
Layer0015
 62
     2
100
AcDbBlockReference
  2
_OPEN30
 10
549.4883394134243
 20
163.6520650813516
 30
0.0
 41
7.646601831087536
 42
5.031938088706951
 50
270.0
  0
INSERT
  5
100
330
7C
100
AcDbEntity
  8
Layer0015
 62
     2
100
AcDbBlockReference
  2
_OPEN30
 10
549.4883394134243
 20
209.6520650813517
 30
0.0
 41
7.646601831087536
 42
5.031938088706951
 50
90.0
  0
LINE
  5
101
330
7C
100
AcDbEntity
  8
Layer0015
  6
Continuous
 62
     2
370
    13
100
AcDbLine
 10
520.25
 20
163.6520650813516
 30
0.0
 11
551.4883394134243
 21
163.6520650813516
 31
0.0
  0
LINE
  5
102
330
7C
100
AcDbEntity
  8
Layer0015
  6
Continuous
 62
     2
370
    13
100
AcDbLine
 10
520.25
 20
209.6520650813517
 30
0.0
 11
551.4883394134243
 21
209.6520650813517
 31
0.0
  0
MTEXT
  5
103
330
7C
100
AcDbEntity
  8
Layer0015
 62
     2
100
AcDbMText
 10
546.9883394134243
 20
186.6520650813516
 30
0.0
 40
10.0
 41
32.5
 71
     8
 72
     1
  1
\T1.00;46
  7
dcStyle0
 11
6.123031769111886E-17
 21
1.0
 31
0.0
 73
     1
 44
1.0
  0
ENDBLK
  5
7E
330
7C
100
AcDbEntity
  8
0
100
AcDbBlockEnd
  0
BLOCK
  5
80
330
7F
100
AcDbEntity
  8
0
100
AcDbBlockBegin
  2
*D4
 70
     1
 10
0.0
 20
0.0
 30
0.0
  3
*D4
  1

  0
LINE
  5
104
330
7F
100
AcDbEntity
  8
Layer0015
  6
Continuous
 62
     2
370
    13
100
AcDbLine
 10
549.4883394134243
 20
209.6520650813517
 30
0.0
 11
549.4883394134243
 21
409.6520650813514
 31
0.0
  0
INSERT
  5
105
330
7F
100
AcDbEntity
  8
Layer0015
 62
     2
100
AcDbBlockReference
  2
_OPEN30
 10
549.4883394134243
 20
209.6520650813517
 30
0.0
 41
7.646601831087536
 42
5.031938088706951
 50
270.0
  0
INSERT
  5
106
330
7F
100
AcDbEntity
  8
Layer0015
 62
     2
100
AcDbBlockReference
  2
_OPEN30
 10
549.4883394134243
 20
409.6520650813514
 30
0.0
 41
7.646601831087536
 42
5.031938088706951
 50
90.0
  0
LINE
  5
107
330
7F
100
AcDbEntity
  8
Layer0015
  6
Continuous
 62
     2
370
    13
100
AcDbLine
 10
520.25
 20
209.6520650813517
 30
0.0
 11
551.4883394134243
 21
209.6520650813517
 31
0.0
  0
LINE
  5
108
330
7F
100
AcDbEntity
  8
Layer0015
  6
Continuous
 62
     2
370
    13
100
AcDbLine
 10
520.25
 20
409.6520650813514
 30
0.0
 11
551.4883394134243
 21
409.6520650813514
 31
0.0
  0
MTEXT
  5
109
330
7F
100
AcDbEntity
  8
Layer0015
 62
     2
100
AcDbMText
 10
546.9883394134243
 20
309.6520650813515
 30
0.0
 40
10.0
 41
42.5
 71
     8
 72
     1
  1
\T1.00;200
  7
dcStyle0
 11
6.123031769111886E-17
 21
1.0
 31
0.0
 73
     1
 44
1.0
  0
ENDBLK
  5
81
330
7F
100
AcDbEntity
  8
0
100
AcDbBlockEnd
  0
BLOCK
  5
83
330
82
100
AcDbEntity
  8
0
100
AcDbBlockBegin
  2
*D5
 70
     1
 10
0.0
 20
0.0
 30
0.0
  3
*D5
  1

  0
LINE
  5
10A
330
82
100
AcDbEntity
  8
Layer0015
  6
Continuous
 62
     2
370
    13
100
AcDbLine
 10
549.4883394134243
 20
409.6520650813514
 30
0.0
 11
549.4883394134243
 21
455.6520650813519
 31
0.0
  0
INSERT
  5
10B
330
82
100
AcDbEntity
  8
Layer0015
 62
     2
100
AcDbBlockReference
  2
_OPEN30
 10
549.4883394134243
 20
409.6520650813514
 30
0.0
 41
7.646601831087536
 42
5.031938088706951
 50
270.0
  0
INSERT
  5
10C
330
82
100
AcDbEntity
  8
Layer0015
 62
     2
100
AcDbBlockReference
  2
_OPEN30
 10
549.4883394134243
 20
455.6520650813519
 30
0.0
 41
7.646601831087536
 42
5.031938088706951
 50
90.0
  0
LINE
  5
10D
330
82
100
AcDbEntity
  8
Layer0015
  6
Continuous
 62
     2
370
    13
100
AcDbLine
 10
520.25
 20
409.6520650813514
 30
0.0
 11
551.4883394134243
 21
409.6520650813514
 31
0.0
  0
LINE
  5
10E
330
82
100
AcDbEntity
  8
Layer0015
  6
Continuous
 62
     2
370
    13
100
AcDbLine
 10
520.25
 20
455.6520650813519
 30
0.0
 11
551.4883394134243
 21
455.6520650813519
 31
0.0
  0
MTEXT
  5
10F
330
82
100
AcDbEntity
  8
Layer0015
 62
     2
100
AcDbMText
 10
546.9883394134243
 20
432.6520650813516
 30
0.0
 40
10.0
 41
32.5
 71
     8
 72
     1
  1
\T1.00;46
  7
dcStyle0
 11
6.123031769111886E-17
 21
1.0
 31
0.0
 73
     1
 44
1.0
  0
ENDBLK
  5
84
330
82
100
AcDbEntity
  8
0
100
AcDbBlockEnd
  0
BLOCK
  5
86
330
85
100
AcDbEntity
  8
0
100
AcDbBlockBegin
  2
*D6
 70
     1
 10
0.0
 20
0.0
 30
0.0
  3
*D6
  1

  0
LINE
  5
110
330
85
100
AcDbEntity
  8
Layer0015
  6
Continuous
 62
     2
370
    13
100
AcDbLine
 10
569.6962083382858
 20
163.6520650813516
 30
0.0
 11
569.6962083382858
 21
455.6520650813519
 31
0.0
  0
INSERT
  5
111
330
85
100
AcDbEntity
  8
Layer0015
 62
     2
100
AcDbBlockReference
  2
_OPEN30
 10
569.6962083382858
 20
163.6520650813516
 30
0.0
 41
7.646601831087536
 42
5.031938088706951
 50
270.0
  0
INSERT
  5
112
330
85
100
AcDbEntity
  8
Layer0015
 62
     2
100
AcDbBlockReference
  2
_OPEN30
 10
569.6962083382858
 20
455.6520650813519
 30
0.0
 41
7.646601831087536
 42
5.031938088706951
 50
90.0
  0
LINE
  5
113
330
85
100
AcDbEntity
  8
Layer0015
  6
Continuous
 62
     2
370
    13
100
AcDbLine
 10
520.25
 20
163.6520650813516
 30
0.0
 11
571.6962083382858
 21
163.6520650813516
 31
0.0
  0
LINE
  5
114
330
85
100
AcDbEntity
  8
Layer0015
  6
Continuous
 62
     2
370
    13
100
AcDbLine
 10
520.25
 20
455.6520650813519
 30
0.0
 11
571.6962083382858
 21
455.6520650813519
 31
0.0
  0
MTEXT
  5
115
330
85
100
AcDbEntity
  8
Layer0015
 62
     2
100
AcDbMText
 10
567.1962083382858
 20
309.6520650813517
 30
0.0
 40
10.0
 41
42.5
 71
     8
 72
     1
  1
\T1.00;292
  7
dcStyle0
 11
6.123031769111886E-17
 21
1.0
 31
0.0
 73
     1
 44
1.0
  0
ENDBLK
  5
87
330
85
100
AcDbEntity
  8
0
100
AcDbBlockEnd
  0
BLOCK
  5
89
330
88
100
AcDbEntity
  8
0
100
AcDbBlockBegin
  2
*D7
 70
     1
 10
0.0
 20
0.0
 30
0.0
  3
*D7
  1

  0
LINE
  5
116
330
88
100
AcDbEntity
  8
Layer0015
  6
Continuous
 62
     2
370
    13
100
AcDbLine
 10
-544.522252457196
 20
-210.3479349186483
 30
0.0
 11
-544.522252457196
 21
-39.34793491864829
 31
0.0
  0
INSERT
  5
117
330
88
100
AcDbEntity
  8
Layer0015
 62
     2
100
AcDbBlockReference
  2
_OPEN30
 10
-544.522252457196
 20
-210.3479349186483
 30
0.0
 41
7.646601831087536
 42
5.031938088706951
 50
270.0
  0
INSERT
  5
118
330
88
100
AcDbEntity
  8
Layer0015
 62
     2
100
AcDbBlockReference
  2
_OPEN30
 10
-544.522252457196
 20
-39.34793491864829
 30
0.0
 41
7.646601831087536
 42
5.031938088706951
 50
90.0
  0
LINE
  5
119
330
88
100
AcDbEntity
  8
Layer0015
  6
Continuous
 62
     2
370
    13
100
AcDbLine
 10
-520.25
 20
-210.3479349186483
 30
0.0
 11
-546.522252457196
 21
-210.3479349186483
 31
0.0
  0
LINE
  5
11A
330
88
100
AcDbEntity
  8
Layer0015
  6
Continuous
 62
     2
370
    13
100
AcDbLine
 10
-520.25
 20
-39.34793491864829
 30
0.0
 11
-546.522252457196
 21
-39.34793491864829
 31
0.0
  0
MTEXT
  5
11B
330
88
100
AcDbEntity
  8
Layer0015
 62
     2
100
AcDbMText
 10
-547.022252457196
 20
-124.8479349186483
 30
0.0
 40
10.0
 41
42.5
 71
     8
 72
     1
  1
\T1.00;171
  7
dcStyle0
 11
6.123031769111886E-17
 21
1.0
 31
0.0
 73
     1
 44
1.0
  0
ENDBLK
  5
8A
330
88
100
AcDbEntity
  8
0
100
AcDbBlockEnd
  0
BLOCK
  5
8C
330
8B
100
AcDbEntity
  8
0
100
AcDbBlockBegin
  2
DA_IMAGEDIMGROUP_1
 70
     0
 10
0.0
 20
0.0
 30
0.0
  3
DA_IMAGEDIMGROUP_1
  1

  0
LINE
  5
11C
330
8B
100
AcDbEntity
  8
Layer0015
  6
Continuous
 62
     2
370
    13
100
AcDbLine
 10
-520.25
 20
-210.3479349186483
 30
0.0
 11
-566.063748675527
 21
-210.3479349186483
 31
0.0
  0
LINE
  5
11D
330
8B
100
AcDbEntity
  8
Layer0015
  6
Continuous
 62
     2
370
    13
100
AcDbLine
 10
-490.2499999999998
 20
-12.3479349186483
 30
0.0
 11
-566.063748675527
 21
-12.3479349186483
 31
0.0
  0
LINE
  5
11E
330
8B
100
AcDbEntity
  8
Layer0015
  6
Continuous
 62
     2
370
    13
100
AcDbLine
 10
-564.063748675527
 20
-210.3479349186483
 30
0.0
 11
-564.063748675527
 21
-12.3479349186483
 31
0.0
  0
INSERT
  5
11F
330
8B
100
AcDbEntity
  8
Layer0015
 62
     2
100
AcDbBlockReference
  2
_OPEN30
 10
-564.063748675527
 20
-210.3479349186483
 30
0.0
 41
7.646601831087536
 42
5.031938088706951
 50
270.0
  0
INSERT
  5
120
330
8B
100
AcDbEntity
  8
Layer0015
 62
     2
100
AcDbBlockReference
  2
_OPEN30
 10
-564.063748675527
 20
-12.3479349186483
 30
0.0
 41
7.646601831087536
 42
5.031938088706951
 50
90.0
  0
MTEXT
  5
121
330
8B
100
AcDbEntity
  8
Layer0015
 62
     2
100
AcDbMText
 10
-566.563748675527
 20
-111.3479349186483
 30
0.0
 40
10.0
 41
42.5
 71
     8
 72
     1
  1
\T1.00;198
  7
dcStyle0
 11
6.123031769111886E-17
 21
1.0
 31
0.0
 73
     1
 44
1.0
  0
ENDBLK
  5
8D
330
8B
100
AcDbEntity
  8
0
100
AcDbBlockEnd
  0
BLOCK
  5
8F
330
8E
100
AcDbEntity
  8
0
100
AcDbBlockBegin
  2
*D9
 70
     1
 10
0.0
 20
0.0
 30
0.0
  3
*D9
  1

  0
LINE
  5
122
330
8E
100
AcDbEntity
  8
Layer0015
  6
Continuous
 62
     2
370
    13
100
AcDbLine
 10
-413.7499999999999
 20
-2.627388318706436
 30
0.0
 11
-393.7499999999998
 21
-2.627388318706436
 31
0.0
  0
INSERT
  5
123
330
8E
100
AcDbEntity
  8
Layer0015
 62
     2
100
AcDbBlockReference
  2
_OPEN30
 10
-413.7499999999999
 20
-2.627388318706436
 30
0.0
 41
7.646601831087536
 42
5.031938088706951
 50
180.0
  0
INSERT
  5
124
330
8E
100
AcDbEntity
  8
Layer0015
 62
     2
100
AcDbBlockReference
  2
_OPEN30
 10
-393.7499999999998
 20
-2.627388318706436
 30
0.0
 41
7.646601831087536
 42
5.031938088706951
 50
360.0
  0
LINE
  5
125
330
8E
100
AcDbEntity
  8
Layer0015
  6
Continuous
 62
     2
370
    13
100
AcDbLine
 10
-413.7499999999999
 20
-36.84793491864829
 30
0.0
 11
-413.7499999999999
 21
-0.6273883187064362
 31
0.0
  0
LINE
  5
126
330
8E
100
AcDbEntity
  8
Layer0015
  6
Continuous
 62
     2
370
    13
100
AcDbLine
 10
-393.7499999999998
 20
-36.04793491864834
 30
0.0
 11
-393.7499999999998
 21
-0.6273883187064362
 31
0.0
  0
MTEXT
  5
127
330
8E
100
AcDbEntity
  8
Layer0015
 62
     2
100
AcDbMText
 10
-403.7499999999999
 20
-0.1273883187064362
 30
0.0
 40
10.0
 41
32.5
 71
     8
 72
     1
  1
\T1.00;20
  7
dcStyle0
 73
     1
 44
1.0
  0
ENDBLK
  5
90
330
8E
100
AcDbEntity
  8
0
100
AcDbBlockEnd
  0
BLOCK
  5
92
330
91
100
AcDbEntity
  8
0
100
AcDbBlockBegin
  2
*D10
 70
     1
 10
0.0
 20
0.0
 30
0.0
  3
*D10
  1

  0
LINE
  5
128
330
91
100
AcDbEntity
  8
Layer0015
  6
Continuous
 62
     2
370
    13
100
AcDbLine
 10
-518.75
 20
35.95768587297459
 30
0.0
 11
-393.7499999999998
 21
35.95768587297459
 31
0.0
  0
INSERT
  5
129
330
91
100
AcDbEntity
  8
Layer0015
 62
     2
100
AcDbBlockReference
  2
_OPEN30
 10
-518.75
 20
35.95768587297459
 30
0.0
 41
7.646601831087536
 42
5.031938088706951
 50
180.0
  0
INSERT
  5
12A
330
91
100
AcDbEntity
  8
Layer0015
 62
     2
100
AcDbBlockReference
  2
_OPEN30
 10
-393.7499999999998
 20
35.95768587297459
 30
0.0
 41
7.646601831087536
 42
5.031938088706951
 50
360.0
  0
LINE
  5
12B
330
91
100
AcDbEntity
  8
Layer0015
  6
Continuous
 62
     2
370
    13
100
AcDbLine
 10
-518.75
 20
-37.84793491864829
 30
0.0
 11
-518.75
 21
37.95768587297459
 31
0.0
  0
LINE
  5
12C
330
91
100
AcDbEntity
  8
Layer0015
  6
Continuous
 62
     2
370
    13
100
AcDbLine
 10
-393.7499999999998
 20
-36.04793491864834
 30
0.0
 11
-393.7499999999998
 21
37.95768587297459
 31
0.0
  0
MTEXT
  5
12D
330
91
100
AcDbEntity
  8
Layer0015
 62
     2
100
AcDbMText
 10
-456.2499999999999
 20
38.45768587297459
 30
0.0
 40
10.0
 41
42.5
 71
     8
 72
     1
  1
\T1.00;125
  7
dcStyle0
 73
     1
 44
1.0
  0
ENDBLK
  5
93
330
91
100
AcDbEntity
  8
0
100
AcDbBlockEnd
  0
BLOCK
  5
95
330
94
100
AcDbEntity
  8
0
100
AcDbBlockBegin
  2
*D11
 70
     1
 10
0.0
 20
0.0
 30
0.0
  3
*D11
  1

  0
LINE
  5
12E
330
94
100
AcDbEntity
  8
Layer0015
  6
Continuous
 62
     2
370
    13
100
AcDbLine
 10
-393.7499999999998
 20
35.95768587297459
 30
0.0
 11
-55.45000000000002
 21
35.95768587297459
 31
0.0
  0
INSERT
  5
12F
330
94
100
AcDbEntity
  8
Layer0015
 62
     2
100
AcDbBlockReference
  2
_OPEN30
 10
-393.7499999999998
 20
35.95768587297459
 30
0.0
 41
7.646601831087536
 42
5.031938088706951
 50
180.0
  0
INSERT
  5
130
330
94
100
AcDbEntity
  8
Layer0015
 62
     2
100
AcDbBlockReference
  2
_OPEN30
 10
-55.45000000000002
 20
35.95768587297459
 30
0.0
 41
7.646601831087536
 42
5.031938088706951
 50
360.0
  0
LINE
  5
131
330
94
100
AcDbEntity
  8
Layer0015
  6
Continuous
 62
     2
370
    13
100
AcDbLine
 10
-393.7499999999998
 20
-36.04793491864834
 30
0.0
 11
-393.7499999999998
 21
37.95768587297459
 31
0.0
  0
LINE
  5
132
330
94
100
AcDbEntity
  8
Layer0015
  6
Continuous
 62
     2
370
    13
100
AcDbLine
 10
-55.45000000000002
 20
-36.04793491864834
 30
0.0
 11
-55.45000000000002
 21
37.95768587297459
 31
0.0
  0
MTEXT
  5
133
330
94
100
AcDbEntity
  8
Layer0015
 62
     2
100
AcDbMText
 10
-224.5999999999999
 20
38.45768587297459
 30
0.0
 40
10.0
 41
62.5
 71
     8
 72
     1
  1
\T1.00;0～335
  7
dcStyle0
 73
     1
 44
1.0
  0
ENDBLK
  5
96
330
94
100
AcDbEntity
  8
0
100
AcDbBlockEnd
  0
BLOCK
  5
98
330
97
100
AcDbEntity
  8
0
100
AcDbBlockBegin
  2
*D12
 70
     1
 10
0.0
 20
0.0
 30
0.0
  3
*D12
  1

  0
LINE
  5
134
330
97
100
AcDbEntity
  8
Layer0015
  6
Continuous
 62
     2
370
    13
100
AcDbLine
 10
-55.45000000000002
 20
35.95768587297459
 30
0.0
 11
198.2500000000017
 21
35.95768587297459
 31
0.0
  0
INSERT
  5
135
330
97
100
AcDbEntity
  8
Layer0015
 62
     2
100
AcDbBlockReference
  2
_OPEN30
 10
-55.45000000000002
 20
35.95768587297459
 30
0.0
 41
7.646601831087536
 42
5.031938088706951
 50
180.0
  0
INSERT
  5
136
330
97
100
AcDbEntity
  8
Layer0015
 62
     2
100
AcDbBlockReference
  2
_OPEN30
 10
198.2500000000017
 20
35.95768587297459
 30
0.0
 41
7.646601831087536
 42
5.031938088706951
 50
360.0
  0
LINE
  5
137
330
97
100
AcDbEntity
  8
Layer0015
  6
Continuous
 62
     2
370
    13
100
AcDbLine
 10
-55.45000000000002
 20
-36.04793491864834
 30
0.0
 11
-55.45000000000002
 21
37.95768587297459
 31
0.0
  0
LINE
  5
138
330
97
100
AcDbEntity
  8
Layer0015
  6
Continuous
 62
     2
370
    13
100
AcDbLine
 10
198.2500000000017
 20
-65.3479349186484
 30
0.0
 11
198.2500000000017
 21
37.95768587297459
 31
0.0
  0
MTEXT
  5
139
330
97
100
AcDbEntity
  8
Layer0015
 62
     2
100
AcDbMText
 10
71.40000000000084
 20
38.45768587297459
 30
0.0
 40
10.0
 41
42.5
 71
     8
 72
     1
  1
\T1.00;254
  7
dcStyle0
 73
     1
 44
1.0
  0
ENDBLK
  5
99
330
97
100
AcDbEntity
  8
0
100
AcDbBlockEnd
  0
BLOCK
  5
9B
330
9A
100
AcDbEntity
  8
0
100
AcDbBlockBegin
  2
*D13
 70
     1
 10
0.0
 20
0.0
 30
0.0
  3
*D13
  1

  0
LINE
  5
13A
330
9A
100
AcDbEntity
  8
Layer0015
  6
Continuous
 62
     2
370
    13
100
AcDbLine
 10
-518.75
 20
-321.2038418595508
 30
0.0
 11
71.24999999999994
 21
-321.2038418595508
 31
0.0
  0
INSERT
  5
13B
330
9A
100
AcDbEntity
  8
Layer0015
 62
     2
100
AcDbBlockReference
  2
_OPEN30
 10
-518.75
 20
-321.2038418595508
 30
0.0
 41
7.646601831087536
 42
5.031938088706951
 50
180.0
  0
INSERT
  5
13C
330
9A
100
AcDbEntity
  8
Layer0015
 62
     2
100
AcDbBlockReference
  2
_OPEN30
 10
71.24999999999994
 20
-321.2038418595508
 30
0.0
 41
7.646601831087536
 42
5.031938088706951
 50
360.0
  0
LINE
  5
13D
330
9A
100
AcDbEntity
  8
Layer0015
  6
Continuous
 62
     2
370
    13
100
AcDbLine
 10
-518.75
 20
-211.8479349186483
 30
0.0
 11
-518.75
 21
-323.2038418595508
 31
0.0
  0
LINE
  5
13E
330
9A
100
AcDbEntity
  8
Layer0015
  6
Continuous
 62
     2
370
    13
100
AcDbLine
 10
71.24999999999994
 20
-211.8479349186483
 30
0.0
 11
71.24999999999994
 21
-323.2038418595508
 31
0.0
  0
MTEXT
  5
13F
330
9A
100
AcDbEntity
  8
Layer0015
 62
     2
100
AcDbMText
 10
-223.75
 20
-318.7038418595508
 30
0.0
 40
10.0
 41
42.5
 71
     8
 72
     1
  1
\T1.00;590
  7
dcStyle0
 73
     1
 44
1.0
  0
ENDBLK
  5
9C
330
9A
100
AcDbEntity
  8
0
100
AcDbBlockEnd
  0
BLOCK
  5
9E
330
9D
100
AcDbEntity
  8
0
100
AcDbBlockBegin
  2
*D14
 70
     1
 10
0.0
 20
0.0
 30
0.0
  3
*D14
  1

  0
LINE
  5
140
330
9D
100
AcDbEntity
  8
Layer0015
  6
Continuous
 62
     2
370
    13
100
AcDbLine
 10
71.24999999999994
 20
-321.2038418595508
 30
0.0
 11
198.2500000000017
 21
-321.2038418595508
 31
0.0
  0
INSERT
  5
141
330
9D
100
AcDbEntity
  8
Layer0015
 62
     2
100
AcDbBlockReference
  2
_OPEN30
 10
71.24999999999994
 20
-321.2038418595508
 30
0.0
 41
7.646601831087536
 42
5.031938088706951
 50
180.0
  0
INSERT
  5
142
330
9D
100
AcDbEntity
  8
Layer0015
 62
     2
100
AcDbBlockReference
  2
_OPEN30
 10
198.2500000000017
 20
-321.2038418595508
 30
0.0
 41
7.646601831087536
 42
5.031938088706951
 50
360.0
  0
LINE
  5
143
330
9D
100
AcDbEntity
  8
Layer0015
  6
Continuous
 62
     2
370
    13
100
AcDbLine
 10
71.24999999999994
 20
-211.8479349186483
 30
0.0
 11
71.24999999999994
 21
-323.2038418595508
 31
0.0
  0
LINE
  5
144
330
9D
100
AcDbEntity
  8
Layer0015
  6
Continuous
 62
     2
370
    13
100
AcDbLine
 10
198.2500000000017
 20
-89.3479349186484
 30
0.0
 11
198.2500000000017
 21
-323.2038418595508
 31
0.0
  0
MTEXT
  5
145
330
9D
100
AcDbEntity
  8
Layer0015
 62
     2
100
AcDbMText
 10
134.7500000000008
 20
-318.7038418595508
 30
0.0
 40
10.0
 41
42.5
 71
     8
 72
     1
  1
\T1.00;124
  7
dcStyle0
 73
     1
 44
1.0
  0
ENDBLK
  5
9F
330
9D
100
AcDbEntity
  8
0
100
AcDbBlockEnd
  0
BLOCK
  5
A1
330
A0
100
AcDbEntity
  8
0
100
AcDbBlockBegin
  2
*D15
 70
     1
 10
0.0
 20
0.0
 30
0.0
  3
*D15
  1

  0
LINE
  5
146
330
A0
100
AcDbEntity
  8
Layer0015
  6
Continuous
 62
     2
370
    13
100
AcDbLine
 10
198.2500000000017
 20
-321.2038418595508
 30
0.0
 11
287.2500000000038
 21
-321.2038418595508
 31
0.0
  0
INSERT
  5
147
330
A0
100
AcDbEntity
  8
Layer0015
 62
     2
100
AcDbBlockReference
  2
_OPEN30
 10
198.2500000000017
 20
-321.2038418595508
 30
0.0
 41
7.646601831087536
 42
5.031938088706951
 50
180.0
  0
INSERT
  5
148
330
A0
100
AcDbEntity
  8
Layer0015
 62
     2
100
AcDbBlockReference
  2
_OPEN30
 10
287.2500000000038
 20
-321.2038418595508
 30
0.0
 41
7.646601831087536
 42
5.031938088706951
 50
360.0
  0
LINE
  5
149
330
A0
100
AcDbEntity
  8
Layer0015
  6
Continuous
 62
     2
370
    13
100
AcDbLine
 10
198.2500000000017
 20
-89.3479349186484
 30
0.0
 11
198.2500000000017
 21
-323.2038418595508
 31
0.0
  0
LINE
  5
14A
330
A0
100
AcDbEntity
  8
Layer0015
  6
Continuous
 62
     2
370
    13
100
AcDbLine
 10
287.2500000000038
 20
-215.8479349186484
 30
0.0
 11
287.2500000000038
 21
-323.2038418595508
 31
0.0
  0
MTEXT
  5
14B
330
A0
100
AcDbEntity
  8
Layer0015
 62
     2
100
AcDbMText
 10
242.7500000000027
 20
-318.7038418595508
 30
0.0
 40
10.0
 41
32.5
 71
     8
 72
     1
  1
\T1.00;89
  7
dcStyle0
 73
     1
 44
1.0
  0
ENDBLK
  5
A2
330
A0
100
AcDbEntity
  8
0
100
AcDbBlockEnd
  0
BLOCK
  5
A4
330
A3
100
AcDbEntity
  8
0
100
AcDbBlockBegin
  2
*D16
 70
     1
 10
0.0
 20
0.0
 30
0.0
  3
*D16
  1

  0
LINE
  5
14C
330
A3
100
AcDbEntity
  8
Layer0015
  6
Continuous
 62
     2
370
    13
100
AcDbLine
 10
-135.9673890898165
 20
-451.4872222319747
 30
0.0
 11
-35.96738908981648
 21
-451.4872222319747
 31
0.0
  0
INSERT
  5
14D
330
A3
100
AcDbEntity
  8
Layer0015
 62
     2
100
AcDbBlockReference
  2
_OPEN30
 10
-135.9673890898165
 20
-451.4872222319747
 30
0.0
 41
7.646601831087536
 42
5.031938088706951
 50
180.0
  0
INSERT
  5
14E
330
A3
100
AcDbEntity
  8
Layer0015
 62
     2
100
AcDbBlockReference
  2
_OPEN30
 10
-35.96738908981648
 20
-451.4872222319747
 30
0.0
 41
7.646601831087536
 42
5.031938088706951
 50
360.0
  0
LINE
  5
14F
330
A3
100
AcDbEntity
  8
Layer0015
  6
Continuous
 62
     2
370
    13
100
AcDbLine
 10
-135.9673890898165
 20
-418.1328844727792
 30
0.0
 11
-135.9673890898165
 21
-453.0872222319747
 31
0.0
  0
LINE
  5
150
330
A3
100
AcDbEntity
  8
Layer0015
  6
Continuous
 62
     2
370
    13
100
AcDbLine
 10
-35.96738908981648
 20
-404.8784711520054
 30
0.0
 11
-35.96738908981648
 21
-453.0872222319747
 31
0.0
  0
MTEXT
  5
151
330
A3
100
AcDbEntity
  8
Layer0015
 62
     2
100
AcDbMText
 10
-85.96738908981649
 20
-449.4872222319747
 30
0.0
 40
12.5
 41
53.125
 71
     8
 72
     1
  1
\T1.00;100
  7
dcStyle0
 73
     1
 44
1.0
  0
ENDBLK
  5
A5
330
A3
100
AcDbEntity
  8
0
100
AcDbBlockEnd
  0
BLOCK
  5
A7
330
A6
100
AcDbEntity
  8
0
100
AcDbBlockBegin
  2
DA_IMAGEDIMGROUP_2
 70
     0
 10
0.0
 20
0.0
 30
0.0
  3
DA_IMAGEDIMGROUP_2
  1

  0
LINE
  5
152
330
A6
100
AcDbEntity
  8
Layer0015
  6
Continuous
 62
     2
370
    13
100
AcDbLine
 10
-53.96738908981648
 20
-407.6328844727792
 30
0.0
 11
-53.96738908981648
 21
-435.224324198418
 31
0.0
  0
LINE
  5
153
330
A6
100
AcDbEntity
  8
Layer0015
  6
Continuous
 62
     2
370
    13
100
AcDbLine
 10
-35.96738908981648
 20
-404.8784711520054
 30
0.0
 11
-35.96738908981648
 21
-435.224324198418
 31
0.0
  0
LINE
  5
154
330
A6
100
AcDbEntity
  8
Layer0015
  6
Continuous
 62
     2
370
    13
100
AcDbLine
 10
-53.96738908981648
 20
-433.624324198418
 30
0.0
 11
-35.96738908981648
 21
-433.624324198418
 31
0.0
  0
LINE
  5
155
330
A6
100
AcDbEntity
  8
Layer0015
  6
Continuous
 62
     2
370
    13
100
AcDbLine
 10
-14.05854908981648
 20
-433.624324198418
 30
0.0
 11
-35.96738908981648
 21
-433.624324198418
 31
0.0
  0
INSERT
  5
156
330
A6
100
AcDbEntity
  8
Layer0015
 62
     2
100
AcDbBlockReference
  2
_OPEN30
 10
-35.96738908981648
 20
-433.624324198418
 30
0.0
 41
7.646601831087536
 42
5.031938088706951
 50
180.0
  0
LINE
  5
157
330
A6
100
AcDbEntity
  8
Layer0015
  6
Continuous
 62
     2
370
    13
100
AcDbLine
 10
-61.96738908981648
 20
-433.624324198418
 30
0.0
 11
-53.96738908981648
 21
-433.624324198418
 31
0.0
  0
INSERT
  5
158
330
A6
100
AcDbEntity
  8
Layer0015
 62
     2
100
AcDbBlockReference
  2
_OPEN30
 10
-53.96738908981648
 20
-433.624324198418
 30
0.0
 41
7.646601831087536
 42
5.031938088706951
 50
360.0
  0
MTEXT
  5
159
330
A6
100
AcDbEntity
  8
Layer0015
 62
     2
100
AcDbMText
 10
-30.05854908981648
 20
-431.624324198418
 30
0.0
 40
12.5
 41
40.625
 71
     7
 72
     1
  1
\T1.00;18
  7
dcStyle0
 73
     1
 44
1.0
  0
ENDBLK
  5
A8
330
A6
100
AcDbEntity
  8
0
100
AcDbBlockEnd
  0
BLOCK
  5
AA
330
A9
100
AcDbEntity
  8
0
100
AcDbBlockBegin
  2
DA_IMAGEDIMGROUP_3
 70
     0
 10
0.0
 20
0.0
 30
0.0
  3
DA_IMAGEDIMGROUP_3
  1

  0
LINE
  5
15A
330
A9
100
AcDbEntity
  8
Layer0015
  6
Continuous
 62
     2
370
    13
100
AcDbLine
 10
-531.9673890898168
 20
-411.1328844727792
 30
0.0
 11
-531.9673890898168
 21
-430.0772153228034
 31
0.0
  0
LINE
  5
15B
330
A9
100
AcDbEntity
  8
Layer0015
  6
Continuous
 62
     2
370
    13
100
AcDbLine
 10
-525.9673890898168
 20
-408.1025395873819
 30
0.0
 11
-525.9673890898168
 21
-430.0772153228034
 31
0.0
  0
LINE
  5
15C
330
A9
100
AcDbEntity
  8
Layer0015
  6
Continuous
 62
     2
370
    13
100
AcDbLine
 10
-531.9673890898168
 20
-428.0772153228034
 30
0.0
 11
-525.9673890898168
 21
-428.0772153228034
 31
0.0
  0
LINE
  5
15D
330
A9
100
AcDbEntity
  8
Layer0015
  6
Continuous
 62
     2
370
    13
100
AcDbLine
 10
-510.5813390898168
 20
-428.0772153228034
 30
0.0
 11
-525.9673890898168
 21
-428.0772153228034
 31
0.0
  0
INSERT
  5
15E
330
A9
100
AcDbEntity
  8
Layer0015
 62
     2
100
AcDbBlockReference
  2
_OPEN30
 10
-525.9673890898168
 20
-428.0772153228034
 30
0.0
 41
7.646601831087536
 42
5.031938088706951
 50
180.0
  0
LINE
  5
15F
330
A9
100
AcDbEntity
  8
Layer0015
  6
Continuous
 62
     2
370
    13
100
AcDbLine
 10
-541.9673890898168
 20
-428.0772153228034
 30
0.0
 11
-531.9673890898168
 21
-428.0772153228034
 31
0.0
  0
INSERT
  5
160
330
A9
100
AcDbEntity
  8
Layer0015
 62
     2
100
AcDbBlockReference
  2
_OPEN30
 10
-531.9673890898168
 20
-428.0772153228034
 30
0.0
 41
7.646601831087536
 42
5.031938088706951
 50
360.0
  0
MTEXT
  5
161
330
A9
100
AcDbEntity
  8
Layer0015
 62
     2
100
AcDbMText
 10
-518.5813390898168
 20
-425.5772153228034
 30
0.0
 40
10.0
 41
22.5
 71
     7
 72
     1
  1
\T1.00;6
  7
dcStyle0
 73
     1
 44
1.0
  0
ENDBLK
  5
AB
330
A9
100
AcDbEntity
  8
0
100
AcDbBlockEnd
  0
BLOCK
  5
AD
330
AC
100
AcDbEntity
  8
0
100
AcDbBlockBegin
  2
DA_IMAGEDIMGROUP_4
 70
     0
 10
0.0
 20
0.0
 30
0.0
  3
DA_IMAGEDIMGROUP_4
  1

  0
LINE
  5
162
330
AC
100
AcDbEntity
  8
Layer0015
  6
Continuous
 62
     2
370
    13
100
AcDbLine
 10
-228.9673890898143
 20
-407.6328844727793
 30
0.0
 11
-228.9673890898143
 21
-432.9011194789152
 31
0.0
  0
LINE
  5
163
330
AC
100
AcDbEntity
  8
Layer0015
  6
Continuous
 62
     2
370
    13
100
AcDbLine
 10
-211.9673890898144
 20
-406.6328844727793
 30
0.0
 11
-211.9673890898144
 21
-432.9011194789152
 31
0.0
  0
LINE
  5
164
330
AC
100
AcDbEntity
  8
Layer0015
  6
Continuous
 62
     2
370
    13
100
AcDbLine
 10
-228.9673890898143
 20
-430.9011194789152
 30
0.0
 11
-211.9673890898144
 21
-430.9011194789152
 31
0.0
  0
LINE
  5
165
330
AC
100
AcDbEntity
  8
Layer0015
  6
Continuous
 62
     2
370
    13
100
AcDbLine
 10
-252.3534390898143
 20
-430.9011194789152
 30
0.0
 11
-228.9673890898143
 21
-430.9011194789152
 31
0.0
  0
INSERT
  5
166
330
AC
100
AcDbEntity
  8
Layer0015
 62
     2
100
AcDbBlockReference
  2
_OPEN30
 10
-228.9673890898143
 20
-430.9011194789152
 30
0.0
 41
7.646601831087536
 42
5.031938088706951
 50
360.0
  0
LINE
  5
167
330
AC
100
AcDbEntity
  8
Layer0015
  6
Continuous
 62
     2
370
    13
100
AcDbLine
 10
-201.9673890898144
 20
-430.9011194789152
 30
0.0
 11
-211.9673890898144
 21
-430.9011194789152
 31
0.0
  0
INSERT
  5
168
330
AC
100
AcDbEntity
  8
Layer0015
 62
     2
100
AcDbBlockReference
  2
_OPEN30
 10
-211.9673890898144
 20
-430.9011194789152
 30
0.0
 41
7.646601831087536
 42
5.031938088706951
 50
180.0
  0
MTEXT
  5
169
330
AC
100
AcDbEntity
  8
Layer0015
 62
     2
100
AcDbMText
 10
-236.3534390898143
 20
-428.4011194789152
 30
0.0
 40
10.0
 41
32.5
 71
     9
 72
     1
  1
\T1.00;17
  7
dcStyle0
 73
     1
 44
1.0
  0
ENDBLK
  5
AE
330
AC
100
AcDbEntity
  8
0
100
AcDbBlockEnd
  0
BLOCK
  5
B0
330
AF
100
AcDbEntity
  8
0
100
AcDbBlockBegin
  2
*D20
 70
     1
 10
0.0
 20
0.0
 30
0.0
  3
*D20
  1

  0
LINE
  5
16A
330
AF
100
AcDbEntity
  8
Layer0015
  6
Continuous
 62
     2
370
    13
100
AcDbLine
 10
-531.9673890898168
 20
-445.1907869983098
 30
0.0
 11
-211.9673890898144
 21
-445.1907869983098
 31
0.0
  0
INSERT
  5
16B
330
AF
100
AcDbEntity
  8
Layer0015
 62
     2
100
AcDbBlockReference
  2
_OPEN30
 10
-531.9673890898168
 20
-445.1907869983098
 30
0.0
 41
7.646601831087536
 42
5.031938088706951
 50
180.0
  0
INSERT
  5
16C
330
AF
100
AcDbEntity
  8
Layer0015
 62
     2
100
AcDbBlockReference
  2
_OPEN30
 10
-211.9673890898144
 20
-445.1907869983098
 30
0.0
 41
7.646601831087536
 42
5.031938088706951
 50
360.0
  0
LINE
  5
16D
330
AF
100
AcDbEntity
  8
Layer0015
  6
Continuous
 62
     2
370
    13
100
AcDbLine
 10
-531.9673890898168
 20
-411.1328844727792
 30
0.0
 11
-531.9673890898168
 21
-447.1907869983098
 31
0.0
  0
LINE
  5
16E
330
AF
100
AcDbEntity
  8
Layer0015
  6
Continuous
 62
     2
370
    13
100
AcDbLine
 10
-211.9673890898144
 20
-406.6328844727793
 30
0.0
 11
-211.9673890898144
 21
-447.1907869983098
 31
0.0
  0
MTEXT
  5
16F
330
AF
100
AcDbEntity
  8
Layer0015
 62
     2
100
AcDbMText
 10
-371.9673890898156
 20
-442.6907869983098
 30
0.0
 40
10.0
 41
42.5
 71
     8
 72
     1
  1
\T1.00;320
  7
dcStyle0
 73
     1
 44
1.0
  0
ENDBLK
  5
B1
330
AF
100
AcDbEntity
  8
0
100
AcDbBlockEnd
  0
BLOCK
  5
B3
330
B2
100
AcDbEntity
  8
0
100
AcDbBlockBegin
  2
*D21
 70
     1
 10
0.0
 20
0.0
 30
0.0
  3
*D21
  1

  0
LINE
  5
170
330
B2
100
AcDbEntity
  8
Layer0015
  6
Continuous
 62
     2
370
    13
100
AcDbLine
 10
-393.7499999999998
 20
17.33458012261652
 30
0.0
 11
-70.44999999999982
 21
17.33458012261652
 31
0.0
  0
INSERT
  5
171
330
B2
100
AcDbEntity
  8
Layer0015
 62
     2
100
AcDbBlockReference
  2
_OPEN30
 10
-393.7499999999998
 20
17.33458012261652
 30
0.0
 41
7.646601831087536
 42
5.031938088706951
 50
180.0
  0
INSERT
  5
172
330
B2
100
AcDbEntity
  8
Layer0015
 62
     2
100
AcDbBlockReference
  2
_OPEN30
 10
-70.44999999999982
 20
17.33458012261652
 30
0.0
 41
7.646601831087536
 42
5.031938088706951
 50
360.0
  0
LINE
  5
173
330
B2
100
AcDbEntity
  8
Layer0015
  6
Continuous
 62
     2
370
    13
100
AcDbLine
 10
-393.7499999999998
 20
-36.04793491864834
 30
0.0
 11
-393.7499999999998
 21
19.33458012261652
 31
0.0
  0
LINE
  5
174
330
B2
100
AcDbEntity
  8
Layer0015
  6
Continuous
 62
     2
370
    13
100
AcDbLine
 10
-70.44999999999982
 20
-36.34793491864829
 30
0.0
 11
-70.44999999999982
 21
19.33458012261652
 31
0.0
  0
MTEXT
  5
175
330
B2
100
AcDbEntity
  8
Layer0015
 62
     2
100
AcDbMText
 10
-232.0999999999998
 20
19.83458012261652
 30
0.0
 40
10.0
 41
62.5
 71
     8
 72
     1
  1
\T1.00;0～320
  7
dcStyle0
 73
     1
 44
1.0
  0
ENDBLK
  5
B4
330
B2
100
AcDbEntity
  8
0
100
AcDbBlockEnd
  0
BLOCK
  5
B6
330
B5
100
AcDbEntity
  8
0
100
AcDbBlockBegin
  2
*D22
 70
     1
 10
0.0
 20
0.0
 30
0.0
  3
*D22
  1

  0
LINE
  5
176
330
B5
100
AcDbEntity
  8
Layer0015
  6
Continuous
 62
     2
370
    13
100
AcDbLine
 10
645.9588565774219
 20
-210.3479349186483
 30
0.0
 11
645.9588565774219
 21
-1.712073543409417
 31
0.0
  0
INSERT
  5
177
330
B5
100
AcDbEntity
  8
Layer0015
 62
     2
100
AcDbBlockReference
  2
_OPEN30
 10
645.9588565774219
 20
-210.3479349186483
 30
0.0
 41
7.646601831087536
 42
5.031938088706951
 50
270.0
  0
INSERT
  5
178
330
B5
100
AcDbEntity
  8
Layer0015
 62
     2
100
AcDbBlockReference
  2
_OPEN30
 10
645.9588565774219
 20
-1.712073543409417
 30
0.0
 41
7.646601831087536
 42
5.031938088706951
 50
90.0
  0
LINE
  5
179
330
B5
100
AcDbEntity
  8
Layer0015
  6
Continuous
 62
     2
370
    13
100
AcDbLine
 10
619.498917485848
 20
-210.3479349186483
 30
0.0
 11
647.9588565774219
 21
-210.3479349186483
 31
0.0
  0
LINE
  5
17A
330
B5
100
AcDbEntity
  8
Layer0015
  6
Continuous
 62
     2
370
    13
100
AcDbLine
 10
601.7768960314265
 20
-1.712073543409417
 30
0.0
 11
647.9588565774219
 21
-1.712073543409417
 31
0.0
  0
MTEXT
  5
17B
330
B5
100
AcDbEntity
  8
Layer0015
 62
     2
100
AcDbMText
 10
643.4588565774219
 20
-106.0300042310289
 30
0.0
 40
12.5
 41
53.125
 71
     8
 72
     1
  1
\T1.00;209
  7
dcStyle0
 11
6.123031769111886E-17
 21
1.0
 31
0.0
 73
     1
 44
1.0
  0
ENDBLK
  5
B7
330
B5
100
AcDbEntity
  8
0
100
AcDbBlockEnd
  0
BLOCK
  5
B9
330
B8
100
AcDbEntity
  8
0
100
AcDbBlockBegin
  2
*D23
 70
     1
 10
0.0
 20
0.0
 30
0.0
  3
*D23
  1

  0
LINE
  5
17C
330
B8
100
AcDbEntity
  8
Layer0015
  6
Continuous
 62
     2
370
    13
100
AcDbLine
 10
520.4106840991183
 20
-210.3479349186483
 30
0.0
 11
520.4106840991183
 21
123.2879264565905
 31
0.0
  0
INSERT
  5
17D
330
B8
100
AcDbEntity
  8
Layer0015
 62
     2
100
AcDbBlockReference
  2
_OPEN30
 10
520.4106840991183
 20
-210.3479349186483
 30
0.0
 41
7.646601831087536
 42
5.031938088706951
 50
270.0
  0
INSERT
  5
17E
330
B8
100
AcDbEntity
  8
Layer0015
 62
     2
100
AcDbBlockReference
  2
_OPEN30
 10
520.4106840991183
 20
123.2879264565905
 30
0.0
 41
7.646601831087536
 42
5.031938088706951
 50
90.0
  0
LINE
  5
17F
330
B8
100
AcDbEntity
  8
Layer0015
  6
Continuous
 62
     2
370
    13
100
AcDbLine
 10
385.2705450853172
 20
123.2879264565905
 30
0.0
 11
522.4106840991183
 21
123.2879264565905
 31
0.0
  0
MTEXT
  5
180
330
B8
100
AcDbEntity
  8
Layer0015
 62
     2
100
AcDbMText
 10
517.9106840991183
 20
-43.53000423102888
 30
0.0
 40
12.5
 41
53.125
 71
     8
 72
     1
  1
\T1.00;334
  7
dcStyle0
 11
6.123031769111886E-17
 21
1.0
 31
0.0
 73
     1
 44
1.0
  0
ENDBLK
  5
BA
330
B8
100
AcDbEntity
  8
0
100
AcDbBlockEnd
  0
BLOCK
  5
BC
330
BB
100
AcDbEntity
  8
0
100
AcDbBlockBegin
  2
*D24
 70
     1
 10
0.0
 20
0.0
 30
0.0
  3
*D24
  1

  0
LINE
  5
181
330
BB
100
AcDbEntity
  8
Layer0015
  6
Continuous
 62
     2
370
    13
100
AcDbLine
 10
499.0220582327835
 20
-210.3479349186483
 30
0.0
 11
499.0220582327835
 21
-17.53833448023158
 31
0.0
  0
INSERT
  5
182
330
BB
100
AcDbEntity
  8
Layer0015
 62
     2
100
AcDbBlockReference
  2
_OPEN30
 10
499.0220582327835
 20
-210.3479349186483
 30
0.0
 41
7.646601831087536
 42
5.031938088706951
 50
270.0
  0
INSERT
  5
183
330
BB
100
AcDbEntity
  8
Layer0015
 62
     2
100
AcDbBlockReference
  2
_OPEN30
 10
499.0220582327835
 20
-17.53833448023158
 30
0.0
 41
7.646601831087536
 42
5.031938088706951
 50
90.0
  0
LINE
  5
184
330
BB
100
AcDbEntity
  8
Layer0015
  6
Continuous
 62
     2
370
    13
100
AcDbLine
 10
449.4567332602602
 20
-17.53833448023158
 30
0.0
 11
501.0220582327835
 21
-17.53833448023158
 31
0.0
  0
MTEXT
  5
185
330
BB
100
AcDbEntity
  8
Layer0015
 62
     2
100
AcDbMText
 10
496.5220582327835
 20
-113.94313469944
 30
0.0
 40
12.5
 41
53.12500000000001
 71
     8
 72
     1
  1
\T1.00;193
  7
dcStyle0
 11
6.123031769111886E-17
 21
1.0
 31
0.0
 73
     1
 44
1.0
  0
ENDBLK
  5
BD
330
BB
100
AcDbEntity
  8
0
100
AcDbBlockEnd
  0
BLOCK
  5
BF
330
BE
100
AcDbEntity
  8
0
100
AcDbBlockBegin
  2
DC_GROUP_ACE200_1
 70
     0
 10
0.0
 20
0.0
 30
0.0
  3
DC_GROUP_ACE200_1
  1

  0
LINE
  5
186
330
BE
100
AcDbEntity
  8
Layer0015
  6
Continuous
 62
     2
370
    13
100
AcDbLine
 10
459.0499999999993
 20
-113.8479349186483
 30
0.0
 11
459.0499999999993
 21
-158.1116938597829
 31
0.0
  0
LINE
  5
187
330
BE
100
AcDbEntity
  8
Layer0015
  6
Continuous
 62
     2
370
    13
100
AcDbLine
 10
325.712544495218
 20
-156.1116938597829
 30
0.0
 11
459.0499999999993
 21
-156.1116938597829
 31
0.0
  0
INSERT
  5
188
330
BE
100
AcDbEntity
  8
Layer0015
 62
     2
100
AcDbBlockReference
  2
_OPEN30
 10
459.0499999999993
 20
-156.1116938597829
 30
0.0
 41
7.646601831087536
 42
5.031938088706951
 50
360.0
  0
TEXT
  5
189
330
BE
100
AcDbEntity
  8
Layer0015
 62
     2
100
AcDbText
 10
365.1197956921907
 20
-153.6116938597829
 30
0.0
 40
12.5
  1
735
 41
0.8
  7
dcStyle0
 72
     5
 11
395.1197956921907
 21
-153.6116938597829
 31
0.0
100
AcDbText
  0
ENDBLK
  5
C0
330
BE
100
AcDbEntity
  8
0
100
AcDbBlockEnd
  0
BLOCK
  5
C2
330
C1
100
AcDbEntity
  8
0
100
AcDbBlockBegin
  2
DC_GROUP_ACE200_2
 70
     0
 10
0.0
 20
0.0
 30
0.0
  3
DC_GROUP_ACE200_2
  1

  0
LINE
  5
18A
330
C1
100
AcDbEntity
  8
Layer0015
  6
Continuous
 62
     2
370
    13
100
AcDbLine
 10
619.3294549146843
 20
-16.21207354340936
 30
0.0
 11
619.3294549146843
 21
-188.2564683053041
 31
0.0
  0
LINE
  5
18B
330
C1
100
AcDbEntity
  8
Layer0015
  6
Continuous
 62
     2
370
    13
100
AcDbLine
 10
325.712544495218
 20
-186.2564683053041
 30
0.0
 11
619.3294549146843
 21
-186.2564683053041
 31
0.0
  0
INSERT
  5
18C
330
C1
100
AcDbEntity
  8
Layer0015
 62
     2
100
AcDbBlockReference
  2
_OPEN30
 10
619.3294549146843
 20
-186.2564683053041
 30
0.0
 41
7.646601831087536
 42
5.031938088706951
 50
360.0
  0
TEXT
  5
18D
330
C1
100
AcDbEntity
  8
Layer0015
 62
     2
100
AcDbText
 10
445.2595231495332
 20
-183.7564683053041
 30
0.0
 40
12.5
  1
895
 41
0.8
  7
dcStyle0
 72
     5
 11
475.2595231495332
 21
-183.7564683053041
 31
0.0
100
AcDbText
  0
ENDBLK
  5
C3
330
C1
100
AcDbEntity
  8
0
100
AcDbBlockEnd
  0
BLOCK
  5
C5
330
C4
100
AcDbEntity
  8
0
100
AcDbBlockBegin
  2
DC_GROUP_ACE200_3
 70
     0
 10
0.0
 20
0.0
 30
0.0
  3
DC_GROUP_ACE200_3
  1

  0
TEXT
  5
18E
330
C4
100
AcDbEntity
  8
Layer0004
 62
     2
100
AcDbText
 10
-124.9382172795342
 20
-485.5497775313697
 30
0.0
 40
12.5
  1
ハンドルソケット
 41
0.6666666666666666
  7
dcStyle0
 72
     5
 11
-44.9382172795342
 21
-485.5497775313697
 31
0.0
100
AcDbText
  0
LINE
  5
18F
330
C4
100
AcDbEntity
  8
Layer0004
  6
Continuous
 62
     2
370
    18
100
AcDbLine
 10
-151.1882172795342
 20
-486.7997775313697
 30
0.0
 11
-18.6882172795342
 21
-486.7997775313697
 31
0.0
  0
ENDBLK
  5
C6
330
C4
100
AcDbEntity
  8
0
100
AcDbBlockEnd
  0
BLOCK
  5
C8
330
C7
100
AcDbEntity
  8
0
100
AcDbBlockBegin
  2
DC_GROUP_ACE200_4
 70
     0
 10
0.0
 20
0.0
 30
0.0
  3
DC_GROUP_ACE200_4
  1

  0
TEXT
  5
190
330
C7
100
AcDbEntity
  8
Layer0004
 62
     2
100
AcDbText
 10
-418.9938645270663
 20
-480.4428149890854
 30
0.0
 40
12.5
  1
ハンドルジョイント
 41
0.6666666666666666
  7
dcStyle0
 72
     5
 11
-328.9938645270663
 21
-480.4428149890854
 31
0.0
100
AcDbText
  0
LINE
  5
191
330
C7
100
AcDbEntity
  8
Layer0004
  6
Continuous
 62
     2
370
    18
100
AcDbLine
 10
-435.2438645270663
 20
-481.6928149890854
 30
0.0
 11
-312.7438645270663
 21
-481.6928149890854
 31
0.0
  0
ENDBLK
  5
C9
330
C7
100
AcDbEntity
  8
0
100
AcDbBlockEnd
  0
BLOCK
  5
CB
330
CA
100
AcDbEntity
  8
0
100
AcDbBlockBegin
  2
DC_GROUP_ACE200_5
 70
     0
 10
0.0
 20
0.0
 30
0.0
  3
DC_GROUP_ACE200_5
  1

  0
TEXT
  5
192
330
CA
100
AcDbEntity
  8
Layer0004
 62
     2
100
AcDbText
 10
-149.9382172795342
 20
-501.1475466944895
 30
0.0
 40
12.5
  1
HANDLE SOCKET
 41
0.8
  7
dcStyle0
 72
     5
 11
-19.9382172795342
 21
-501.1475466944895
 31
0.0
100
AcDbText
  0
ENDBLK
  5
CC
330
CA
100
AcDbEntity
  8
0
100
AcDbBlockEnd
  0
BLOCK
  5
CE
330
CD
100
AcDbEntity
  8
0
100
AcDbBlockBegin
  2
DC_GROUP_ACE200_6
 70
     0
 10
0.0
 20
0.0
 30
0.0
  3
DC_GROUP_ACE200_6
  1

  0
TEXT
  5
193
330
CD
100
AcDbEntity
  8
Layer0004
 62
     2
100
AcDbText
 10
-433.9938645270663
 20
-496.0405841522052
 30
0.0
 40
12.5
  1
HANDLE JOINT
 41
0.8
  7
dcStyle0
 72
     5
 11
-313.9938645270663
 21
-496.0405841522052
 31
0.0
100
AcDbText
  0
ENDBLK
  5
CF
330
CD
100
AcDbEntity
  8
0
100
AcDbBlockEnd
  0
BLOCK
  5
D1
330
D0
100
AcDbEntity
  8
0
100
AcDbBlockBegin
  2
DC_GROUP_ACE200_7
 70
     0
 10
0.0
 20
0.0
 30
0.0
  3
DC_GROUP_ACE200_7
  1

  0
TEXT
  5
194
330
D0
100
AcDbEntity
  8
Layer0004
 62
     2
100
AcDbText
 10
406.4934539094012
 20
34.67717023304588
 30
0.0
 40
12.5
  1
U-HANDLE
 41
0.8
  7
dcStyle0
 72
     5
 11
486.4934539094012
 21
34.67717023304588
 31
0.0
100
AcDbText
  0
LINE
  5
195
330
D0
100
AcDbEntity
  8
Layer0004
  6
Continuous
 62
     2
370
    18
100
AcDbLine
 10
405.2434539094012
 20
33.42717023304588
 30
0.0
 11
487.7434539094012
 21
33.42717023304588
 31
0.0
  0
ENDBLK
  5
D2
330
D0
100
AcDbEntity
  8
0
100
AcDbBlockEnd
  0
BLOCK
  5
D4
330
D3
100
AcDbEntity
  8
0
100
AcDbBlockBegin
  2
DC_GROUP_ACE200_8
 70
     0
 10
0.0
 20
0.0
 30
0.0
  3
DC_GROUP_ACE200_8
  1

  0
TEXT
  5
196
330
D3
100
AcDbEntity
  8
Layer0004
 62
     2
100
AcDbText
 10
-428.0674023549993
 20
121.9268307441031
 30
0.0
 40
12.5
  1
ワークストッパー
 41
0.6666666666666666
  7
dcStyle0
 72
     5
 11
-348.0674023549993
 21
121.9268307441031
 31
0.0
100
AcDbText
  0
LINE
  5
197
330
D3
100
AcDbEntity
  8
Layer0004
  6
Continuous
 62
     2
370
    18
100
AcDbLine
 10
-449.3174023549993
 20
120.6768307441031
 30
0.0
 11
-326.8174023549993
 21
120.6768307441031
 31
0.0
  0
ENDBLK
  5
D5
330
D3
100
AcDbEntity
  8
0
100
AcDbBlockEnd
  0
BLOCK
  5
D7
330
D6
100
AcDbEntity
  8
0
100
AcDbBlockBegin
  2
DC_GROUP_ACE200_9
 70
     0
 10
0.0
 20
0.0
 30
0.0
  3
DC_GROUP_ACE200_9
  1

  0
TEXT
  5
198
330
D6
100
AcDbEntity
  8
Layer0004
 62
     2
100
AcDbText
 10
-448.0674023549993
 20
106.3290615809833
 30
0.0
 40
12.5
  1
WORK STOPPER
 41
0.8
  7
dcStyle0
 72
     5
 11
-328.0674023549993
 21
106.3290615809833
 31
0.0
100
AcDbText
  0
ENDBLK
  5
D8
330
D6
100
AcDbEntity
  8
0
100
AcDbBlockEnd
  0
BLOCK
  5
DA
330
D9
100
AcDbEntity
  8
0
100
AcDbBlockBegin
  2
DC_GROUP_ACE200_10
 70
     0
 10
0.0
 20
0.0
 30
0.0
  3
DC_GROUP_ACE200_10
  1

  0
LINE
  5
199
330
D9
100
AcDbEntity
  8
Layer0014
  6
Continuous
 62
     2
370
    18
100
AcDbLine
 10
-67.93925445368453
 20
172.248734356108
 30
0.0
 11
-37.07460259271409
 21
141.3840824951375
 31
0.0
  0
INSERT
  5
19A
330
D9
100
AcDbEntity
  8
Layer0014
 62
     2
100
AcDbBlockReference
  2
_OPEN30
 10
-67.93925445368453
 20
172.248734356108
 30
0.0
 41
7.646601831087536
 42
5.031938088706951
 50
135.0
  0
LINE
  5
19B
330
D9
100
AcDbEntity
  8
Layer0014
  6
Continuous
 62
     2
370
    18
100
AcDbLine
 10
-37.07460259271409
 20
141.3840824951375
 30
0.0
 11
106.6753974072859
 21
141.3840824951375
 31
0.0
  0
TEXT
  5
19C
330
D9
100
AcDbEntity
  8
Layer0014
 62
     2
100
AcDbText
 10
-34.57460259271409
 20
141.8840824951375
 30
0.0
 40
12.5
  1
クランピングブロック
 41
0.6666666666666666
  7
dcStyle0
 72
     5
 11
65.42539740728591
 21
141.8840824951375
 31
0.0
100
AcDbText
  0
ENDBLK
  5
DB
330
D9
100
AcDbEntity
  8
0
100
AcDbBlockEnd
  0
BLOCK
  5
DD
330
DC
100
AcDbEntity
  8
0
100
AcDbBlockBegin
  2
DC_GROUP_ACE200_11
 70
     0
 10
0.0
 20
0.0
 30
0.0
  3
DC_GROUP_ACE200_11
  1

  0
LINE
  5
19D
330
DC
100
AcDbEntity
  8
Layer0014
  6
Continuous
 62
     2
370
    18
100
AcDbLine
 10
12.30964918630233
 20
-19.48680224483628
 30
0.0
 11
27.57762922838498
 21
6.958114916998465
 31
0.0
  0
INSERT
  5
19E
330
DC
100
AcDbEntity
  8
Layer0014
 62
     2
100
AcDbBlockReference
  2
_OPEN30
 10
12.30964918630233
 20
-19.48680224483628
 30
0.0
 41
7.646601831087536
 42
5.031938088706951
 50
240.0
  0
LINE
  5
19F
330
DC
100
AcDbEntity
  8
Layer0014
  6
Continuous
 62
     2
370
    18
100
AcDbLine
 10
27.57762922838498
 20
6.958114916998465
 30
0.0
 11
121.327629228385
 21
6.958114916998465
 31
0.0
  0
TEXT
  5
1A0
330
DC
100
AcDbEntity
  8
Layer0014
 62
     2
100
AcDbText
 10
30.07762922838498
 20
7.458114916998465
 30
0.0
 40
12.5
  1
上口金
 41
0.6666666666666666
  7
dcStyle0
 72
     5
 11
60.07762922838498
 21
7.458114916998465
 31
0.0
100
AcDbText
  0
ENDBLK
  5
DE
330
DC
100
AcDbEntity
  8
0
100
AcDbBlockEnd
  0
BLOCK
  5
E0
330
DF
100
AcDbEntity
  8
0
100
AcDbBlockBegin
  2
DC_GROUP_ACE200_12
 70
     0
 10
0.0
 20
0.0
 30
0.0
  3
DC_GROUP_ACE200_12
  1

  0
TEXT
  5
1A1
330
DF
100
AcDbEntity
  8
Layer0004
 62
     2
100
AcDbText
 10
-34.57460259271409
 20
128.3840824951375
 30
0.0
 40
12.5
  1
CLAMPING BLOCK
 41
0.8
  7
dcStyle0
 72
     5
 11
105.4253974072859
 21
128.3840824951375
 31
0.0
100
AcDbText
  0
ENDBLK
  5
E1
330
DF
100
AcDbEntity
  8
0
100
AcDbBlockEnd
  0
BLOCK
  5
E3
330
E2
100
AcDbEntity
  8
0
100
AcDbBlockBegin
  2
DC_GROUP_ACE200_13
 70
     0
 10
0.0
 20
0.0
 30
0.0
  3
DC_GROUP_ACE200_13
  1

  0
TEXT
  5
1A2
330
E2
100
AcDbEntity
  8
Layer0004
 62
     2
100
AcDbText
 10
30.07762922838498
 20
-6.041885083001535
 30
0.0
 40
12.5
  1
UPPER JAW
 41
0.8
  7
dcStyle0
 72
     5
 11
120.077629228385
 21
-6.041885083001535
 31
0.0
100
AcDbText
  0
ENDBLK
  5
E4
330
E2
100
AcDbEntity
  8
0
100
AcDbBlockEnd
  0
BLOCK
  5
E6
330
E5
100
AcDbEntity
  8
0
100
AcDbBlockBegin
  2
DC_GROUP_ACE200_14
 70
     0
 10
0.0
 20
0.0
 30
0.0
  3
DC_GROUP_ACE200_14
  1

  0
TEXT
  5
1A3
330
E5
100
AcDbEntity
  8
Layer0004
 62
     2
100
AcDbText
 10
-247.055138265091
 20
-12.55222317660426
 30
0.0
 40
12.5
  1
ANTI-LIFT JAW
 41
0.8
  7
dcStyle0
 72
     5
 11
-117.055138265091
 21
-12.55222317660426
 31
0.0
100
AcDbText
  0
ENDBLK
  5
E7
330
E5
100
AcDbEntity
  8
0
100
AcDbBlockEnd
  0
BLOCK
  5
E9
330
E8
100
AcDbEntity
  8
0
100
AcDbBlockBegin
  2
DC_GROUP_ACE200_15
 70
     0
 10
0.0
 20
0.0
 30
0.0
  3
DC_GROUP_ACE200_15
  1

  0
LINE
  5
1A4
330
E8
100
AcDbEntity
  8
Layer0014
  6
Continuous
 62
     2
370
    18
100
AcDbLine
 10
-62.50653830548969
 20
-73.78197831030822
 30
0.0
 11
-114.555138265091
 21
0.447776823395742
 31
0.0
  0
INSERT
  5
1A5
330
E8
100
AcDbEntity
  8
Layer0014
 62
     2
100
AcDbBlockReference
  2
_OPEN30
 10
-62.50653830548969
 20
-73.78197831030822
 30
0.0
 41
7.646601831087536
 42
5.031938088706951
 50
305.03746350442
  0
LINE
  5
1A6
330
E8
100
AcDbEntity
  8
Layer0014
  6
Continuous
 62
     2
370
    18
100
AcDbLine
 10
-114.555138265091
 20
0.447776823395742
 30
0.0
 11
-248.305138265091
 21
0.447776823395742
 31
0.0
  0
TEXT
  5
1A7
330
E8
100
AcDbEntity
  8
Layer0014
 62
     2
100
AcDbText
 10
-197.055138265091
 20
0.947776823395742
 30
0.0
 40
12.5
  1
アンチリフト口金
 41
0.6666666666666666
  7
dcStyle0
 72
     5
 11
-117.055138265091
 21
0.947776823395742
 31
0.0
100
AcDbText
  0
ENDBLK
  5
EA
330
E8
100
AcDbEntity
  8
0
100
AcDbBlockEnd
  0
BLOCK
  5
ED
330
EC
100
AcDbEntity
  8
0
100
AcDbBlockBegin
  2
_OPEN30
 70
     0
 10
0.0
 20
0.0
 30
0.0
  3
_OPEN30
  1

  0
LINE
  5
EF
330
EC
100
AcDbEntity
  8
0
  6
ByBlock
 62
     0
370
    -2
100
AcDbLine
 10
-1.0
 20
0.267949
 30
0.0
 11
0.0
 21
0.0
 31
0.0
  0
LINE
  5
F0
330
EC
100
AcDbEntity
  8
0
  6
ByBlock
 62
     0
370
    -2
100
AcDbLine
 10
0.0
 20
0.0
 30
0.0
 11
-1.0
 21
-0.267949
 31
0.0
  0
LINE
  5
F1
330
EC
100
AcDbEntity
  8
0
  6
ByBlock
 62
     0
370
    -2
100
AcDbLine
 10
0.0
 20
0.0
 30
0.0
 11
-1.0
 21
0.0
 31
0.0
  0
ENDBLK
  5
EE
330
EC
100
AcDbEntity
  8
0
100
AcDbBlockEnd
  0
ENDSEC
  0
SECTION
  2
ENTITIES
  0
LINE
  5
1A8
330
1F
100
AcDbEntity
  8
Layer0000
  6
Continuous
 62
     3
370
    25
100
AcDbLine
 10
-413.7499999999999
 20
408.6520650813517
 30
0.0
 11
-413.7499999999999
 21
210.6520650813518
 31
0.0
  0
LINE
  5
1A9
330
1F
100
AcDbEntity
  8
Layer0000
  6
Continuous
 62
     3
370
    25
100
AcDbLine
 10
-393.7499999999998
 20
409.4520650813517
 30
0.0
 11
-393.7499999999998
 21
209.8520650813518
 31
0.0
  0
LINE
  5
1AA
330
1F
100
AcDbEntity
  8
Layer0000
  6
Continuous
 62
     3
370
    25
100
AcDbLine
 10
-412.7499999999999
 20
209.6520650813518
 30
0.0
 11
-413.7499999999999
 21
210.6520650813518
 31
0.0
  0
LINE
  5
1AB
330
1F
100
AcDbEntity
  8
Layer0000
  6
Continuous
 62
     3
370
    25
100
AcDbLine
 10
-412.7499999999999
 20
409.6520650813517
 30
0.0
 11
-413.7499999999999
 21
408.6520650813517
 31
0.0
  0
LINE
  5
1AC
330
1F
100
AcDbEntity
  8
Layer0000
  6
Continuous
 62
     3
370
    25
100
AcDbLine
 10
-414.7499999999999
 20
210.1520650813518
 30
0.0
 11
-413.7499999999999
 21
211.1520650813518
 31
0.0
  0
LINE
  5
1AD
330
1F
100
AcDbEntity
  8
Layer0000
  6
Continuous
 62
     3
370
    25
100
AcDbLine
 10
-414.7499999999999
 20
409.1520650813517
 30
0.0
 11
-413.7499999999999
 21
408.1520650813517
 31
0.0
  0
LINE
  5
1AE
330
1F
100
AcDbEntity
  8
Layer0000
  6
Continuous
 62
     3
370
    25
100
AcDbLine
 10
-393.9499999999998
 20
209.6520650813518
 30
0.0
 11
-393.7499999999998
 21
209.8520650813518
 31
0.0
  0
LINE
  5
1AF
330
1F
100
AcDbEntity
  8
Layer0000
  6
Continuous
 62
     3
370
    25
100
AcDbLine
 10
-393.9499999999998
 20
409.6520650813517
 30
0.0
 11
-393.7499999999998
 21
409.4520650813517
 31
0.0
  0
LINE
  5
1B0
330
1F
100
AcDbEntity
  8
Layer0000
  6
Continuous
 62
     3
370
    25
100
AcDbLine
 10
-517.75
 20
209.6520650813518
 30
0.0
 11
70.25
 21
209.6520650813518
 31
0.0
  0
LINE
  5
1B1
330
1F
100
AcDbEntity
  8
Layer0000
  6
Continuous
 62
     3
370
    25
100
AcDbLine
 10
-517.75
 20
409.6520650813517
 30
0.0
 11
70.25
 21
409.652065081352
 31
0.0
  0
LINE
  5
1B2
330
1F
100
AcDbEntity
  8
Layer0000
  6
Continuous
 62
     3
370
    25
100
AcDbLine
 10
-517.75
 20
209.6520650813518
 30
0.0
 11
-518.75
 21
210.6520650813518
 31
0.0
  0
LINE
  5
1B3
330
1F
100
AcDbEntity
  8
Layer0000
  6
Continuous
 62
     3
370
    25
100
AcDbLine
 10
-518.75
 20
211.1520650813518
 30
0.0
 11
-517.75
 21
210.1520650813518
 31
0.0
  0
LINE
  5
1B4
330
1F
100
AcDbEntity
  8
Layer0000
  6
Continuous
 62
     3
370
    25
100
AcDbLine
 10
-517.75
 20
210.1520650813518
 30
0.0
 11
-414.7499999999999
 21
210.1520650813518
 31
0.0
  0
LINE
  5
1B5
330
1F
100
AcDbEntity
  8
Layer0000
  6
Continuous
 62
     3
370
    25
100
AcDbLine
 10
-518.75
 20
210.6520650813505
 30
0.0
 11
-518.75
 21
408.6520650813517
 31
0.0
  0
LINE
  5
1B6
330
1F
100
AcDbEntity
  8
Layer0000
  6
Continuous
 62
     3
370
    25
100
AcDbLine
 10
-517.75
 20
409.6520650813517
 30
0.0
 11
-518.75
 21
408.6520650813517
 31
0.0
  0
LINE
  5
1B7
330
1F
100
AcDbEntity
  8
Layer0000
  6
Continuous
 62
     3
370
    25
100
AcDbLine
 10
-518.75
 20
408.1520650813517
 30
0.0
 11
-517.75
 21
409.1520650813517
 31
0.0
  0
LINE
  5
1B8
330
1F
100
AcDbEntity
  8
Layer0000
  6
Continuous
 62
     3
370
    25
100
AcDbLine
 10
-55.44999999999999
 20
209.8520650813518
 30
0.0
 11
-55.44999999999999
 21
409.4520650813519
 31
0.0
  0
LINE
  5
1B9
330
1F
100
AcDbEntity
  8
Layer0000
  6
Continuous
 62
     3
370
    25
100
AcDbLine
 10
-55.25
 20
209.6520650813518
 30
0.0
 11
-55.44999999999999
 21
209.8520650813518
 31
0.0
  0
LINE
  5
1BA
330
1F
100
AcDbEntity
  8
Layer0000
  6
Continuous
 62
     3
370
    25
100
AcDbLine
 10
-36.44999999999979
 20
209.6520650813518
 30
0.0
 11
-35.44999999999979
 21
210.6520650813518
 31
0.0
  0
LINE
  5
1BB
330
1F
100
AcDbEntity
  8
Layer0000
  6
Continuous
 62
     3
370
    25
100
AcDbLine
 10
-35.44999999999979
 20
408.6520650813517
 30
0.0
 11
-35.44999999999979
 21
210.6520650813518
 31
0.0
  0
LINE
  5
1BC
330
1F
100
AcDbEntity
  8
Layer0000
  6
Continuous
 62
     3
370
    25
100
AcDbLine
 10
-36.44999999999979
 20
409.6520650813517
 30
0.0
 11
-35.44999999999979
 21
408.6520650813517
 31
0.0
  0
LINE
  5
1BD
330
1F
100
AcDbEntity
  8
Layer0000
  6
Continuous
 62
     3
370
    25
100
AcDbLine
 10
-55.25
 20
409.6520650813517
 30
0.0
 11
-55.44999999999999
 21
409.4520650813519
 31
0.0
  0
LINE
  5
1BE
330
1F
100
AcDbEntity
  8
Layer0000
  6
Continuous
 62
     3
370
    25
100
AcDbLine
 10
-35.44999999999979
 20
408.1520650813517
 30
0.0
 11
-34.44999999999979
 21
409.1520650813517
 31
0.0
  0
LINE
  5
1BF
330
1F
100
AcDbEntity
  8
Layer0000
  6
Continuous
 62
     3
370
    25
100
AcDbLine
 10
-35.44999999999979
 20
211.1520650813518
 30
0.0
 11
-34.44999999999979
 21
210.1520650813518
 31
0.0
  0
LINE
  5
1C0
330
1F
100
AcDbEntity
  8
Layer0000
  6
Continuous
 62
     3
370
    25
100
AcDbLine
 10
142.5500000000002
 20
210.1520650813518
 30
0.0
 11
143.5500000000002
 21
211.1520650813518
 31
0.0
  0
LINE
  5
1C1
330
1F
100
AcDbEntity
  8
Layer0000
  6
Continuous
 62
     3
370
    25
100
AcDbLine
 10
143.5500000000002
 20
408.1520650813517
 30
0.0
 11
143.5500000000002
 21
211.1520650813518
 31
0.0
  0
LINE
  5
1C2
330
1F
100
AcDbEntity
  8
Layer0000
  6
Continuous
 62
     3
370
    25
100
AcDbLine
 10
142.5500000000002
 20
409.1520650813517
 30
0.0
 11
143.5500000000002
 21
408.1520650813517
 31
0.0
  0
LINE
  5
1C3
330
1F
100
AcDbEntity
  8
Layer0000
  6
Continuous
 62
     3
370
    25
100
AcDbLine
 10
70.75000000000003
 20
409.1520650813517
 30
0.0
 11
70.25
 21
409.652065081352
 31
0.0
  0
LINE
  5
1C4
330
1F
100
AcDbEntity
  8
Layer0000
  6
Continuous
 62
     3
370
    25
100
AcDbLine
 10
70.75
 20
210.1520650813518
 30
0.0
 11
70.25
 21
209.6520650813518
 31
0.0
  0
LINE
  5
1C5
330
1F
100
AcDbEntity
  8
Layer0000
  6
Continuous
 62
     3
370
    25
100
AcDbLine
 10
-473.75
 20
-110.3479349186483
 30
0.0
 11
-448.7500000000001
 21
-110.3479349186483
 31
0.0
  0
LINE
  5
1C6
330
1F
100
AcDbEntity
  8
Layer0000
  6
Continuous
 62
     3
370
    25
100
AcDbLine
 10
-517.75
 20
-100.3479349186483
 30
0.0
 11
-474.75
 21
-100.3479349186483
 31
0.0
  0
LINE
  5
1C7
330
1F
100
AcDbEntity
  8
Layer0000
  6
Continuous
 62
     3
370
    25
100
AcDbLine
 10
-518.75
 20
-101.3479349186483
 30
0.0
 11
-517.75
 21
-100.3479349186483
 31
0.0
  0
LINE
  5
1C8
330
1F
100
AcDbEntity
  8
Layer0000
  6
Continuous
 62
     3
370
    25
100
AcDbLine
 10
-413.9499999999999
 20
-99.84793491864829
 30
0.0
 11
-413.9499999999999
 21
-95.34793491864829
 31
0.0
  0
LINE
  5
1C9
330
1F
100
AcDbEntity
  8
Layer0000
  6
Continuous
 62
     3
370
    25
100
AcDbLine
 10
-413.9499999999999
 20
-95.34793491864829
 30
0.0
 11
-413.7499999999999
 21
-95.34793491864829
 31
0.0
  0
LINE
  5
1CA
330
1F
100
AcDbEntity
  8
Layer0000
  6
Continuous
 62
     3
370
    25
100
AcDbLine
 10
-413.7499999999999
 20
-99.34793491864829
 30
0.0
 11
-413.7499999999999
 21
-39.34793491864829
 31
0.0
  0
LINE
  5
1CB
330
1F
100
AcDbEntity
  8
Layer0000
  6
Continuous
 62
     3
370
    25
100
AcDbLine
 10
-414.2499999999999
 20
-39.34793491864829
 30
0.0
 11
-453.2499999999999
 21
-39.34793491864829
 31
0.0
  0
LINE
  5
1CC
330
1F
100
AcDbEntity
  8
Layer0000
  6
Continuous
 62
     3
370
    25
100
AcDbLine
 10
-453.7499999999999
 20
-39.84793491864829
 30
0.0
 11
-453.7499999999999
 21
-43.84793491864829
 31
0.0
  0
LINE
  5
1CD
330
1F
100
AcDbEntity
  8
Layer0000
  6
Continuous
 62
     3
370
    25
100
AcDbLine
 10
-453.7499999999999
 20
-43.84793491864829
 30
0.0
 11
-469.7499999999998
 21
-43.84793491864829
 31
0.0
  0
LINE
  5
1CE
330
1F
100
AcDbEntity
  8
Layer0000
  6
Continuous
 62
     3
370
    25
100
AcDbLine
 10
-469.7499999999998
 20
-43.84793491864829
 30
0.0
 11
-469.7499999999998
 21
-39.84793491864829
 31
0.0
  0
LINE
  5
1CF
330
1F
100
AcDbEntity
  8
Layer0000
  6
Continuous
 62
     3
370
    25
100
AcDbLine
 10
-470.2499999999998
 20
-39.34793491864829
 30
0.0
 11
-517.75
 21
-39.34793491864829
 31
0.0
  0
LINE
  5
1D0
330
1F
100
AcDbEntity
  8
Layer0000
  6
Continuous
 62
     3
370
    25
100
AcDbLine
 10
-518.75
 20
-40.34793491864829
 30
0.0
 11
-518.75
 21
-99.34793491864829
 31
0.0
  0
LINE
  5
1D1
330
1F
100
AcDbEntity
  8
Layer0000
  6
Continuous
 62
     3
370
    25
100
AcDbLine
 10
-473.75
 20
-101.3479349186483
 30
0.0
 11
-473.75
 21
-110.3479349186483
 31
0.0
  0
LINE
  5
1D2
330
1F
100
AcDbEntity
  8
Layer0000
  6
Continuous
 62
     3
370
    25
100
AcDbLine
 10
-473.25
 20
-109.8479349186483
 30
0.0
 11
-449.2500000000001
 21
-109.8479349186483
 31
0.0
  0
LINE
  5
1D3
330
1F
100
AcDbEntity
  8
Layer0000
  6
Continuous
 62
     3
370
    25
100
AcDbLine
 10
-473.75
 20
-109.3479349186483
 30
0.0
 11
-473.25
 21
-109.8479349186483
 31
0.0
  0
LINE
  5
1D4
330
1F
100
AcDbEntity
  8
Layer0000
  6
Continuous
 62
     3
370
    25
100
AcDbLine
 10
-473.5839745962157
 20
-101.5479349186483
 30
0.0
 11
-473.75
 21
-101.8354993533499
 31
0.0
  0
LINE
  5
1D5
330
1F
100
AcDbEntity
  8
Layer0000
  6
Continuous
 62
     3
370
    25
100
AcDbLine
 10
-474.95
 20
-100.1819095148638
 30
0.0
 11
-475.2375644347019
 21
-100.3479349186483
 31
0.0
  0
ARC
  5
1D6
330
1F
100
AcDbEntity
  8
Layer0000
  6
Continuous
 62
     3
370
    25
100
AcDbCircle
 10
-474.45
 20
-101.0479349186483
 30
0.0
 40
1.0
100
AcDbArc
 50
329.9999999999999
 51
119.9999999999965
  0
LINE
  5
1D7
330
1F
100
AcDbEntity
  8
Layer0000
  6
Continuous
 62
     3
370
    25
100
AcDbLine
 10
-448.7500000000001
 20
-101.3479349186483
 30
0.0
 11
-448.7500000000001
 21
-110.3479349186483
 31
0.0
  0
LINE
  5
1D8
330
1F
100
AcDbEntity
  8
Layer0000
  6
Continuous
 62
     3
370
    25
100
AcDbLine
 10
-448.7500000000001
 20
-109.3479349186483
 30
0.0
 11
-449.2500000000001
 21
-109.8479349186483
 31
0.0
  0
LINE
  5
1D9
330
1F
100
AcDbEntity
  8
Layer0000
  6
Continuous
 62
     3
370
    25
100
AcDbLine
 10
-448.9160254037845
 20
-101.5479349186483
 30
0.0
 11
-448.7500000000001
 21
-101.8354993533499
 31
0.0
  0
LINE
  5
1DA
330
1F
100
AcDbEntity
  8
Layer0000
  6
Continuous
 62
     3
370
    25
100
AcDbLine
 10
-447.5500000000001
 20
-100.1819095148638
 30
0.0
 11
-447.2624355652983
 21
-100.3479349186483
 31
0.0
  0
ARC
  5
1DB
330
1F
100
AcDbEntity
  8
Layer0000
  6
Continuous
 62
     3
370
    25
100
AcDbCircle
 10
-448.0500000000001
 20
-101.0479349186483
 30
0.0
 40
1.0
100
AcDbArc
 50
60.0000000000035
 51
210.0000000000001
  0
LINE
  5
1DC
330
1F
100
AcDbEntity
  8
Layer0000
  6
Continuous
 62
     3
370
    25
100
AcDbLine
 10
-469.7499999999998
 20
-39.84793491864829
 30
0.0
 11
-470.2499999999998
 21
-39.34793491864829
 31
0.0
  0
LINE
  5
1DD
330
1F
100
AcDbEntity
  8
Layer0000
  6
Continuous
 62
     3
370
    25
100
AcDbLine
 10
-453.2499999999999
 20
-39.34793491864829
 30
0.0
 11
-453.7499999999999
 21
-39.84793491864829
 31
0.0
  0
LINE
  5
1DE
330
1F
100
AcDbEntity
  8
Layer0000
  6
Continuous
 62
     3
370
    25
100
AcDbLine
 10
-517.75
 20
-100.3479349186483
 30
0.0
 11
-518.75
 21
-99.34793491864829
 31
0.0
  0
LINE
  5
1DF
330
1F
100
AcDbEntity
  8
Layer0000
  6
Continuous
 62
     3
370
    25
100
AcDbLine
 10
-518.75
 20
-40.34793491864829
 30
0.0
 11
-517.75
 21
-39.34793491864829
 31
0.0
  0
LINE
  5
1E0
330
1F
100
AcDbEntity
  8
Layer0000
  6
Continuous
 62
     3
370
    25
100
AcDbLine
 10
-414.2499999999999
 20
-39.34793491864829
 30
0.0
 11
-413.7499999999999
 21
-39.84793491864829
 31
0.0
  0
LINE
  5
1E1
330
1F
100
AcDbEntity
  8
Layer0000
  6
Continuous
 62
     3
370
    25
100
AcDbLine
 10
-414.4499999999999
 20
-100.3479349186483
 30
0.0
 11
-413.9499999999999
 21
-99.84793491864829
 31
0.0
  0
LINE
  5
1E2
330
1F
100
AcDbEntity
  8
Layer0000
  6
Continuous
 62
     3
370
    25
100
AcDbLine
 10
-448.7500000000001
 20
-101.3479349186483
 30
0.0
 11
-447.7500000000001
 21
-100.3479349186483
 31
0.0
  0
LINE
  5
1E3
330
1F
100
AcDbEntity
  8
Layer0000
  6
Continuous
 62
     3
370
    25
100
AcDbLine
 10
-474.75
 20
-100.3479349186483
 30
0.0
 11
-473.75
 21
-101.3479349186483
 31
0.0
  0
CIRCLE
  5
1E4
330
1F
100
AcDbEntity
  8
Layer0000
  6
Continuous
 62
     3
370
    25
100
AcDbCircle
 10
-462.75
 20
-61.34793491864829
 30
0.0
 40
6.899999999999977
  0
LINE
  5
1E5
330
1F
100
AcDbEntity
  8
Layer0000
  6
Continuous
 62
     3
370
    25
100
AcDbLine
 10
-518.75
 20
-99.34793491864829
 30
0.0
 11
-413.9499999999999
 21
-99.34793491864829
 31
0.0
  0
LINE
  5
1E6
330
1F
100
AcDbEntity
  8
Layer0000
  6
Continuous
 62
     3
370
    25
100
AcDbLine
 10
-393.7499999999998
 20
-38.54793491864834
 30
0.0
 11
-393.7499999999998
 21
-98.34793491864829
 31
0.0
  0
LINE
  5
1E7
330
1F
100
AcDbEntity
  8
Layer0000
  6
Continuous
 62
     3
370
    25
100
AcDbLine
 10
-393.9499999999998
 20
-38.34793491864829
 30
0.0
 11
-412.7499999999999
 21
-38.34793491864829
 31
0.0
  0
LINE
  5
1E8
330
1F
100
AcDbEntity
  8
Layer0000
  6
Continuous
 62
     3
370
    25
100
AcDbLine
 10
-413.7499999999999
 20
-39.34793491864829
 30
0.0
 11
-412.7499999999999
 21
-38.34793491864829
 31
0.0
  0
LINE
  5
1E9
330
1F
100
AcDbEntity
  8
Layer0000
  6
Continuous
 62
     3
370
    25
100
AcDbLine
 10
-412.7499999999999
 20
-100.3479349186483
 30
0.0
 11
-413.7499999999999
 21
-99.34793491864829
 31
0.0
  0
LINE
  5
1EA
330
1F
100
AcDbEntity
  8
Layer0000
  6
Continuous
 62
     3
370
    25
100
AcDbLine
 10
-393.9499999999998
 20
-38.34793491864829
 30
0.0
 11
-393.7499999999998
 21
-38.54793491864834
 31
0.0
  0
LINE
  5
1EB
330
1F
100
AcDbEntity
  8
Layer0000
  6
Continuous
 62
     3
370
    25
100
AcDbLine
 10
-395.7499999999998
 20
-100.3479349186483
 30
0.0
 11
-393.7499999999998
 21
-98.34793491864829
 31
0.0
  0
LINE
  5
1EC
330
1F
100
AcDbEntity
  8
Layer0000
  6
Continuous
 62
     3
370
    25
100
AcDbLine
 10
-447.7500000000001
 20
-100.3479349186483
 30
0.0
 11
-35.4499999999998
 21
-100.3479349186483
 31
0.0
  0
LINE
  5
1ED
330
1F
100
AcDbEntity
  8
Layer0000
  6
Continuous
 62
     3
370
    25
100
AcDbLine
 10
-518.75
 20
-101.3479349186483
 30
0.0
 11
-518.75
 21
-209.3479349186483
 31
0.0
  0
LINE
  5
1EE
330
1F
100
AcDbEntity
  8
Layer0000
  6
Continuous
 62
     3
370
    25
100
AcDbLine
 10
-443.2499999999999
 20
308.2086894083777
 30
0.0
 11
-445.7499999999999
 21
306.7653137354036
 31
0.0
  0
LINE
  5
1EF
330
1F
100
AcDbEntity
  8
Layer0000
  6
Continuous
 62
     3
370
    25
100
AcDbLine
 10
-448.2499999999999
 20
308.2086894083777
 30
0.0
 11
-445.75
 21
306.7653137354036
 31
0.0
  0
LINE
  5
1F0
330
1F
100
AcDbEntity
  8
Layer0000
  6
Continuous
 62
     3
370
    25
100
AcDbLine
 10
-517.75
 20
-210.3479349186483
 30
0.0
 11
-322.7499999999998
 21
-210.3479349186483
 31
0.0
  0
LINE
  5
1F1
330
1F
100
AcDbEntity
  8
Layer0000
  6
Continuous
 62
     3
370
    25
100
AcDbLine
 10
-517.75
 20
-210.3479349186483
 30
0.0
 11
-518.75
 21
-209.3479349186483
 31
0.0
  0
LINE
  5
1F2
330
1F
100
AcDbEntity
  8
Layer0000
  6
Continuous
 62
     3
370
    25
100
AcDbLine
 10
-35.44999999999982
 20
-39.34793491864829
 30
0.0
 11
-35.44999999999979
 21
-120.3479349186483
 31
0.0
  0
LINE
  5
1F3
330
1F
100
AcDbEntity
  8
Layer0000
  6
Continuous
 62
     3
370
    25
100
AcDbLine
 10
-55.45000000000002
 20
-38.54793491864834
 30
0.0
 11
-55.45000000000002
 21
-98.34793491864829
 31
0.0
  0
LINE
  5
1F4
330
1F
100
AcDbEntity
  8
Layer0000
  6
Continuous
 62
     3
370
    25
100
AcDbLine
 10
-36.44999999999982
 20
-38.34793491864829
 30
0.0
 11
-55.25
 21
-38.34793491864829
 31
0.0
  0
LINE
  5
1F5
330
1F
100
AcDbEntity
  8
Layer0000
  6
Continuous
 62
     3
370
    25
100
AcDbLine
 10
-35.44999999999982
 20
-39.34793491864829
 30
0.0
 11
-36.44999999999982
 21
-38.34793491864829
 31
0.0
  0
LINE
  5
1F6
330
1F
100
AcDbEntity
  8
Layer0000
  6
Continuous
 62
     3
370
    25
100
AcDbLine
 10
-35.44999999999982
 20
-99.34793491864829
 30
0.0
 11
-36.44999999999982
 21
-100.3479349186483
 31
0.0
  0
LINE
  5
1F7
330
1F
100
AcDbEntity
  8
Layer0000
  6
Continuous
 62
     3
370
    25
100
AcDbLine
 10
-53.45000000000002
 20
-100.3479349186483
 30
0.0
 11
-55.45000000000002
 21
-98.34793491864829
 31
0.0
  0
LINE
  5
1F8
330
1F
100
AcDbEntity
  8
Layer0000
  6
Continuous
 62
     3
370
    25
100
AcDbLine
 10
-55.25
 20
-38.34793491864829
 30
0.0
 11
-55.45000000000002
 21
-38.54793491864834
 31
0.0
  0
LINE
  5
1F9
330
1F
100
AcDbEntity
  8
Layer0000
  6
Continuous
 62
     3
370
    25
100
AcDbLine
 10
-34.94999999999982
 20
-39.34793491864829
 30
0.0
 11
-35.44999999999982
 21
-39.84793491864829
 31
0.0
  0
LINE
  5
1FA
330
1F
100
AcDbEntity
  8
Layer0000
  6
Continuous
 62
     3
370
    25
100
AcDbLine
 10
142.5500000000002
 20
-39.34793491864829
 30
0.0
 11
143.5500000000002
 21
-40.34793491864829
 31
0.0
  0
LINE
  5
1FB
330
1F
100
AcDbEntity
  8
Layer0000
  6
Continuous
 62
     3
370
    25
100
AcDbLine
 10
70.24999999999994
 20
-210.3479349186483
 30
0.0
 11
71.24999999999994
 21
-209.3479349186483
 31
0.0
  0
LINE
  5
1FC
330
1F
100
AcDbEntity
  8
Layer0000
  6
Continuous
 62
     3
370
    25
100
AcDbLine
 10
-304.7499999999998
 20
-210.3479349186483
 30
0.0
 11
70.24999999999994
 21
-210.3479349186483
 31
0.0
  0
LINE
  5
1FD
330
1F
100
AcDbEntity
  8
Layer0000
  6
Continuous
 62
     3
370
    25
100
AcDbLine
 10
-322.7499999999998
 20
-217.8479349186483
 30
0.0
 11
-322.7499999999998
 21
-206.3479349186483
 31
0.0
  0
LINE
  5
1FE
330
1F
100
AcDbEntity
  8
Layer0000
  6
Continuous
 62
     3
370
    25
100
AcDbLine
 10
-322.7499999999998
 20
-206.3479349186483
 30
0.0
 11
-304.7499999999998
 21
-206.3479349186483
 31
0.0
  0
LINE
  5
1FF
330
1F
100
AcDbEntity
  8
Layer0000
  6
Continuous
 62
     3
370
    25
100
AcDbLine
 10
-304.7499999999998
 20
-206.3479349186483
 30
0.0
 11
-304.7499999999998
 21
-217.8479349186483
 31
0.0
  0
LINE
  5
200
330
1F
100
AcDbEntity
  8
Layer0000
  6
Continuous
 62
     3
370
    25
100
AcDbLine
 10
-322.2499999999998
 20
-218.3479349186483
 30
0.0
 11
-305.2499999999998
 21
-218.3479349186483
 31
0.0
  0
LINE
  5
201
330
1F
100
AcDbEntity
  8
Layer0000
  6
Continuous
 62
     3
370
    25
100
AcDbLine
 10
-304.7499999999998
 20
-217.8479349186483
 30
0.0
 11
-305.2499999999998
 21
-218.3479349186483
 31
0.0
  0
LINE
  5
202
330
1F
100
AcDbEntity
  8
Layer0000
  6
Continuous
 62
     3
370
    25
100
AcDbLine
 10
-322.7499999999998
 20
-217.8479349186483
 30
0.0
 11
-322.2499999999998
 21
-218.3479349186483
 31
0.0
  0
LINE
  5
203
330
1F
100
AcDbEntity
  8
Layer0000
  6
Continuous
 62
     3
370
    25
100
AcDbLine
 10
-322.7499999999998
 20
-206.8479349186483
 30
0.0
 11
-322.2499999999998
 21
-206.3479349186483
 31
0.0
  0
LINE
  5
204
330
1F
100
AcDbEntity
  8
Layer0000
  6
Continuous
 62
     3
370
    25
100
AcDbLine
 10
-305.2499999999998
 20
-206.3479349186483
 30
0.0
 11
-304.7499999999998
 21
-206.8479349186483
 31
0.0
  0
LINE
  5
205
330
1F
100
AcDbEntity
  8
Layer0000
  6
Continuous
 62
     3
370
    25
100
AcDbLine
 10
-518.75
 20
-188.3479349186483
 30
0.0
 11
71.24999999999994
 21
-188.3479349186483
 31
0.0
  0
CIRCLE
  5
206
330
1F
100
AcDbEntity
  8
Layer0000
  6
Continuous
 62
     3
370
    25
100
AcDbCircle
 10
-333.7499999999999
 20
-148.3479349186484
 30
0.0
 40
11.0
  0
CIRCLE
  5
207
330
1F
100
AcDbEntity
  8
Layer0000
  6
Continuous
 62
     3
370
    25
100
AcDbCircle
 10
-243.7499999999998
 20
-148.3479349186484
 30
0.0
 40
11.0
  0
CIRCLE
  5
208
330
1F
100
AcDbEntity
  8
Layer0000
  6
Continuous
 62
     3
370
    25
100
AcDbCircle
 10
-153.7499999999998
 20
-148.3479349186484
 30
0.0
 40
11.0
  0
LINE
  5
209
330
1F
100
AcDbEntity
  8
Layer0000
  6
Continuous
 62
     3
370
    25
100
AcDbLine
 10
143.5500000000002
 20
-40.34793491864829
 30
0.0
 11
143.5499999999999
 21
-119.3479349186483
 31
0.0
  0
CIRCLE
  5
20A
330
1F
100
AcDbEntity
  8
Layer0000
  6
Continuous
 62
     3
370
    25
100
AcDbCircle
 10
-63.74999999999977
 20
-148.3479349186484
 30
0.0
 40
11.0
  0
LINE
  5
20B
330
1F
100
AcDbEntity
  8
Layer0000
  6
Continuous
 62
     3
370
    25
100
AcDbLine
 10
73.24999999999997
 20
-128.3479349186483
 30
0.0
 11
71.24999999999994
 21
-128.3479349186483
 31
0.0
  0
LINE
  5
20C
330
1F
100
AcDbEntity
  8
Layer0000
  6
Continuous
 62
     3
370
    25
100
AcDbLine
 10
73.24999999999997
 20
-170.3479349186483
 30
0.0
 11
71.24999999999997
 21
-172.3479349186483
 31
0.0
  0
LINE
  5
20D
330
1F
100
AcDbEntity
  8
Layer0000
  6
Continuous
 62
     3
370
    25
100
AcDbLine
 10
73.24999999999997
 20
-170.3479349186483
 30
0.0
 11
73.24999999999997
 21
-128.3479349186483
 31
0.0
  0
LINE
  5
20E
330
1F
100
AcDbEntity
  8
Layer0000
  6
Continuous
 62
     3
370
    25
100
AcDbLine
 10
142.5499999999999
 20
-120.3479349186483
 30
0.0
 11
143.5499999999999
 21
-119.3479349186483
 31
0.0
  0
LINE
  5
20F
330
1F
100
AcDbEntity
  8
Layer0000
  6
Continuous
 62
     3
370
    25
100
AcDbLine
 10
-93.74999999999977
 20
339.6520650813517
 30
0.0
 11
-93.74999999999977
 21
279.6520650813517
 31
0.0
  0
LINE
  5
210
330
1F
100
AcDbEntity
  8
Layer0000
  6
Continuous
 62
     3
370
    25
100
AcDbLine
 10
-79.89359353944872
 20
344.6520650813517
 30
0.0
 11
-79.89359353944872
 21
274.6520650813517
 31
0.0
  0
ARC
  5
211
330
1F
100
AcDbEntity
  8
Layer0000
  6
Continuous
 62
     3
370
    25
100
AcDbCircle
 10
-88.74999999999977
 20
339.6520650813517
 30
0.0
 40
5.0
100
AcDbArc
 50
90.0
 51
180.0
  0
ARC
  5
212
330
1F
100
AcDbEntity
  8
Layer0000
  6
Continuous
 62
     3
370
    25
100
AcDbCircle
 10
-88.74999999999977
 20
279.6520650813517
 30
0.0
 40
5.0
100
AcDbArc
 50
180.0
 51
270.0
  0
LINE
  5
213
330
1F
100
AcDbEntity
  8
Layer0000
  6
Continuous
 62
     3
370
    25
100
AcDbLine
 10
-393.7499999999998
 20
344.6520650813517
 30
0.0
 11
-55.44999999999999
 21
344.6520650813517
 31
0.0
  0
LINE
  5
214
330
1F
100
AcDbEntity
  8
Layer0000
  6
Continuous
 62
     3
370
    25
100
AcDbLine
 10
-393.7499999999998
 20
274.6520650813517
 30
0.0
 11
-55.44999999999999
 21
274.6520650813517
 31
0.0
  0
LINE
  5
215
330
1F
100
AcDbEntity
  8
Layer0000
  6
Continuous
 62
     3
370
    25
100
AcDbLine
 10
-55.44999999999999
 20
389.6520650813517
 30
0.0
 11
-393.7499999999998
 21
389.6520650813517
 31
0.0
  0
LINE
  5
216
330
1F
100
AcDbEntity
  8
Layer0000
  6
Continuous
 62
     3
370
    25
100
AcDbLine
 10
-55.44999999999999
 20
229.6520650813518
 30
0.0
 11
-393.7499999999998
 21
229.6520650813518
 31
0.0
  0
LINE
  5
217
330
1F
100
AcDbEntity
  8
Layer0000
  6
Continuous
 62
     3
370
    25
100
AcDbLine
 10
71.24999999999994
 20
-120.3479349186483
 30
0.0
 11
71.24999999999994
 21
-209.3479349186483
 31
0.0
  0
LINE
  5
218
330
1F
100
AcDbEntity
  8
Layer0000
  6
Continuous
 62
     3
370
    25
100
AcDbLine
 10
-443.2499999999999
 20
311.0954407543258
 30
0.0
 11
-443.2499999999999
 21
308.2086894083777
 31
0.0
  0
LINE
  5
219
330
1F
100
AcDbEntity
  8
Layer0000
  6
Continuous
 62
     3
370
    25
100
AcDbLine
 10
-448.2499999999999
 20
311.0954407543258
 30
0.0
 11
-448.2499999999999
 21
308.2086894083777
 31
0.0
  0
LINE
  5
21A
330
1F
100
AcDbEntity
  8
Layer0000
  6
Continuous
 62
     3
370
    25
100
AcDbLine
 10
408.7499999999999
 20
230.6520650813518
 30
0.0
 11
408.7499999999999
 21
272.6520650813517
 31
0.0
  0
LINE
  5
21B
330
1F
100
AcDbEntity
  8
Layer0000
  6
Continuous
 62
     3
370
    25
100
AcDbLine
 10
408.7499999999999
 20
346.6520650813516
 30
0.0
 11
408.7499999999999
 21
388.6520650813516
 31
0.0
  0
LINE
  5
21C
330
1F
100
AcDbEntity
  8
Layer0000
  6
Continuous
 62
     3
370
    25
100
AcDbLine
 10
409.7499999999999
 20
389.6520650813516
 30
0.0
 11
428.2499999999999
 21
389.6520650813516
 31
0.0
  0
LINE
  5
21D
330
1F
100
AcDbEntity
  8
Layer0000
  6
Continuous
 62
     3
370
    25
100
AcDbLine
 10
409.7499999999999
 20
229.6520650813518
 30
0.0
 11
428.2499999999999
 21
229.6520650813518
 31
0.0
  0
LINE
  5
21E
330
1F
100
AcDbEntity
  8
Layer0000
  6
Continuous
 62
     3
370
    25
100
AcDbLine
 10
410.2499999999999
 20
345.1520650813516
 30
0.0
 11
428.7499999999999
 21
345.1520650813516
 31
0.0
  0
LINE
  5
21F
330
1F
100
AcDbEntity
  8
Layer0000
  6
Continuous
 62
     3
370
    25
100
AcDbLine
 10
410.2499999999999
 20
274.1520650813517
 30
0.0
 11
428.7499999999999
 21
274.1520650813517
 31
0.0
  0
LINE
  5
220
330
1F
100
AcDbEntity
  8
Layer0000
  6
Continuous
 62
     3
370
    25
100
AcDbLine
 10
410.2499999999999
 20
229.6520650813518
 30
0.0
 11
408.7499999999999
 21
231.1520650813518
 31
0.0
  0
LINE
  5
221
330
1F
100
AcDbEntity
  8
Layer0000
  6
Continuous
 62
     3
370
    25
100
AcDbLine
 10
408.7499999999999
 20
388.1520650813516
 30
0.0
 11
410.2499999999999
 21
389.6520650813516
 31
0.0
  0
LINE
  5
222
330
1F
100
AcDbEntity
  8
Layer0000
  6
Continuous
 62
     3
370
    25
100
AcDbLine
 10
408.7499999999999
 20
272.6520650813517
 30
0.0
 11
410.2499999999999
 21
274.1520650813517
 31
0.0
  0
LINE
  5
223
330
1F
100
AcDbEntity
  8
Layer0000
  6
Continuous
 62
     3
370
    25
100
AcDbLine
 10
410.2499999999999
 20
345.1520650813516
 30
0.0
 11
408.7499999999999
 21
346.6520650813516
 31
0.0
  0
LINE
  5
224
330
1F
100
AcDbEntity
  8
Layer0000
  6
Continuous
 62
     3
370
    25
100
AcDbLine
 10
418.7499999999999
 20
344.6520650813516
 30
0.0
 11
477.75
 21
344.6520650813516
 31
0.0
  0
LINE
  5
225
330
1F
100
AcDbEntity
  8
Layer0000
  6
Continuous
 62
     3
370
    25
100
AcDbLine
 10
418.7499999999999
 20
274.6520650813517
 30
0.0
 11
477.75
 21
274.6520650813517
 31
0.0
  0
LINE
  5
226
330
1F
100
AcDbEntity
  8
Layer0000
  6
Continuous
 62
     3
370
    25
100
AcDbLine
 10
428.7499999999999
 20
274.1520650813517
 30
0.0
 11
428.7499999999999
 21
274.6520650813517
 31
0.0
  0
LINE
  5
227
330
1F
100
AcDbEntity
  8
Layer0000
  6
Continuous
 62
     3
370
    25
100
AcDbLine
 10
428.7499999999999
 20
344.6520650813516
 30
0.0
 11
428.7499999999999
 21
345.1520650813516
 31
0.0
  0
LINE
  5
228
330
1F
100
AcDbEntity
  8
Layer0000
  6
Continuous
 62
     3
370
    25
100
AcDbLine
 10
428.7499999999999
 20
244.1520650813518
 30
0.0
 11
433.7499999999999
 21
244.1520650813518
 31
0.0
  0
LINE
  5
229
330
1F
100
AcDbEntity
  8
Layer0000
  6
Continuous
 62
     3
370
    25
100
AcDbLine
 10
433.7499999999999
 20
244.1520650813518
 30
0.0
 11
433.7499999999999
 21
245.1520650813518
 31
0.0
  0
LINE
  5
22A
330
1F
100
AcDbEntity
  8
Layer0000
  6
Continuous
 62
     3
370
    25
100
AcDbLine
 10
433.7499999999999
 20
245.1520650813518
 30
0.0
 11
482.2500009467633
 21
245.1520650813518
 31
0.0
  0
LINE
  5
22B
330
1F
100
AcDbEntity
  8
Layer0000
  6
Continuous
 62
     3
370
    25
100
AcDbLine
 10
428.7499999999999
 20
375.1520650813516
 30
0.0
 11
433.7499999999999
 21
375.1520650813516
 31
0.0
  0
LINE
  5
22C
330
1F
100
AcDbEntity
  8
Layer0000
  6
Continuous
 62
     3
370
    25
100
AcDbLine
 10
433.7499999999999
 20
375.1520650813516
 30
0.0
 11
433.7499999999999
 21
374.1520650813516
 31
0.0
  0
LINE
  5
22D
330
1F
100
AcDbEntity
  8
Layer0000
  6
Continuous
 62
     3
370
    25
100
AcDbLine
 10
433.7499999999999
 20
374.1520650813516
 30
0.0
 11
482.2500009467633
 21
374.1520650813516
 31
0.0
  0
LINE
  5
22E
330
1F
100
AcDbEntity
  8
Layer0000
  6
Continuous
 62
     3
370
    25
100
AcDbLine
 10
428.7499999999999
 20
230.1520650813518
 30
0.0
 11
428.2499999999999
 21
229.6520650813518
 31
0.0
  0
LINE
  5
22F
330
1F
100
AcDbEntity
  8
Layer0000
  6
Continuous
 62
     3
370
    25
100
AcDbLine
 10
428.7499999999999
 20
389.1520650813516
 30
0.0
 11
428.2499999999999
 21
389.6520650813516
 31
0.0
  0
LINE
  5
230
330
1F
100
AcDbEntity
  8
Layer0000
  6
Continuous
 62
     3
370
    25
100
AcDbLine
 10
482.2500009467633
 20
244.1520650813518
 30
0.0
 11
482.2500009467633
 21
245.1520650813518
 31
0.0
  0
LINE
  5
231
330
1F
100
AcDbEntity
  8
Layer0000
  6
Continuous
 62
     3
370
    25
100
AcDbLine
 10
491.7500009467631
 20
244.1520650813518
 30
0.0
 11
482.2500009467633
 21
244.1520650813518
 31
0.0
  0
ARC
  5
232
330
1F
100
AcDbEntity
  8
Layer0000
  6
Continuous
 62
     3
370
    25
100
AcDbCircle
 10
491.7500009467631
 20
239.1520650813518
 30
0.0
 40
5.0
100
AcDbArc
 50
359.9647407304175
 51
90.0
  0
LINE
  5
233
330
1F
100
AcDbEntity
  8
Layer0000
  6
Continuous
 62
     3
370
    25
100
AcDbLine
 10
482.2500009467633
 20
375.1520650813516
 30
0.0
 11
482.2500009467633
 21
374.1520650813516
 31
0.0
  0
LINE
  5
234
330
1F
100
AcDbEntity
  8
Layer0000
  6
Continuous
 62
     3
370
    25
100
AcDbLine
 10
491.7500009467631
 20
375.1520650813516
 30
0.0
 11
482.2500009467633
 21
375.1520650813516
 31
0.0
  0
ARC
  5
235
330
1F
100
AcDbEntity
  8
Layer0000
  6
Continuous
 62
     3
370
    25
100
AcDbCircle
 10
491.7500009467631
 20
380.1520650813516
 30
0.0
 40
5.0
100
AcDbArc
 50
270.0
 51
0.0352592695825467
  0
LINE
  5
236
330
1F
100
AcDbEntity
  8
Layer0000
  6
Continuous
 62
     3
370
    25
100
AcDbLine
 10
497.75
 20
409.6520650813514
 30
0.0
 11
517.75
 21
409.6520650813514
 31
0.0
  0
LINE
  5
237
330
1F
100
AcDbEntity
  8
Layer0000
  6
Continuous
 62
     3
370
    25
100
AcDbLine
 10
497.75
 20
209.6520650813517
 30
0.0
 11
517.75
 21
209.6520650813517
 31
0.0
  0
LINE
  5
238
330
1F
100
AcDbEntity
  8
Layer0000
  6
Continuous
 62
     3
370
    25
100
AcDbLine
 10
518.75
 20
210.6520650813517
 30
0.0
 11
517.75
 21
209.6520650813517
 31
0.0
  0
LINE
  5
239
330
1F
100
AcDbEntity
  8
Layer0000
  6
Continuous
 62
     3
370
    25
100
AcDbLine
 10
518.75
 20
408.6520650813514
 30
0.0
 11
517.75
 21
409.6520650813514
 31
0.0
  0
LINE
  5
23A
330
1F
100
AcDbEntity
  8
Layer0000
  6
Continuous
 62
     3
370
    25
100
AcDbLine
 10
496.75
 20
284.6520650813517
 30
0.0
 11
496.75
 21
334.6520650813516
 31
0.0
  0
LINE
  5
23B
330
1F
100
AcDbEntity
  8
Layer0000
  6
Continuous
 62
     3
370
    25
100
AcDbLine
 10
496.75
 20
284.6520650813517
 30
0.0
 11
480.75
 21
284.6520650813517
 31
0.0
  0
LINE
  5
23C
330
1F
100
AcDbEntity
  8
Layer0000
  6
Continuous
 62
     3
370
    25
100
AcDbLine
 10
496.75
 20
334.6520650813516
 30
0.0
 11
480.75
 21
334.6520650813516
 31
0.0
  0
LINE
  5
23D
330
1F
100
AcDbEntity
  8
Layer0000
  6
Continuous
 62
     3
370
    25
100
AcDbLine
 10
496.75
 20
210.6520650813517
 30
0.0
 11
496.75
 21
239.1520650813518
 31
0.0
  0
LINE
  5
23E
330
1F
100
AcDbEntity
  8
Layer0000
  6
Continuous
 62
     3
370
    25
100
AcDbLine
 10
496.75
 20
408.6520650813514
 30
0.0
 11
496.75
 21
380.1551420328877
 31
0.0
  0
LINE
  5
23F
330
1F
100
AcDbEntity
  8
Layer0000
  6
Continuous
 62
     3
370
    25
100
AcDbLine
 10
497.75
 20
409.6520650813514
 30
0.0
 11
496.75
 21
408.6520650813514
 31
0.0
  0
LINE
  5
240
330
1F
100
AcDbEntity
  8
Layer0000
  6
Continuous
 62
     3
370
    25
100
AcDbLine
 10
497.75
 20
209.6520650813517
 30
0.0
 11
496.75
 21
210.6520650813517
 31
0.0
  0
LINE
  5
241
330
1F
100
AcDbEntity
  8
Layer0000
  6
Continuous
 62
     3
370
    25
100
AcDbLine
 10
480.75
 20
277.6520650813517
 30
0.0
 11
480.75
 21
341.6520650813516
 31
0.0
  0
ARC
  5
242
330
1F
100
AcDbEntity
  8
Layer0000
  6
Continuous
 62
     3
370
    25
100
AcDbCircle
 10
477.75
 20
277.6520650813517
 30
0.0
 40
3.0
100
AcDbArc
 50
270.0
 51
0.0
  0
ARC
  5
243
330
1F
100
AcDbEntity
  8
Layer0000
  6
Continuous
 62
     3
370
    25
100
AcDbCircle
 10
477.75
 20
341.6520650813516
 30
0.0
 40
3.0
100
AcDbArc
 50
0.0
 51
90.0
  0
LINE
  5
244
330
1F
100
AcDbEntity
  8
Layer0000
  6
Continuous
 62
     3
370
    25
100
AcDbLine
 10
518.75
 20
210.6520650813517
 30
0.0
 11
518.75
 21
408.6520650813514
 31
0.0
  0
LINE
  5
245
330
1F
100
AcDbEntity
  8
Layer0000
  6
Continuous
 62
     3
370
    25
100
AcDbLine
 10
444.7500000000001
 20
245.1520650813518
 30
0.0
 11
444.7500000000001
 21
235.6520650813518
 31
0.0
  0
LINE
  5
246
330
1F
100
AcDbEntity
  8
Layer0000
  6
Continuous
 62
     3
370
    25
100
AcDbLine
 10
444.7500000000001
 20
235.6520650813518
 30
0.0
 11
445.2500000000001
 21
235.1520650813518
 31
0.0
  0
LINE
  5
247
330
1F
100
AcDbEntity
  8
Layer0000
  6
Continuous
 62
     3
370
    25
100
AcDbLine
 10
444.7500000000001
 20
225.1520650813518
 30
0.0
 11
444.7500000000001
 21
227.6520650813518
 31
0.0
  0
LINE
  5
248
330
1F
100
AcDbEntity
  8
Layer0000
  6
Continuous
 62
     3
370
    25
100
AcDbLine
 10
444.7500000000001
 20
227.6520650813518
 30
0.0
 11
445.2500000000001
 21
228.1520650813518
 31
0.0
  0
LINE
  5
249
330
1F
100
AcDbEntity
  8
Layer0000
  6
Continuous
 62
     3
370
    25
100
AcDbLine
 10
444.7500000000001
 20
225.1520650813518
 30
0.0
 11
445.7500000000001
 21
224.1520650813518
 31
0.0
  0
LINE
  5
24A
330
1F
100
AcDbEntity
  8
Layer0000
  6
Continuous
 62
     3
370
    25
100
AcDbLine
 10
445.7500000000001
 20
224.1520650813518
 30
0.0
 11
467.75
 21
224.1520650813518
 31
0.0
  0
LINE
  5
24B
330
1F
100
AcDbEntity
  8
Layer0000
  6
Continuous
 62
     3
370
    25
100
AcDbLine
 10
467.75
 20
224.1520650813518
 30
0.0
 11
468.75
 21
225.1520650813518
 31
0.0
  0
LINE
  5
24C
330
1F
100
AcDbEntity
  8
Layer0000
  6
Continuous
 62
     3
370
    25
100
AcDbLine
 10
468.75
 20
245.1520650813518
 30
0.0
 11
468.75
 21
235.6520650813518
 31
0.0
  0
LINE
  5
24D
330
1F
100
AcDbEntity
  8
Layer0000
  6
Continuous
 62
     3
370
    25
100
AcDbLine
 10
468.75
 20
235.6520650813518
 30
0.0
 11
468.25
 21
235.1520650813518
 31
0.0
  0
LINE
  5
24E
330
1F
100
AcDbEntity
  8
Layer0000
  6
Continuous
 62
     3
370
    25
100
AcDbLine
 10
468.75
 20
225.1520650813518
 30
0.0
 11
468.75
 21
227.6520650813518
 31
0.0
  0
LINE
  5
24F
330
1F
100
AcDbEntity
  8
Layer0000
  6
Continuous
 62
     3
370
    25
100
AcDbLine
 10
468.75
 20
227.6520650813518
 30
0.0
 11
468.25
 21
228.1520650813518
 31
0.0
  0
LINE
  5
250
330
1F
100
AcDbEntity
  8
Layer0000
  6
Continuous
 62
     3
370
    25
100
AcDbLine
 10
444.7500000000001
 20
225.1520650813518
 30
0.0
 11
468.75
 21
225.1520650813518
 31
0.0
  0
LINE
  5
251
330
1F
100
AcDbEntity
  8
Layer0000
  6
Continuous
 62
     3
370
    25
100
AcDbLine
 10
445.2500000000001
 20
228.1520650813518
 30
0.0
 11
468.25
 21
228.1520650813518
 31
0.0
  0
LINE
  5
252
330
1F
100
AcDbEntity
  8
Layer0000
  6
Continuous
 62
     3
370
    25
100
AcDbLine
 10
445.2500000000001
 20
235.1520650813518
 30
0.0
 11
468.25
 21
235.1520650813518
 31
0.0
  0
LINE
  5
253
330
1F
100
AcDbEntity
  8
Layer0000
  6
Continuous
 62
     3
370
    25
100
AcDbLine
 10
444.7500000000001
 20
235.6520650813518
 30
0.0
 11
468.75
 21
235.6520650813518
 31
0.0
  0
LINE
  5
254
330
1F
100
AcDbEntity
  8
Layer0000
  6
Continuous
 62
     3
370
    25
100
AcDbLine
 10
444.7500000000001
 20
227.6520650813518
 30
0.0
 11
468.75
 21
227.6520650813518
 31
0.0
  0
ARC
  5
255
330
1F
100
AcDbEntity
  8
Layer0000
  6
Continuous
 62
     3
370
    25
100
AcDbCircle
 10
444.05
 20
231.6520650813518
 30
0.0
 40
3.700000000000005
100
AcDbArc
 50
288.9246444160511
 51
71.07535558394896
  0
ARC
  5
256
330
1F
100
AcDbEntity
  8
Layer0000
  6
Continuous
 62
     3
370
    25
100
AcDbCircle
 10
469.45
 20
231.6520650813518
 30
0.0
 40
3.700000000000006
100
AcDbArc
 50
108.9246444160512
 51
251.0753555839489
  0
LINE
  5
257
330
1F
100
AcDbEntity
  8
Layer0000
  6
Continuous
 62
     3
370
    25
100
AcDbLine
 10
447.2858983848623
 20
380.1520650813516
 30
0.0
 11
466.2141016151379
 21
380.1520650813519
 31
0.0
  0
LINE
  5
258
330
1F
100
AcDbEntity
  8
Layer0000
  6
Continuous
 62
     3
370
    25
100
AcDbLine
 10
446.7500000000001
 20
378.1520650813517
 30
0.0
 11
466.75
 21
378.1520650813519
 31
0.0
  0
LINE
  5
259
330
1F
100
AcDbEntity
  8
Layer0000
  6
Continuous
 62
     3
370
    25
100
AcDbLine
 10
466.75
 20
378.1520650813519
 30
0.0
 11
466.2141016151379
 21
380.1520650813519
 31
0.0
  0
LINE
  5
25A
330
1F
100
AcDbEntity
  8
Layer0000
  6
Continuous
 62
     3
370
    25
100
AcDbLine
 10
446.7500000000001
 20
378.1520650813517
 30
0.0
 11
447.2858983848623
 21
380.1520650813516
 31
0.0
  0
LINE
  5
25B
330
1F
100
AcDbEntity
  8
Layer0000
  6
Continuous
 62
     3
370
    25
100
AcDbLine
 10
467.75
 20
374.1520650813516
 30
0.0
 11
467.75
 21
375.1520650813532
 31
0.0
  0
LINE
  5
25C
330
1F
100
AcDbEntity
  8
Layer0000
  6
Continuous
 62
     3
370
    25
100
AcDbLine
 10
445.7500000000001
 20
374.1520650813516
 30
0.0
 11
445.7500000000001
 21
375.152065081352
 31
0.0
  0
LINE
  5
25D
330
1F
100
AcDbEntity
  8
Layer0000
  6
Continuous
 62
     3
370
    25
100
AcDbLine
 10
446.7500000000001
 20
378.1520650813517
 30
0.0
 11
446.7500000000001
 21
376.1520650813513
 31
0.0
  0
LINE
  5
25E
330
1F
100
AcDbEntity
  8
Layer0000
  6
Continuous
 62
     3
370
    25
100
AcDbLine
 10
466.75
 20
378.1520650813519
 30
0.0
 11
466.75
 21
376.1520650813522
 31
0.0
  0
LINE
  5
25F
330
1F
100
AcDbEntity
  8
Layer0000
  6
Continuous
 62
     3
370
    25
100
AcDbLine
 10
446.7500000000001
 20
376.1520650813513
 30
0.0
 11
466.75
 21
376.1520650813522
 31
0.0
  0
LINE
  5
260
330
1F
100
AcDbEntity
  8
Layer0000
  6
Continuous
 62
     3
370
    25
100
AcDbLine
 10
445.7500000000001
 20
375.152065081352
 30
0.0
 11
467.75
 21
375.1520650813532
 31
0.0
  0
LINE
  5
261
330
1F
100
AcDbEntity
  8
Layer0000
  6
Continuous
 62
     3
370
    25
100
AcDbLine
 10
467.75
 20
375.1520650813532
 30
0.0
 11
466.750000000002
 21
376.1520650813522
 31
0.0
  0
LINE
  5
262
330
1F
100
AcDbEntity
  8
Layer0000
  6
Continuous
 62
     3
370
    25
100
AcDbLine
 10
445.7500000000001
 20
375.152065081352
 30
0.0
 11
446.7500000000001
 21
376.152065081352
 31
0.0
  0
LINE
  5
263
330
1F
100
AcDbEntity
  8
Layer0000
  6
Continuous
 62
     3
370
    25
100
AcDbLine
 10
412.7499999999999
 20
307.9200142737829
 30
0.0
 11
414.2499999999999
 21
308.7860396775673
 31
0.0
  0
LINE
  5
264
330
1F
100
AcDbEntity
  8
Layer0000
  6
Continuous
 62
     3
370
    25
100
AcDbLine
 10
414.2499999999999
 20
308.7860396775673
 30
0.0
 11
414.2499999999999
 21
310.5180904851362
 31
0.0
  0
LINE
  5
265
330
1F
100
AcDbEntity
  8
Layer0000
  6
Continuous
 62
     3
370
    25
100
AcDbLine
 10
411.2499999999999
 20
310.5180904851362
 30
0.0
 11
411.2499999999999
 21
308.7860396775673
 31
0.0
  0
LINE
  5
266
330
1F
100
AcDbEntity
  8
Layer0000
  6
Continuous
 62
     3
370
    25
100
AcDbLine
 10
411.2499999999999
 20
308.7860396775673
 30
0.0
 11
412.7499999999999
 21
307.9200142737829
 31
0.0
  0
CIRCLE
  5
267
330
1F
100
AcDbEntity
  8
Layer0000
  6
Continuous
 62
     3
370
    25
100
AcDbCircle
 10
385.7499999999999
 20
282.6520650813517
 30
0.0
 40
2.807179676972453
  0
CIRCLE
  5
268
330
1F
100
AcDbEntity
  8
Layer0000
  6
Continuous
 62
     3
370
    25
100
AcDbCircle
 10
385.7499999999999
 20
282.6520650813517
 30
0.0
 40
3.5
  0
LINE
  5
269
330
1F
100
AcDbEntity
  8
Layer0000
  6
Continuous
 62
     3
370
    25
100
AcDbLine
 10
385.7499999999999
 20
280.9200142737829
 30
0.0
 11
387.2499999999999
 21
281.7860396775673
 31
0.0
  0
LINE
  5
26A
330
1F
100
AcDbEntity
  8
Layer0000
  6
Continuous
 62
     3
370
    25
100
AcDbLine
 10
387.2499999999999
 20
281.7860396775673
 30
0.0
 11
387.2499999999999
 21
283.5180904851362
 31
0.0
  0
LINE
  5
26B
330
1F
100
AcDbEntity
  8
Layer0000
  6
Continuous
 62
     3
370
    25
100
AcDbLine
 10
387.2499999999999
 20
283.5180904851362
 30
0.0
 11
385.7499999999999
 21
284.3841158889206
 31
0.0
  0
LINE
  5
26C
330
1F
100
AcDbEntity
  8
Layer0000
  6
Continuous
 62
     3
370
    25
100
AcDbLine
 10
385.7499999999999
 20
284.3841158889206
 30
0.0
 11
384.2499999999999
 21
283.5180904851362
 31
0.0
  0
LINE
  5
26D
330
1F
100
AcDbEntity
  8
Layer0000
  6
Continuous
 62
     3
370
    25
100
AcDbLine
 10
384.2499999999999
 20
283.5180904851362
 30
0.0
 11
384.2499999999999
 21
281.7860396775673
 31
0.0
  0
LINE
  5
26E
330
1F
100
AcDbEntity
  8
Layer0000
  6
Continuous
 62
     3
370
    25
100
AcDbLine
 10
384.2499999999999
 20
281.7860396775673
 30
0.0
 11
385.7499999999999
 21
280.9200142737829
 31
0.0
  0
LINE
  5
26F
330
1F
100
AcDbEntity
  8
Layer0000
  6
Continuous
 62
     3
370
    25
100
AcDbLine
 10
358.7499999999999
 20
307.9200142737829
 30
0.0
 11
360.2499999999999
 21
308.7860396775673
 31
0.0
  0
LINE
  5
270
330
1F
100
AcDbEntity
  8
Layer0000
  6
Continuous
 62
     3
370
    25
100
AcDbLine
 10
357.2499999999999
 20
308.7860396775673
 30
0.0
 11
358.7499999999999
 21
307.9200142737829
 31
0.0
  0
LINE
  5
271
330
1F
100
AcDbEntity
  8
Layer0000
  6
Continuous
 62
     3
370
    25
100
AcDbLine
 10
360.2499999999999
 20
308.7860396775673
 30
0.0
 11
360.2499999999999
 21
310.5180904851362
 31
0.0
  0
LINE
  5
272
330
1F
100
AcDbEntity
  8
Layer0000
  6
Continuous
 62
     3
370
    25
100
AcDbLine
 10
357.2499999999999
 20
310.5180904851362
 30
0.0
 11
357.2499999999999
 21
308.7860396775673
 31
0.0
  0
LINE
  5
273
330
1F
100
AcDbEntity
  8
Layer0000
  6
Continuous
 62
     3
370
    25
100
AcDbLine
 10
395.4833008349333
 20
294.5106366528088
 30
0.0
 11
403.7295120861687
 21
308.7934935098946
 31
0.0
  0
LINE
  5
274
330
1F
100
AcDbEntity
  8
Layer0000
  6
Continuous
 62
     3
370
    25
100
AcDbLine
 10
377.5037887487646
 20
293.6520650813517
 30
0.0
 11
393.9962112512353
 21
293.6520650813517
 31
0.0
  0
ARC
  5
275
330
1F
100
AcDbEntity
  8
Layer0000
  6
Continuous
 62
     3
370
    25
100
AcDbCircle
 10
385.7499999999999
 20
309.6520650813517
 30
0.0
 40
16.5
100
AcDbArc
 50
224.1411102339325
 51
255.8588897660675
  0
LINE
  5
276
330
1F
100
AcDbEntity
  8
Layer0000
  6
Continuous
 62
     3
370
    25
100
AcDbLine
 10
367.7704879138313
 20
308.7934935098945
 30
0.0
 11
376.0166991650667
 21
294.5106366528088
 31
0.0
  0
ARC
  5
277
330
1F
100
AcDbEntity
  8
Layer0000
  6
Continuous
 62
     3
370
    25
100
AcDbCircle
 10
385.7499999999999
 20
309.6520650813517
 30
0.0
 40
16.5
100
AcDbArc
 50
284.1411102339325
 51
315.8588897660687
  0
ARC
  5
278
330
1F
100
AcDbEntity
  8
Layer0000
  6
Continuous
 62
     3
370
    25
100
AcDbCircle
 10
385.7499999999999
 20
309.6520650813517
 30
0.0
 40
16.5
100
AcDbArc
 50
344.1411102339315
 51
15.85888976606875
  0
ARC
  5
279
330
1F
100
AcDbEntity
  8
Layer0000
  6
Continuous
 62
     3
370
    25
100
AcDbCircle
 10
385.7499999999999
 20
309.6520650813517
 30
0.0
 40
16.5
100
AcDbArc
 50
164.1411102339329
 51
195.8588897660675
  0
LINE
  5
27A
330
1F
100
AcDbEntity
  8
Layer0000
  6
Continuous
 62
     3
370
    25
100
AcDbLine
 10
391.7411733584524
 20
301.0290817351443
 30
0.0
 11
396.2133093134519
 21
308.7750484275592
 31
0.0
  0
LINE
  5
27B
330
1F
100
AcDbEntity
  8
Layer0000
  6
Continuous
 62
     3
370
    25
100
AcDbLine
 10
375.2866906865481
 20
308.7750484275591
 30
0.0
 11
379.7588266415476
 21
301.0290817351443
 31
0.0
  0
LINE
  5
27C
330
1F
100
AcDbEntity
  8
Layer0000
  6
Continuous
 62
     3
370
    25
100
AcDbLine
 10
381.2778640450004
 20
300.1520650813517
 30
0.0
 11
390.2221359549995
 21
300.1520650813517
 31
0.0
  0
ARC
  5
27D
330
1F
100
AcDbEntity
  8
Layer0000
  6
Continuous
 62
     3
370
    25
100
AcDbCircle
 10
385.7499999999999
 20
309.6520650813517
 30
0.0
 40
10.5
100
AcDbArc
 50
235.2087652967585
 51
244.7912347032416
  0
ARC
  5
27E
330
1F
100
AcDbEntity
  8
Layer0000
  6
Continuous
 62
     3
370
    25
100
AcDbCircle
 10
385.7499999999999
 20
309.6520650813517
 30
0.0
 40
10.5
100
AcDbArc
 50
295.2087652967583
 51
304.7912347032418
  0
ARC
  5
27F
330
1F
100
AcDbEntity
  8
Layer0000
  6
Continuous
 62
     3
370
    25
100
AcDbCircle
 10
385.7499999999999
 20
309.6520650813517
 30
0.0
 40
10.5
100
AcDbArc
 50
355.2087652967584
 51
4.791234703242167
  0
ARC
  5
280
330
1F
100
AcDbEntity
  8
Layer0000
  6
Continuous
 62
     3
370
    25
100
AcDbCircle
 10
385.7499999999999
 20
309.6520650813517
 30
0.0
 40
10.5
100
AcDbArc
 50
175.2087652967591
 51
184.7912347032415
  0
ARC
  5
281
330
1F
100
AcDbEntity
  8
Layer0000
  6
Continuous
 62
     3
370
    25
100
AcDbCircle
 10
411.7499999999999
 20
339.1520650813517
 30
0.0
 40
6.0
100
AcDbArc
 50
324.3033833985198
 51
0.0
  0
LINE
  5
282
330
1F
100
AcDbEntity
  8
Layer0000
  6
Continuous
 62
     3
370
    25
100
AcDbLine
 10
417.7499999999999
 20
339.1520650813517
 30
0.0
 11
417.7499999999999
 21
339.6520650813517
 31
0.0
  0
CIRCLE
  5
283
330
1F
100
AcDbEntity
  8
Layer0000
  6
Continuous
 62
     3
370
    25
100
AcDbCircle
 10
385.7499999999999
 20
309.6520650813517
 30
0.0
 40
17.99999999999989
  0
LINE
  5
284
330
1F
100
AcDbEntity
  8
Layer0000
  6
Continuous
 62
     3
370
    25
100
AcDbLine
 10
417.7499999999999
 20
339.6520650813517
 30
0.0
 11
417.7499999999999
 21
343.6520650813516
 31
0.0
  0
LINE
  5
285
330
1F
100
AcDbEntity
  8
Layer0000
  6
Continuous
 62
     3
370
    25
100
AcDbLine
 10
473.75
 20
344.6520650813515
 30
0.0
 11
480.75
 21
337.6520650813515
 31
0.0
  0
LINE
  5
286
330
1F
100
AcDbEntity
  8
Layer0000
  6
Continuous
 62
     3
370
    25
100
AcDbLine
 10
473.75
 20
274.6520650813516
 30
0.0
 11
480.75
 21
281.6520650813516
 31
0.0
  0
LINE
  5
287
330
1F
100
AcDbEntity
  8
Layer0000
  6
Continuous
 62
     3
370
    25
100
AcDbLine
 10
428.2499999999999
 20
409.1520650813517
 30
0.0
 11
348.7499999999999
 21
409.1520650813517
 31
0.0
  0
LINE
  5
288
330
1F
100
AcDbEntity
  8
Layer0000
  6
Continuous
 62
     3
370
    25
100
AcDbLine
 10
428.2499999999999
 20
210.1520650813518
 30
0.0
 11
348.7499999999999
 21
210.1520650813518
 31
0.0
  0
LINE
  5
289
330
1F
100
AcDbEntity
  8
Layer0000
  6
Continuous
 62
     3
370
    25
100
AcDbLine
 10
347.7499999999999
 20
211.1520650813518
 30
0.0
 11
347.7499999999999
 21
408.1520650813517
 31
0.0
  0
LINE
  5
28A
330
1F
100
AcDbEntity
  8
Layer0000
  6
Continuous
 62
     3
370
    25
100
AcDbLine
 10
428.7499999999999
 20
210.6520650813518
 30
0.0
 11
428.7499999999999
 21
244.1520650813518
 31
0.0
  0
LINE
  5
28B
330
1F
100
AcDbEntity
  8
Layer0000
  6
Continuous
 62
     3
370
    25
100
AcDbLine
 10
428.7499999999999
 20
375.1520650813516
 30
0.0
 11
428.7499999999999
 21
408.6520650813517
 31
0.0
  0
LINE
  5
28C
330
1F
100
AcDbEntity
  8
Layer0000
  6
Continuous
 62
     3
370
    25
100
AcDbLine
 10
428.2499999999999
 20
229.6520650813518
 30
0.0
 11
428.7499999999999
 21
229.1520650813518
 31
0.0
  0
LINE
  5
28D
330
1F
100
AcDbEntity
  8
Layer0000
  6
Continuous
 62
     3
370
    25
100
AcDbLine
 10
428.7499999999999
 20
210.6520650813518
 30
0.0
 11
428.2499999999999
 21
210.1520650813518
 31
0.0
  0
LINE
  5
28E
330
1F
100
AcDbEntity
  8
Layer0000
  6
Continuous
 62
     3
370
    25
100
AcDbLine
 10
428.7499999999999
 20
408.6520650813517
 30
0.0
 11
428.2499999999999
 21
409.1520650813517
 31
0.0
  0
LINE
  5
28F
330
1F
100
AcDbEntity
  8
Layer0000
  6
Continuous
 62
     3
370
    25
100
AcDbLine
 10
428.7499999999999
 20
390.1520650813516
 30
0.0
 11
428.2499999999999
 21
389.6520650813516
 31
0.0
  0
LINE
  5
290
330
1F
100
AcDbEntity
  8
Layer0000
  6
Continuous
 62
     3
370
    25
100
AcDbLine
 10
429.2499999999999
 20
210.1520650813518
 30
0.0
 11
428.7499999999999
 21
210.6520650813518
 31
0.0
  0
LINE
  5
291
330
1F
100
AcDbEntity
  8
Layer0000
  6
Continuous
 62
     3
370
    25
100
AcDbLine
 10
429.2499999999999
 20
210.1520650813518
 30
0.0
 11
440.2499999999999
 21
210.1520650813518
 31
0.0
  0
LINE
  5
292
330
1F
100
AcDbEntity
  8
Layer0000
  6
Continuous
 62
     3
370
    25
100
AcDbLine
 10
440.2499999999999
 20
210.1520650813518
 30
0.0
 11
440.7499999999999
 21
210.6520650813518
 31
0.0
  0
LINE
  5
293
330
1F
100
AcDbEntity
  8
Layer0000
  6
Continuous
 62
     3
370
    25
100
AcDbLine
 10
440.2499999999999
 20
242.1520650813518
 30
0.0
 11
429.2499999999999
 21
242.1520650813518
 31
0.0
  0
LINE
  5
294
330
1F
100
AcDbEntity
  8
Layer0000
  6
Continuous
 62
     3
370
    25
100
AcDbLine
 10
440.7499999999999
 20
241.6520650813518
 30
0.0
 11
440.2499999999999
 21
242.1520650813518
 31
0.0
  0
LINE
  5
295
330
1F
100
AcDbEntity
  8
Layer0000
  6
Continuous
 62
     3
370
    25
100
AcDbLine
 10
428.7499999999999
 20
241.6520650813518
 30
0.0
 11
429.2499999999999
 21
242.1520650813518
 31
0.0
  0
LINE
  5
296
330
1F
100
AcDbEntity
  8
Layer0000
  6
Continuous
 62
     3
370
    25
100
AcDbLine
 10
440.7499999999999
 20
210.6520650813518
 30
0.0
 11
440.7499999999999
 21
241.6520650813518
 31
0.0
  0
LINE
  5
297
330
1F
100
AcDbEntity
  8
Layer0000
  6
Continuous
 62
     3
370
    25
100
AcDbLine
 10
441.7499999999999
 20
228.0736041122691
 30
0.0
 11
441.7499999999999
 21
214.2305260504342
 31
0.0
  0
LINE
  5
298
330
1F
100
AcDbEntity
  8
Layer0000
  6
Continuous
 62
     3
370
    25
100
AcDbLine
 10
441.7499999999999
 20
228.0736041122691
 30
0.0
 11
440.7499999999999
 21
229.8056549198379
 31
0.0
  0
LINE
  5
299
330
1F
100
AcDbEntity
  8
Layer0000
  6
Continuous
 62
     3
370
    25
100
AcDbLine
 10
441.7499999999999
 20
214.2305260504342
 30
0.0
 11
440.7499999999999
 21
212.4984752428654
 31
0.0
  0
LINE
  5
29A
330
1F
100
AcDbEntity
  8
Layer0000
  6
Continuous
 62
     3
370
    25
100
AcDbLine
 10
440.2499999999999
 20
409.1520650813517
 30
0.0
 11
440.7499999999999
 21
408.6520650813517
 31
0.0
  0
LINE
  5
29B
330
1F
100
AcDbEntity
  8
Layer0000
  6
Continuous
 62
     3
370
    25
100
AcDbLine
 10
440.7499999999999
 20
377.6520650813517
 30
0.0
 11
440.2499999999999
 21
377.1520650813517
 31
0.0
  0
LINE
  5
29C
330
1F
100
AcDbEntity
  8
Layer0000
  6
Continuous
 62
     3
370
    25
100
AcDbLine
 10
440.7499999999999
 20
408.6520650813517
 30
0.0
 11
440.7499999999999
 21
377.6520650813517
 31
0.0
  0
LINE
  5
29D
330
1F
100
AcDbEntity
  8
Layer0000
  6
Continuous
 62
     3
370
    25
100
AcDbLine
 10
440.2499999999999
 20
377.1520650813517
 30
0.0
 11
429.2499999999999
 21
377.1520650813517
 31
0.0
  0
LINE
  5
29E
330
1F
100
AcDbEntity
  8
Layer0000
  6
Continuous
 62
     3
370
    25
100
AcDbLine
 10
428.7499999999999
 20
377.6520650813517
 30
0.0
 11
429.2499999999999
 21
377.1520650813517
 31
0.0
  0
LINE
  5
29F
330
1F
100
AcDbEntity
  8
Layer0000
  6
Continuous
 62
     3
370
    25
100
AcDbLine
 10
441.7499999999999
 20
391.2305260504344
 30
0.0
 11
441.7499999999999
 21
405.0736041122693
 31
0.0
  0
LINE
  5
2A0
330
1F
100
AcDbEntity
  8
Layer0000
  6
Continuous
 62
     3
370
    25
100
AcDbLine
 10
441.7499999999999
 20
391.2305260504344
 30
0.0
 11
440.7499999999999
 21
389.4984752428656
 31
0.0
  0
LINE
  5
2A1
330
1F
100
AcDbEntity
  8
Layer0000
  6
Continuous
 62
     3
370
    25
100
AcDbLine
 10
441.7499999999999
 20
405.0736041122693
 30
0.0
 11
440.7499999999999
 21
406.8056549198381
 31
0.0
  0
LINE
  5
2A2
330
1F
100
AcDbEntity
  8
Layer0000
  6
Continuous
 62
     3
370
    25
100
AcDbLine
 10
429.2499999999999
 20
409.1520650813517
 30
0.0
 11
440.2499999999999
 21
409.1520650813517
 31
0.0
  0
LINE
  5
2A3
330
1F
100
AcDbEntity
  8
Layer0000
  6
Continuous
 62
     3
370
    25
100
AcDbLine
 10
429.2499999999999
 20
409.1520650813517
 30
0.0
 11
428.7499999999999
 21
408.6520650813517
 31
0.0
  0
LINE
  5
2A4
330
1F
100
AcDbEntity
  8
Layer0000
  6
Continuous
 62
     3
370
    25
100
AcDbLine
 10
422.7499999999999
 20
299.6520650813519
 30
0.0
 11
413.7499999999999
 21
276.1520650813516
 31
0.0
  0
LINE
  5
2A5
330
1F
100
AcDbEntity
  8
Layer0000
  6
Continuous
 62
     3
370
    25
100
AcDbLine
 10
413.7499999999999
 20
276.1520650813516
 30
0.0
 11
408.2499999999999
 21
276.1520650813516
 31
0.0
  0
LINE
  5
2A6
330
1F
100
AcDbEntity
  8
Layer0000
  6
Continuous
 62
     3
370
    25
100
AcDbLine
 10
408.2499999999999
 20
266.1520650813516
 30
0.0
 11
408.2499999999999
 21
276.1520650813516
 31
0.0
  0
LINE
  5
2A7
330
1F
100
AcDbEntity
  8
Layer0000
  6
Continuous
 62
     3
370
    25
100
AcDbLine
 10
408.7499999999999
 20
266.1520650813516
 30
0.0
 11
408.2499999999999
 21
266.1520650813516
 31
0.0
  0
LINE
  5
2A8
330
1F
100
AcDbEntity
  8
Layer0000
  6
Continuous
 62
     3
370
    25
100
AcDbLine
 10
417.7499999999999
 20
343.6520650813516
 30
0.0
 11
418.7499999999999
 21
344.6520650813516
 31
0.0
  0
ARC
  5
2A9
330
1F
100
AcDbEntity
  8
Layer0000
  6
Continuous
 62
     3
370
    25
100
AcDbCircle
 10
411.7499999999999
 20
280.1520650813517
 30
0.0
 40
6.0
100
AcDbArc
 50
0.0
 51
35.69661660147899
  0
LINE
  5
2AA
330
1F
100
AcDbEntity
  8
Layer0000
  6
Continuous
 62
     3
370
    25
100
AcDbLine
 10
417.7499999999999
 20
280.1520650813517
 30
0.0
 11
417.7499999999999
 21
279.6520650813517
 31
0.0
  0
LINE
  5
2AB
330
1F
100
AcDbEntity
  8
Layer0000
  6
Continuous
 62
     3
370
    25
100
AcDbLine
 10
417.7499999999999
 20
279.6520650813517
 30
0.0
 11
417.7499999999999
 21
275.6520650813517
 31
0.0
  0
LINE
  5
2AC
330
1F
100
AcDbEntity
  8
Layer0000
  6
Continuous
 62
     3
370
    25
100
AcDbLine
 10
417.7499999999999
 20
275.6520650813517
 30
0.0
 11
418.7499999999999
 21
274.6520650813517
 31
0.0
  0
LINE
  5
2AD
330
1F
100
AcDbEntity
  8
Layer0000
  6
Continuous
 62
     3
370
    25
100
AcDbLine
 10
436.7499999999999
 20
274.6520650813517
 30
0.0
 11
436.7499999999999
 21
344.6520650813516
 31
0.0
  0
LINE
  5
2AE
330
1F
100
AcDbEntity
  8
Layer0000
  6
Continuous
 62
     3
370
    25
100
AcDbLine
 10
347.75
 20
267.6520650813517
 30
0.0
 11
352.25
 21
267.6520650813517
 31
0.0
  0
LINE
  5
2AF
330
1F
100
AcDbEntity
  8
Layer0000
  6
Continuous
 62
     3
370
    25
100
AcDbLine
 10
347.75
 20
251.6520650813518
 30
0.0
 11
352.25
 21
251.6520650813518
 31
0.0
  0
LINE
  5
2B0
330
1F
100
AcDbEntity
  8
Layer0000
  6
Continuous
 62
     3
370
    25
100
AcDbLine
 10
352.25
 20
267.6520650813517
 30
0.0
 11
352.25
 21
251.6520650813518
 31
0.0
  0
LINE
  5
2B1
330
1F
100
AcDbEntity
  8
Layer0000
  6
Continuous
 62
     3
370
    25
100
AcDbLine
 10
347.7499999999999
 20
351.6520650813517
 30
0.0
 11
352.2499999999999
 21
351.6520650813517
 31
0.0
  0
LINE
  5
2B2
330
1F
100
AcDbEntity
  8
Layer0000
  6
Continuous
 62
     3
370
    25
100
AcDbLine
 10
347.7499999999999
 20
367.6520650813517
 30
0.0
 11
352.2499999999999
 21
367.6520650813517
 31
0.0
  0
LINE
  5
2B3
330
1F
100
AcDbEntity
  8
Layer0000
  6
Continuous
 62
     3
370
    25
100
AcDbLine
 10
352.2499999999999
 20
351.6520650813517
 30
0.0
 11
352.2499999999999
 21
367.6520650813517
 31
0.0
  0
LINE
  5
2B4
330
1F
100
AcDbEntity
  8
Layer0000
  6
Continuous
 62
     3
370
    25
100
AcDbLine
 10
347.7499999999999
 20
211.1520650813518
 30
0.0
 11
348.7499999999999
 21
210.1520650813518
 31
0.0
  0
LINE
  5
2B5
330
1F
100
AcDbEntity
  8
Layer0000
  6
Continuous
 62
     3
370
    25
100
AcDbLine
 10
347.7499999999999
 20
408.1520650813517
 30
0.0
 11
348.7499999999999
 21
409.1520650813517
 31
0.0
  0
LINE
  5
2B6
330
1F
100
AcDbEntity
  8
Layer0000
  6
Continuous
 62
     3
370
    25
100
AcDbLine
 10
413.7499999999999
 20
343.1520650813519
 30
0.0
 11
408.2499999999999
 21
343.1520650813519
 31
0.0
  0
LINE
  5
2B7
330
1F
100
AcDbEntity
  8
Layer0000
  6
Continuous
 62
     3
370
    25
100
AcDbLine
 10
408.2499999999999
 20
353.1520650813519
 30
0.0
 11
408.2499999999999
 21
343.1520650813519
 31
0.0
  0
LINE
  5
2B8
330
1F
100
AcDbEntity
  8
Layer0000
  6
Continuous
 62
     3
370
    25
100
AcDbLine
 10
408.7499999999999
 20
353.1520650813519
 30
0.0
 11
408.2499999999999
 21
353.1520650813519
 31
0.0
  0
LINE
  5
2B9
330
1F
100
AcDbEntity
  8
Layer0000
  6
Continuous
 62
     3
370
    25
100
AcDbLine
 10
422.7499999999999
 20
319.6520650813514
 30
0.0
 11
413.7499999999999
 21
343.1520650813519
 31
0.0
  0
LINE
  5
2BA
330
1F
100
AcDbEntity
  8
Layer0000
  6
Continuous
 62
     3
370
    25
100
AcDbLine
 10
422.7499999999999
 20
319.6520650813513
 30
0.0
 11
422.7499999999999
 21
299.6520650813519
 31
0.0
  0
LINE
  5
2BB
330
1F
100
AcDbEntity
  8
Layer0000
  6
Continuous
 62
     3
370
    25
100
AcDbLine
 10
-382.7499999999999
 20
-210.3479349186483
 30
0.0
 11
-382.7499999999999
 21
-206.3479349186483
 31
0.0
  0
LINE
  5
2BC
330
1F
100
AcDbEntity
  8
Layer0000
  6
Continuous
 62
     3
370
    25
100
AcDbLine
 10
-382.7499999999999
 20
-206.3479349186483
 30
0.0
 11
-364.7499999999999
 21
-206.3479349186483
 31
0.0
  0
LINE
  5
2BD
330
1F
100
AcDbEntity
  8
Layer0000
  6
Continuous
 62
     3
370
    25
100
AcDbLine
 10
-364.7499999999999
 20
-206.3479349186483
 30
0.0
 11
-364.7499999999999
 21
-210.3479349186483
 31
0.0
  0
LINE
  5
2BE
330
1F
100
AcDbEntity
  8
Layer0000
  6
Continuous
 62
     3
370
    25
100
AcDbLine
 10
-262.7499999999999
 20
-210.3479349186483
 30
0.0
 11
-262.7499999999999
 21
-206.3479349186483
 31
0.0
  0
LINE
  5
2BF
330
1F
100
AcDbEntity
  8
Layer0000
  6
Continuous
 62
     3
370
    25
100
AcDbLine
 10
-262.7499999999999
 20
-206.3479349186483
 30
0.0
 11
-244.7499999999999
 21
-206.3479349186483
 31
0.0
  0
LINE
  5
2C0
330
1F
100
AcDbEntity
  8
Layer0000
  6
Continuous
 62
     3
370
    25
100
AcDbLine
 10
-244.7499999999999
 20
-206.3479349186483
 30
0.0
 11
-244.7499999999999
 21
-210.3479349186483
 31
0.0
  0
LINE
  5
2C1
330
1F
100
AcDbEntity
  8
Layer0000
  6
Continuous
 62
     3
370
    25
100
AcDbLine
 10
118.5500000000003
 20
-39.84793491864829
 30
0.0
 11
118.5500000000003
 21
-43.84793491864829
 31
0.0
  0
LINE
  5
2C2
330
1F
100
AcDbEntity
  8
Layer0000
  6
Continuous
 62
     3
370
    25
100
AcDbLine
 10
102.5500000000003
 20
-39.84793491864829
 30
0.0
 11
102.5500000000003
 21
-43.84793491864829
 31
0.0
  0
LINE
  5
2C3
330
1F
100
AcDbEntity
  8
Layer0000
  6
Continuous
 62
     3
370
    25
100
AcDbLine
 10
102.5500000000003
 20
-43.84793491864829
 30
0.0
 11
118.5500000000003
 21
-43.84793491864829
 31
0.0
  0
LINE
  5
2C4
330
1F
100
AcDbEntity
  8
Layer0000
  6
Continuous
 62
     3
370
    25
100
AcDbLine
 10
20.5500000000003
 20
-39.84793491864832
 30
0.0
 11
20.5500000000003
 21
-43.84793491864829
 31
0.0
  0
LINE
  5
2C5
330
1F
100
AcDbEntity
  8
Layer0000
  6
Continuous
 62
     3
370
    25
100
AcDbLine
 10
4.550000000000303
 20
-39.84793491864826
 30
0.0
 11
4.550000000000303
 21
-43.84793491864829
 31
0.0
  0
LINE
  5
2C6
330
1F
100
AcDbEntity
  8
Layer0000
  6
Continuous
 62
     3
370
    25
100
AcDbLine
 10
4.550000000000303
 20
-43.84793491864829
 30
0.0
 11
20.5500000000003
 21
-43.84793491864829
 31
0.0
  0
LINE
  5
2C7
330
1F
100
AcDbEntity
  8
Layer0000
  6
Continuous
 62
     3
370
    25
100
AcDbLine
 10
102.5500000000003
 20
-39.84793491864829
 30
0.0
 11
102.0500000000003
 21
-39.34793491864829
 31
0.0
  0
LINE
  5
2C8
330
1F
100
AcDbEntity
  8
Layer0000
  6
Continuous
 62
     3
370
    25
100
AcDbLine
 10
119.0500000000003
 20
-39.34793491864829
 30
0.0
 11
118.5500000000003
 21
-39.84793491864829
 31
0.0
  0
LINE
  5
2C9
330
1F
100
AcDbEntity
  8
Layer0000
  6
Continuous
 62
     3
370
    25
100
AcDbLine
 10
-34.94999999999982
 20
-39.34793491864829
 30
0.0
 11
142.5500000000002
 21
-39.34793491864829
 31
0.0
  0
LINE
  5
2CA
330
1F
100
AcDbEntity
  8
Layer0000
  6
Continuous
 62
     3
370
    25
100
AcDbLine
 10
4.550000000000331
 20
-39.84793491864829
 30
0.0
 11
4.050000000000331
 21
-39.34793491864829
 31
0.0
  0
LINE
  5
2CB
330
1F
100
AcDbEntity
  8
Layer0000
  6
Continuous
 62
     3
370
    25
100
AcDbLine
 10
21.05000000000033
 20
-39.34793491864829
 30
0.0
 11
20.55000000000033
 21
-39.84793491864829
 31
0.0
  0
LINE
  5
2CC
330
1F
100
AcDbEntity
  8
Layer0000
  6
Continuous
 62
     3
370
    25
100
AcDbLine
 10
71.24999999999994
 20
-173.8479349186484
 30
0.0
 11
-518.75
 21
-173.8479349186484
 31
0.0
  0
LINE
  5
2CD
330
1F
100
AcDbEntity
  8
Layer0000
  6
Continuous
 62
     3
370
    25
100
AcDbLine
 10
-35.44999999999973
 20
-131.8479358654116
 30
0.0
 11
-34.94999999999973
 21
-132.3479358654116
 31
0.0
  0
LINE
  5
2CE
330
1F
100
AcDbEntity
  8
Layer0000
  6
Continuous
 62
     3
370
    25
100
AcDbLine
 10
-35.44999999999976
 20
-120.8479358654116
 30
0.0
 11
-35.44999999999973
 21
-131.8479358654116
 31
0.0
  0
LINE
  5
2CF
330
1F
100
AcDbEntity
  8
Layer0000
  6
Continuous
 62
     3
370
    25
100
AcDbLine
 10
-35.44999999999976
 20
-120.8479358654116
 30
0.0
 11
-34.94999999999976
 21
-120.3479358654116
 31
0.0
  0
LINE
  5
2D0
330
1F
100
AcDbEntity
  8
Layer0000
  6
Continuous
 62
     3
370
    25
100
AcDbLine
 10
54.55000000000032
 20
-131.8479358654116
 30
0.0
 11
54.05000000000032
 21
-132.3479358654116
 31
0.0
  0
LINE
  5
2D1
330
1F
100
AcDbEntity
  8
Layer0000
  6
Continuous
 62
     3
370
    25
100
AcDbLine
 10
54.55000000000037
 20
-120.8479358654116
 30
0.0
 11
54.55000000000032
 21
-131.8479358654116
 31
0.0
  0
LINE
  5
2D2
330
1F
100
AcDbEntity
  8
Layer0000
  6
Continuous
 62
     3
370
    25
100
AcDbLine
 10
54.55000000000037
 20
-120.8479358654116
 30
0.0
 11
54.05000000000037
 21
-120.3479358654116
 31
0.0
  0
LINE
  5
2D3
330
1F
100
AcDbEntity
  8
Layer0000
  6
Continuous
 62
     3
370
    25
100
AcDbLine
 10
54.05000000000032
 20
-132.3479358654116
 30
0.0
 11
-34.94999999999973
 21
-132.3479358654116
 31
0.0
  0
LINE
  5
2D4
330
1F
100
AcDbEntity
  8
Layer0000
  6
Continuous
 62
     3
370
    25
100
AcDbLine
 10
54.55000000000035
 20
-125.3479358654115
 30
0.0
 11
71.24999999999994
 21
-125.3479358654115
 31
0.0
  0
LINE
  5
2D5
330
1F
100
AcDbEntity
  8
Layer0000
  6
Continuous
 62
     3
370
    25
100
AcDbLine
 10
-8.528460969082403
 20
-133.3479358654116
 30
0.0
 11
-22.37153903091723
 21
-133.3479358654116
 31
0.0
  0
LINE
  5
2D6
330
1F
100
AcDbEntity
  8
Layer0000
  6
Continuous
 62
     3
370
    25
100
AcDbLine
 10
-8.528460969082403
 20
-133.3479358654116
 30
0.0
 11
-6.796410161513563
 21
-132.3479358654116
 31
0.0
  0
LINE
  5
2D7
330
1F
100
AcDbEntity
  8
Layer0000
  6
Continuous
 62
     3
370
    25
100
AcDbLine
 10
-22.37153903091723
 20
-133.3479358654116
 30
0.0
 11
-24.10358983848607
 21
-132.3479358654116
 31
0.0
  0
LINE
  5
2D8
330
1F
100
AcDbEntity
  8
Layer0000
  6
Continuous
 62
     3
370
    25
100
AcDbLine
 10
16.4715390309176
 20
-133.3479358654116
 30
0.0
 11
2.628460969082766
 21
-133.3479358654116
 31
0.0
  0
LINE
  5
2D9
330
1F
100
AcDbEntity
  8
Layer0000
  6
Continuous
 62
     3
370
    25
100
AcDbLine
 10
16.4715390309176
 20
-133.3479358654116
 30
0.0
 11
18.20358983848644
 21
-132.3479358654116
 31
0.0
  0
LINE
  5
2DA
330
1F
100
AcDbEntity
  8
Layer0000
  6
Continuous
 62
     3
370
    25
100
AcDbLine
 10
2.628460969082766
 20
-133.3479358654116
 30
0.0
 11
0.896410161513927
 21
-132.3479358654116
 31
0.0
  0
LINE
  5
2DB
330
1F
100
AcDbEntity
  8
Layer0000
  6
Continuous
 62
     3
370
    25
100
AcDbLine
 10
41.4715390309176
 20
-133.3479358654116
 30
0.0
 11
27.62846096908277
 21
-133.3479358654116
 31
0.0
  0
LINE
  5
2DC
330
1F
100
AcDbEntity
  8
Layer0000
  6
Continuous
 62
     3
370
    25
100
AcDbLine
 10
41.4715390309176
 20
-133.3479358654116
 30
0.0
 11
43.20358983848644
 21
-132.3479358654116
 31
0.0
  0
LINE
  5
2DD
330
1F
100
AcDbEntity
  8
Layer0000
  6
Continuous
 62
     3
370
    25
100
AcDbLine
 10
27.62846096908277
 20
-133.3479358654116
 30
0.0
 11
25.89641016151393
 21
-132.3479358654116
 31
0.0
  0
LINE
  5
2DE
330
1F
100
AcDbEntity
  8
Layer0000
  6
Continuous
 62
     3
370
    25
100
AcDbLine
 10
-517.75
 20
409.1520650813517
 30
0.0
 11
-414.7499999999999
 21
409.1520650813517
 31
0.0
  0
LINE
  5
2DF
330
1F
100
AcDbEntity
  8
Layer0000
  6
Continuous
 62
     3
370
    25
100
AcDbLine
 10
-443.2499999999999
 20
311.0954407543258
 30
0.0
 11
-445.7499999999999
 21
312.5388164272999
 31
0.0
  0
LINE
  5
2E0
330
1F
100
AcDbEntity
  8
Layer0000
  6
Continuous
 62
     3
370
    25
100
AcDbLine
 10
-448.2499999999999
 20
311.0954407543258
 30
0.0
 11
-445.75
 21
312.5388164272999
 31
0.0
  0
CIRCLE
  5
2E1
330
1F
100
AcDbEntity
  8
Layer0000
  6
Continuous
 62
     3
370
    25
100
AcDbCircle
 10
-445.7499999999999
 20
309.6520650813517
 30
0.0
 40
4.189999999999998
  0
CIRCLE
  5
2E2
330
1F
100
AcDbEntity
  8
Layer0000
  6
Continuous
 62
     3
370
    25
100
AcDbCircle
 10
-445.7499999999999
 20
309.6520650813517
 30
0.0
 40
5.0
  0
LINE
  5
2E3
330
1F
100
AcDbEntity
  8
Layer0000
  6
Continuous
 62
     3
370
    25
100
AcDbLine
 10
-34.44999999999979
 20
210.1520650813518
 30
0.0
 11
142.5500000000002
 21
210.1520650813518
 31
0.0
  0
LINE
  5
2E4
330
1F
100
AcDbEntity
  8
Layer0000
  6
Continuous
 62
     3
370
    25
100
AcDbLine
 10
-34.44999999999979
 20
409.1520650813517
 30
0.0
 11
142.5500000000002
 21
409.1520650813517
 31
0.0
  0
LINE
  5
2E5
330
1F
100
AcDbEntity
  8
Layer0000
  6
Continuous
 62
     3
370
    25
100
AcDbLine
 10
143.5500000000002
 20
267.6520650813517
 30
0.0
 11
-35.44999999999979
 21
267.6520650813517
 31
0.0
  0
LINE
  5
2E6
330
1F
100
AcDbEntity
  8
Layer0000
  6
Continuous
 62
     3
370
    25
100
AcDbLine
 10
143.5500000000002
 20
351.6520650813517
 30
0.0
 11
-35.44999999999979
 21
351.6520650813517
 31
0.0
  0
LINE
  5
2E7
330
1F
100
AcDbEntity
  8
Layer0000
  6
Continuous
 62
     3
370
    25
100
AcDbLine
 10
20.55000000000029
 20
409.1520650813517
 30
0.0
 11
20.55000000000029
 21
367.6520650813517
 31
0.0
  0
LINE
  5
2E8
330
1F
100
AcDbEntity
  8
Layer0000
  6
Continuous
 62
     3
370
    25
100
AcDbLine
 10
20.55000000000029
 20
251.6520650813518
 30
0.0
 11
20.55000000000029
 21
210.1520650813518
 31
0.0
  0
LINE
  5
2E9
330
1F
100
AcDbEntity
  8
Layer0000
  6
Continuous
 62
     3
370
    25
100
AcDbLine
 10
4.55000000000029
 20
210.1520650813518
 30
0.0
 11
4.55000000000029
 21
251.6520650813518
 31
0.0
  0
LINE
  5
2EA
330
1F
100
AcDbEntity
  8
Layer0000
  6
Continuous
 62
     3
370
    25
100
AcDbLine
 10
4.55000000000029
 20
367.6520650813517
 30
0.0
 11
4.55000000000029
 21
409.1520650813517
 31
0.0
  0
LINE
  5
2EB
330
1F
100
AcDbEntity
  8
Layer0000
  6
Continuous
 62
     3
370
    25
100
AcDbLine
 10
4.55000000000029
 20
367.6520650813517
 30
0.0
 11
-35.44999999999979
 21
367.6520650813517
 31
0.0
  0
LINE
  5
2EC
330
1F
100
AcDbEntity
  8
Layer0000
  6
Continuous
 62
     3
370
    25
100
AcDbLine
 10
4.55000000000029
 20
251.6520650813518
 30
0.0
 11
-35.44999999999979
 21
251.6520650813518
 31
0.0
  0
LINE
  5
2ED
330
1F
100
AcDbEntity
  8
Layer0000
  6
Continuous
 62
     3
370
    25
100
AcDbLine
 10
367.7704879138313
 20
310.5106366528088
 30
0.0
 11
376.0166991650667
 21
324.7934935098945
 31
0.0
  0
LINE
  5
2EE
330
1F
100
AcDbEntity
  8
Layer0000
  6
Continuous
 62
     3
370
    25
100
AcDbLine
 10
377.5037887487646
 20
325.6520650813516
 30
0.0
 11
393.9962112512353
 21
325.6520650813516
 31
0.0
  0
ARC
  5
2EF
330
1F
100
AcDbEntity
  8
Layer0000
  6
Continuous
 62
     3
370
    25
100
AcDbCircle
 10
385.7499999999999
 20
309.6520650813517
 30
0.0
 40
16.5
100
AcDbArc
 50
104.1411102339325
 51
135.8588897660675
  0
ARC
  5
2F0
330
1F
100
AcDbEntity
  8
Layer0000
  6
Continuous
 62
     3
370
    25
100
AcDbCircle
 10
385.7499999999999
 20
309.6520650813517
 30
0.0
 40
16.5
100
AcDbArc
 50
44.1411102339313
 51
75.85888976606755
  0
LINE
  5
2F1
330
1F
100
AcDbEntity
  8
Layer0000
  6
Continuous
 62
     3
370
    25
100
AcDbLine
 10
381.2778640450004
 20
319.1520650813517
 30
0.0
 11
390.2221359549995
 21
319.1520650813517
 31
0.0
  0
LINE
  5
2F2
330
1F
100
AcDbEntity
  8
Layer0000
  6
Continuous
 62
     3
370
    25
100
AcDbLine
 10
395.4833008349333
 20
324.7934935098945
 30
0.0
 11
403.7295120861687
 21
310.5106366528088
 31
0.0
  0
LINE
  5
2F3
330
1F
100
AcDbEntity
  8
Layer0000
  6
Continuous
 62
     3
370
    25
100
AcDbLine
 10
375.2866906865481
 20
310.5290817351443
 30
0.0
 11
379.7588266415476
 21
318.2750484275592
 31
0.0
  0
ARC
  5
2F4
330
1F
100
AcDbEntity
  8
Layer0000
  6
Continuous
 62
     3
370
    25
100
AcDbCircle
 10
385.7499999999999
 20
309.6520650813517
 30
0.0
 40
10.5
100
AcDbArc
 50
115.2087652967583
 51
124.7912347032415
  0
ARC
  5
2F5
330
1F
100
AcDbEntity
  8
Layer0000
  6
Continuous
 62
     3
370
    25
100
AcDbCircle
 10
385.7499999999999
 20
309.6520650813517
 30
0.0
 40
10.5
100
AcDbArc
 50
55.20876529675823
 51
64.79123470324168
  0
LINE
  5
2F6
330
1F
100
AcDbEntity
  8
Layer0000
  6
Continuous
 62
     3
370
    25
100
AcDbLine
 10
391.7411733584524
 20
318.2750484275591
 30
0.0
 11
396.2133093134519
 21
310.5290817351443
 31
0.0
  0
CIRCLE
  5
2F7
330
1F
100
AcDbEntity
  8
Layer0000
  6
Continuous
 62
     3
370
    25
100
AcDbCircle
 10
385.7499999999999
 20
309.6520650813517
 30
0.0
 40
9.5
  0
CIRCLE
  5
2F8
330
1F
100
AcDbEntity
  8
Layer0000
  6
Continuous
 62
     3
370
    25
100
AcDbCircle
 10
385.7499999999999
 20
309.6520650813517
 30
0.0
 40
11.0
  0
CIRCLE
  5
2F9
330
1F
100
AcDbEntity
  8
Layer0000
  6
Continuous
 62
     3
370
    25
100
AcDbCircle
 10
385.7499999999999
 20
309.6520650813517
 30
0.0
 40
13.99999998577749
  0
CIRCLE
  5
2FA
330
1F
100
AcDbEntity
  8
Layer0000
  6
Continuous
 62
     3
370
    25
100
AcDbCircle
 10
385.7499999999999
 20
309.6520650813517
 30
0.0
 40
31.74999999999994
  0
CIRCLE
  5
2FB
330
1F
100
AcDbEntity
  8
Layer0000
  6
Continuous
 62
     3
370
    25
100
AcDbCircle
 10
385.7499999999999
 20
309.6520650813517
 30
0.0
 40
31.24999999999997
  0
CIRCLE
  5
2FC
330
1F
100
AcDbEntity
  8
Layer0000
  6
Continuous
 62
     3
370
    25
100
AcDbCircle
 10
385.7499999999999
 20
336.6520650813517
 30
0.0
 40
2.807179676972453
  0
CIRCLE
  5
2FD
330
1F
100
AcDbEntity
  8
Layer0000
  6
Continuous
 62
     3
370
    25
100
AcDbCircle
 10
385.7499999999999
 20
336.6520650813517
 30
0.0
 40
3.5
  0
LINE
  5
2FE
330
1F
100
AcDbEntity
  8
Layer0000
  6
Continuous
 62
     3
370
    25
100
AcDbLine
 10
385.7499999999999
 20
338.3841158889206
 30
0.0
 11
387.2499999999999
 21
337.5180904851362
 31
0.0
  0
LINE
  5
2FF
330
1F
100
AcDbEntity
  8
Layer0000
  6
Continuous
 62
     3
370
    25
100
AcDbLine
 10
387.2499999999999
 20
337.5180904851362
 30
0.0
 11
387.2499999999999
 21
335.7860396775672
 31
0.0
  0
LINE
  5
300
330
1F
100
AcDbEntity
  8
Layer0000
  6
Continuous
 62
     3
370
    25
100
AcDbLine
 10
387.2499999999999
 20
335.7860396775672
 30
0.0
 11
385.7499999999999
 21
334.9200142737828
 31
0.0
  0
LINE
  5
301
330
1F
100
AcDbEntity
  8
Layer0000
  6
Continuous
 62
     3
370
    25
100
AcDbLine
 10
385.7499999999999
 20
334.9200142737828
 30
0.0
 11
384.2499999999999
 21
335.7860396775672
 31
0.0
  0
LINE
  5
302
330
1F
100
AcDbEntity
  8
Layer0000
  6
Continuous
 62
     3
370
    25
100
AcDbLine
 10
384.2499999999999
 20
335.7860396775672
 30
0.0
 11
384.2499999999999
 21
337.5180904851362
 31
0.0
  0
LINE
  5
303
330
1F
100
AcDbEntity
  8
Layer0000
  6
Continuous
 62
     3
370
    25
100
AcDbLine
 10
384.2499999999999
 20
337.5180904851362
 30
0.0
 11
385.7499999999999
 21
338.3841158889206
 31
0.0
  0
LINE
  5
304
330
1F
100
AcDbEntity
  8
Layer0000
  6
Continuous
 62
     3
370
    25
100
AcDbLine
 10
412.7499999999999
 20
311.3841158889206
 30
0.0
 11
414.2499999999999
 21
310.5180904851362
 31
0.0
  0
LINE
  5
305
330
1F
100
AcDbEntity
  8
Layer0000
  6
Continuous
 62
     3
370
    25
100
AcDbLine
 10
411.2499999999999
 20
310.5180904851362
 30
0.0
 11
412.7499999999999
 21
311.3841158889206
 31
0.0
  0
LINE
  5
306
330
1F
100
AcDbEntity
  8
Layer0000
  6
Continuous
 62
     3
370
    25
100
AcDbLine
 10
358.7499999999999
 20
311.3841158889206
 30
0.0
 11
360.2499999999999
 21
310.5180904851362
 31
0.0
  0
LINE
  5
307
330
1F
100
AcDbEntity
  8
Layer0000
  6
Continuous
 62
     3
370
    25
100
AcDbLine
 10
357.2499999999999
 20
310.5180904851362
 30
0.0
 11
358.7499999999999
 21
311.3841158889206
 31
0.0
  0
CIRCLE
  5
308
330
1F
100
AcDbEntity
  8
Layer0000
  6
Continuous
 62
     3
370
    25
100
AcDbCircle
 10
412.7499999999999
 20
309.6520650813517
 30
0.0
 40
2.80717967697251
  0
CIRCLE
  5
309
330
1F
100
AcDbEntity
  8
Layer0000
  6
Continuous
 62
     3
370
    25
100
AcDbCircle
 10
412.7499999999999
 20
309.6520650813517
 30
0.0
 40
3.5
  0
CIRCLE
  5
30A
330
1F
100
AcDbEntity
  8
Layer0000
  6
Continuous
 62
     3
370
    25
100
AcDbCircle
 10
358.7499999999999
 20
309.6520650813517
 30
0.0
 40
2.807179676972453
  0
CIRCLE
  5
30B
330
1F
100
AcDbEntity
  8
Layer0000
  6
Continuous
 62
     3
370
    25
100
AcDbCircle
 10
358.75
 20
309.6520650813517
 30
0.0
 40
3.499999999999943
  0
LINE
  5
30C
330
1F
100
AcDbEntity
  8
Layer0000
  6
Continuous
 62
     3
370
    25
100
AcDbLine
 10
-518.75
 20
-125.3479358654115
 30
0.0
 11
-231.2499999999998
 21
-125.3479358654115
 31
0.0
  0
LINE
  5
30D
330
1F
100
AcDbEntity
  8
Layer0000
  6
Continuous
 62
     3
370
    25
100
AcDbLine
 10
-208.7499999999998
 20
-125.3479358654115
 30
0.0
 11
-35.44999999999979
 21
-125.3479358654115
 31
0.0
  0
LINE
  5
30E
330
1F
100
AcDbEntity
  8
Layer0000
  6
Continuous
 62
     3
370
    25
100
AcDbLine
 10
142.5499999999999
 20
-120.3479358654115
 30
0.0
 11
-208.7499999999998
 21
-120.3479358654115
 31
0.0
  0
LINE
  5
30F
330
1F
100
AcDbEntity
  8
Layer0000
  6
Continuous
 62
     3
370
    25
100
AcDbLine
 10
-231.2499999999998
 20
-120.3479358654115
 30
0.0
 11
-383.75
 21
-120.3479358654116
 31
0.0
  0
CIRCLE
  5
310
330
1F
100
AcDbEntity
  8
Layer0000
  6
Continuous
 62
     3
370
    25
100
AcDbCircle
 10
-63.74999999999977
 20
-148.3479349186484
 30
0.0
 40
12.0
  0
LINE
  5
311
330
1F
100
AcDbEntity
  8
Layer0000
  6
Continuous
 62
     3
370
    25
100
AcDbLine
 10
164.7499999999953
 20
298.6520650813517
 30
0.0
 11
160.7499999999978
 21
298.6520650813517
 31
0.0
  0
LINE
  5
312
330
1F
100
AcDbEntity
  8
Layer0000
  6
Continuous
 62
     3
370
    25
100
AcDbLine
 10
164.7499999999953
 20
320.6520650813517
 30
0.0
 11
160.7499999999978
 21
320.6520650813517
 31
0.0
  0
LINE
  5
313
330
1F
100
AcDbEntity
  8
Layer0000
  6
Continuous
 62
     3
370
    25
100
AcDbLine
 10
164.7499999999953
 20
320.6520650813517
 30
0.0
 11
164.7499999999953
 21
298.6520650813517
 31
0.0
  0
LINE
  5
314
330
1F
100
AcDbEntity
  8
Layer0000
  6
Continuous
 62
     3
370
    25
100
AcDbLine
 10
164.7499999999953
 20
320.4520650813518
 30
0.0
 11
165.2499999999953
 21
320.4520650813518
 31
0.0
  0
LINE
  5
315
330
1F
100
AcDbEntity
  8
Layer0000
  6
Continuous
 62
     3
370
    25
100
AcDbLine
 10
165.2499999999953
 20
298.6520650813517
 30
0.0
 11
165.2499999999953
 21
320.6520650813517
 31
0.0
  0
LINE
  5
316
330
1F
100
AcDbEntity
  8
Layer0000
  6
Continuous
 62
     3
370
    25
100
AcDbLine
 10
167.7499999999953
 20
320.6520650813517
 30
0.0
 11
167.7499999999953
 21
298.6520650813517
 31
0.0
  0
LINE
  5
317
330
1F
100
AcDbEntity
  8
Layer0000
  6
Continuous
 62
     3
370
    25
100
AcDbLine
 10
167.7499999999953
 20
320.4520650813518
 30
0.0
 11
168.2499999999953
 21
320.4520650813518
 31
0.0
  0
LINE
  5
318
330
1F
100
AcDbEntity
  8
Layer0000
  6
Continuous
 62
     3
370
    25
100
AcDbLine
 10
168.2499999999953
 20
298.6520650813517
 30
0.0
 11
168.2499999999953
 21
320.6520650813517
 31
0.0
  0
LINE
  5
319
330
1F
100
AcDbEntity
  8
Layer0000
  6
Continuous
 62
     3
370
    25
100
AcDbLine
 10
170.7499999999953
 20
320.6520650813517
 30
0.0
 11
170.7499999999953
 21
298.6520650813517
 31
0.0
  0
LINE
  5
31A
330
1F
100
AcDbEntity
  8
Layer0000
  6
Continuous
 62
     3
370
    25
100
AcDbLine
 10
170.7499999999953
 20
320.4520650813518
 30
0.0
 11
171.2499999999953
 21
320.4520650813518
 31
0.0
  0
LINE
  5
31B
330
1F
100
AcDbEntity
  8
Layer0000
  6
Continuous
 62
     3
370
    25
100
AcDbLine
 10
171.2499999999953
 20
298.6520650813517
 30
0.0
 11
171.2499999999953
 21
320.6520650813517
 31
0.0
  0
LINE
  5
31C
330
1F
100
AcDbEntity
  8
Layer0000
  6
Continuous
 62
     3
370
    25
100
AcDbLine
 10
165.2499999999953
 20
320.6520650813517
 30
0.0
 11
167.7499999999953
 21
320.6520650813517
 31
0.0
  0
LINE
  5
31D
330
1F
100
AcDbEntity
  8
Layer0000
  6
Continuous
 62
     3
370
    25
100
AcDbLine
 10
168.2499999999953
 20
320.6520650813517
 30
0.0
 11
170.7499999999953
 21
320.6520650813517
 31
0.0
  0
LINE
  5
31E
330
1F
100
AcDbEntity
  8
Layer0000
  6
Continuous
 62
     3
370
    25
100
AcDbLine
 10
171.2499999999953
 20
320.6520650813517
 30
0.0
 11
180.3839745962065
 21
320.6520650813517
 31
0.0
  0
LINE
  5
31F
330
1F
100
AcDbEntity
  8
Layer0000
  6
Continuous
 62
     3
370
    25
100
AcDbLine
 10
164.7499999999953
 20
298.8520650813518
 30
0.0
 11
165.2499999999953
 21
298.8520650813518
 31
0.0
  0
LINE
  5
320
330
1F
100
AcDbEntity
  8
Layer0000
  6
Continuous
 62
     3
370
    25
100
AcDbLine
 10
167.7499999999953
 20
298.8520650813518
 30
0.0
 11
168.2499999999953
 21
298.8520650813518
 31
0.0
  0
LINE
  5
321
330
1F
100
AcDbEntity
  8
Layer0000
  6
Continuous
 62
     3
370
    25
100
AcDbLine
 10
170.7499999999953
 20
298.8520650813518
 30
0.0
 11
171.2499999999953
 21
298.8520650813518
 31
0.0
  0
LINE
  5
322
330
1F
100
AcDbEntity
  8
Layer0000
  6
Continuous
 62
     3
370
    25
100
AcDbLine
 10
165.2499999999953
 20
298.6520650813517
 30
0.0
 11
167.7499999999953
 21
298.6520650813517
 31
0.0
  0
LINE
  5
323
330
1F
100
AcDbEntity
  8
Layer0000
  6
Continuous
 62
     3
370
    25
100
AcDbLine
 10
168.2499999999953
 20
298.6520650813517
 30
0.0
 11
170.7499999999953
 21
298.6520650813517
 31
0.0
  0
LINE
  5
324
330
1F
100
AcDbEntity
  8
Layer0000
  6
Continuous
 62
     3
370
    25
100
AcDbLine
 10
171.2499999999953
 20
298.6520650813517
 30
0.0
 11
180.3839745962065
 21
298.6520650813517
 31
0.0
  0
LINE
  5
325
330
1F
100
AcDbEntity
  8
Layer0000
  6
Continuous
 62
     3
370
    25
100
AcDbLine
 10
180.3839745962065
 20
320.6520650813517
 30
0.0
 11
180.3839745962065
 21
298.6520650813517
 31
0.0
  0
LINE
  5
326
330
1F
100
AcDbEntity
  8
Layer0000
  6
Continuous
 62
     3
370
    25
100
AcDbLine
 10
181.2500000000002
 20
319.1520650813517
 30
0.0
 11
198.2499999999975
 21
319.1520650813517
 31
0.0
  0
LINE
  5
327
330
1F
100
AcDbEntity
  8
Layer0000
  6
Continuous
 62
     3
370
    25
100
AcDbLine
 10
181.2500000000002
 20
300.1520650813517
 30
0.0
 11
198.2499999999975
 21
300.1520650813517
 31
0.0
  0
LINE
  5
328
330
1F
100
AcDbEntity
  8
Layer0000
  6
Continuous
 62
     3
370
    25
100
AcDbLine
 10
198.2499999999975
 20
300.1520650813517
 30
0.0
 11
198.2499999999975
 21
319.1520650813517
 31
0.0
  0
LINE
  5
329
330
1F
100
AcDbEntity
  8
Layer0000
  6
Continuous
 62
     3
370
    25
100
AcDbLine
 10
181.2500000000002
 20
310.5290817351444
 30
0.0
 11
197.2499999999975
 21
310.5290817351444
 31
0.0
  0
LINE
  5
32A
330
1F
100
AcDbEntity
  8
Layer0000
  6
Continuous
 62
     3
370
    25
100
AcDbLine
 10
197.2499999999975
 20
308.7750484275592
 30
0.0
 11
181.2500000000002
 21
308.7750484275592
 31
0.0
  0
LINE
  5
32B
330
1F
100
AcDbEntity
  8
Layer0000
  6
Continuous
 62
     3
370
    25
100
AcDbLine
 10
197.2499999999975
 20
301.0290817351443
 30
0.0
 11
181.2500000000002
 21
301.0290817351443
 31
0.0
  0
LINE
  5
32C
330
1F
100
AcDbEntity
  8
Layer0000
  6
Continuous
 62
     3
370
    25
100
AcDbLine
 10
181.2500000000002
 20
318.2750484275592
 30
0.0
 11
197.2499999999975
 21
318.2750484275592
 31
0.0
  0
LINE
  5
32D
330
1F
100
AcDbEntity
  8
Layer0000
  6
Continuous
 62
     3
370
    25
100
AcDbLine
 10
197.2499999999975
 20
318.2750484275592
 30
0.0
 11
197.2499999999975
 21
319.1520650813517
 31
0.0
  0
LINE
  5
32E
330
1F
100
AcDbEntity
  8
Layer0000
  6
Continuous
 62
     3
370
    25
100
AcDbLine
 10
197.2499999999975
 20
300.1520650813517
 30
0.0
 11
197.2499999999975
 21
301.0290817351443
 31
0.0
  0
LINE
  5
32F
330
1F
100
AcDbEntity
  8
Layer0000
  6
Continuous
 62
     3
370
    25
100
AcDbLine
 10
197.2499999999975
 20
308.7750484275592
 30
0.0
 11
197.2499999999975
 21
310.5290817351444
 31
0.0
  0
ARC
  5
330
330
1F
100
AcDbEntity
  8
Layer0000
  6
Continuous
 62
     3
370
    25
100
AcDbCircle
 10
190.2499999999975
 20
304.9020650813517
 30
0.0
 40
8.000000000000044
100
AcDbArc
 50
331.0449756281404
 51
28.95502437185956
  0
ARC
  5
331
330
1F
100
AcDbEntity
  8
Layer0000
  6
Continuous
 62
     3
370
    25
100
AcDbCircle
 10
190.2499999999976
 20
314.4020650813517
 30
0.0
 40
7.999999999999895
100
AcDbArc
 50
331.0449756281398
 51
28.95502437186017
  0
LINE
  5
332
330
1F
100
AcDbEntity
  8
Layer0000
  6
Continuous
 62
     3
370
    25
100
AcDbLine
 10
143.5500000000002
 20
327.6520650813517
 30
0.0
 11
145.7499999999978
 21
327.6520650813517
 31
0.0
  0
LINE
  5
333
330
1F
100
AcDbEntity
  8
Layer0000
  6
Continuous
 62
     3
370
    25
100
AcDbLine
 10
143.5500000000002
 20
291.6520650813517
 30
0.0
 11
145.7499999999978
 21
291.6520650813517
 31
0.0
  0
LINE
  5
334
330
1F
100
AcDbEntity
  8
Layer0000
  6
Continuous
 62
     3
370
    25
100
AcDbLine
 10
160.7499999999978
 20
293.6520650813517
 30
0.0
 11
160.7499999999978
 21
325.6520650813517
 31
0.0
  0
LINE
  5
335
330
1F
100
AcDbEntity
  8
Layer0000
  6
Continuous
 62
     3
370
    25
100
AcDbLine
 10
145.7499999999978
 20
327.6520650813517
 30
0.0
 11
145.7499999999978
 21
325.6520650813517
 31
0.0
  0
LINE
  5
336
330
1F
100
AcDbEntity
  8
Layer0000
  6
Continuous
 62
     3
370
    25
100
AcDbLine
 10
145.7499999999978
 20
291.6520650813517
 30
0.0
 11
145.7499999999978
 21
293.6520650813517
 31
0.0
  0
LINE
  5
337
330
1F
100
AcDbEntity
  8
Layer0000
  6
Continuous
 62
     3
370
    25
100
AcDbLine
 10
145.7499999999978
 20
325.6520650813517
 30
0.0
 11
160.7499999999978
 21
325.6520650813517
 31
0.0
  0
LINE
  5
338
330
1F
100
AcDbEntity
  8
Layer0000
  6
Continuous
 62
     3
370
    25
100
AcDbLine
 10
145.7499999999978
 20
293.6520650813517
 30
0.0
 11
160.7499999999978
 21
293.6520650813517
 31
0.0
  0
LINE
  5
339
330
1F
100
AcDbEntity
  8
Layer0000
  6
Continuous
 62
     3
370
    25
100
AcDbLine
 10
159.2499999999976
 20
294.5106366528088
 30
0.0
 11
145.7499999999978
 21
294.5106366528088
 31
0.0
  0
LINE
  5
33A
330
1F
100
AcDbEntity
  8
Layer0000
  6
Continuous
 62
     3
370
    25
100
AcDbLine
 10
145.7499999999978
 20
294.5106366528088
 30
0.0
 11
145.7499999999978
 21
308.7934935098946
 31
0.0
  0
LINE
  5
33B
330
1F
100
AcDbEntity
  8
Layer0000
  6
Continuous
 62
     3
370
    25
100
AcDbLine
 10
145.7499999999978
 20
308.7934935098946
 30
0.0
 11
159.2499999999976
 21
308.7934935098946
 31
0.0
  0
LINE
  5
33C
330
1F
100
AcDbEntity
  8
Layer0000
  6
Continuous
 62
     3
370
    25
100
AcDbLine
 10
159.2499999999976
 20
308.7934935098946
 30
0.0
 11
160.7499999999978
 21
305.1431250922942
 31
0.0
  0
LINE
  5
33D
330
1F
100
AcDbEntity
  8
Layer0000
  6
Continuous
 62
     3
370
    25
100
AcDbLine
 10
159.2499999999976
 20
294.5106366528088
 30
0.0
 11
160.7499999999978
 21
298.1610050704093
 31
0.0
  0
LINE
  5
33E
330
1F
100
AcDbEntity
  8
Layer0000
  6
Continuous
 62
     3
370
    25
100
AcDbLine
 10
159.2499999999976
 20
324.7934935098946
 30
0.0
 11
145.7499999999978
 21
324.7934935098946
 31
0.0
  0
LINE
  5
33F
330
1F
100
AcDbEntity
  8
Layer0000
  6
Continuous
 62
     3
370
    25
100
AcDbLine
 10
145.7499999999978
 20
324.7934935098946
 30
0.0
 11
145.7499999999978
 21
310.5106366528088
 31
0.0
  0
LINE
  5
340
330
1F
100
AcDbEntity
  8
Layer0000
  6
Continuous
 62
     3
370
    25
100
AcDbLine
 10
145.7499999999978
 20
310.5106366528088
 30
0.0
 11
159.2499999999976
 21
310.5106366528088
 31
0.0
  0
LINE
  5
341
330
1F
100
AcDbEntity
  8
Layer0000
  6
Continuous
 62
     3
370
    25
100
AcDbLine
 10
159.2499999999976
 20
310.5106366528088
 30
0.0
 11
160.7499999999978
 21
314.1610050704093
 31
0.0
  0
LINE
  5
342
330
1F
100
AcDbEntity
  8
Layer0000
  6
Continuous
 62
     3
370
    25
100
AcDbLine
 10
159.2499999999976
 20
324.7934935098946
 30
0.0
 11
160.7499999999978
 21
321.1431250922942
 31
0.0
  0
LINE
  5
343
330
1F
100
AcDbEntity
  8
Layer0000
  6
Continuous
 62
     3
370
    25
100
AcDbLine
 10
164.7499999999952
 20
-88.3479349186484
 30
0.0
 11
160.7499999999977
 21
-88.3479349186484
 31
0.0
  0
LINE
  5
344
330
1F
100
AcDbEntity
  8
Layer0000
  6
Continuous
 62
     3
370
    25
100
AcDbLine
 10
164.7499999999952
 20
-66.3479349186484
 30
0.0
 11
164.7499999999952
 21
-88.3479349186484
 31
0.0
  0
LINE
  5
345
330
1F
100
AcDbEntity
  8
Layer0000
  6
Continuous
 62
     3
370
    25
100
AcDbLine
 10
164.7499999999952
 20
-66.5479349186484
 30
0.0
 11
165.2499999999952
 21
-66.5479349186484
 31
0.0
  0
LINE
  5
346
330
1F
100
AcDbEntity
  8
Layer0000
  6
Continuous
 62
     3
370
    25
100
AcDbLine
 10
165.2499999999952
 20
-88.3479349186484
 30
0.0
 11
165.2499999999952
 21
-66.3479349186484
 31
0.0
  0
LINE
  5
347
330
1F
100
AcDbEntity
  8
Layer0000
  6
Continuous
 62
     3
370
    25
100
AcDbLine
 10
167.7499999999952
 20
-66.3479349186484
 30
0.0
 11
167.7499999999952
 21
-88.3479349186484
 31
0.0
  0
LINE
  5
348
330
1F
100
AcDbEntity
  8
Layer0000
  6
Continuous
 62
     3
370
    25
100
AcDbLine
 10
167.7499999999952
 20
-66.5479349186484
 30
0.0
 11
168.2499999999952
 21
-66.5479349186484
 31
0.0
  0
LINE
  5
349
330
1F
100
AcDbEntity
  8
Layer0000
  6
Continuous
 62
     3
370
    25
100
AcDbLine
 10
168.2499999999952
 20
-88.3479349186484
 30
0.0
 11
168.2499999999952
 21
-66.3479349186484
 31
0.0
  0
LINE
  5
34A
330
1F
100
AcDbEntity
  8
Layer0000
  6
Continuous
 62
     3
370
    25
100
AcDbLine
 10
170.7499999999952
 20
-66.3479349186484
 30
0.0
 11
170.7499999999952
 21
-88.3479349186484
 31
0.0
  0
LINE
  5
34B
330
1F
100
AcDbEntity
  8
Layer0000
  6
Continuous
 62
     3
370
    25
100
AcDbLine
 10
170.7499999999952
 20
-66.5479349186484
 30
0.0
 11
171.2499999999952
 21
-66.5479349186484
 31
0.0
  0
LINE
  5
34C
330
1F
100
AcDbEntity
  8
Layer0000
  6
Continuous
 62
     3
370
    25
100
AcDbLine
 10
171.2499999999952
 20
-88.3479349186484
 30
0.0
 11
171.2499999999952
 21
-66.3479349186484
 31
0.0
  0
LINE
  5
34D
330
1F
100
AcDbEntity
  8
Layer0000
  6
Continuous
 62
     3
370
    25
100
AcDbLine
 10
165.2499999999952
 20
-66.3479349186484
 30
0.0
 11
167.7499999999952
 21
-66.3479349186484
 31
0.0
  0
LINE
  5
34E
330
1F
100
AcDbEntity
  8
Layer0000
  6
Continuous
 62
     3
370
    25
100
AcDbLine
 10
168.2499999999952
 20
-66.3479349186484
 30
0.0
 11
170.7499999999952
 21
-66.3479349186484
 31
0.0
  0
LINE
  5
34F
330
1F
100
AcDbEntity
  8
Layer0000
  6
Continuous
 62
     3
370
    25
100
AcDbLine
 10
171.2499999999952
 20
-66.3479349186484
 30
0.0
 11
180.3839745962198
 21
-66.3479349186484
 31
0.0
  0
LINE
  5
350
330
1F
100
AcDbEntity
  8
Layer0000
  6
Continuous
 62
     3
370
    25
100
AcDbLine
 10
164.7499999999952
 20
-88.14793491864836
 30
0.0
 11
165.2499999999952
 21
-88.14793491864836
 31
0.0
  0
LINE
  5
351
330
1F
100
AcDbEntity
  8
Layer0000
  6
Continuous
 62
     3
370
    25
100
AcDbLine
 10
167.7499999999952
 20
-88.14793491864836
 30
0.0
 11
168.2499999999952
 21
-88.14793491864836
 31
0.0
  0
LINE
  5
352
330
1F
100
AcDbEntity
  8
Layer0000
  6
Continuous
 62
     3
370
    25
100
AcDbLine
 10
170.7499999999952
 20
-88.14793491864836
 30
0.0
 11
171.2499999999952
 21
-88.14793491864836
 31
0.0
  0
LINE
  5
353
330
1F
100
AcDbEntity
  8
Layer0000
  6
Continuous
 62
     3
370
    25
100
AcDbLine
 10
165.2499999999952
 20
-88.3479349186484
 30
0.0
 11
167.7499999999952
 21
-88.3479349186484
 31
0.0
  0
LINE
  5
354
330
1F
100
AcDbEntity
  8
Layer0000
  6
Continuous
 62
     3
370
    25
100
AcDbLine
 10
168.2499999999952
 20
-88.3479349186484
 30
0.0
 11
170.7499999999952
 21
-88.3479349186484
 31
0.0
  0
LINE
  5
355
330
1F
100
AcDbEntity
  8
Layer0000
  6
Continuous
 62
     3
370
    25
100
AcDbLine
 10
171.2499999999952
 20
-88.3479349186484
 30
0.0
 11
180.3839745962066
 21
-88.3479349186484
 31
0.0
  0
LINE
  5
356
330
1F
100
AcDbEntity
  8
Layer0000
  6
Continuous
 62
     3
370
    25
100
AcDbLine
 10
164.7499999999952
 20
-66.3479349186484
 30
0.0
 11
160.7499999999977
 21
-66.3479349186484
 31
0.0
  0
LINE
  5
357
330
1F
100
AcDbEntity
  8
Layer0000
  6
Continuous
 62
     3
370
    25
100
AcDbLine
 10
143.5500000000001
 20
-59.34793491864841
 30
0.0
 11
159.2499999999977
 21
-59.34793491864841
 31
0.0
  0
LINE
  5
358
330
1F
100
AcDbEntity
  8
Layer0000
  6
Continuous
 62
     3
370
    25
100
AcDbLine
 10
143.5500000000001
 20
-95.3479349186492
 30
0.0
 11
159.2499999999962
 21
-95.34793491864988
 31
0.0
  0
LINE
  5
359
330
1F
100
AcDbEntity
  8
Layer0000
  6
Continuous
 62
     3
370
    25
100
AcDbLine
 10
160.7499999999977
 20
-93.8479349186484
 30
0.0
 11
159.2499999999977
 21
-95.3479349186484
 31
0.0
  0
LINE
  5
35A
330
1F
100
AcDbEntity
  8
Layer0000
  6
Continuous
 62
     3
370
    25
100
AcDbLine
 10
160.7499999999977
 20
-93.8479349186484
 30
0.0
 11
160.7499999999977
 21
-60.84793491864841
 31
0.0
  0
LINE
  5
35B
330
1F
100
AcDbEntity
  8
Layer0000
  6
Continuous
 62
     3
370
    25
100
AcDbLine
 10
160.7499999999977
 20
-61.47596402102269
 30
0.0
 11
159.2499999999977
 21
-59.34793491864829
 31
0.0
  0
LINE
  5
35C
330
1F
100
AcDbEntity
  8
Layer0000
  6
Continuous
 62
     3
370
    25
100
AcDbLine
 10
159.2499999999977
 20
-59.34793491864829
 30
0.0
 11
160.7499999999977
 21
-60.84793491864829
 31
0.0
  0
LINE
  5
35D
330
1F
100
AcDbEntity
  8
Layer0000
  6
Continuous
 62
     3
370
    25
100
AcDbLine
 10
159.2499999999977
 20
-85.59414616988337
 30
0.0
 11
160.7499999999977
 21
-81.37906379279761
 31
0.0
  0
LINE
  5
35E
330
1F
100
AcDbEntity
  8
Layer0000
  6
Continuous
 62
     3
370
    25
100
AcDbLine
 10
159.2499999999977
 20
-69.10172366741332
 30
0.0
 11
160.7499999999882
 21
-73.31680604449909
 31
0.0
  0
LINE
  5
35F
330
1F
100
AcDbEntity
  8
Layer0000
  6
Continuous
 62
     3
370
    25
100
AcDbLine
 10
159.2499999999977
 20
-87.08123575358181
 30
0.0
 11
159.2499999999977
 21
-85.59414616988337
 31
0.0
  0
LINE
  5
360
330
1F
100
AcDbEntity
  8
Layer0000
  6
Continuous
 62
     3
370
    25
100
AcDbLine
 10
159.2499999999977
 20
-69.10172366741332
 30
0.0
 11
159.2499999999977
 21
-67.61463408371489
 31
0.0
  0
LINE
  5
361
330
1F
100
AcDbEntity
  8
Layer0000
  6
Continuous
 62
     3
370
    25
100
AcDbLine
 10
160.7499999999977
 20
-89.18877694212469
 30
0.0
 11
159.2499999999977
 21
-87.08123575358181
 31
0.0
  0
LINE
  5
362
330
1F
100
AcDbEntity
  8
Layer0000
  6
Continuous
 62
     3
370
    25
100
AcDbLine
 10
160.7499999999877
 20
-65.50709289517201
 30
0.0
 11
159.2499999999977
 21
-67.61463408371489
 31
0.0
  0
LINE
  5
363
330
1F
100
AcDbEntity
  8
Layer0000
  6
Continuous
 62
     3
370
    25
100
AcDbLine
 10
159.2499999999977
 20
-69.10172366741332
 30
0.0
 11
145.7499999999961
 21
-69.10172366741332
 31
0.0
  0
LINE
  5
364
330
1F
100
AcDbEntity
  8
Layer0000
  6
Continuous
 62
     3
370
    25
100
AcDbLine
 10
159.2499999999977
 20
-67.61463408371489
 30
0.0
 11
145.7499999999961
 21
-67.61463408371489
 31
0.0
  0
LINE
  5
365
330
1F
100
AcDbEntity
  8
Layer0000
  6
Continuous
 62
     3
370
    25
100
AcDbLine
 10
159.2499999999977
 20
-85.59414616988337
 30
0.0
 11
145.7499999999961
 21
-85.59414616988337
 31
0.0
  0
LINE
  5
366
330
1F
100
AcDbEntity
  8
Layer0000
  6
Continuous
 62
     3
370
    25
100
AcDbLine
 10
159.2499999999977
 20
-87.08123575358181
 30
0.0
 11
145.7499999999961
 21
-87.08123575358181
 31
0.0
  0
LINE
  5
367
330
1F
100
AcDbEntity
  8
Layer0000
  6
Continuous
 62
     3
370
    25
100
AcDbLine
 10
145.7499999999961
 20
-69.10172366741332
 30
0.0
 11
145.7499999999961
 21
-85.59414616988337
 31
0.0
  0
LINE
  5
368
330
1F
100
AcDbEntity
  8
Layer0000
  6
Continuous
 62
     3
370
    25
100
AcDbLine
 10
160.7499999999895
 20
-93.21990581627401
 30
0.0
 11
159.2499999999977
 21
-95.3479349186484
 31
0.0
  0
LINE
  5
369
330
1F
100
AcDbEntity
  8
Layer0000
  6
Continuous
 62
     3
370
    25
100
AcDbLine
 10
145.7499999999972
 20
-95.3479349186484
 30
0.0
 11
145.7499999999961
 21
-87.08123575358181
 31
0.0
  0
LINE
  5
36A
330
1F
100
AcDbEntity
  8
Layer0000
  6
Continuous
 62
     3
370
    25
100
AcDbLine
 10
145.7499999999961
 20
-59.34793491864829
 30
0.0
 11
145.7499999999961
 21
-67.61463408371489
 31
0.0
  0
LINE
  5
36B
330
1F
100
AcDbEntity
  8
Layer0000
  6
Continuous
 62
     3
370
    25
100
AcDbLine
 10
180.3839745962239
 20
-66.34793491864829
 30
0.0
 11
180.3839745962239
 21
-88.3479349186484
 31
0.0
  0
LINE
  5
36C
330
1F
100
AcDbEntity
  8
Layer0000
  6
Continuous
 62
     3
370
    25
100
AcDbLine
 10
181.2500000000004
 20
-66.8479349186484
 30
0.0
 11
197.2500000000017
 21
-66.8479349186484
 31
0.0
  0
LINE
  5
36D
330
1F
100
AcDbEntity
  8
Layer0000
  6
Continuous
 62
     3
370
    25
100
AcDbLine
 10
181.2500000000003
 20
-87.8479349186484
 30
0.0
 11
197.2500000000017
 21
-87.8479349186484
 31
0.0
  0
LINE
  5
36E
330
1F
100
AcDbEntity
  8
Layer0000
  6
Continuous
 62
     3
370
    25
100
AcDbLine
 10
198.2500000000017
 20
-67.8479349186484
 30
0.0
 11
198.2500000000017
 21
-86.8479349186484
 31
0.0
  0
LINE
  5
36F
330
1F
100
AcDbEntity
  8
Layer0000
  6
Continuous
 62
     3
370
    25
100
AcDbLine
 10
197.2500000000017
 20
-87.8479349186484
 30
0.0
 11
198.2500000000017
 21
-86.8479349186484
 31
0.0
  0
LINE
  5
370
330
1F
100
AcDbEntity
  8
Layer0000
  6
Continuous
 62
     3
370
    25
100
AcDbLine
 10
197.2500000000017
 20
-66.8479349186484
 30
0.0
 11
198.2500000000017
 21
-67.8479349186484
 31
0.0
  0
LINE
  5
371
330
1F
100
AcDbEntity
  8
Layer0000
  6
Continuous
 62
     3
370
    25
100
AcDbLine
 10
181.2500000000003
 20
-72.8757989636488
 30
0.0
 11
197.2500000000017
 21
-72.8757989636488
 31
0.0
  0
LINE
  5
372
330
1F
100
AcDbEntity
  8
Layer0000
  6
Continuous
 62
     3
370
    25
100
AcDbLine
 10
181.2500000000003
 20
-71.35676156019585
 30
0.0
 11
197.2500000000017
 21
-71.35676156019585
 31
0.0
  0
LINE
  5
373
330
1F
100
AcDbEntity
  8
Layer0000
  6
Continuous
 62
     3
370
    25
100
AcDbLine
 10
181.2500000000003
 20
-83.33910827710079
 30
0.0
 11
197.2500000000017
 21
-83.33910827710079
 31
0.0
  0
LINE
  5
374
330
1F
100
AcDbEntity
  8
Layer0000
  6
Continuous
 62
     3
370
    25
100
AcDbLine
 10
197.2500000000017
 20
-81.82007087364778
 30
0.0
 11
181.2500000000003
 21
-81.82007087364778
 31
0.0
  0
LINE
  5
375
330
1F
100
AcDbEntity
  8
Layer0000
  6
Continuous
 62
     3
370
    25
100
AcDbLine
 10
197.2500000000017
 20
-71.35676156019585
 30
0.0
 11
197.2500000000017
 21
-72.8757989636488
 31
0.0
  0
LINE
  5
376
330
1F
100
AcDbEntity
  8
Layer0000
  6
Continuous
 62
     3
370
    25
100
AcDbLine
 10
197.2500000000017
 20
-81.82007087364778
 30
0.0
 11
197.2500000000017
 21
-83.33910827710079
 31
0.0
  0
ARC
  5
377
330
1F
100
AcDbEntity
  8
Layer0000
  6
Continuous
 62
     3
370
    25
100
AcDbCircle
 10
187.7500000000022
 20
-77.34793491864835
 30
0.0
 40
10.49999999999956
100
AcDbArc
 50
334.7912347032412
 51
25.20876529675892
  0
ARC
  5
378
330
1F
100
AcDbEntity
  8
Layer0000
  6
Continuous
 62
     3
370
    25
100
AcDbCircle
 10
195.2088102895625
 20
-69.10234823942139
 30
0.0
 40
3.041189710439299
100
AcDbArc
 50
312.1583048916353
 51
42.1583048916778
  0
ARC
  5
379
330
1F
100
AcDbEntity
  8
Layer0000
  6
Continuous
 62
     3
370
    25
100
AcDbCircle
 10
195.2088102895625
 20
-85.59352159787542
 30
0.0
 40
3.041189710439299
100
AcDbArc
 50
317.8416951083222
 51
47.84169510836464
  0
LINE
  5
37A
330
1F
100
AcDbEntity
  8
Layer0000
  6
Continuous
 62
     3
370
    25
100
AcDbLine
 10
180.3839745962066
 20
-88.3479349186484
 30
0.0
 11
181.2499999999822
 21
-87.8479349186535
 31
0.0
  0
LINE
  5
37B
330
1F
100
AcDbEntity
  8
Layer0000
  6
Continuous
 62
     3
370
    25
100
AcDbLine
 10
181.2500000000078
 20
-66.8479349186505
 30
0.0
 11
180.3839745962239
 21
-66.34793491865076
 31
0.0
  0
LINE
  5
37C
330
1F
100
AcDbEntity
  8
Layer0000
  6
Continuous
 62
     3
370
    25
100
AcDbLine
 10
181.2500000000078
 20
320.1520650813496
 30
0.0
 11
180.3839745962238
 21
320.6520650813493
 31
0.0
  0
LINE
  5
37D
330
1F
100
AcDbEntity
  8
Layer0000
  6
Continuous
 62
     3
370
    25
100
AcDbLine
 10
180.3839745962065
 20
298.6520650813517
 30
0.0
 11
181.2499999999821
 21
299.1520650813466
 31
0.0
  0
LINE
  5
37E
330
1F
100
AcDbEntity
  8
Layer0000
  6
Continuous
 62
     3
370
    25
100
AcDbLine
 10
181.2500000000002
 20
320.1520650813517
 30
0.0
 11
181.2500000000002
 21
319.1520650813517
 31
0.0
  0
LINE
  5
37F
330
1F
100
AcDbEntity
  8
Layer0000
  6
Continuous
 62
     3
370
    25
100
AcDbLine
 10
181.2500000000002
 20
318.2750484275592
 30
0.0
 11
181.2500000000002
 21
310.5290817351444
 31
0.0
  0
LINE
  5
380
330
1F
100
AcDbEntity
  8
Layer0000
  6
Continuous
 62
     3
370
    25
100
AcDbLine
 10
181.2500000000002
 20
308.7750484275592
 30
0.0
 11
181.2500000000002
 21
301.0290817351443
 31
0.0
  0
LINE
  5
381
330
1F
100
AcDbEntity
  8
Layer0000
  6
Continuous
 62
     3
370
    25
100
AcDbLine
 10
181.2500000000002
 20
300.1520650813517
 30
0.0
 11
181.2500000000002
 21
299.1520650813517
 31
0.0
  0
LINE
  5
382
330
1F
100
AcDbEntity
  8
Layer0000
  6
Continuous
 62
     3
370
    25
100
AcDbLine
 10
181.2500000000003
 20
-66.84793491864829
 30
0.0
 11
181.2500000000003
 21
-71.35676156019585
 31
0.0
  0
LINE
  5
383
330
1F
100
AcDbEntity
  8
Layer0000
  6
Continuous
 62
     3
370
    25
100
AcDbLine
 10
181.2500000000003
 20
-72.8757989636488
 30
0.0
 11
181.2500000000003
 21
-81.82007087364778
 31
0.0
  0
LINE
  5
384
330
1F
100
AcDbEntity
  8
Layer0000
  6
Continuous
 62
     3
370
    25
100
AcDbLine
 10
181.2500000000003
 20
-83.33910827710079
 30
0.0
 11
181.2500000000003
 21
-87.8479349186484
 31
0.0
  0
LINE
  5
385
330
1F
100
AcDbEntity
  8
Layer0000
  6
Continuous
 62
     3
370
    25
100
AcDbLine
 10
-443.2499999999999
 20
375.7086894083777
 30
0.0
 11
-445.7499999999999
 21
374.2653137354036
 31
0.0
  0
LINE
  5
386
330
1F
100
AcDbEntity
  8
Layer0000
  6
Continuous
 62
     3
370
    25
100
AcDbLine
 10
-448.2499999999999
 20
375.7086894083777
 30
0.0
 11
-445.75
 21
374.2653137354036
 31
0.0
  0
LINE
  5
387
330
1F
100
AcDbEntity
  8
Layer0000
  6
Continuous
 62
     3
370
    25
100
AcDbLine
 10
-443.2499999999999
 20
378.5954407543258
 30
0.0
 11
-443.2499999999999
 21
375.7086894083777
 31
0.0
  0
LINE
  5
388
330
1F
100
AcDbEntity
  8
Layer0000
  6
Continuous
 62
     3
370
    25
100
AcDbLine
 10
-448.2499999999999
 20
378.5954407543258
 30
0.0
 11
-448.2499999999999
 21
375.7086894083777
 31
0.0
  0
LINE
  5
389
330
1F
100
AcDbEntity
  8
Layer0000
  6
Continuous
 62
     3
370
    25
100
AcDbLine
 10
-443.2499999999999
 20
378.5954407543258
 30
0.0
 11
-445.7499999999999
 21
380.0388164272999
 31
0.0
  0
LINE
  5
38A
330
1F
100
AcDbEntity
  8
Layer0000
  6
Continuous
 62
     3
370
    25
100
AcDbLine
 10
-448.2499999999999
 20
378.5954407543258
 30
0.0
 11
-445.75
 21
380.0388164272999
 31
0.0
  0
CIRCLE
  5
38B
330
1F
100
AcDbEntity
  8
Layer0000
  6
Continuous
 62
     3
370
    25
100
AcDbCircle
 10
-445.7499999999999
 20
377.1520650813517
 30
0.0
 40
4.189999999999998
  0
CIRCLE
  5
38C
330
1F
100
AcDbEntity
  8
Layer0000
  6
Continuous
 62
     3
370
    25
100
AcDbCircle
 10
-445.7499999999999
 20
377.1520650813517
 30
0.0
 40
5.0
  0
LINE
  5
38D
330
1F
100
AcDbEntity
  8
Layer0000
  6
Continuous
 62
     3
370
    25
100
AcDbLine
 10
-443.2499999999999
 20
240.7086894083777
 30
0.0
 11
-445.7499999999999
 21
239.2653137354037
 31
0.0
  0
LINE
  5
38E
330
1F
100
AcDbEntity
  8
Layer0000
  6
Continuous
 62
     3
370
    25
100
AcDbLine
 10
-448.2499999999999
 20
240.7086894083777
 30
0.0
 11
-445.75
 21
239.2653137354037
 31
0.0
  0
LINE
  5
38F
330
1F
100
AcDbEntity
  8
Layer0000
  6
Continuous
 62
     3
370
    25
100
AcDbLine
 10
-443.2499999999999
 20
243.5954407543259
 30
0.0
 11
-443.2499999999999
 21
240.7086894083777
 31
0.0
  0
LINE
  5
390
330
1F
100
AcDbEntity
  8
Layer0000
  6
Continuous
 62
     3
370
    25
100
AcDbLine
 10
-448.2499999999999
 20
243.5954407543259
 30
0.0
 11
-448.2499999999999
 21
240.7086894083777
 31
0.0
  0
LINE
  5
391
330
1F
100
AcDbEntity
  8
Layer0000
  6
Continuous
 62
     3
370
    25
100
AcDbLine
 10
-443.2499999999999
 20
243.5954407543259
 30
0.0
 11
-445.7499999999999
 21
245.0388164272999
 31
0.0
  0
LINE
  5
392
330
1F
100
AcDbEntity
  8
Layer0000
  6
Continuous
 62
     3
370
    25
100
AcDbLine
 10
-448.2499999999999
 20
243.5954407543259
 30
0.0
 11
-445.75
 21
245.0388164272999
 31
0.0
  0
CIRCLE
  5
393
330
1F
100
AcDbEntity
  8
Layer0000
  6
Continuous
 62
     3
370
    25
100
AcDbCircle
 10
-445.7499999999999
 20
242.1520650813518
 30
0.0
 40
4.189999999999998
  0
CIRCLE
  5
394
330
1F
100
AcDbEntity
  8
Layer0000
  6
Continuous
 62
     3
370
    25
100
AcDbCircle
 10
-445.7499999999999
 20
242.1520650813518
 30
0.0
 40
5.0
  0
CIRCLE
  5
395
330
1F
100
AcDbEntity
  8
Layer0000
  6
Continuous
 62
     3
370
    25
100
AcDbCircle
 10
-499.7499999999997
 20
359.6520650813517
 30
0.0
 40
14.5
  0
CIRCLE
  5
396
330
1F
100
AcDbEntity
  8
Layer0000
  6
Continuous
 62
     3
370
    25
100
AcDbCircle
 10
-432.7499999999997
 20
359.6520650813517
 30
0.0
 40
14.50000000000001
  0
CIRCLE
  5
397
330
1F
100
AcDbEntity
  8
Layer0000
  6
Continuous
 62
     3
370
    25
100
AcDbCircle
 10
-499.7499999999997
 20
259.6520650813517
 30
0.0
 40
14.5
  0
CIRCLE
  5
398
330
1F
100
AcDbEntity
  8
Layer0000
  6
Continuous
 62
     3
370
    25
100
AcDbCircle
 10
-432.7499999999997
 20
259.6520650813517
 30
0.0
 40
14.5
  0
LINE
  5
399
330
1F
100
AcDbEntity
  8
Layer0000
  6
Continuous
 62
     3
370
    25
100
AcDbLine
 10
-453.7499999999999
 20
409.1520650813517
 30
0.0
 11
-453.7499999999999
 21
210.1520650813518
 31
0.0
  0
LINE
  5
39A
330
1F
100
AcDbEntity
  8
Layer0000
  6
Continuous
 62
     3
370
    25
100
AcDbLine
 10
-469.7499999999997
 20
409.1520650813517
 30
0.0
 11
-469.7499999999997
 21
210.1520650813518
 31
0.0
  0
LINE
  5
39B
330
1F
100
AcDbEntity
  8
Layer0000
  6
Continuous
 62
     3
370
    25
100
AcDbLine
 10
118.5500000000003
 20
251.6520650813518
 30
0.0
 11
118.5500000000003
 21
210.1520650813518
 31
0.0
  0
LINE
  5
39C
330
1F
100
AcDbEntity
  8
Layer0000
  6
Continuous
 62
     3
370
    25
100
AcDbLine
 10
102.5500000000003
 20
210.1520650813518
 30
0.0
 11
102.5500000000003
 21
251.6520650813518
 31
0.0
  0
LINE
  5
39D
330
1F
100
AcDbEntity
  8
Layer0000
  6
Continuous
 62
     3
370
    25
100
AcDbLine
 10
118.5500000000003
 20
409.1520650813517
 30
0.0
 11
118.5500000000003
 21
367.6520650813517
 31
0.0
  0
LINE
  5
39E
330
1F
100
AcDbEntity
  8
Layer0000
  6
Continuous
 62
     3
370
    25
100
AcDbLine
 10
102.5500000000003
 20
367.6520650813517
 30
0.0
 11
102.5500000000003
 21
409.1520650813517
 31
0.0
  0
LINE
  5
39F
330
1F
100
AcDbEntity
  8
Layer0000
  6
Continuous
 62
     3
370
    25
100
AcDbLine
 10
143.5500000000002
 20
367.6520650813517
 30
0.0
 11
118.5500000000003
 21
367.6520650813517
 31
0.0
  0
LINE
  5
3A0
330
1F
100
AcDbEntity
  8
Layer0000
  6
Continuous
 62
     3
370
    25
100
AcDbLine
 10
102.5500000000003
 20
367.6520650813517
 30
0.0
 11
20.55000000000029
 21
367.6520650813517
 31
0.0
  0
LINE
  5
3A1
330
1F
100
AcDbEntity
  8
Layer0000
  6
Continuous
 62
     3
370
    25
100
AcDbLine
 10
143.5500000000002
 20
251.6520650813518
 30
0.0
 11
118.5500000000003
 21
251.6520650813518
 31
0.0
  0
LINE
  5
3A2
330
1F
100
AcDbEntity
  8
Layer0000
  6
Continuous
 62
     3
370
    25
100
AcDbLine
 10
102.5500000000003
 20
251.6520650813518
 30
0.0
 11
20.55000000000029
 21
251.6520650813518
 31
0.0
  0
LINE
  5
3A3
330
1F
100
AcDbEntity
  8
Layer0000
  6
Continuous
 62
     3
370
    25
100
AcDbLine
 10
97.05000000000024
 20
240.7086894083779
 30
0.0
 11
94.55000000000024
 21
239.2653137354039
 31
0.0
  0
LINE
  5
3A4
330
1F
100
AcDbEntity
  8
Layer0000
  6
Continuous
 62
     3
370
    25
100
AcDbLine
 10
92.05000000000024
 20
240.7086894083779
 30
0.0
 11
94.55000000000018
 21
239.2653137354039
 31
0.0
  0
LINE
  5
3A5
330
1F
100
AcDbEntity
  8
Layer0000
  6
Continuous
 62
     3
370
    25
100
AcDbLine
 10
97.05000000000024
 20
243.5954407543261
 30
0.0
 11
97.05000000000024
 21
240.7086894083779
 31
0.0
  0
LINE
  5
3A6
330
1F
100
AcDbEntity
  8
Layer0000
  6
Continuous
 62
     3
370
    25
100
AcDbLine
 10
92.05000000000024
 20
243.5954407543261
 30
0.0
 11
92.05000000000024
 21
240.7086894083779
 31
0.0
  0
LINE
  5
3A7
330
1F
100
AcDbEntity
  8
Layer0000
  6
Continuous
 62
     3
370
    25
100
AcDbLine
 10
97.05000000000024
 20
243.5954407543261
 30
0.0
 11
94.55000000000024
 21
245.0388164273001
 31
0.0
  0
LINE
  5
3A8
330
1F
100
AcDbEntity
  8
Layer0000
  6
Continuous
 62
     3
370
    25
100
AcDbLine
 10
92.05000000000024
 20
243.5954407543261
 30
0.0
 11
94.55000000000018
 21
245.0388164273001
 31
0.0
  0
CIRCLE
  5
3A9
330
1F
100
AcDbEntity
  8
Layer0000
  6
Continuous
 62
     3
370
    25
100
AcDbCircle
 10
94.55000000000024
 20
242.152065081352
 30
0.0
 40
4.189999999999998
  0
CIRCLE
  5
3AA
330
1F
100
AcDbEntity
  8
Layer0000
  6
Continuous
 62
     3
370
    25
100
AcDbCircle
 10
94.55000000000024
 20
242.152065081352
 30
0.0
 40
5.0
  0
LINE
  5
3AB
330
1F
100
AcDbEntity
  8
Layer0000
  6
Continuous
 62
     3
370
    25
100
AcDbLine
 10
-0.9499999999996476
 20
375.7086894083779
 30
0.0
 11
-3.449999999999648
 21
374.2653137354038
 31
0.0
  0
LINE
  5
3AC
330
1F
100
AcDbEntity
  8
Layer0000
  6
Continuous
 62
     3
370
    25
100
AcDbLine
 10
-5.949999999999648
 20
375.7086894083779
 30
0.0
 11
-3.449999999999704
 21
374.2653137354038
 31
0.0
  0
LINE
  5
3AD
330
1F
100
AcDbEntity
  8
Layer0000
  6
Continuous
 62
     3
370
    25
100
AcDbLine
 10
-0.9499999999996476
 20
378.595440754326
 30
0.0
 11
-0.9499999999996476
 21
375.7086894083779
 31
0.0
  0
LINE
  5
3AE
330
1F
100
AcDbEntity
  8
Layer0000
  6
Continuous
 62
     3
370
    25
100
AcDbLine
 10
-5.949999999999648
 20
378.595440754326
 30
0.0
 11
-5.949999999999648
 21
375.7086894083779
 31
0.0
  0
LINE
  5
3AF
330
1F
100
AcDbEntity
  8
Layer0000
  6
Continuous
 62
     3
370
    25
100
AcDbLine
 10
-0.9499999999996476
 20
378.595440754326
 30
0.0
 11
-3.449999999999648
 21
380.0388164273001
 31
0.0
  0
LINE
  5
3B0
330
1F
100
AcDbEntity
  8
Layer0000
  6
Continuous
 62
     3
370
    25
100
AcDbLine
 10
-5.949999999999648
 20
378.595440754326
 30
0.0
 11
-3.449999999999704
 21
380.0388164273001
 31
0.0
  0
CIRCLE
  5
3B1
330
1F
100
AcDbEntity
  8
Layer0000
  6
Continuous
 62
     3
370
    25
100
AcDbCircle
 10
-3.449999999999648
 20
377.152065081352
 30
0.0
 40
4.189999999999998
  0
CIRCLE
  5
3B2
330
1F
100
AcDbEntity
  8
Layer0000
  6
Continuous
 62
     3
370
    25
100
AcDbCircle
 10
-3.449999999999648
 20
377.152065081352
 30
0.0
 40
5.0
  0
LINE
  5
3B3
330
1F
100
AcDbEntity
  8
Layer0000
  6
Continuous
 62
     3
370
    25
100
AcDbLine
 10
-0.9499999999997044
 20
240.7086894083779
 30
0.0
 11
-3.449999999999704
 21
239.2653137354039
 31
0.0
  0
LINE
  5
3B4
330
1F
100
AcDbEntity
  8
Layer0000
  6
Continuous
 62
     3
370
    25
100
AcDbLine
 10
-5.949999999999704
 20
240.7086894083779
 30
0.0
 11
-3.449999999999761
 21
239.2653137354039
 31
0.0
  0
LINE
  5
3B5
330
1F
100
AcDbEntity
  8
Layer0000
  6
Continuous
 62
     3
370
    25
100
AcDbLine
 10
-0.9499999999997044
 20
243.5954407543261
 30
0.0
 11
-0.9499999999997044
 21
240.7086894083779
 31
0.0
  0
LINE
  5
3B6
330
1F
100
AcDbEntity
  8
Layer0000
  6
Continuous
 62
     3
370
    25
100
AcDbLine
 10
-5.949999999999704
 20
243.5954407543261
 30
0.0
 11
-5.949999999999704
 21
240.7086894083779
 31
0.0
  0
LINE
  5
3B7
330
1F
100
AcDbEntity
  8
Layer0000
  6
Continuous
 62
     3
370
    25
100
AcDbLine
 10
-0.9499999999997044
 20
243.5954407543261
 30
0.0
 11
-3.449999999999704
 21
245.0388164273001
 31
0.0
  0
LINE
  5
3B8
330
1F
100
AcDbEntity
  8
Layer0000
  6
Continuous
 62
     3
370
    25
100
AcDbLine
 10
-5.949999999999704
 20
243.5954407543261
 30
0.0
 11
-3.449999999999761
 21
245.0388164273001
 31
0.0
  0
CIRCLE
  5
3B9
330
1F
100
AcDbEntity
  8
Layer0000
  6
Continuous
 62
     3
370
    25
100
AcDbCircle
 10
-3.449999999999704
 20
242.152065081352
 30
0.0
 40
4.189999999999998
  0
CIRCLE
  5
3BA
330
1F
100
AcDbEntity
  8
Layer0000
  6
Continuous
 62
     3
370
    25
100
AcDbCircle
 10
-3.449999999999704
 20
242.152065081352
 30
0.0
 40
5.0
  0
LINE
  5
3BB
330
1F
100
AcDbEntity
  8
Layer0000
  6
Continuous
 62
     3
370
    25
100
AcDbLine
 10
97.05000000000035
 20
375.7086894083779
 30
0.0
 11
94.55000000000035
 21
374.2653137354038
 31
0.0
  0
LINE
  5
3BC
330
1F
100
AcDbEntity
  8
Layer0000
  6
Continuous
 62
     3
370
    25
100
AcDbLine
 10
92.05000000000035
 20
375.7086894083779
 30
0.0
 11
94.5500000000003
 21
374.2653137354038
 31
0.0
  0
LINE
  5
3BD
330
1F
100
AcDbEntity
  8
Layer0000
  6
Continuous
 62
     3
370
    25
100
AcDbLine
 10
97.05000000000035
 20
378.595440754326
 30
0.0
 11
97.05000000000035
 21
375.7086894083779
 31
0.0
  0
LINE
  5
3BE
330
1F
100
AcDbEntity
  8
Layer0000
  6
Continuous
 62
     3
370
    25
100
AcDbLine
 10
92.05000000000035
 20
378.595440754326
 30
0.0
 11
92.05000000000035
 21
375.7086894083779
 31
0.0
  0
LINE
  5
3BF
330
1F
100
AcDbEntity
  8
Layer0000
  6
Continuous
 62
     3
370
    25
100
AcDbLine
 10
97.05000000000035
 20
378.595440754326
 30
0.0
 11
94.55000000000035
 21
380.0388164273001
 31
0.0
  0
LINE
  5
3C0
330
1F
100
AcDbEntity
  8
Layer0000
  6
Continuous
 62
     3
370
    25
100
AcDbLine
 10
92.05000000000035
 20
378.595440754326
 30
0.0
 11
94.5500000000003
 21
380.0388164273001
 31
0.0
  0
CIRCLE
  5
3C1
330
1F
100
AcDbEntity
  8
Layer0000
  6
Continuous
 62
     3
370
    25
100
AcDbCircle
 10
94.55000000000035
 20
377.152065081352
 30
0.0
 40
4.189999999999998
  0
CIRCLE
  5
3C2
330
1F
100
AcDbEntity
  8
Layer0000
  6
Continuous
 62
     3
370
    25
100
AcDbCircle
 10
94.55000000000035
 20
377.152065081352
 30
0.0
 40
5.0
  0
ARC
  5
3C3
330
1F
100
AcDbEntity
  8
Layer0000
  6
Continuous
 62
     3
370
    25
100
AcDbCircle
 10
409.7499999999999
 20
230.6520650813518
 30
0.0
 40
1.0
100
AcDbArc
 50
180.0
 51
270.0
  0
ARC
  5
3C4
330
1F
100
AcDbEntity
  8
Layer0000
  6
Continuous
 62
     3
370
    25
100
AcDbCircle
 10
409.7499999999999
 20
388.6520650813516
 30
0.0
 40
1.0
100
AcDbArc
 50
90.0
 51
180.0
  0
LINE
  5
3C5
330
1F
100
AcDbEntity
  8
Layer0000
  6
Continuous
 62
     3
370
    25
100
AcDbLine
 10
-229.8334144935992
 20
-383.6328844727792
 30
0.0
 11
-229.8334144935992
 21
-405.6328844727793
 31
0.0
  0
LINE
  5
3C6
330
1F
100
AcDbEntity
  8
Layer0000
  6
Continuous
 62
     3
370
    25
100
AcDbLine
 10
-228.9673890898142
 20
-384.1328844727793
 30
0.0
 11
-212.9673890898144
 21
-384.1328844727793
 31
0.0
  0
LINE
  5
3C7
330
1F
100
AcDbEntity
  8
Layer0000
  6
Continuous
 62
     3
370
    25
100
AcDbLine
 10
-228.9673890898143
 20
-405.1328844727793
 30
0.0
 11
-212.9673890898144
 21
-405.1328844727793
 31
0.0
  0
LINE
  5
3C8
330
1F
100
AcDbEntity
  8
Layer0000
  6
Continuous
 62
     3
370
    25
100
AcDbLine
 10
-211.9673890898144
 20
-385.1328844727793
 30
0.0
 11
-211.9673890898144
 21
-404.1328844727793
 31
0.0
  0
LINE
  5
3C9
330
1F
100
AcDbEntity
  8
Layer0000
  6
Continuous
 62
     3
370
    25
100
AcDbLine
 10
-212.9673890898144
 20
-405.1328844727793
 30
0.0
 11
-211.9673890898144
 21
-404.1328844727793
 31
0.0
  0
LINE
  5
3CA
330
1F
100
AcDbEntity
  8
Layer0000
  6
Continuous
 62
     3
370
    25
100
AcDbLine
 10
-212.9673890898144
 20
-384.1328844727793
 30
0.0
 11
-211.9673890898144
 21
-385.1328844727793
 31
0.0
  0
LINE
  5
3CB
330
1F
100
AcDbEntity
  8
Layer0000
  6
Continuous
 62
     3
370
    25
100
AcDbLine
 10
-228.9673890898143
 20
-390.1607485177797
 30
0.0
 11
-212.9673890898144
 21
-390.1607485177797
 31
0.0
  0
LINE
  5
3CC
330
1F
100
AcDbEntity
  8
Layer0000
  6
Continuous
 62
     3
370
    25
100
AcDbLine
 10
-228.9673890898143
 20
-388.6417111143267
 30
0.0
 11
-212.9673890898144
 21
-388.6417111143267
 31
0.0
  0
LINE
  5
3CD
330
1F
100
AcDbEntity
  8
Layer0000
  6
Continuous
 62
     3
370
    25
100
AcDbLine
 10
-228.9673890898143
 20
-400.6240578312317
 30
0.0
 11
-212.9673890898144
 21
-400.6240578312317
 31
0.0
  0
LINE
  5
3CE
330
1F
100
AcDbEntity
  8
Layer0000
  6
Continuous
 62
     3
370
    25
100
AcDbLine
 10
-212.9673890898144
 20
-399.1050204277787
 30
0.0
 11
-228.9673890898143
 21
-399.1050204277787
 31
0.0
  0
LINE
  5
3CF
330
1F
100
AcDbEntity
  8
Layer0000
  6
Continuous
 62
     3
370
    25
100
AcDbLine
 10
-212.9673890898144
 20
-388.6417111143267
 30
0.0
 11
-212.9673890898144
 21
-390.1607485177797
 31
0.0
  0
LINE
  5
3D0
330
1F
100
AcDbEntity
  8
Layer0000
  6
Continuous
 62
     3
370
    25
100
AcDbLine
 10
-212.9673890898144
 20
-399.1050204277787
 30
0.0
 11
-212.9673890898144
 21
-400.6240578312317
 31
0.0
  0
ARC
  5
3D1
330
1F
100
AcDbEntity
  8
Layer0000
  6
Continuous
 62
     3
370
    25
100
AcDbCircle
 10
-222.467389089814
 20
-394.6328844727792
 30
0.0
 40
10.49999999999956
100
AcDbArc
 50
334.7912347032412
 51
25.20876529675892
  0
ARC
  5
3D2
330
1F
100
AcDbEntity
  8
Layer0000
  6
Continuous
 62
     3
370
    25
100
AcDbCircle
 10
-215.0085788002536
 20
-386.3872977935522
 30
0.0
 40
3.041189710439299
100
AcDbArc
 50
312.1583048916353
 51
42.1583048916778
  0
ARC
  5
3D3
330
1F
100
AcDbEntity
  8
Layer0000
  6
Continuous
 62
     3
370
    25
100
AcDbCircle
 10
-215.0085788002536
 20
-402.8784711520063
 30
0.0
 40
3.041189710439299
100
AcDbArc
 50
317.8416951083222
 51
47.84169510836464
  0
LINE
  5
3D4
330
1F
100
AcDbEntity
  8
Layer0000
  6
Continuous
 62
     3
370
    25
100
AcDbLine
 10
-531.9673890898168
 20
-380.6328844727792
 30
0.0
 11
-531.9673890898168
 21
-408.6328844727792
 31
0.0
  0
LINE
  5
3D5
330
1F
100
AcDbEntity
  8
Layer0000
  6
Continuous
 62
     3
370
    25
100
AcDbLine
 10
-530.9673890898168
 20
-379.6328844727792
 30
0.0
 11
-461.9673890898167
 21
-379.6328844727792
 31
0.0
  0
LINE
  5
3D6
330
1F
100
AcDbEntity
  8
Layer0000
  6
Continuous
 62
     3
370
    25
100
AcDbLine
 10
-530.9673890898168
 20
-409.6328844727792
 30
0.0
 11
-461.9673890898167
 21
-409.6328844727792
 31
0.0
  0
LINE
  5
3D7
330
1F
100
AcDbEntity
  8
Layer0000
  6
Continuous
 62
     3
370
    25
100
AcDbLine
 10
-530.9673890898168
 20
-379.6328844727792
 30
0.0
 11
-531.9673890898168
 21
-380.6328844727792
 31
0.0
  0
LINE
  5
3D8
330
1F
100
AcDbEntity
  8
Layer0000
  6
Continuous
 62
     3
370
    25
100
AcDbLine
 10
-530.9673890898168
 20
-409.6328844727792
 30
0.0
 11
-531.9673890898168
 21
-408.6328844727792
 31
0.0
  0
LINE
  5
3D9
330
1F
100
AcDbEntity
  8
Layer0000
  6
Continuous
 62
     3
370
    25
100
AcDbLine
 10
-461.9673890898167
 20
-409.6328844727792
 30
0.0
 11
-461.9673890898167
 21
-379.6328844727792
 31
0.0
  0
LINE
  5
3DA
330
1F
100
AcDbEntity
  8
Layer0000
  6
Continuous
 62
     3
370
    25
100
AcDbLine
 10
-461.9673890898167
 20
-379.632884472779
 30
0.0
 11
-457.9673890898166
 21
-383.6328844727792
 31
0.0
  0
LINE
  5
3DB
330
1F
100
AcDbEntity
  8
Layer0000
  6
Continuous
 62
     3
370
    25
100
AcDbLine
 10
-457.9673890898143
 20
-405.6328844727793
 30
0.0
 11
-461.9673890898167
 21
-409.6328844727792
 31
0.0
  0
LINE
  5
3DC
330
1F
100
AcDbEntity
  8
Layer0000
  6
Continuous
 62
     3
370
    25
100
AcDbLine
 10
-228.9673890898143
 20
-384.1328844727792
 30
0.0
 11
-228.9673890898143
 21
-388.6417111143267
 31
0.0
  0
LINE
  5
3DD
330
1F
100
AcDbEntity
  8
Layer0000
  6
Continuous
 62
     3
370
    25
100
AcDbLine
 10
-228.9673890898143
 20
-390.1607485177797
 30
0.0
 11
-228.9673890898143
 21
-399.1050204277787
 31
0.0
  0
LINE
  5
3DE
330
1F
100
AcDbEntity
  8
Layer0000
  6
Continuous
 62
     3
370
    25
100
AcDbLine
 10
-228.9673890898143
 20
-400.6240578312317
 30
0.0
 11
-228.9673890898143
 21
-405.1328844727793
 31
0.0
  0
LINE
  5
3DF
330
1F
100
AcDbEntity
  8
Layer0000
  6
Continuous
 62
     3
370
    25
100
AcDbLine
 10
-457.9673890898143
 20
-405.6328844727793
 30
0.0
 11
-457.9673890898143
 21
-383.6328844727792
 31
0.0
  0
LINE
  5
3E0
330
1F
100
AcDbEntity
  8
Layer0000
  6
Continuous
 62
     3
370
    25
100
AcDbLine
 10
-261.9673890898143
 20
-405.6328844727793
 30
0.0
 11
-261.9673890898143
 21
-383.6328844727792
 31
0.0
  0
LINE
  5
3E1
330
1F
100
AcDbEntity
  8
Layer0000
  6
Continuous
 62
     3
370
    25
100
AcDbLine
 10
-229.8334144935984
 20
-405.6328844727793
 30
0.0
 11
-261.9673890898143
 21
-405.6328844727793
 31
0.0
  0
LINE
  5
3E2
330
1F
100
AcDbEntity
  8
Layer0000
  6
Continuous
 62
     3
370
    25
100
AcDbLine
 10
-261.9673890898143
 20
-405.6328844727793
 30
0.0
 11
-457.9673890898143
 21
-405.6328844727793
 31
0.0
  0
LINE
  5
3E3
330
1F
100
AcDbEntity
  8
Layer0000
  6
Continuous
 62
     3
370
    25
100
AcDbLine
 10
-229.8334144935992
 20
-383.6328844727792
 30
0.0
 11
-261.9673890898143
 21
-383.6328844727792
 31
0.0
  0
LINE
  5
3E4
330
1F
100
AcDbEntity
  8
Layer0000
  6
Continuous
 62
     3
370
    25
100
AcDbLine
 10
-261.9673890898143
 20
-383.6328844727792
 30
0.0
 11
-457.9673890898143
 21
-383.6328844727792
 31
0.0
  0
CIRCLE
  5
3E5
330
1F
100
AcDbEntity
  8
Layer0000
  6
Continuous
 62
     4
370
    25
100
AcDbCircle
 10
-462.75
 20
-61.34793491864829
 30
0.0
 40
8.0
  0
LINE
  5
3E6
330
1F
100
AcDbEntity
  8
Layer0000
  6
CENTER
 62
     2
370
    25
100
AcDbLine
 10
-453.75
 20
-61.34793491864829
 30
0.0
 11
-471.75
 21
-61.34793491864829
 31
0.0
  0
LINE
  5
3E7
330
1F
100
AcDbEntity
  8
Layer0000
  6
CENTER
 62
     2
370
    25
100
AcDbLine
 10
-462.75
 20
-52.34793491864829
 30
0.0
 11
-462.75
 21
-70.34793491864829
 31
0.0
  0
LINE
  5
3E8
330
1F
100
AcDbEntity
  8
Layer0000
  6
CENTER
 62
     2
370
    25
100
AcDbLine
 10
-445.7499999999999
 20
303.6520650813517
 30
0.0
 11
-445.7499999999999
 21
315.6520650813517
 31
0.0
  0
LINE
  5
3E9
330
1F
100
AcDbEntity
  8
Layer0000
  6
CENTER
 62
     2
370
    25
100
AcDbLine
 10
-313.7499999999998
 20
-219.3479349186483
 30
0.0
 11
-313.7499999999998
 21
-205.3479349186483
 31
0.0
  0
LINE
  5
3EA
330
1F
100
AcDbEntity
  8
Layer0000
  6
CENTER
 62
     2
370
    25
100
AcDbLine
 10
-321.7499999999998
 20
-148.3479349186484
 30
0.0
 11
-345.7499999999999
 21
-148.3479349186484
 31
0.0
  0
LINE
  5
3EB
330
1F
100
AcDbEntity
  8
Layer0000
  6
CENTER
 62
     2
370
    25
100
AcDbLine
 10
-333.7499999999999
 20
-136.3479349186484
 30
0.0
 11
-333.7499999999999
 21
-160.3479349186484
 31
0.0
  0
LINE
  5
3EC
330
1F
100
AcDbEntity
  8
Layer0000
  6
CENTER
 62
     2
370
    25
100
AcDbLine
 10
-231.7499999999998
 20
-148.3479349186484
 30
0.0
 11
-255.7499999999998
 21
-148.3479349186484
 31
0.0
  0
LINE
  5
3ED
330
1F
100
AcDbEntity
  8
Layer0000
  6
CENTER
 62
     2
370
    25
100
AcDbLine
 10
-243.7499999999998
 20
-136.3479349186484
 30
0.0
 11
-243.7499999999998
 21
-160.3479349186484
 31
0.0
  0
LINE
  5
3EE
330
1F
100
AcDbEntity
  8
Layer0000
  6
CENTER
 62
     2
370
    25
100
AcDbLine
 10
-141.7499999999998
 20
-148.3479349186484
 30
0.0
 11
-165.7499999999998
 21
-148.3479349186484
 31
0.0
  0
LINE
  5
3EF
330
1F
100
AcDbEntity
  8
Layer0000
  6
CENTER
 62
     2
370
    25
100
AcDbLine
 10
-153.7499999999998
 20
-136.3479349186484
 30
0.0
 11
-153.7499999999998
 21
-160.3479349186484
 31
0.0
  0
LINE
  5
3F0
330
1F
100
AcDbEntity
  8
Layer0000
  6
CENTER
 62
     2
370
    25
100
AcDbLine
 10
456.7500000000001
 20
223.1520650813518
 30
0.0
 11
456.7500000000001
 21
381.1520650813517
 31
0.0
  0
LINE
  5
3F1
330
1F
100
AcDbEntity
  8
Layer0000
  6
CENTER
 62
     2
370
    25
100
AcDbLine
 10
385.7499999999999
 20
342.4020650813516
 30
0.0
 11
385.7499999999999
 21
276.9020650813517
 31
0.0
  0
LINE
  5
3F2
330
1F
100
AcDbEntity
  8
Layer0000
  6
CENTER
 62
     2
370
    25
100
AcDbLine
 10
318.7499999999999
 20
309.6520650813517
 30
0.0
 11
520.75
 21
309.6520650813517
 31
0.0
  0
LINE
  5
3F3
330
1F
100
AcDbEntity
  8
Layer0000
  6
CENTER
 62
     2
370
    25
100
AcDbLine
 10
-373.7499999999998
 20
-211.3479349186483
 30
0.0
 11
-373.7499999999998
 21
-205.3479349186483
 31
0.0
  0
LINE
  5
3F4
330
1F
100
AcDbEntity
  8
Layer0000
  6
CENTER
 62
     2
370
    25
100
AcDbLine
 10
-253.7499999999998
 20
-211.3479349186483
 30
0.0
 11
-253.7499999999998
 21
-205.3479349186483
 31
0.0
  0
CIRCLE
  5
3F5
330
1F
100
AcDbEntity
  8
Layer0000
  6
CENTER
 62
     2
370
    25
100
AcDbCircle
 10
385.7499999999999
 20
309.6520650813517
 30
0.0
 40
26.99999999999997
  0
LINE
  5
3F6
330
1F
100
AcDbEntity
  8
Layer0000
  6
CENTER
 62
     2
370
    25
100
AcDbLine
 10
-520.75
 20
309.6520650813517
 30
0.0
 11
-316.2499999999998
 21
309.6520650813517
 31
0.0
  0
LINE
  5
3F7
330
1F
100
AcDbEntity
  8
Layer0000
  6
CENTER
 62
     2
370
    25
100
AcDbLine
 10
-268.7499999999998
 20
309.6520650813517
 30
0.0
 11
200.2499999999975
 21
309.6520650813517
 31
0.0
  0
LINE
  5
3F8
330
1F
100
AcDbEntity
  8
Layer0000
  6
CENTER
 62
     2
370
    25
100
AcDbLine
 10
-50.74999999999977
 20
-148.3479349186484
 30
0.0
 11
-76.74999999999977
 21
-148.3479349186484
 31
0.0
  0
LINE
  5
3F9
330
1F
100
AcDbEntity
  8
Layer0000
  6
CENTER
 62
     2
370
    25
100
AcDbLine
 10
-63.74999999999977
 20
-135.3479349186484
 30
0.0
 11
-63.74999999999977
 21
-161.3479349186484
 31
0.0
  0
LINE
  5
3FA
330
1F
100
AcDbEntity
  8
Layer0000
  6
CENTER
 62
     2
370
    25
100
AcDbLine
 10
200.2499999999977
 20
-77.3479349186484
 30
0.0
 11
141.5500000000001
 21
-77.3479349186484
 31
0.0
  0
LINE
  5
3FB
330
1F
100
AcDbEntity
  8
Layer0000
  6
CENTER
 62
     2
370
    25
100
AcDbLine
 10
-445.7499999999999
 20
371.1520650813517
 30
0.0
 11
-445.7499999999999
 21
383.1520650813517
 31
0.0
  0
LINE
  5
3FC
330
1F
100
AcDbEntity
  8
Layer0000
  6
CENTER
 62
     2
370
    25
100
AcDbLine
 10
-445.7499999999999
 20
236.1520650813518
 30
0.0
 11
-445.7499999999999
 21
248.1520650813518
 31
0.0
  0
LINE
  5
3FD
330
1F
100
AcDbEntity
  8
Layer0000
  6
CENTER
 62
     2
370
    25
100
AcDbLine
 10
-439.7499999999999
 20
377.1520650813518
 30
0.0
 11
-451.7499999999999
 21
377.1520650813518
 31
0.0
  0
LINE
  5
3FE
330
1F
100
AcDbEntity
  8
Layer0000
  6
CENTER
 62
     2
370
    25
100
AcDbLine
 10
-439.7499999999999
 20
242.1520650813518
 30
0.0
 11
-451.7499999999999
 21
242.1520650813518
 31
0.0
  0
LINE
  5
3FF
330
1F
100
AcDbEntity
  8
Layer0000
  6
CENTER
 62
     2
370
    25
100
AcDbLine
 10
-417.2499999999997
 20
359.6520650813517
 30
0.0
 11
-448.2499999999997
 21
359.6520650813517
 31
0.0
  0
LINE
  5
400
330
1F
100
AcDbEntity
  8
Layer0000
  6
CENTER
 62
     2
370
    25
100
AcDbLine
 10
-432.7499999999997
 20
375.1520650813517
 30
0.0
 11
-432.7499999999997
 21
344.1520650813517
 31
0.0
  0
LINE
  5
401
330
1F
100
AcDbEntity
  8
Layer0000
  6
CENTER
 62
     2
370
    25
100
AcDbLine
 10
-484.2499999999997
 20
359.6520650813517
 30
0.0
 11
-515.2499999999997
 21
359.6520650813517
 31
0.0
  0
LINE
  5
402
330
1F
100
AcDbEntity
  8
Layer0000
  6
CENTER
 62
     2
370
    25
100
AcDbLine
 10
-499.7499999999997
 20
375.1520650813517
 30
0.0
 11
-499.7499999999997
 21
344.1520650813517
 31
0.0
  0
LINE
  5
403
330
1F
100
AcDbEntity
  8
Layer0000
  6
CENTER
 62
     2
370
    25
100
AcDbLine
 10
-484.2499999999997
 20
259.6520650813517
 30
0.0
 11
-515.2499999999997
 21
259.6520650813517
 31
0.0
  0
LINE
  5
404
330
1F
100
AcDbEntity
  8
Layer0000
  6
CENTER
 62
     2
370
    25
100
AcDbLine
 10
-499.7499999999997
 20
275.1520650813517
 30
0.0
 11
-499.7499999999997
 21
244.1520650813518
 31
0.0
  0
LINE
  5
405
330
1F
100
AcDbEntity
  8
Layer0000
  6
CENTER
 62
     2
370
    25
100
AcDbLine
 10
-417.2499999999997
 20
259.6520650813517
 30
0.0
 11
-448.2499999999997
 21
259.6520650813517
 31
0.0
  0
LINE
  5
406
330
1F
100
AcDbEntity
  8
Layer0000
  6
CENTER
 62
     2
370
    25
100
AcDbLine
 10
-432.7499999999997
 20
275.1520650813517
 30
0.0
 11
-432.7499999999997
 21
244.1520650813518
 31
0.0
  0
LINE
  5
407
330
1F
100
AcDbEntity
  8
Layer0000
  6
CENTER
 62
     2
370
    25
100
AcDbLine
 10
94.55000000000024
 20
236.152065081352
 30
0.0
 11
94.55000000000024
 21
248.152065081352
 31
0.0
  0
LINE
  5
408
330
1F
100
AcDbEntity
  8
Layer0000
  6
CENTER
 62
     2
370
    25
100
AcDbLine
 10
100.5500000000002
 20
242.152065081352
 30
0.0
 11
88.5500000000003
 21
242.152065081352
 31
0.0
  0
LINE
  5
409
330
1F
100
AcDbEntity
  8
Layer0000
  6
CENTER
 62
     2
370
    25
100
AcDbLine
 10
-3.449999999999648
 20
371.152065081352
 30
0.0
 11
-3.449999999999648
 21
383.152065081352
 31
0.0
  0
LINE
  5
40A
330
1F
100
AcDbEntity
  8
Layer0000
  6
CENTER
 62
     2
370
    25
100
AcDbLine
 10
2.550000000000352
 20
377.152065081352
 30
0.0
 11
-9.44999999999959
 21
377.152065081352
 31
0.0
  0
LINE
  5
40B
330
1F
100
AcDbEntity
  8
Layer0000
  6
CENTER
 62
     2
370
    25
100
AcDbLine
 10
-3.449999999999704
 20
236.152065081352
 30
0.0
 11
-3.449999999999704
 21
248.152065081352
 31
0.0
  0
LINE
  5
40C
330
1F
100
AcDbEntity
  8
Layer0000
  6
CENTER
 62
     2
370
    25
100
AcDbLine
 10
2.550000000000296
 20
242.152065081352
 30
0.0
 11
-9.449999999999648
 21
242.152065081352
 31
0.0
  0
LINE
  5
40D
330
1F
100
AcDbEntity
  8
Layer0000
  6
CENTER
 62
     2
370
    25
100
AcDbLine
 10
94.55000000000035
 20
371.152065081352
 30
0.0
 11
94.55000000000035
 21
383.152065081352
 31
0.0
  0
LINE
  5
40E
330
1F
100
AcDbEntity
  8
Layer0000
  6
CENTER
 62
     2
370
    25
100
AcDbLine
 10
100.5500000000004
 20
377.152065081352
 30
0.0
 11
88.55000000000041
 21
377.152065081352
 31
0.0
  0
LINE
  5
40F
330
1F
100
AcDbEntity
  8
Layer0000
  6
CENTER
 62
     2
370
    25
100
AcDbLine
 10
-261.9673890898143
 20
-394.6328844727792
 30
0.0
 11
-209.9673890898143
 21
-394.6328844727792
 31
0.0
  0
LINE
  5
410
330
1F
100
AcDbEntity
  8
Layer0000
  6
CENTER
 62
     2
370
    25
100
AcDbLine
 10
-519.9673890897793
 20
-394.6328844727792
 30
0.0
 11
-484.9673890898185
 21
-394.6328844727792
 31
0.0
  0
LINE
  5
411
330
1F
100
AcDbEntity
  8
Layer0000
  6
CENTER
 62
     2
370
    25
100
AcDbLine
 10
-484.9673890898185
 20
-394.6328844727792
 30
0.0
 11
-261.9673890898143
 21
-394.6328844727792
 31
0.0
  0
LINE
  5
412
330
1F
100
AcDbEntity
  8
Layer0000
  6
CENTER
 62
     2
370
    25
100
AcDbLine
 10
-533.9673890898168
 20
-394.6328844727792
 30
0.0
 11
-519.9673890897793
 21
-394.6328844727792
 31
0.0
  0
LINE
  5
413
330
1F
100
AcDbEntity
  8
Layer0000
  6
DIVIDE
 62
    56
370
    25
100
AcDbLine
 10
-423.7499999999999
 20
-17.54793491864834
 30
0.0
 11
-423.7499999999999
 21
-38.34793491864829
 31
0.0
  0
LINE
  5
414
330
1F
100
AcDbEntity
  8
Layer0000
  6
DIVIDE
 62
    56
370
    25
100
AcDbLine
 10
-458.2499999999998
 20
-17.3479349186483
 30
0.0
 11
-423.9499999999999
 21
-17.3479349186483
 31
0.0
  0
LINE
  5
415
330
1F
100
AcDbEntity
  8
Layer0000
  6
DIVIDE
 62
    56
370
    25
100
AcDbLine
 10
-458.7499999999998
 20
-16.8479349186483
 30
0.0
 11
-458.7499999999998
 21
-12.54793491864834
 31
0.0
  0
LINE
  5
416
330
1F
100
AcDbEntity
  8
Layer0000
  6
DIVIDE
 62
    56
370
    25
100
AcDbLine
 10
-458.9499999999998
 20
-12.3479349186483
 30
0.0
 11
-487.7499999999999
 21
-12.3479349186483
 31
0.0
  0
LINE
  5
417
330
1F
100
AcDbEntity
  8
Layer0000
  6
DIVIDE
 62
    56
370
    25
100
AcDbLine
 10
-488.75
 20
-13.3479349186483
 30
0.0
 11
-488.75
 21
-38.34793491864829
 31
0.0
  0
ARC
  5
418
330
1F
100
AcDbEntity
  8
Layer0000
  6
DIVIDE
 62
    56
370
    25
100
AcDbCircle
 10
-458.7499999999998
 20
-17.3479349186483
 30
0.0
 40
0.5
100
AcDbArc
 50
90.0
 51
0.0
  0
LINE
  5
419
330
1F
100
AcDbEntity
  8
Layer0000
  6
DIVIDE
 62
    56
370
    25
100
AcDbLine
 10
-423.9499999999999
 20
-17.3479349186483
 30
0.0
 11
-423.7499999999999
 21
-17.54793491864834
 31
0.0
  0
LINE
  5
41A
330
1F
100
AcDbEntity
  8
Layer0000
  6
DIVIDE
 62
    56
370
    25
100
AcDbLine
 10
-458.9499999999998
 20
-12.3479349186483
 30
0.0
 11
-458.7499999999998
 21
-12.54793491864834
 31
0.0
  0
LINE
  5
41B
330
1F
100
AcDbEntity
  8
Layer0000
  6
DIVIDE
 62
    56
370
    25
100
AcDbLine
 10
-488.75
 20
-13.3479349186483
 30
0.0
 11
-487.7499999999999
 21
-12.3479349186483
 31
0.0
  0
LINE
  5
41C
330
1F
100
AcDbEntity
  8
Layer0000
  6
DIVIDE
 62
    56
370
    25
100
AcDbLine
 10
-487.7499999999999
 20
-39.34793491864829
 30
0.0
 11
-488.75
 21
-38.34793491864829
 31
0.0
  0
LINE
  5
41D
330
1F
100
AcDbEntity
  8
Layer0000
  6
DIVIDE
 62
    56
370
    25
100
AcDbLine
 10
-424.7499999999999
 20
-39.34793491864829
 30
0.0
 11
-423.7499999999999
 21
-38.34793491864829
 31
0.0
  0
LINE
  5
41E
330
1F
100
AcDbEntity
  8
Layer0000
  6
DIVIDE
 62
    56
370
    25
100
AcDbLine
 10
72.55000000000021
 20
-17.54793491864834
 30
0.0
 11
72.55000000000021
 21
-38.34793491864829
 31
0.0
  0
LINE
  5
41F
330
1F
100
AcDbEntity
  8
Layer0000
  6
DIVIDE
 62
    56
370
    25
100
AcDbLine
 10
73.55000000000021
 20
-39.34793491864829
 30
0.0
 11
72.55000000000021
 21
-38.34793491864829
 31
0.0
  0
LINE
  5
420
330
1F
100
AcDbEntity
  8
Layer0000
  6
DIVIDE
 62
    56
370
    25
100
AcDbLine
 10
72.7500000000002
 20
-17.3479349186483
 30
0.0
 11
72.55000000000021
 21
-17.54793491864834
 31
0.0
  0
LINE
  5
421
330
1F
100
AcDbEntity
  8
Layer0000
  6
DIVIDE
 62
    56
370
    25
100
AcDbLine
 10
107.0500000000002
 20
-17.3479349186483
 30
0.0
 11
72.7500000000002
 21
-17.3479349186483
 31
0.0
  0
LINE
  5
422
330
1F
100
AcDbEntity
  8
Layer0000
  6
DIVIDE
 62
    56
370
    25
100
AcDbLine
 10
107.5500000000002
 20
-16.8479349186483
 30
0.0
 11
107.5500000000002
 21
-12.54793491864834
 31
0.0
  0
ARC
  5
423
330
1F
100
AcDbEntity
  8
Layer0000
  6
DIVIDE
 62
    56
370
    25
100
AcDbCircle
 10
107.5500000000002
 20
-17.3479349186483
 30
0.0
 40
0.5
100
AcDbArc
 50
180.0
 51
90.0
  0
LINE
  5
424
330
1F
100
AcDbEntity
  8
Layer0000
  6
DIVIDE
 62
    56
370
    25
100
AcDbLine
 10
107.7500000000002
 20
-12.3479349186483
 30
0.0
 11
107.5500000000002
 21
-12.54793491864834
 31
0.0
  0
LINE
  5
425
330
1F
100
AcDbEntity
  8
Layer0000
  6
DIVIDE
 62
    56
370
    25
100
AcDbLine
 10
107.7500000000002
 20
-12.3479349186483
 30
0.0
 11
136.5500000000002
 21
-12.3479349186483
 31
0.0
  0
LINE
  5
426
330
1F
100
AcDbEntity
  8
Layer0000
  6
DIVIDE
 62
    56
370
    25
100
AcDbLine
 10
137.5500000000002
 20
-13.3479349186483
 30
0.0
 11
137.5500000000002
 21
-38.34793491864829
 31
0.0
  0
LINE
  5
427
330
1F
100
AcDbEntity
  8
Layer0000
  6
DIVIDE
 62
    56
370
    25
100
AcDbLine
 10
136.5500000000002
 20
-39.34793491864829
 30
0.0
 11
137.5500000000002
 21
-38.34793491864829
 31
0.0
  0
LINE
  5
428
330
1F
100
AcDbEntity
  8
Layer0000
  6
DIVIDE
 62
    56
370
    25
100
AcDbLine
 10
-25.24999999999978
 20
-17.3479349186483
 30
0.0
 11
-25.44999999999978
 21
-17.54793491864834
 31
0.0
  0
LINE
  5
429
330
1F
100
AcDbEntity
  8
Layer0000
  6
DIVIDE
 62
    56
370
    25
100
AcDbLine
 10
9.050000000000217
 20
-17.3479349186483
 30
0.0
 11
-25.24999999999978
 21
-17.3479349186483
 31
0.0
  0
LINE
  5
42A
330
1F
100
AcDbEntity
  8
Layer0000
  6
DIVIDE
 62
    56
370
    25
100
AcDbLine
 10
9.550000000000217
 20
-16.8479349186483
 30
0.0
 11
9.550000000000217
 21
-12.64793491864836
 31
0.0
  0
ARC
  5
42B
330
1F
100
AcDbEntity
  8
Layer0000
  6
DIVIDE
 62
    56
370
    25
100
AcDbCircle
 10
9.550000000000217
 20
-17.3479349186483
 30
0.0
 40
0.5
100
AcDbArc
 50
180.0
 51
90.0
  0
LINE
  5
42C
330
1F
100
AcDbEntity
  8
Layer0000
  6
DIVIDE
 62
    56
370
    25
100
AcDbLine
 10
9.750000000000206
 20
-12.3479349186483
 30
0.0
 11
9.550000000000217
 21
-12.54793491864834
 31
0.0
  0
LINE
  5
42D
330
1F
100
AcDbEntity
  8
Layer0000
  6
DIVIDE
 62
    56
370
    25
100
AcDbLine
 10
9.750000000000206
 20
-12.3479349186483
 30
0.0
 11
38.55000000000022
 21
-12.3479349186483
 31
0.0
  0
LINE
  5
42E
330
1F
100
AcDbEntity
  8
Layer0000
  6
DIVIDE
 62
    56
370
    25
100
AcDbLine
 10
39.55000000000022
 20
-13.3479349186483
 30
0.0
 11
38.55000000000022
 21
-12.3479349186483
 31
0.0
  0
LINE
  5
42F
330
1F
100
AcDbEntity
  8
Layer0000
  6
DIVIDE
 62
    56
370
    25
100
AcDbLine
 10
39.55000000000022
 20
-13.3479349186483
 30
0.0
 11
39.55000000000022
 21
-38.34793491864829
 31
0.0
  0
LINE
  5
430
330
1F
100
AcDbEntity
  8
Layer0000
  6
DIVIDE
 62
    56
370
    25
100
AcDbLine
 10
38.55000000000022
 20
-39.34793491864829
 30
0.0
 11
39.55000000000022
 21
-38.34793491864829
 31
0.0
  0
LINE
  5
431
330
1F
100
AcDbEntity
  8
Layer0000
  6
DIVIDE
 62
    56
370
    25
100
AcDbLine
 10
-25.44999999999978
 20
-17.54793491864834
 30
0.0
 11
-25.44999999999978
 21
-38.34793491864829
 31
0.0
  0
LINE
  5
432
330
1F
100
AcDbEntity
  8
Layer0000
  6
DIVIDE
 62
    56
370
    25
100
AcDbLine
 10
-24.44999999999978
 20
-39.34793491864829
 30
0.0
 11
-25.44999999999978
 21
-38.34793491864829
 31
0.0
  0
LINE
  5
433
330
1F
100
AcDbEntity
  8
Layer0000
  6
DIVIDE
 62
    56
370
    25
100
AcDbLine
 10
320.7499999999999
 20
210.1520650813518
 30
0.0
 11
320.7499999999999
 21
409.1520650813517
 31
0.0
  0
LINE
  5
434
330
1F
100
AcDbEntity
  8
Layer0000
  6
DIVIDE
 62
    56
370
    25
100
AcDbLine
 10
320.7499999999999
 20
210.1520650813518
 30
0.0
 11
321.2499999999999
 21
209.6520650813518
 31
0.0
  0
LINE
  5
435
330
1F
100
AcDbEntity
  8
Layer0000
  6
DIVIDE
 62
    56
370
    25
100
AcDbLine
 10
320.7499999999999
 20
409.1520650813517
 30
0.0
 11
321.2499999999999
 21
409.6520650813517
 31
0.0
  0
LINE
  5
436
330
1F
100
AcDbEntity
  8
Layer0000
  6
DIVIDE
 62
    56
370
    25
100
AcDbLine
 10
321.2499999999999
 20
209.6520650813518
 30
0.0
 11
351.7499999999999
 21
209.6520650813518
 31
0.0
  0
LINE
  5
437
330
1F
100
AcDbEntity
  8
Layer0000
  6
DIVIDE
 62
    56
370
    25
100
AcDbLine
 10
351.7499999999999
 20
209.6520650813518
 30
0.0
 11
351.7499999999999
 21
210.1520650813518
 31
0.0
  0
LINE
  5
438
330
1F
100
AcDbEntity
  8
Layer0000
  6
DIVIDE
 62
    56
370
    25
100
AcDbLine
 10
351.7499999999999
 20
409.1520650813517
 30
0.0
 11
351.7499999999999
 21
409.6520650813517
 31
0.0
  0
LINE
  5
439
330
1F
100
AcDbEntity
  8
Layer0000
  6
DIVIDE
 62
    56
370
    25
100
AcDbLine
 10
321.2499999999999
 20
409.6520650813517
 30
0.0
 11
351.7499999999999
 21
409.6520650813517
 31
0.0
  0
LINE
  5
43A
330
1F
100
AcDbEntity
  8
Layer0000
  6
Continuous
 62
    56
370
    25
100
AcDbLine
 10
175.2499999999973
 20
-61.3479349186471
 30
0.0
 11
187.2499999999969
 21
-61.34793491864653
 31
0.0
  0
LINE
  5
43B
330
1F
100
AcDbEntity
  8
Layer0000
  6
Continuous
 62
    56
370
    25
100
AcDbLine
 10
187.2499999999969
 20
-60.34793491864653
 30
0.0
 11
191.2499999999969
 21
-60.34793491864642
 31
0.0
  0
LINE
  5
43C
330
1F
100
AcDbEntity
  8
Layer0000
  6
Continuous
 62
    56
370
    25
100
AcDbLine
 10
193.2499999999968
 20
-58.34793491864619
 30
0.0
 11
197.2499999999968
 21
-58.34793491864608
 31
0.0
  0
LINE
  5
43D
330
1F
100
AcDbEntity
  8
Layer0000
  6
Continuous
 62
    56
370
    25
100
AcDbLine
 10
175.2499999999979
 20
-93.3479349186471
 30
0.0
 11
187.2499999999984
 21
-93.34793491864642
 31
0.0
  0
LINE
  5
43E
330
1F
100
AcDbEntity
  8
Layer0000
  6
Continuous
 62
    56
370
    25
100
AcDbLine
 10
187.2499999999985
 20
-94.34793491864642
 30
0.0
 11
189.2499999999985
 21
-94.34793491864642
 31
0.0
  0
ARC
  5
43F
330
1F
100
AcDbEntity
  8
Layer0000
  6
Continuous
 62
    56
370
    25
100
AcDbCircle
 10
189.2499999999985
 20
-96.34793491864642
 30
0.0
 40
2.0
100
AcDbArc
 50
0.0000000000026055
 51
90.0000000000026
  0
LINE
  5
440
330
1F
100
AcDbEntity
  8
Layer0000
  6
Continuous
 62
    56
370
    25
100
AcDbLine
 10
174.2499999999973
 20
-62.3479349186471
 30
0.0
 11
175.2499999999973
 21
-61.3479349186471
 31
0.0
  0
LINE
  5
441
330
1F
100
AcDbEntity
  8
Layer0000
  6
Continuous
 62
    56
370
    25
100
AcDbLine
 10
174.2499999999979
 20
-92.3479349186471
 30
0.0
 11
175.2499999999979
 21
-93.3479349186471
 31
0.0
  0
ARC
  5
442
330
1F
100
AcDbEntity
  8
Layer0000
  6
Continuous
 62
    56
370
    25
100
AcDbCircle
 10
197.2499999999969
 20
-60.34793491864608
 30
0.0
 40
2.0
100
AcDbArc
 50
0.0000000000026462
 51
90.00000000000244
  0
ARC
  5
443
330
1F
100
AcDbEntity
  8
Layer0000
  6
Continuous
 62
    56
370
    25
100
AcDbCircle
 10
193.2499999999969
 20
-60.34793491864619
 30
0.0
 40
2.0
100
AcDbArc
 50
90.00000000000244
 51
180.0000000000024
  0
LINE
  5
444
330
1F
100
AcDbEntity
  8
Layer0000
  6
Continuous
 62
    56
370
    25
100
AcDbLine
 10
187.2499999999969
 20
-60.34793491864653
 30
0.0
 11
187.2499999999969
 21
-61.34793491864653
 31
0.0
  0
LINE
  5
445
330
1F
100
AcDbEntity
  8
Layer0000
  6
Continuous
 62
    56
370
    25
100
AcDbLine
 10
187.2499999999984
 20
-93.34793491864642
 30
0.0
 11
187.2499999999985
 21
-94.34793491864642
 31
0.0
  0
LINE
  5
446
330
1F
100
AcDbEntity
  8
Layer0000
  6
Continuous
 62
    56
370
    25
100
AcDbLine
 10
174.2499999999979
 20
-92.34793491864733
 30
0.0
 11
174.2499999999978
 21
-88.3479349186484
 31
0.0
  0
LINE
  5
447
330
1F
100
AcDbEntity
  8
Layer0000
  6
Continuous
 62
    56
370
    25
100
AcDbLine
 10
174.2499999999973
 20
-66.3479349186484
 30
0.0
 11
174.2499999999973
 21
-62.34793491864653
 31
0.0
  0
LINE
  5
448
330
1F
100
AcDbEntity
  8
Layer0000
  6
Continuous
 62
    56
370
    25
100
AcDbLine
 10
199.2499999999969
 20
-60.34793491864596
 30
0.0
 11
199.2500000000032
 21
-191.347934918646
 31
0.0
  0
LINE
  5
449
330
1F
100
AcDbEntity
  8
Layer0000
  6
Continuous
 62
    56
370
    25
100
AcDbLine
 10
193.2500000000041
 20
-211.3479349186462
 30
0.0
 11
208.2500000000041
 21
-211.3479349186455
 31
0.0
  0
LINE
  5
44A
330
1F
100
AcDbEntity
  8
Layer0000
  6
Continuous
 62
    56
370
    25
100
AcDbLine
 10
208.2500000000041
 20
-211.3479349186455
 30
0.0
 11
208.2500000000033
 21
-193.3479349186455
 31
0.0
  0
LINE
  5
44B
330
1F
100
AcDbEntity
  8
Layer0000
  6
Continuous
 62
    56
370
    25
100
AcDbLine
 10
201.2500000000033
 20
-193.347934918646
 30
0.0
 11
208.2500000000033
 21
-193.3479349186455
 31
0.0
  0
ARC
  5
44C
330
1F
100
AcDbEntity
  8
Layer0000
  6
Continuous
 62
    56
370
    25
100
AcDbCircle
 10
201.2500000000032
 20
-191.347934918646
 30
0.0
 40
2.0
100
AcDbArc
 50
180.0000000000026
 51
270.0000000000026
  0
ARC
  5
44D
330
1F
100
AcDbEntity
  8
Layer0000
  6
Continuous
 62
    56
370
    25
100
AcDbCircle
 10
193.250000000004
 20
-209.3479349186462
 30
0.0
 40
2.0
100
AcDbArc
 50
180.0000000000026
 51
270.0000000000026
  0
LINE
  5
44E
330
1F
100
AcDbEntity
  8
Layer0000
  6
Continuous
 62
    56
370
    25
100
AcDbLine
 10
190.2500000000037
 20
-205.8479349186484
 30
0.0
 11
190.2500000000037
 21
-198.8479349186485
 31
0.0
  0
LINE
  5
44F
330
1F
100
AcDbEntity
  8
Layer0000
  6
Continuous
 62
    56
370
    25
100
AcDbLine
 10
215.2500000000038
 20
-194.3479349186485
 30
0.0
 11
215.2500000000038
 21
-210.3479349186484
 31
0.0
  0
LINE
  5
450
330
1F
100
AcDbEntity
  8
Layer0000
  6
Continuous
 62
    56
370
    25
100
AcDbLine
 10
215.2500000000038
 20
-194.3479349186485
 30
0.0
 11
286.1937289213737
 21
-190.3495193910699
 31
0.0
  0
LINE
  5
451
330
1F
100
AcDbEntity
  8
Layer0000
  6
Continuous
 62
    56
370
    25
100
AcDbLine
 10
215.2500000000038
 20
-210.3479349186484
 30
0.0
 11
286.1937289213737
 21
-214.346350446227
 31
0.0
  0
LINE
  5
452
330
1F
100
AcDbEntity
  8
Layer0000
  6
Continuous
 62
    56
370
    25
100
AcDbLine
 10
287.2500000000003
 20
-213.3479323069037
 30
0.0
 11
287.2500000000003
 21
-191.3479323178088
 31
0.0
  0
ARC
  5
453
330
1F
100
AcDbEntity
  8
Layer0000
  6
Continuous
 62
    56
370
    25
100
AcDbCircle
 10
286.2500000000038
 20
-213.3479349186484
 30
0.0
 40
1.0
100
AcDbArc
 50
266.7742007758423
 51
0.0001496419479451
  0
ARC
  5
454
330
1F
100
AcDbEntity
  8
Layer0000
  6
Continuous
 62
    56
370
    25
100
AcDbCircle
 10
286.2500000000038
 20
-191.3479349186485
 30
0.0
 40
1.0
100
AcDbArc
 50
359.9998503580529
 51
93.22579922415777
  0
LINE
  5
455
330
1F
100
AcDbEntity
  8
Layer0000
  6
Continuous
 62
    56
370
    25
100
AcDbLine
 10
286.1937289213737
 20
-214.3463504427759
 30
0.0
 11
286.1937289213737
 21
-190.349519394521
 31
0.0
  0
LINE
  5
456
330
1F
100
AcDbEntity
  8
Layer0000
  6
Continuous
 62
    56
370
    25
100
AcDbLine
 10
209.2500000000038
 20
-194.3479349186485
 30
0.0
 11
215.2500000000038
 21
-194.3479349186485
 31
0.0
  0
LINE
  5
457
330
1F
100
AcDbEntity
  8
Layer0000
  6
Continuous
 62
    56
370
    25
100
AcDbLine
 10
209.2500000000038
 20
-210.3479349186484
 30
0.0
 11
215.2500000000038
 21
-210.3479349186484
 31
0.0
  0
LINE
  5
458
330
1F
100
AcDbEntity
  8
Layer0000
  6
Continuous
 62
    56
370
    25
100
AcDbLine
 10
208.2500000000038
 20
-195.3479349186485
 30
0.0
 11
209.2500000000038
 21
-194.3479349186485
 31
0.0
  0
LINE
  5
459
330
1F
100
AcDbEntity
  8
Layer0000
  6
Continuous
 62
    56
370
    25
100
AcDbLine
 10
208.2500000000038
 20
-209.3479349186484
 30
0.0
 11
209.2500000000038
 21
-210.3479349186484
 31
0.0
  0
LINE
  5
45A
330
1F
100
AcDbEntity
  8
Layer0000
  6
Continuous
 62
    56
370
    25
100
AcDbLine
 10
208.2500000000038
 20
-195.3479349186485
 30
0.0
 11
208.2500000000038
 21
-209.3479349186484
 31
0.0
  0
LINE
  5
45B
330
1F
100
AcDbEntity
  8
Layer0000
  6
Continuous
 62
    56
370
    25
100
AcDbLine
 10
191.2500000000038
 20
-206.5979349186484
 30
0.0
 11
191.0000000000037
 21
-206.5979349186484
 31
0.0
  0
LINE
  5
45C
330
1F
100
AcDbEntity
  8
Layer0000
  6
Continuous
 62
    56
370
    25
100
AcDbLine
 10
191.2500000000034
 20
-198.0979349186485
 30
0.0
 11
191.0000000000037
 21
-198.0979349186485
 31
0.0
  0
LINE
  5
45D
330
1F
100
AcDbEntity
  8
Layer0000
  6
Continuous
 62
    56
370
    25
100
AcDbLine
 10
191.2500000000039
 20
-206.8479349186416
 30
0.0
 11
190.2500000000037
 21
-205.8479349186484
 31
0.0
  0
LINE
  5
45E
330
1F
100
AcDbEntity
  8
Layer0000
  6
Continuous
 62
    56
370
    25
100
AcDbLine
 10
191.2500000000034
 20
-197.8479349186553
 30
0.0
 11
190.2500000000037
 21
-198.8479349186485
 31
0.0
  0
ARC
  5
45F
330
1F
100
AcDbEntity
  8
Layer0000
  6
Continuous
 62
    56
370
    25
100
AcDbCircle
 10
212.3237082694038
 20
-205.058881154398
 30
0.0
 40
73.8769487080479
100
AcDbArc
 50
100.1930876363986
 51
100.60780910855
  0
ARC
  5
460
330
1F
100
AcDbEntity
  8
Layer0000
  6
Continuous
 62
    56
370
    25
100
AcDbCircle
 10
203.1724586758434
 20
-156.2023573766694
 30
0.0
 40
24.17075914229993
100
AcDbArc
 50
100.6052288852463
 51
101.8649680213393
  0
ARC
  5
461
330
1F
100
AcDbEntity
  8
Layer0000
  6
Continuous
 62
    56
370
    25
100
AcDbCircle
 10
201.0789476317456
 20
-146.2435766262243
 30
0.0
 40
13.9943108402983
100
AcDbArc
 50
101.8600581798881
 51
104.0101922266177
  0
ARC
  5
462
330
1F
100
AcDbEntity
  8
Layer0000
  6
Continuous
 62
    56
370
    25
100
AcDbCircle
 10
199.9939382332116
 20
-141.8996130093554
 30
0.0
 40
9.516893775404194
100
AcDbArc
 50
104.0036685419864
 51
107.1141484611235
  0
ARC
  5
463
330
1F
100
AcDbEntity
  8
Layer0000
  6
Continuous
 62
    56
370
    25
100
AcDbCircle
 10
199.2514248046613
 20
-139.4908565630856
 30
0.0
 40
6.996292071666406
100
AcDbArc
 50
107.1076362998408
 51
111.2601872179245
  0
ARC
  5
464
330
1F
100
AcDbEntity
  8
Layer0000
  6
Continuous
 62
    56
370
    25
100
AcDbCircle
 10
198.6807098918876
 20
-138.0249203484138
 30
0.0
 40
5.423179117994887
100
AcDbArc
 50
111.2568059629005
 51
116.5186208556478
  0
ARC
  5
465
330
1F
100
AcDbEntity
  8
Layer0000
  6
Continuous
 62
    56
370
    25
100
AcDbCircle
 10
198.232080933637
 20
-137.1250470816532
 30
0.0
 40
4.417674426867999
100
AcDbArc
 50
116.5232224636123
 51
122.9018415013053
  0
ARC
  5
466
330
1F
100
AcDbEntity
  8
Layer0000
  6
Continuous
 62
    56
370
    25
100
AcDbCircle
 10
197.9175715896973
 20
-136.6352434311354
 30
0.0
 40
3.835592697266236
100
AcDbArc
 50
122.9317060506247
 51
130.2673934040806
  0
ARC
  5
467
330
1F
100
AcDbEntity
  8
Layer0000
  6
Continuous
 62
    56
370
    25
100
AcDbCircle
 10
198.6878210087559
 20
-137.5195751735861
 30
0.0
 40
5.00825096185815
100
AcDbArc
 50
130.4519876753989
 51
136.1405232052715
  0
ARC
  5
468
330
1F
100
AcDbEntity
  8
Layer0000
  6
Continuous
 62
    56
370
    25
100
AcDbCircle
 10
201.303359844121
 20
-140.0356078699009
 30
0.0
 40
8.637501832789745
100
AcDbArc
 50
136.1280685000492
 51
139.4847681756951
  0
ARC
  5
469
330
1F
100
AcDbEntity
  8
Layer0000
  6
Continuous
 62
    56
370
    25
100
AcDbCircle
 10
213.6337765876598
 20
-150.5790092457914
 30
0.0
 40
24.86101812861373
100
AcDbArc
 50
139.4732743050425
 51
140.6551304410742
  0
ARC
  5
46A
330
1F
100
AcDbEntity
  8
Layer0000
  6
Continuous
 62
    56
370
    25
100
AcDbCircle
 10
169.1569673417434
 20
-114.1148711322253
 30
0.0
 40
32.65263182555644
100
AcDbArc
 50
319.7481049007808
 51
320.6522950802608
  0
ARC
  5
46B
330
1F
100
AcDbEntity
  8
Layer0000
  6
Continuous
 62
    56
370
    25
100
AcDbCircle
 10
186.6222360041241
 20
-128.9026133884458
 30
0.0
 40
9.767856817969225
100
AcDbArc
 50
316.742914541619
 51
319.7539660764004
  0
ARC
  5
46C
330
1F
100
AcDbEntity
  8
Layer0000
  6
Continuous
 62
    56
370
    25
100
AcDbCircle
 10
189.5244090912705
 20
-131.6284691832173
 30
0.0
 40
5.786289685167703
100
AcDbArc
 50
311.6683280567353
 51
316.7074873571116
  0
ARC
  5
46D
330
1F
100
AcDbEntity
  8
Layer0000
  6
Continuous
 62
    56
370
    25
100
AcDbCircle
 10
189.0714494238775
 20
-131.1021257474221
 30
0.0
 40
6.480617115286719
100
AcDbArc
 50
307.0898284329763
 51
311.5661351047938
  0
ARC
  5
46E
330
1F
100
AcDbEntity
  8
Layer0000
  6
Continuous
 62
    56
370
    25
100
AcDbCircle
 10
187.9379716928837
 20
-129.6021162033855
 30
0.0
 40
8.360723561358009
100
AcDbArc
 50
303.6133309811381
 51
307.0868107523308
  0
ARC
  5
46F
330
1F
100
AcDbEntity
  8
Layer0000
  6
Continuous
 62
    56
370
    25
100
AcDbCircle
 10
186.0084025142505
 20
-126.6995387212417
 30
0.0
 40
11.84614939574278
100
AcDbArc
 50
301.1526274551331
 51
303.613845371082
  0
ARC
  5
470
330
1F
100
AcDbEntity
  8
Layer0000
  6
Continuous
 62
    56
370
    25
100
AcDbCircle
 10
181.7951339797136
 20
-119.7306954182316
 30
0.0
 40
19.9896381160608
100
AcDbArc
 50
299.6896912556023
 51
301.1542421986603
  0
ARC
  5
471
330
1F
100
AcDbEntity
  8
Layer0000
  6
Continuous
 62
    56
370
    25
100
AcDbCircle
 10
161.7691836465405
 20
-84.60926829560563
 30
0.0
 40
60.4192476785576
100
AcDbArc
 50
299.2051090119476
 51
299.6908578656776
  0
LINE
  5
472
330
1F
100
AcDbEntity
  8
Layer0000
  6
Continuous
 62
    56
370
    25
100
AcDbLine
 10
191.2499999999985
 20
-96.3479349186463
 30
0.0
 11
191.250000000004
 21
-209.3479349186464
 31
0.0
  0
LINE
  5
473
330
1F
100
AcDbEntity
  8
Layer0000
  6
CENTER
 62
    56
370
    25
100
AcDbLine
 10
189.2500000000037
 20
-202.3479349186484
 30
0.0
 11
288.2500000000003
 21
-202.3479349186484
 31
0.0
  0
LINE
  5
474
330
1F
100
AcDbEntity
  8
Layer0001
  6
Continuous
 62
    56
370
    25
100
AcDbLine
 10
-490.75
 20
148.6520650813517
 30
0.0
 11
-490.75
 21
168.6520650813517
 31
0.0
  0
LINE
  5
475
330
1F
100
AcDbEntity
  8
Layer0001
  6
Continuous
 62
    56
370
    25
100
AcDbLine
 10
-489.75
 20
147.6520650813517
 30
0.0
 11
-490.75
 21
148.6520650813517
 31
0.0
  0
LINE
  5
476
330
1F
100
AcDbEntity
  8
Layer0001
  6
Continuous
 62
    56
370
    25
100
AcDbLine
 10
-490.75
 20
168.6520650813517
 30
0.0
 11
-489.75
 21
169.6520650813517
 31
0.0
  0
CIRCLE
  5
477
330
1F
100
AcDbEntity
  8
Layer0001
  6
Continuous
 62
    56
370
    25
100
AcDbCircle
 10
-480.7499999999999
 20
158.6520650813517
 30
0.0
 40
6.267949192431104
  0
CIRCLE
  5
478
330
1F
100
AcDbEntity
  8
Layer0001
  6
Continuous
 62
    56
370
    25
100
AcDbCircle
 10
-480.7499999999999
 20
158.6520650813517
 30
0.0
 40
8.0
  0
LINE
  5
479
330
1F
100
AcDbEntity
  8
Layer0001
  6
Continuous
 62
    56
370
    25
100
AcDbLine
 10
-485.3688021535169
 20
158.6520650813517
 30
0.0
 11
-483.0594010767585
 21
154.6520650813517
 31
0.0
  0
LINE
  5
47A
330
1F
100
AcDbEntity
  8
Layer0001
  6
Continuous
 62
    56
370
    25
100
AcDbLine
 10
-483.0594010767585
 20
154.6520650813517
 30
0.0
 11
-478.4405989232415
 21
154.6520650813517
 31
0.0
  0
LINE
  5
47B
330
1F
100
AcDbEntity
  8
Layer0001
  6
Continuous
 62
    56
370
    25
100
AcDbLine
 10
-478.4405989232415
 20
154.6520650813517
 30
0.0
 11
-476.1311978464829
 21
158.6520650813517
 31
0.0
  0
LINE
  5
47C
330
1F
100
AcDbEntity
  8
Layer0001
  6
Continuous
 62
    56
370
    25
100
AcDbLine
 10
-476.1311978464829
 20
158.6520650813517
 30
0.0
 11
-478.4405989232415
 21
162.6520650813517
 31
0.0
  0
LINE
  5
47D
330
1F
100
AcDbEntity
  8
Layer0001
  6
Continuous
 62
    56
370
    25
100
AcDbLine
 10
-478.4405989232415
 20
162.6520650813517
 30
0.0
 11
-483.0594010767585
 21
162.6520650813517
 31
0.0
  0
LINE
  5
47E
330
1F
100
AcDbEntity
  8
Layer0001
  6
Continuous
 62
    56
370
    25
100
AcDbLine
 10
-483.0594010767585
 20
162.6520650813517
 30
0.0
 11
-485.3688021535169
 21
158.6520650813517
 31
0.0
  0
LINE
  5
47F
330
1F
100
AcDbEntity
  8
Layer0001
  6
Continuous
 62
    56
370
    25
100
AcDbLine
 10
-489.75
 20
147.6520650813517
 30
0.0
 11
-368.7499999999999
 21
147.6520650813517
 31
0.0
  0
LINE
  5
480
330
1F
100
AcDbEntity
  8
Layer0001
  6
Continuous
 62
    56
370
    25
100
AcDbLine
 10
-489.75
 20
169.6520650813517
 30
0.0
 11
-368.7499999999999
 21
169.6520650813517
 31
0.0
  0
LINE
  5
481
330
1F
100
AcDbEntity
  8
Layer0001
  6
Continuous
 62
    56
370
    25
100
AcDbLine
 10
-367.7499999999999
 20
168.6520650813517
 30
0.0
 11
-367.7499999999999
 21
148.6520650813517
 31
0.0
  0
LINE
  5
482
330
1F
100
AcDbEntity
  8
Layer0001
  6
Continuous
 62
    56
370
    25
100
AcDbLine
 10
-368.7499999999999
 20
169.6520650813517
 30
0.0
 11
-367.7499999999999
 21
168.6520650813517
 31
0.0
  0
LINE
  5
483
330
1F
100
AcDbEntity
  8
Layer0001
  6
Continuous
 62
    56
370
    25
100
AcDbLine
 10
-368.7499999999999
 20
147.6520650813517
 30
0.0
 11
-367.7499999999999
 21
148.6520650813517
 31
0.0
  0
LINE
  5
484
330
1F
100
AcDbEntity
  8
Layer0001
  6
Continuous
 62
    56
370
    25
100
AcDbLine
 10
-377.7499999999999
 20
139.1520650813517
 30
0.0
 11
-387.7499999999999
 21
139.1520650813517
 31
0.0
  0
LINE
  5
485
330
1F
100
AcDbEntity
  8
Layer0001
  6
Continuous
 62
    56
370
    25
100
AcDbLine
 10
-379.2499999999999
 20
137.6520650813517
 30
0.0
 11
-386.2499999999999
 21
137.6520650813517
 31
0.0
  0
LINE
  5
486
330
1F
100
AcDbEntity
  8
Layer0001
  6
Continuous
 62
    56
370
    25
100
AcDbLine
 10
-377.7499999999999
 20
139.1520650813517
 30
0.0
 11
-379.2499999999999
 21
137.6520650813517
 31
0.0
  0
LINE
  5
487
330
1F
100
AcDbEntity
  8
Layer0001
  6
Continuous
 62
    56
370
    25
100
AcDbLine
 10
-387.7499999999999
 20
139.1520650813517
 30
0.0
 11
-386.2499999999999
 21
137.6520650813517
 31
0.0
  0
LINE
  5
488
330
1F
100
AcDbEntity
  8
Layer0001
  6
Continuous
 62
    56
370
    25
100
AcDbLine
 10
-377.8574772881117
 20
197.6520650813518
 30
0.0
 11
-377.8574772881117
 21
203.7537055772502
 31
0.0
  0
LINE
  5
489
330
1F
100
AcDbEntity
  8
Layer0001
  6
Continuous
 62
    56
370
    25
100
AcDbLine
 10
-392.55
 20
197.6520650813518
 30
0.0
 11
-392.55
 21
203.7537055772502
 31
0.0
  0
LINE
  5
48A
330
1F
100
AcDbEntity
  8
Layer0001
  6
Continuous
 62
    56
370
    25
100
AcDbLine
 10
-387.6425227118881
 20
197.6520650813518
 30
0.0
 11
-387.6425227118881
 21
203.7537055772502
 31
0.0
  0
ARC
  5
48B
330
1F
100
AcDbEntity
  8
Layer0001
  6
Continuous
 62
    56
370
    25
100
AcDbCircle
 10
-390.0962613559441
 20
200.837155507731
 30
0.0
 40
3.811442986763149
100
AcDbArc
 50
49.92557966161389
 51
130.0744203383859
  0
ARC
  5
48C
330
1F
100
AcDbEntity
  8
Layer0001
  6
Continuous
 62
    56
370
    25
100
AcDbCircle
 10
-382.7499999999999
 20
190.8270499365607
 30
0.0
 40
13.82154855793342
100
AcDbArc
 50
69.26918485858411
 51
110.7308151414159
  0
ARC
  5
48D
330
1F
100
AcDbEntity
  8
Layer0001
  6
Continuous
 62
    56
370
    25
100
AcDbCircle
 10
-377.35
 20
197.2520650813517
 30
0.0
 40
0.4000000000000057
100
AcDbArc
 50
90.0
 51
180.0
  0
ARC
  5
48E
330
1F
100
AcDbEntity
  8
Layer0001
  6
Continuous
 62
    56
370
    25
100
AcDbCircle
 10
-388.1499999999999
 20
197.2520650813517
 30
0.0
 40
0.3999999999999773
100
AcDbArc
 50
0.0
 51
90.0
  0
LINE
  5
48F
330
1F
100
AcDbEntity
  8
Layer0001
  6
Continuous
 62
    56
370
    25
100
AcDbLine
 10
-392.55
 20
169.6520650813517
 30
0.0
 11
-392.55
 21
176.7571721641079
 31
0.0
  0
LINE
  5
490
330
1F
100
AcDbEntity
  8
Layer0001
  6
Continuous
 62
    56
370
    25
100
AcDbLine
 10
-387.6425227118881
 20
176.7571721641079
 30
0.0
 11
-387.6425227118881
 21
169.6520650813517
 31
0.0
  0
ARC
  5
491
330
1F
100
AcDbEntity
  8
Layer0001
  6
Continuous
 62
    56
370
    25
100
AcDbCircle
 10
-390.0962613559441
 20
173.8406220945887
 30
0.0
 40
3.811442986763149
100
AcDbArc
 50
49.92557966161387
 51
130.0744203383854
  0
ARC
  5
492
330
1F
100
AcDbEntity
  8
Layer0001
  6
Continuous
 62
    56
370
    25
100
AcDbCircle
 10
-382.7499999999999
 20
163.8305165234182
 30
0.0
 40
13.82154855793342
100
AcDbArc
 50
69.26918485858411
 51
110.7308151414159
  0
LINE
  5
493
330
1F
100
AcDbEntity
  8
Layer0001
  6
Continuous
 62
    56
370
    25
100
AcDbLine
 10
-377.8574772881117
 20
169.6520650813517
 30
0.0
 11
-377.8574772881117
 21
176.7571721641079
 31
0.0
  0
LINE
  5
494
330
1F
100
AcDbEntity
  8
Layer0001
  6
Continuous
 62
    56
370
    25
100
AcDbLine
 10
-387.7499999999999
 20
193.1520650813518
 30
0.0
 11
-377.7499999999999
 21
193.1520650813518
 31
0.0
  0
LINE
  5
495
330
1F
100
AcDbEntity
  8
Layer0001
  6
Continuous
 62
    56
370
    25
100
AcDbLine
 10
-378.5600000000029
 20
193.1520650813518
 30
0.0
 11
-377.7499999999999
 21
194.5550262354877
 31
0.0
  0
LINE
  5
496
330
1F
100
AcDbEntity
  8
Layer0001
  6
Continuous
 62
    56
370
    25
100
AcDbLine
 10
-386.9399999999999
 20
193.1520650813518
 30
0.0
 11
-387.7499999999999
 21
194.5550262354868
 31
0.0
  0
LINE
  5
497
330
1F
100
AcDbEntity
  8
Layer0001
  6
Continuous
 62
    56
370
    25
100
AcDbLine
 10
-386.9399999999999
 20
193.1520650813518
 30
0.0
 11
-386.9399999999999
 21
177.6520650813517
 31
0.0
  0
LINE
  5
498
330
1F
100
AcDbEntity
  8
Layer0001
  6
Continuous
 62
    56
370
    25
100
AcDbLine
 10
-387.7499999999999
 20
197.2520650813517
 30
0.0
 11
-387.7499999999999
 21
177.6520650813517
 31
0.0
  0
LINE
  5
499
330
1F
100
AcDbEntity
  8
Layer0001
  6
Continuous
 62
    56
370
    25
100
AcDbLine
 10
-378.5599999999999
 20
193.1520650813518
 30
0.0
 11
-378.5599999999999
 21
177.6520650813517
 31
0.0
  0
LINE
  5
49A
330
1F
100
AcDbEntity
  8
Layer0001
  6
Continuous
 62
    56
370
    25
100
AcDbLine
 10
-377.7499999999999
 20
197.2520650813517
 30
0.0
 11
-377.7499999999999
 21
177.6520650813517
 31
0.0
  0
LINE
  5
49B
330
1F
100
AcDbEntity
  8
Layer0001
  6
Continuous
 62
    56
370
    25
100
AcDbLine
 10
-387.7499999999999
 20
147.6520650813517
 30
0.0
 11
-387.7499999999999
 21
139.1520650813517
 31
0.0
  0
LINE
  5
49C
330
1F
100
AcDbEntity
  8
Layer0001
  6
Continuous
 62
    56
370
    25
100
AcDbLine
 10
-377.7499999999999
 20
147.6520650813517
 30
0.0
 11
-377.7499999999999
 21
139.1520650813517
 31
0.0
  0
LINE
  5
49D
330
1F
100
AcDbEntity
  8
Layer0001
  6
Continuous
 62
    56
370
    25
100
AcDbLine
 10
-386.9399999999999
 20
147.6520650813517
 30
0.0
 11
-386.9399999999999
 21
138.3420650813518
 31
0.0
  0
LINE
  5
49E
330
1F
100
AcDbEntity
  8
Layer0001
  6
Continuous
 62
    56
370
    25
100
AcDbLine
 10
-378.5599999999999
 20
147.6520650813517
 30
0.0
 11
-378.5599999999999
 21
138.3420650813518
 31
0.0
  0
LINE
  5
49F
330
1F
100
AcDbEntity
  8
Layer0001
  6
Continuous
 62
    56
370
    25
100
AcDbLine
 10
-390.0962613559441
 20
177.6520650813517
 30
0.0
 11
-375.4037386440558
 21
177.6520650813517
 31
0.0
  0
ARC
  5
4A0
330
1F
100
AcDbEntity
  8
Layer0001
  6
Continuous
 62
    56
370
    25
100
AcDbCircle
 10
-375.4037386440558
 20
173.8406220945887
 30
0.0
 40
3.811442986763113
100
AcDbArc
 50
49.92557966161453
 51
130.0744203383861
  0
LINE
  5
4A1
330
1F
100
AcDbEntity
  8
Layer0001
  6
Continuous
 62
    56
370
    25
100
AcDbLine
 10
-372.9499999999999
 20
169.6520650813517
 30
0.0
 11
-372.9499999999999
 21
176.7571721641079
 31
0.0
  0
LINE
  5
4A2
330
1F
100
AcDbEntity
  8
Layer0001
  6
Continuous
 62
    56
370
    25
100
AcDbLine
 10
-372.9499999999999
 20
197.6520650813518
 30
0.0
 11
-392.55
 21
197.6520650813518
 31
0.0
  0
LINE
  5
4A3
330
1F
100
AcDbEntity
  8
Layer0001
  6
Continuous
 62
    56
370
    25
100
AcDbLine
 10
-372.9499999999999
 20
197.6520650813518
 30
0.0
 11
-372.9499999999999
 21
203.7537055772502
 31
0.0
  0
ARC
  5
4A4
330
1F
100
AcDbEntity
  8
Layer0001
  6
Continuous
 62
    56
370
    25
100
AcDbCircle
 10
-375.4037386440558
 20
200.837155507731
 30
0.0
 40
3.811442986763113
100
AcDbArc
 50
49.92557966161454
 51
130.0744203383861
  0
LINE
  5
4A5
330
1F
100
AcDbEntity
  8
Layer0001
  6
Continuous
 62
    56
370
    25
100
AcDbLine
 10
-451.75
 20
147.6520650813517
 30
0.0
 11
-451.75
 21
110.6520650813518
 31
0.0
  0
LINE
  5
4A6
330
1F
100
AcDbEntity
  8
Layer0001
  6
Continuous
 62
    56
370
    25
100
AcDbLine
 10
-469.75
 20
147.6520650813517
 30
0.0
 11
-469.75
 21
110.6520650813518
 31
0.0
  0
LINE
  5
4A7
330
1F
100
AcDbEntity
  8
Layer0001
  6
Continuous
 62
    56
370
    25
100
AcDbLine
 10
-450.3641016151378
 20
196.6520650813518
 30
0.0
 11
-471.1358983848622
 21
196.6520650813518
 31
0.0
  0
ARC
  5
4A8
330
1F
100
AcDbEntity
  8
Layer0001
  6
Continuous
 62
    56
370
    25
100
AcDbCircle
 10
-450.3641016151378
 20
201.7527090286764
 30
0.0
 40
5.100643947324726
100
AcDbArc
 50
227.2227543443626
 51
312.7772456556379
  0
ARC
  5
4A9
330
1F
100
AcDbEntity
  8
Layer0001
  6
Continuous
 62
    56
370
    25
100
AcDbCircle
 10
-471.1358983848622
 20
201.7527090286764
 30
0.0
 40
5.100643947324764
100
AcDbArc
 50
227.2227543443621
 51
312.7772456556374
  0
ARC
  5
4AA
330
1F
100
AcDbEntity
  8
Layer0001
  6
Continuous
 62
    56
370
    25
100
AcDbCircle
 10
-460.75
 20
214.9867824557745
 30
0.0
 40
18.33471737442274
100
AcDbArc
 50
247.8195992645518
 51
292.1804007354482
  0
LINE
  5
4AB
330
1F
100
AcDbEntity
  8
Layer0001
  6
Continuous
 62
    56
370
    25
100
AcDbLine
 10
-468.75
 20
189.6520650813518
 30
0.0
 11
-452.75
 21
189.6520650813518
 31
0.0
  0
LINE
  5
4AC
330
1F
100
AcDbEntity
  8
Layer0001
  6
Continuous
 62
    56
370
    25
100
AcDbLine
 10
-468.75
 20
194.6520650813518
 30
0.0
 11
-452.75
 21
194.6520650813518
 31
0.0
  0
LINE
  5
4AD
330
1F
100
AcDbEntity
  8
Layer0001
  6
Continuous
 62
    56
370
    25
100
AcDbLine
 10
-468.75
 20
189.6520650813518
 30
0.0
 11
-468.75
 21
196.6520650813518
 31
0.0
  0
LINE
  5
4AE
330
1F
100
AcDbEntity
  8
Layer0001
  6
Continuous
 62
    56
370
    25
100
AcDbLine
 10
-467.6499999999999
 20
194.6520650813518
 30
0.0
 11
-467.6499999999999
 21
196.6520650813518
 31
0.0
  0
LINE
  5
4AF
330
1F
100
AcDbEntity
  8
Layer0001
  6
Continuous
 62
    56
370
    25
100
AcDbLine
 10
-452.75
 20
189.6520650813518
 30
0.0
 11
-452.75
 21
196.6520650813518
 31
0.0
  0
LINE
  5
4B0
330
1F
100
AcDbEntity
  8
Layer0001
  6
Continuous
 62
    56
370
    25
100
AcDbLine
 10
-453.8499999999999
 20
194.6520650813518
 30
0.0
 11
-453.8499999999999
 21
196.6520650813518
 31
0.0
  0
LINE
  5
4B1
330
1F
100
AcDbEntity
  8
Layer0001
  6
Continuous
 62
    56
370
    25
100
AcDbLine
 10
-452.75
 20
192.7468091930293
 30
0.0
 11
-453.8499999999981
 21
194.6520650813518
 31
0.0
  0
LINE
  5
4B2
330
1F
100
AcDbEntity
  8
Layer0001
  6
Continuous
 62
    56
370
    25
100
AcDbLine
 10
-467.6499999999999
 20
194.6520650813568
 30
0.0
 11
-468.75
 21
192.7468091930309
 31
0.0
  0
LINE
  5
4B3
330
1F
100
AcDbEntity
  8
Layer0001
  6
Continuous
 62
    56
370
    25
100
AcDbLine
 10
-451.75
 20
188.6520650813518
 30
0.0
 11
-451.75
 21
169.6520650813517
 31
0.0
  0
LINE
  5
4B4
330
1F
100
AcDbEntity
  8
Layer0001
  6
Continuous
 62
    56
370
    25
100
AcDbLine
 10
-469.75
 20
188.6520650813518
 30
0.0
 11
-469.75
 21
169.6520650813517
 31
0.0
  0
LINE
  5
4B5
330
1F
100
AcDbEntity
  8
Layer0001
  6
Continuous
 62
    56
370
    25
100
AcDbLine
 10
-468.75
 20
189.6520650813518
 30
0.0
 11
-469.75
 21
188.6520650813518
 31
0.0
  0
LINE
  5
4B6
330
1F
100
AcDbEntity
  8
Layer0001
  6
Continuous
 62
    56
370
    25
100
AcDbLine
 10
-452.75
 20
189.6520650813518
 30
0.0
 11
-451.75
 21
188.6520650813518
 31
0.0
  0
LINE
  5
4B7
330
1F
100
AcDbEntity
  8
Layer0001
  6
Continuous
 62
    56
370
    25
100
AcDbLine
 10
-451.75
 20
188.6520650813518
 30
0.0
 11
-469.75
 21
188.6520650813518
 31
0.0
  0
LINE
  5
4B8
330
1F
100
AcDbEntity
  8
Layer0001
  6
Continuous
 62
    56
370
    25
100
AcDbLine
 10
-474.6
 20
209.6520650813518
 30
0.0
 11
-474.6
 21
198.0088382139474
 31
0.0
  0
LINE
  5
4B9
330
1F
100
AcDbEntity
  8
Layer0001
  6
Continuous
 62
    56
370
    25
100
AcDbLine
 10
-467.6717967697243
 20
209.6520650813518
 30
0.0
 11
-467.6717967697243
 21
198.0088382139474
 31
0.0
  0
LINE
  5
4BA
330
1F
100
AcDbEntity
  8
Layer0001
  6
Continuous
 62
    56
370
    25
100
AcDbLine
 10
-453.8282032302754
 20
198.0088382139474
 30
0.0
 11
-453.8282032302754
 21
209.6520650813518
 31
0.0
  0
LINE
  5
4BB
330
1F
100
AcDbEntity
  8
Layer0001
  6
Continuous
 62
    56
370
    25
100
AcDbLine
 10
-446.8999999999999
 20
209.6520650813518
 30
0.0
 11
-446.8999999999999
 21
198.0088382139474
 31
0.0
  0
LINE
  5
4BC
330
1F
100
AcDbEntity
  8
Layer0001
  6
Continuous
 62
    56
370
    25
100
AcDbLine
 10
517.75
 20
163.6520650813516
 30
0.0
 11
491.75
 21
163.6520650813516
 31
0.0
  0
LINE
  5
4BD
330
1F
100
AcDbEntity
  8
Layer0001
  6
Continuous
 62
    56
370
    25
100
AcDbLine
 10
517.75
 20
172.6520650813516
 30
0.0
 11
513.75
 21
172.6520650813516
 31
0.0
  0
LINE
  5
4BE
330
1F
100
AcDbEntity
  8
Layer0001
  6
Continuous
 62
    56
370
    25
100
AcDbLine
 10
518.75
 20
171.6520650813516
 30
0.0
 11
518.75
 21
164.6520650813516
 31
0.0
  0
LINE
  5
4BF
330
1F
100
AcDbEntity
  8
Layer0001
  6
Continuous
 62
    56
370
    25
100
AcDbLine
 10
517.75
 20
172.6520650813516
 30
0.0
 11
518.75
 21
171.6520650813516
 31
0.0
  0
LINE
  5
4C0
330
1F
100
AcDbEntity
  8
Layer0001
  6
Continuous
 62
    56
370
    25
100
AcDbLine
 10
517.75
 20
163.6520650813516
 30
0.0
 11
518.75
 21
164.6520650813516
 31
0.0
  0
LINE
  5
4C1
330
1F
100
AcDbEntity
  8
Layer0001
  6
Continuous
 62
    56
370
    25
100
AcDbLine
 10
513.75
 20
172.6520650813516
 30
0.0
 11
513.75
 21
208.6520650813517
 31
0.0
  0
LINE
  5
4C2
330
1F
100
AcDbEntity
  8
Layer0001
  6
Continuous
 62
    56
370
    25
100
AcDbLine
 10
487.25
 20
215.6520650813517
 30
0.0
 11
496.25
 21
215.6520650813517
 31
0.0
  0
LINE
  5
4C3
330
1F
100
AcDbEntity
  8
Layer0001
  6
Continuous
 62
    56
370
    25
100
AcDbLine
 10
486.75
 20
215.1520650813517
 30
0.0
 11
487.25
 21
215.6520650813517
 31
0.0
  0
LINE
  5
4C4
330
1F
100
AcDbEntity
  8
Layer0001
  6
Continuous
 62
    56
370
    25
100
AcDbLine
 10
496.75
 20
215.1520650813517
 30
0.0
 11
496.25
 21
215.6520650813517
 31
0.0
  0
LINE
  5
4C5
330
1F
100
AcDbEntity
  8
Layer0001
  6
Continuous
 62
    56
370
    25
100
AcDbLine
 10
486.75
 20
215.1520650813517
 30
0.0
 11
486.75
 21
168.6520650813516
 31
0.0
  0
LINE
  5
4C6
330
1F
100
AcDbEntity
  8
Layer0001
  6
Continuous
 62
    56
370
    25
100
AcDbLine
 10
513.75
 20
208.6520650813517
 30
0.0
 11
512.75
 21
209.6520650813517
 31
0.0
  0
LINE
  5
4C7
330
1F
100
AcDbEntity
  8
Layer0001
  6
Continuous
 62
    56
370
    25
100
AcDbLine
 10
486.75
 20
404.1520650813519
 30
0.0
 11
487.25
 21
403.6520650813519
 31
0.0
  0
LINE
  5
4C8
330
1F
100
AcDbEntity
  8
Layer0001
  6
Continuous
 62
    56
370
    25
100
AcDbLine
 10
486.75
 20
404.1520650813519
 30
0.0
 11
486.75
 21
450.6520650813519
 31
0.0
  0
LINE
  5
4C9
330
1F
100
AcDbEntity
  8
Layer0001
  6
Continuous
 62
    56
370
    25
100
AcDbLine
 10
517.75
 20
455.6520650813519
 30
0.0
 11
491.75
 21
455.6520650813519
 31
0.0
  0
LINE
  5
4CA
330
1F
100
AcDbEntity
  8
Layer0001
  6
Continuous
 62
    56
370
    25
100
AcDbLine
 10
517.75
 20
446.6520650813519
 30
0.0
 11
513.75
 21
446.6520650813519
 31
0.0
  0
LINE
  5
4CB
330
1F
100
AcDbEntity
  8
Layer0001
  6
Continuous
 62
    56
370
    25
100
AcDbLine
 10
518.75
 20
447.6520650813519
 30
0.0
 11
518.75
 21
454.6520650813519
 31
0.0
  0
LINE
  5
4CC
330
1F
100
AcDbEntity
  8
Layer0001
  6
Continuous
 62
    56
370
    25
100
AcDbLine
 10
517.75
 20
446.6520650813519
 30
0.0
 11
518.75
 21
447.6520650813519
 31
0.0
  0
LINE
  5
4CD
330
1F
100
AcDbEntity
  8
Layer0001
  6
Continuous
 62
    56
370
    25
100
AcDbLine
 10
517.75
 20
455.6520650813519
 30
0.0
 11
518.75
 21
454.6520650813519
 31
0.0
  0
LINE
  5
4CE
330
1F
100
AcDbEntity
  8
Layer0001
  6
Continuous
 62
    56
370
    25
100
AcDbLine
 10
513.75
 20
446.6520650813519
 30
0.0
 11
513.75
 21
410.6520650813519
 31
0.0
  0
LINE
  5
4CF
330
1F
100
AcDbEntity
  8
Layer0001
  6
Continuous
 62
    56
370
    25
100
AcDbLine
 10
513.75
 20
410.6520650813519
 30
0.0
 11
512.75
 21
409.6520650813519
 31
0.0
  0
LINE
  5
4D0
330
1F
100
AcDbEntity
  8
Layer0001
  6
Continuous
 62
    56
370
    25
100
AcDbLine
 10
487.25
 20
403.6520650813519
 30
0.0
 11
496.25
 21
403.6520650813519
 31
0.0
  0
LINE
  5
4D1
330
1F
100
AcDbEntity
  8
Layer0001
  6
Continuous
 62
    56
370
    25
100
AcDbLine
 10
496.75
 20
404.1520650813519
 30
0.0
 11
496.25
 21
403.6520650813519
 31
0.0
  0
LINE
  5
4D2
330
1F
100
AcDbEntity
  8
Layer0001
  6
Continuous
 62
    56
370
    25
100
AcDbLine
 10
-288.7499999999999
 20
454.6520650813519
 30
0.0
 11
-289.7499999999999
 21
455.6520650813519
 31
0.0
  0
LINE
  5
4D3
330
1F
100
AcDbEntity
  8
Layer0001
  6
Continuous
 62
    56
370
    25
100
AcDbLine
 10
-338.7499999999999
 20
454.6520650813519
 30
0.0
 11
-337.7499999999999
 21
455.6520650813519
 31
0.0
  0
LINE
  5
4D4
330
1F
100
AcDbEntity
  8
Layer0001
  6
Continuous
 62
    56
370
    25
100
AcDbLine
 10
-288.7499999999999
 20
413.6520650813519
 30
0.0
 11
-288.7499999999999
 21
454.6520650813519
 31
0.0
  0
LINE
  5
4D5
330
1F
100
AcDbEntity
  8
Layer0001
  6
Continuous
 62
    56
370
    25
100
AcDbLine
 10
-337.7499999999999
 20
455.6520650813519
 30
0.0
 11
-289.7499999999999
 21
455.6520650813519
 31
0.0
  0
LINE
  5
4D6
330
1F
100
AcDbEntity
  8
Layer0001
  6
Continuous
 62
    56
370
    25
100
AcDbLine
 10
-338.7499999999999
 20
413.6520650813519
 30
0.0
 11
-338.7499999999999
 21
454.6520650813519
 31
0.0
  0
CIRCLE
  5
4D7
330
1F
100
AcDbEntity
  8
Layer0001
  6
Continuous
 62
    56
370
    25
100
AcDbCircle
 10
-313.7499999999998
 20
429.6520650813519
 30
0.0
 40
9.228718707889811
  0
CIRCLE
  5
4D8
330
1F
100
AcDbEntity
  8
Layer0001
  6
Continuous
 62
    56
370
    25
100
AcDbCircle
 10
-313.7499999999998
 20
429.6520650813519
 30
0.0
 40
12.0
  0
LINE
  5
4D9
330
1F
100
AcDbEntity
  8
Layer0001
  6
Continuous
 62
    56
370
    25
100
AcDbLine
 10
-321.8329037686545
 20
429.6520650813519
 30
0.0
 11
-317.7914518843271
 21
436.6520650813519
 31
0.0
  0
LINE
  5
4DA
330
1F
100
AcDbEntity
  8
Layer0001
  6
Continuous
 62
    56
370
    25
100
AcDbLine
 10
-317.7914518843271
 20
436.6520650813519
 30
0.0
 11
-309.7085481156723
 21
436.6520650813519
 31
0.0
  0
LINE
  5
4DB
330
1F
100
AcDbEntity
  8
Layer0001
  6
Continuous
 62
    56
370
    25
100
AcDbLine
 10
-309.7085481156723
 20
436.6520650813519
 30
0.0
 11
-305.667096231345
 21
429.6520650813519
 31
0.0
  0
LINE
  5
4DC
330
1F
100
AcDbEntity
  8
Layer0001
  6
Continuous
 62
    56
370
    25
100
AcDbLine
 10
-305.667096231345
 20
429.6520650813519
 30
0.0
 11
-309.7085481156723
 21
422.6520650813519
 31
0.0
  0
LINE
  5
4DD
330
1F
100
AcDbEntity
  8
Layer0001
  6
Continuous
 62
    56
370
    25
100
AcDbLine
 10
-309.7085481156723
 20
422.6520650813519
 30
0.0
 11
-317.7914518843271
 21
422.6520650813519
 31
0.0
  0
LINE
  5
4DE
330
1F
100
AcDbEntity
  8
Layer0001
  6
Continuous
 62
    56
370
    25
100
AcDbLine
 10
-317.7914518843271
 20
422.6520650813519
 30
0.0
 11
-321.8329037686545
 21
429.6520650813519
 31
0.0
  0
LINE
  5
4DF
330
1F
100
AcDbEntity
  8
Layer0001
  6
Continuous
 62
    56
370
    25
100
AcDbLine
 10
-338.7499999999999
 20
413.6520650813519
 30
0.0
 11
-328.7499999999999
 21
403.6520650813519
 31
0.0
  0
LINE
  5
4E0
330
1F
100
AcDbEntity
  8
Layer0001
  6
Continuous
 62
    56
370
    25
100
AcDbLine
 10
-298.7499999999999
 20
403.6520650813519
 30
0.0
 11
-288.7499999999999
 21
413.6520650813519
 31
0.0
  0
LINE
  5
4E1
330
1F
100
AcDbEntity
  8
Layer0001
  6
Continuous
 62
    56
370
    25
100
AcDbLine
 10
-38.74999999999989
 20
454.6520650813519
 30
0.0
 11
-39.74999999999989
 21
455.6520650813519
 31
0.0
  0
LINE
  5
4E2
330
1F
100
AcDbEntity
  8
Layer0001
  6
Continuous
 62
    56
370
    25
100
AcDbLine
 10
-88.74999999999989
 20
454.6520650813519
 30
0.0
 11
-87.74999999999989
 21
455.6520650813519
 31
0.0
  0
LINE
  5
4E3
330
1F
100
AcDbEntity
  8
Layer0001
  6
Continuous
 62
    56
370
    25
100
AcDbLine
 10
-38.74999999999989
 20
413.6520650813519
 30
0.0
 11
-38.74999999999989
 21
454.6520650813519
 31
0.0
  0
LINE
  5
4E4
330
1F
100
AcDbEntity
  8
Layer0001
  6
Continuous
 62
    56
370
    25
100
AcDbLine
 10
-87.74999999999989
 20
455.6520650813519
 30
0.0
 11
-39.74999999999989
 21
455.6520650813519
 31
0.0
  0
LINE
  5
4E5
330
1F
100
AcDbEntity
  8
Layer0001
  6
Continuous
 62
    56
370
    25
100
AcDbLine
 10
-88.74999999999989
 20
413.6520650813519
 30
0.0
 11
-88.74999999999989
 21
454.6520650813519
 31
0.0
  0
CIRCLE
  5
4E6
330
1F
100
AcDbEntity
  8
Layer0001
  6
Continuous
 62
    56
370
    25
100
AcDbCircle
 10
-63.74999999999977
 20
429.6520650813519
 30
0.0
 40
9.228718707889811
  0
CIRCLE
  5
4E7
330
1F
100
AcDbEntity
  8
Layer0001
  6
Continuous
 62
    56
370
    25
100
AcDbCircle
 10
-63.74999999999977
 20
429.6520650813519
 30
0.0
 40
12.0
  0
LINE
  5
4E8
330
1F
100
AcDbEntity
  8
Layer0001
  6
Continuous
 62
    56
370
    25
100
AcDbLine
 10
-71.83290376865455
 20
429.6520650813519
 30
0.0
 11
-67.7914518843271
 21
436.6520650813519
 31
0.0
  0
LINE
  5
4E9
330
1F
100
AcDbEntity
  8
Layer0001
  6
Continuous
 62
    56
370
    25
100
AcDbLine
 10
-67.7914518843271
 20
436.6520650813519
 30
0.0
 11
-59.70854811567233
 21
436.6520650813519
 31
0.0
  0
LINE
  5
4EA
330
1F
100
AcDbEntity
  8
Layer0001
  6
Continuous
 62
    56
370
    25
100
AcDbLine
 10
-59.70854811567233
 20
436.6520650813519
 30
0.0
 11
-55.667096231345
 21
429.6520650813519
 31
0.0
  0
LINE
  5
4EB
330
1F
100
AcDbEntity
  8
Layer0001
  6
Continuous
 62
    56
370
    25
100
AcDbLine
 10
-55.667096231345
 20
429.6520650813519
 30
0.0
 11
-59.70854811567233
 21
422.6520650813519
 31
0.0
  0
LINE
  5
4EC
330
1F
100
AcDbEntity
  8
Layer0001
  6
Continuous
 62
    56
370
    25
100
AcDbLine
 10
-59.70854811567233
 20
422.6520650813519
 30
0.0
 11
-67.7914518843271
 21
422.6520650813519
 31
0.0
  0
LINE
  5
4ED
330
1F
100
AcDbEntity
  8
Layer0001
  6
Continuous
 62
    56
370
    25
100
AcDbLine
 10
-67.7914518843271
 20
422.6520650813519
 30
0.0
 11
-71.83290376865455
 21
429.6520650813519
 31
0.0
  0
LINE
  5
4EE
330
1F
100
AcDbEntity
  8
Layer0001
  6
Continuous
 62
    56
370
    25
100
AcDbLine
 10
486.75
 20
450.6520650813519
 30
0.0
 11
491.75
 21
455.6520650813519
 31
0.0
  0
LINE
  5
4EF
330
1F
100
AcDbEntity
  8
Layer0001
  6
Continuous
 62
    56
370
    25
100
AcDbLine
 10
491.75
 20
163.6520650813516
 30
0.0
 11
486.75
 21
168.6520650813516
 31
0.0
  0
LINE
  5
4F0
330
1F
100
AcDbEntity
  8
Layer0001
  6
Continuous
 62
    56
370
    25
100
AcDbLine
 10
-288.7499999999999
 20
164.6520650813517
 30
0.0
 11
-289.7499999999999
 21
163.6520650813517
 31
0.0
  0
LINE
  5
4F1
330
1F
100
AcDbEntity
  8
Layer0001
  6
Continuous
 62
    56
370
    25
100
AcDbLine
 10
-338.7499999999999
 20
164.6520650813517
 30
0.0
 11
-337.7499999999999
 21
163.6520650813517
 31
0.0
  0
LINE
  5
4F2
330
1F
100
AcDbEntity
  8
Layer0001
  6
Continuous
 62
    56
370
    25
100
AcDbLine
 10
-288.7499999999999
 20
205.6520650813517
 30
0.0
 11
-288.7499999999999
 21
164.6520650813517
 31
0.0
  0
LINE
  5
4F3
330
1F
100
AcDbEntity
  8
Layer0001
  6
Continuous
 62
    56
370
    25
100
AcDbLine
 10
-337.7499999999999
 20
163.6520650813517
 30
0.0
 11
-289.7499999999999
 21
163.6520650813517
 31
0.0
  0
LINE
  5
4F4
330
1F
100
AcDbEntity
  8
Layer0001
  6
Continuous
 62
    56
370
    25
100
AcDbLine
 10
-338.7499999999999
 20
205.6520650813517
 30
0.0
 11
-338.7499999999999
 21
164.6520650813517
 31
0.0
  0
CIRCLE
  5
4F5
330
1F
100
AcDbEntity
  8
Layer0001
  6
Continuous
 62
    56
370
    25
100
AcDbCircle
 10
-313.7499999999998
 20
189.6520650813517
 30
0.0
 40
9.228718707889811
  0
CIRCLE
  5
4F6
330
1F
100
AcDbEntity
  8
Layer0001
  6
Continuous
 62
    56
370
    25
100
AcDbCircle
 10
-313.7499999999998
 20
189.6520650813517
 30
0.0
 40
12.0
  0
LINE
  5
4F7
330
1F
100
AcDbEntity
  8
Layer0001
  6
Continuous
 62
    56
370
    25
100
AcDbLine
 10
-321.8329037686545
 20
189.6520650813517
 30
0.0
 11
-317.7914518843271
 21
182.6520650813517
 31
0.0
  0
LINE
  5
4F8
330
1F
100
AcDbEntity
  8
Layer0001
  6
Continuous
 62
    56
370
    25
100
AcDbLine
 10
-317.7914518843271
 20
182.6520650813517
 30
0.0
 11
-309.7085481156723
 21
182.6520650813517
 31
0.0
  0
LINE
  5
4F9
330
1F
100
AcDbEntity
  8
Layer0001
  6
Continuous
 62
    56
370
    25
100
AcDbLine
 10
-309.7085481156723
 20
182.6520650813517
 30
0.0
 11
-305.667096231345
 21
189.6520650813517
 31
0.0
  0
LINE
  5
4FA
330
1F
100
AcDbEntity
  8
Layer0001
  6
Continuous
 62
    56
370
    25
100
AcDbLine
 10
-305.667096231345
 20
189.6520650813517
 30
0.0
 11
-309.7085481156723
 21
196.6520650813517
 31
0.0
  0
LINE
  5
4FB
330
1F
100
AcDbEntity
  8
Layer0001
  6
Continuous
 62
    56
370
    25
100
AcDbLine
 10
-309.7085481156723
 20
196.6520650813517
 30
0.0
 11
-317.7914518843271
 21
196.6520650813517
 31
0.0
  0
LINE
  5
4FC
330
1F
100
AcDbEntity
  8
Layer0001
  6
Continuous
 62
    56
370
    25
100
AcDbLine
 10
-317.7914518843271
 20
196.6520650813517
 30
0.0
 11
-321.8329037686545
 21
189.6520650813517
 31
0.0
  0
LINE
  5
4FD
330
1F
100
AcDbEntity
  8
Layer0001
  6
Continuous
 62
    56
370
    25
100
AcDbLine
 10
-328.7499999999999
 20
215.6520650813517
 30
0.0
 11
-338.7499999999999
 21
205.6520650813517
 31
0.0
  0
LINE
  5
4FE
330
1F
100
AcDbEntity
  8
Layer0001
  6
Continuous
 62
    56
370
    25
100
AcDbLine
 10
-298.7499999999999
 20
215.6520650813517
 30
0.0
 11
-288.7499999999999
 21
205.6520650813517
 31
0.0
  0
LINE
  5
4FF
330
1F
100
AcDbEntity
  8
Layer0001
  6
Continuous
 62
    56
370
    25
100
AcDbLine
 10
-38.74999999999989
 20
164.6520650813517
 30
0.0
 11
-39.74999999999989
 21
163.6520650813517
 31
0.0
  0
LINE
  5
500
330
1F
100
AcDbEntity
  8
Layer0001
  6
Continuous
 62
    56
370
    25
100
AcDbLine
 10
-88.74999999999989
 20
164.6520650813517
 30
0.0
 11
-87.74999999999989
 21
163.6520650813517
 31
0.0
  0
LINE
  5
501
330
1F
100
AcDbEntity
  8
Layer0001
  6
Continuous
 62
    56
370
    25
100
AcDbLine
 10
-38.74999999999989
 20
205.6520650813517
 30
0.0
 11
-38.74999999999989
 21
164.6520650813517
 31
0.0
  0
LINE
  5
502
330
1F
100
AcDbEntity
  8
Layer0001
  6
Continuous
 62
    56
370
    25
100
AcDbLine
 10
-87.74999999999989
 20
163.6520650813517
 30
0.0
 11
-39.74999999999989
 21
163.6520650813517
 31
0.0
  0
LINE
  5
503
330
1F
100
AcDbEntity
  8
Layer0001
  6
Continuous
 62
    56
370
    25
100
AcDbLine
 10
-88.74999999999989
 20
205.6520650813517
 30
0.0
 11
-88.74999999999989
 21
164.6520650813517
 31
0.0
  0
CIRCLE
  5
504
330
1F
100
AcDbEntity
  8
Layer0001
  6
Continuous
 62
    56
370
    25
100
AcDbCircle
 10
-63.74999999999977
 20
189.6520650813517
 30
0.0
 40
9.228718707889811
  0
CIRCLE
  5
505
330
1F
100
AcDbEntity
  8
Layer0001
  6
Continuous
 62
    56
370
    25
100
AcDbCircle
 10
-63.74999999999977
 20
189.6520650813517
 30
0.0
 40
12.0
  0
LINE
  5
506
330
1F
100
AcDbEntity
  8
Layer0001
  6
Continuous
 62
    56
370
    25
100
AcDbLine
 10
-71.83290376865455
 20
189.6520650813517
 30
0.0
 11
-67.7914518843271
 21
182.6520650813517
 31
0.0
  0
LINE
  5
507
330
1F
100
AcDbEntity
  8
Layer0001
  6
Continuous
 62
    56
370
    25
100
AcDbLine
 10
-67.7914518843271
 20
182.6520650813517
 30
0.0
 11
-59.70854811567233
 21
182.6520650813517
 31
0.0
  0
LINE
  5
508
330
1F
100
AcDbEntity
  8
Layer0001
  6
Continuous
 62
    56
370
    25
100
AcDbLine
 10
-59.70854811567233
 20
182.6520650813517
 30
0.0
 11
-55.667096231345
 21
189.6520650813517
 31
0.0
  0
LINE
  5
509
330
1F
100
AcDbEntity
  8
Layer0001
  6
Continuous
 62
    56
370
    25
100
AcDbLine
 10
-55.667096231345
 20
189.6520650813517
 30
0.0
 11
-59.70854811567233
 21
196.6520650813517
 31
0.0
  0
LINE
  5
50A
330
1F
100
AcDbEntity
  8
Layer0001
  6
Continuous
 62
    56
370
    25
100
AcDbLine
 10
-59.70854811567233
 20
196.6520650813517
 30
0.0
 11
-67.7914518843271
 21
196.6520650813517
 31
0.0
  0
LINE
  5
50B
330
1F
100
AcDbEntity
  8
Layer0001
  6
Continuous
 62
    56
370
    25
100
AcDbLine
 10
-67.7914518843271
 20
196.6520650813517
 30
0.0
 11
-71.83290376865455
 21
189.6520650813517
 31
0.0
  0
LINE
  5
50C
330
1F
100
AcDbEntity
  8
Layer0001
  6
Continuous
 62
    56
370
    25
100
AcDbLine
 10
-390.0962613559441
 20
204.6485984944942
 30
0.0
 11
-375.4037386440559
 21
204.6485984944942
 31
0.0
  0
LINE
  5
50D
330
1F
100
AcDbEntity
  8
Layer0001
  6
Continuous
 62
    56
370
    25
100
AcDbLine
 10
-298.7499999999999
 20
215.6520650813517
 30
0.0
 11
-328.7499999999999
 21
215.6520650813517
 31
0.0
  0
LINE
  5
50E
330
1F
100
AcDbEntity
  8
Layer0001
  6
Continuous
 62
    56
370
    25
100
AcDbLine
 10
-78.74999999999977
 20
215.6520650813515
 30
0.0
 11
-88.74999999999977
 21
205.6520650813515
 31
0.0
  0
LINE
  5
50F
330
1F
100
AcDbEntity
  8
Layer0001
  6
Continuous
 62
    56
370
    25
100
AcDbLine
 10
-48.74999999999977
 20
215.6520650813515
 30
0.0
 11
-38.74999999999977
 21
205.6520650813515
 31
0.0
  0
LINE
  5
510
330
1F
100
AcDbEntity
  8
Layer0001
  6
Continuous
 62
    56
370
    25
100
AcDbLine
 10
-48.74999999999977
 20
215.6520650813515
 30
0.0
 11
-78.74999999999977
 21
215.6520650813515
 31
0.0
  0
LINE
  5
511
330
1F
100
AcDbEntity
  8
Layer0001
  6
Continuous
 62
    56
370
    25
100
AcDbLine
 10
-298.7499999999999
 20
403.6520650813519
 30
0.0
 11
-328.7499999999999
 21
403.6520650813519
 31
0.0
  0
LINE
  5
512
330
1F
100
AcDbEntity
  8
Layer0001
  6
Continuous
 62
    56
370
    25
100
AcDbLine
 10
-88.74999999999989
 20
413.6520650813519
 30
0.0
 11
-78.74999999999989
 21
403.6520650813519
 31
0.0
  0
LINE
  5
513
330
1F
100
AcDbEntity
  8
Layer0001
  6
Continuous
 62
    56
370
    25
100
AcDbLine
 10
-48.74999999999989
 20
403.6520650813519
 30
0.0
 11
-38.74999999999989
 21
413.6520650813519
 31
0.0
  0
LINE
  5
514
330
1F
100
AcDbEntity
  8
Layer0001
  6
Continuous
 62
    56
370
    25
100
AcDbLine
 10
-48.74999999999989
 20
403.6520650813519
 30
0.0
 11
-78.74999999999989
 21
403.6520650813519
 31
0.0
  0
LINE
  5
515
330
1F
100
AcDbEntity
  8
Layer0001
  6
Continuous
 62
    56
370
    25
100
AcDbLine
 10
-452.75
 20
109.6520650813518
 30
0.0
 11
-468.75
 21
109.6520650813518
 31
0.0
  0
LINE
  5
516
330
1F
100
AcDbEntity
  8
Layer0001
  6
Continuous
 62
    56
370
    25
100
AcDbLine
 10
-451.75
 20
110.6520650813518
 30
0.0
 11
-452.75
 21
109.6520650813518
 31
0.0
  0
LINE
  5
517
330
1F
100
AcDbEntity
  8
Layer0001
  6
Continuous
 62
    56
370
    25
100
AcDbLine
 10
-469.75
 20
110.6520650813518
 30
0.0
 11
-468.75
 21
109.6520650813518
 31
0.0
  0
LINE
  5
518
330
1F
100
AcDbEntity
  8
Layer0001
  6
Continuous
 62
    56
370
    25
100
AcDbLine
 10
-469.75
 20
110.6520650813518
 30
0.0
 11
-451.75
 21
110.6520650813518
 31
0.0
  0
LINE
  5
519
330
1F
100
AcDbEntity
  8
Layer0001
  6
Continuous
 62
    56
370
    25
100
AcDbLine
 10
512.75
 20
409.6520650813519
 30
0.0
 11
496.75
 21
409.6520650813519
 31
0.0
  0
LINE
  5
51A
330
1F
100
AcDbEntity
  8
Layer0001
  6
Continuous
 62
    56
370
    25
100
AcDbLine
 10
496.75
 20
409.6520650813519
 30
0.0
 11
496.75
 21
404.1520650813519
 31
0.0
  0
LINE
  5
51B
330
1F
100
AcDbEntity
  8
Layer0001
  6
Continuous
 62
    56
370
    25
100
AcDbLine
 10
496.75
 20
215.1520650813517
 30
0.0
 11
496.75
 21
209.6520650813517
 31
0.0
  0
LINE
  5
51C
330
1F
100
AcDbEntity
  8
Layer0001
  6
Continuous
 62
    56
370
    25
100
AcDbLine
 10
512.75
 20
209.6520650813517
 30
0.0
 11
496.75
 21
209.6520650813517
 31
0.0
  0
LINE
  5
51D
330
1F
100
AcDbEntity
  8
Layer0001
  6
CENTER
 62
    56
370
    25
100
AcDbLine
 10
-471.7499999999998
 20
158.6520650813517
 30
0.0
 11
-489.75
 21
158.6520650813517
 31
0.0
  0
LINE
  5
51E
330
1F
100
AcDbEntity
  8
Layer0001
  6
CENTER
 62
    56
370
    25
100
AcDbLine
 10
-480.7499999999999
 20
167.6520650813517
 30
0.0
 11
-480.7499999999999
 21
149.6520650813517
 31
0.0
  0
LINE
  5
51F
330
1F
100
AcDbEntity
  8
Layer0001
  6
CENTER
 62
    56
370
    25
100
AcDbLine
 10
-382.7499999999999
 20
205.6520650813518
 30
0.0
 11
-382.7499999999999
 21
136.6520650813517
 31
0.0
  0
LINE
  5
520
330
1F
100
AcDbEntity
  8
Layer0001
  6
CENTER
 62
    56
370
    25
100
AcDbLine
 10
-460.75
 20
210.6520650813518
 30
0.0
 11
-460.75
 21
108.6520650813518
 31
0.0
  0
LINE
  5
521
330
1F
100
AcDbEntity
  8
Layer0001
  6
CENTER
 62
    56
370
    25
100
AcDbLine
 10
-299.7499999999998
 20
429.6520650813519
 30
0.0
 11
-327.7499999999998
 21
429.6520650813519
 31
0.0
  0
LINE
  5
522
330
1F
100
AcDbEntity
  8
Layer0001
  6
CENTER
 62
    56
370
    25
100
AcDbLine
 10
-313.7499999999998
 20
413.6520650813519
 30
0.0
 11
-313.7499999999998
 21
443.6520650813519
 31
0.0
  0
LINE
  5
523
330
1F
100
AcDbEntity
  8
Layer0001
  6
CENTER
 62
    56
370
    25
100
AcDbLine
 10
-47.24999999999977
 20
429.6520650813519
 30
0.0
 11
-77.74999999999977
 21
429.6520650813519
 31
0.0
  0
LINE
  5
524
330
1F
100
AcDbEntity
  8
Layer0001
  6
CENTER
 62
    56
370
    25
100
AcDbLine
 10
-63.74999999999977
 20
413.6520650813519
 30
0.0
 11
-63.74999999999977
 21
443.6520650813519
 31
0.0
  0
LINE
  5
525
330
1F
100
AcDbEntity
  8
Layer0001
  6
CENTER
 62
    56
370
    25
100
AcDbLine
 10
485.75
 20
429.6520650813519
 30
0.0
 11
514.75
 21
429.6520650813519
 31
0.0
  0
LINE
  5
526
330
1F
100
AcDbEntity
  8
Layer0001
  6
CENTER
 62
    56
370
    25
100
AcDbLine
 10
485.75
 20
189.6520650813517
 30
0.0
 11
514.75
 21
189.6520650813517
 31
0.0
  0
LINE
  5
527
330
1F
100
AcDbEntity
  8
Layer0001
  6
CENTER
 62
    56
370
    25
100
AcDbLine
 10
-299.7499999999998
 20
189.6520650813517
 30
0.0
 11
-327.7499999999998
 21
189.6520650813517
 31
0.0
  0
LINE
  5
528
330
1F
100
AcDbEntity
  8
Layer0001
  6
CENTER
 62
    56
370
    25
100
AcDbLine
 10
-313.7499999999998
 20
205.6520650813517
 30
0.0
 11
-313.7499999999998
 21
175.6520650813517
 31
0.0
  0
LINE
  5
529
330
1F
100
AcDbEntity
  8
Layer0001
  6
CENTER
 62
    56
370
    25
100
AcDbLine
 10
-47.24999999999977
 20
189.6520650813517
 30
0.0
 11
-77.74999999999977
 21
189.6520650813517
 31
0.0
  0
LINE
  5
52A
330
1F
100
AcDbEntity
  8
Layer0001
  6
CENTER
 62
    56
370
    25
100
AcDbLine
 10
-63.74999999999977
 20
205.6520650813517
 30
0.0
 11
-63.74999999999977
 21
175.6520650813517
 31
0.0
  0
LINE
  5
52B
330
1F
100
AcDbEntity
  8
Layer0000
  6
DASHED2
 62
     5
370
    25
100
AcDbLine
 10
514.75
 20
318.6520650813517
 30
0.0
 11
514.75
 21
300.6520650813517
 31
0.0
  0
LINE
  5
52C
330
1F
100
AcDbEntity
  8
Layer0000
  6
DASHED2
 62
     5
370
    25
100
AcDbLine
 10
514.75
 20
300.6520650813517
 30
0.0
 11
518.75
 21
300.6520650813517
 31
0.0
  0
LINE
  5
52D
330
1F
100
AcDbEntity
  8
Layer0000
  6
DASHED2
 62
     5
370
    25
100
AcDbLine
 10
514.75
 20
318.6520650813517
 30
0.0
 11
518.75
 21
318.6520650813517
 31
0.0
  0
LINE
  5
52E
330
1F
100
AcDbEntity
  8
Layer0000
  6
Continuous
 62
     3
370
    18
100
AcDbLine
 10
-518.75
 20
-119.8479358654115
 30
0.0
 11
-383.75
 21
-119.8479358654116
 31
0.0
  0
LINE
  5
52F
330
1F
100
AcDbEntity
  8
Layer0000
  6
Continuous
 62
     3
370
    18
100
AcDbLine
 10
-383.75
 20
-119.8479358654116
 30
0.0
 11
-383.75
 21
-120.3479358654116
 31
0.0
  0
LINE
  5
530
330
1F
100
AcDbEntity
  8
Layer0000
  6
Continuous
 62
     3
370
    18
100
AcDbLine
 10
-135.4673890898165
 20
-416.6328844727792
 30
0.0
 11
-64.46738908981648
 21
-416.6328844727792
 31
0.0
  0
LINE
  5
531
330
1F
100
AcDbEntity
  8
Layer0000
  6
Continuous
 62
     3
370
    18
100
AcDbLine
 10
-53.96738908981648
 20
-384.1328844727792
 30
0.0
 11
-36.96738908981648
 21
-384.1328844727792
 31
0.0
  0
LINE
  5
532
330
1F
100
AcDbEntity
  8
Layer0000
  6
Continuous
 62
     3
370
    18
100
AcDbLine
 10
-53.96738908981648
 20
-405.1328844727792
 30
0.0
 11
-36.96738908981648
 21
-405.1328844727792
 31
0.0
  0
LINE
  5
533
330
1F
100
AcDbEntity
  8
Layer0000
  6
Continuous
 62
     3
370
    18
100
AcDbLine
 10
-35.96738908981648
 20
-385.8649352803481
 30
0.0
 11
-35.96738908981648
 21
-403.4008336652104
 31
0.0
  0
LINE
  5
534
330
1F
100
AcDbEntity
  8
Layer0000
  6
Continuous
 62
     3
370
    18
100
AcDbLine
 10
-135.9673890898165
 20
-416.1328844727792
 30
0.0
 11
-135.4673890898165
 21
-416.6328844727792
 31
0.0
  0
LINE
  5
535
330
1F
100
AcDbEntity
  8
Layer0000
  6
Continuous
 62
     3
370
    18
100
AcDbLine
 10
-63.96738908981648
 20
-416.1328844727792
 30
0.0
 11
-64.46738908981648
 21
-416.6328844727792
 31
0.0
  0
LINE
  5
536
330
1F
100
AcDbEntity
  8
Layer0000
  6
Continuous
 62
     3
370
    18
100
AcDbLine
 10
-63.46738908981648
 20
-405.6328844727792
 30
0.0
 11
-63.46738908981648
 21
-383.6328844727792
 31
0.0
  0
LINE
  5
537
330
1F
100
AcDbEntity
  8
Layer0000
  6
Continuous
 62
     3
370
    18
100
AcDbLine
 10
-36.96738908981648
 20
-390.1607485177797
 30
0.0
 11
-53.96738908981648
 21
-390.1607485177797
 31
0.0
  0
LINE
  5
538
330
1F
100
AcDbEntity
  8
Layer0000
  6
Continuous
 62
     3
370
    18
100
AcDbLine
 10
-36.96738908981648
 20
-388.6417111143268
 30
0.0
 11
-53.96738908981648
 21
-388.6417111143268
 31
0.0
  0
LINE
  5
539
330
1F
100
AcDbEntity
  8
Layer0000
  6
Continuous
 62
     3
370
    18
100
AcDbLine
 10
-36.96738908981648
 20
-399.1050204277788
 30
0.0
 11
-53.96738908981648
 21
-399.1050204277788
 31
0.0
  0
LINE
  5
53A
330
1F
100
AcDbEntity
  8
Layer0000
  6
Continuous
 62
     3
370
    18
100
AcDbLine
 10
-36.96738908981648
 20
-400.6240578312315
 30
0.0
 11
-53.96738908981648
 21
-400.6240578312315
 31
0.0
  0
LINE
  5
53B
330
1F
100
AcDbEntity
  8
Layer0000
  6
Continuous
 62
     3
370
    18
100
AcDbLine
 10
-36.96738908981648
 20
-388.6417111143268
 30
0.0
 11
-36.96738908981648
 21
-390.1607485177797
 31
0.0
  0
LINE
  5
53C
330
1F
100
AcDbEntity
  8
Layer0000
  6
Continuous
 62
     3
370
    18
100
AcDbLine
 10
-36.96738908981648
 20
-400.6240578312315
 30
0.0
 11
-36.96738908981648
 21
-399.1050204277788
 31
0.0
  0
ARC
  5
53D
330
1F
100
AcDbEntity
  8
Layer0000
  6
Continuous
 62
     3
370
    18
100
AcDbCircle
 10
-39.00857880025767
 20
-386.387297793553
 30
0.0
 40
3.041189710441189
100
AcDbArc
 50
312.1583048916936
 51
12.15830489169361
  0
ARC
  5
53E
330
1F
100
AcDbEntity
  8
Layer0000
  6
Continuous
 62
     3
370
    18
100
AcDbCircle
 10
-46.46738908981642
 20
-394.6328844727792
 30
0.0
 40
10.49999999999994
100
AcDbArc
 50
334.7912347032415
 51
25.20876529675846
  0
ARC
  5
53F
330
1F
100
AcDbEntity
  8
Layer0000
  6
Continuous
 62
     3
370
    18
100
AcDbCircle
 10
-39.00857880025767
 20
-402.8784711520054
 30
0.0
 40
3.041189710441189
100
AcDbArc
 50
347.8416951083055
 51
47.84169510830637
  0
LINE
  5
540
330
1F
100
AcDbEntity
  8
Layer0000
  6
Continuous
 62
     3
370
    18
100
AcDbLine
 10
-36.96738908981651
 20
-384.1328844727792
 30
0.0
 11
-35.96738908981651
 21
-385.864935280348
 31
0.0
  0
LINE
  5
541
330
1F
100
AcDbEntity
  8
Layer0000
  6
Continuous
 62
     3
370
    18
100
AcDbLine
 10
-36.96738908981651
 20
-405.1328844727792
 30
0.0
 11
-35.96738908981651
 21
-403.4008336652104
 31
0.0
  0
LINE
  5
542
330
1F
100
AcDbEntity
  8
Layer0000
  6
Continuous
 62
     3
370
    18
100
AcDbLine
 10
-53.96738908981648
 20
-383.6328844727792
 30
0.0
 11
-53.96738908981648
 21
-405.6328844727792
 31
0.0
  0
LINE
  5
543
330
1F
100
AcDbEntity
  8
Layer0000
  6
Continuous
 62
     3
370
    18
100
AcDbLine
 10
-63.46738908981648
 20
-383.6328844727792
 30
0.0
 11
-53.96738908981648
 21
-383.6328844727792
 31
0.0
  0
LINE
  5
544
330
1F
100
AcDbEntity
  8
Layer0000
  6
Continuous
 62
     3
370
    18
100
AcDbLine
 10
-63.46738908981648
 20
-405.6328844727792
 30
0.0
 11
-53.96738908981648
 21
-405.6328844727792
 31
0.0
  0
LINE
  5
545
330
1F
100
AcDbEntity
  8
Layer0000
  6
Continuous
 62
     3
370
    18
100
AcDbLine
 10
-63.46738908981648
 20
-405.6328844727792
 30
0.0
 11
-63.96738908981648
 21
-406.1328844727792
 31
0.0
  0
LINE
  5
546
330
1F
100
AcDbEntity
  8
Layer0000
  6
Continuous
 62
     3
370
    18
100
AcDbLine
 10
-63.46738908981648
 20
-383.6328844727792
 30
0.0
 11
-63.96738908981648
 21
-383.1328844727792
 31
0.0
  0
LINE
  5
547
330
1F
100
AcDbEntity
  8
Layer0000
  6
Continuous
 62
     3
370
    18
100
AcDbLine
 10
-135.4673890898165
 20
-372.6328844727792
 30
0.0
 11
-64.46738908981648
 21
-372.6328844727792
 31
0.0
  0
LINE
  5
548
330
1F
100
AcDbEntity
  8
Layer0000
  6
Continuous
 62
     3
370
    18
100
AcDbLine
 10
-63.96738908981648
 20
-416.1328844727792
 30
0.0
 11
-63.96738908981648
 21
-373.1328844727792
 31
0.0
  0
LINE
  5
549
330
1F
100
AcDbEntity
  8
Layer0000
  6
Continuous
 62
     3
370
    18
100
AcDbLine
 10
-135.9673890898165
 20
-373.1328844727792
 30
0.0
 11
-135.9673890898165
 21
-416.1328844727792
 31
0.0
  0
LINE
  5
54A
330
1F
100
AcDbEntity
  8
Layer0000
  6
Continuous
 62
     3
370
    18
100
AcDbLine
 10
-64.46738908981648
 20
-372.6328844727792
 30
0.0
 11
-63.96738908981648
 21
-373.1328844727792
 31
0.0
  0
LINE
  5
54B
330
1F
100
AcDbEntity
  8
Layer0000
  6
Continuous
 62
     3
370
    18
100
AcDbLine
 10
-135.4673890898165
 20
-372.6328844727792
 30
0.0
 11
-135.9673890898165
 21
-373.1328844727792
 31
0.0
  0
LINE
  5
54C
330
1F
100
AcDbEntity
  8
Layer0000
  6
Continuous
 62
     3
370
    18
100
AcDbLine
 10
-64.46738908981648
 20
-416.6328844727792
 30
0.0
 11
-64.46738908981648
 21
-372.6328844727792
 31
0.0
  0
LINE
  5
54D
330
1F
100
AcDbEntity
  8
Layer0000
  6
Continuous
 62
     3
370
    18
100
AcDbLine
 10
-135.4673890898165
 20
-416.6328844727792
 30
0.0
 11
-135.4673890898165
 21
-372.6328844727792
 31
0.0
  0
LINE
  5
54E
330
1F
100
AcDbEntity
  8
Layer0015
  6
Continuous
 62
     2
370
    25
100
AcDbLine
 10
-298.7499999999998
 20
274.6520650813517
 30
0.0
 11
-298.7499999999998
 21
344.6520650813517
 31
0.0
  0
INSERT
  5
54F
330
1F
100
AcDbEntity
  8
Layer0015
 62
     2
100
AcDbBlockReference
  2
_OPEN30
 10
-298.7499999999998
 20
274.6520650813517
 30
0.0
 41
7.646601831087536
 42
5.031938088706951
 50
270.0
  0
INSERT
  5
550
330
1F
100
AcDbEntity
  8
Layer0015
 62
     2
100
AcDbBlockReference
  2
_OPEN30
 10
-298.7499999999998
 20
344.6520650813517
 30
0.0
 41
7.646601831087536
 42
5.031938088706951
 50
90.0
  0
LINE
  5
551
330
1F
100
AcDbEntity
  8
Layer0015
  6
Continuous
 62
     2
370
    25
100
AcDbLine
 10
-273.7499999999998
 20
229.6520650813518
 30
0.0
 11
-273.7499999999998
 21
389.6520650813517
 31
0.0
  0
INSERT
  5
552
330
1F
100
AcDbEntity
  8
Layer0015
 62
     2
100
AcDbBlockReference
  2
_OPEN30
 10
-273.7499999999998
 20
229.6520650813518
 30
0.0
 41
7.646601831087536
 42
5.031938088706951
 50
270.0
  0
INSERT
  5
553
330
1F
100
AcDbEntity
  8
Layer0015
 62
     2
100
AcDbBlockReference
  2
_OPEN30
 10
-273.7499999999998
 20
389.6520650813517
 30
0.0
 41
7.646601831087536
 42
5.031938088706951
 50
90.0
  0
LINE
  5
554
330
1F
100
AcDbEntity
  8
Layer0015
  6
Continuous
 62
     2
370
    25
100
AcDbLine
 10
-213.7499999999998
 20
-210.3479349186483
 30
0.0
 11
-213.7499999999998
 21
-17.3479349186483
 31
0.0
  0
INSERT
  5
555
330
1F
100
AcDbEntity
  8
Layer0015
 62
     2
100
AcDbBlockReference
  2
_OPEN30
 10
-213.7499999999998
 20
-210.3479349186483
 30
0.0
 41
7.646601831087536
 42
5.031938088706951
 50
270.0
  0
INSERT
  5
556
330
1F
100
AcDbEntity
  8
Layer0015
 62
     2
100
AcDbBlockReference
  2
_OPEN30
 10
-213.7499999999998
 20
-17.3479349186483
 30
0.0
 41
7.646601831087536
 42
5.031938088706951
 50
90.0
  0
LINE
  5
557
330
1F
100
AcDbEntity
  8
Layer0015
  6
Continuous
 62
     2
370
    25
100
AcDbLine
 10
-273.7499999999998
 20
-100.3479349186483
 30
0.0
 11
-273.7499999999998
 21
-38.34793491864829
 31
0.0
  0
INSERT
  5
558
330
1F
100
AcDbEntity
  8
Layer0015
 62
     2
100
AcDbBlockReference
  2
_OPEN30
 10
-273.7499999999998
 20
-100.3479349186483
 30
0.0
 41
7.646601831087536
 42
5.031938088706951
 50
270.0
  0
INSERT
  5
559
330
1F
100
AcDbEntity
  8
Layer0015
 62
     2
100
AcDbBlockReference
  2
_OPEN30
 10
-273.7499999999998
 20
-38.34793491864829
 30
0.0
 41
7.646601831087536
 42
5.031938088706951
 50
90.0
  0
LINE
  5
55A
330
1F
100
AcDbEntity
  8
Layer0015
  6
Continuous
 62
     2
370
    25
100
AcDbLine
 10
-373.7499999999998
 20
-280.8479349186483
 30
0.0
 11
-313.7499999999998
 21
-280.8479349186483
 31
0.0
  0
INSERT
  5
55B
330
1F
100
AcDbEntity
  8
Layer0015
 62
     2
100
AcDbBlockReference
  2
_OPEN30
 10
-373.7499999999998
 20
-280.8479349186483
 30
0.0
 41
7.646601831087536
 42
5.031938088706951
 50
180.0
  0
INSERT
  5
55C
330
1F
100
AcDbEntity
  8
Layer0015
 62
     2
100
AcDbBlockReference
  2
_OPEN30
 10
-313.7499999999998
 20
-280.8479349186483
 30
0.0
 41
7.646601831087536
 42
5.031938088706951
 50
360.0
  0
LINE
  5
55D
330
1F
100
AcDbEntity
  8
Layer0015
  6
Continuous
 62
     2
370
    25
100
AcDbLine
 10
-313.7499999999998
 20
-280.8479349186483
 30
0.0
 11
-253.7499999999998
 21
-280.8479349186483
 31
0.0
  0
INSERT
  5
55E
330
1F
100
AcDbEntity
  8
Layer0015
 62
     2
100
AcDbBlockReference
  2
_OPEN30
 10
-313.7499999999998
 20
-280.8479349186483
 30
0.0
 41
7.646601831087536
 42
5.031938088706951
 50
180.0
  0
INSERT
  5
55F
330
1F
100
AcDbEntity
  8
Layer0015
 62
     2
100
AcDbBlockReference
  2
_OPEN30
 10
-253.7499999999998
 20
-280.8479349186483
 30
0.0
 41
7.646601831087536
 42
5.031938088706951
 50
360.0
  0
LINE
  5
560
330
1F
100
AcDbEntity
  8
Layer0015
  6
Continuous
 62
     2
370
    25
100
AcDbLine
 10
-393.7499999999998
 20
-305.8479349186483
 30
0.0
 11
-313.7499999999998
 21
-305.8479349186483
 31
0.0
  0
INSERT
  5
561
330
1F
100
AcDbEntity
  8
Layer0015
 62
     2
100
AcDbBlockReference
  2
_OPEN30
 10
-393.7499999999998
 20
-305.8479349186483
 30
0.0
 41
7.646601831087536
 42
5.031938088706951
 50
180.0
  0
INSERT
  5
562
330
1F
100
AcDbEntity
  8
Layer0015
 62
     2
100
AcDbBlockReference
  2
_OPEN30
 10
-313.7499999999998
 20
-305.8479349186483
 30
0.0
 41
7.646601831087536
 42
5.031938088706951
 50
360.0
  0
LINE
  5
563
330
1F
100
AcDbEntity
  8
Layer0015
  6
Continuous
 62
     2
370
    25
100
AcDbLine
 10
-273.7499999999998
 20
-210.3479349186483
 30
0.0
 11
-273.7499999999998
 21
-100.3479349186483
 31
0.0
  0
INSERT
  5
564
330
1F
100
AcDbEntity
  8
Layer0015
 62
     2
100
AcDbBlockReference
  2
_OPEN30
 10
-273.7499999999998
 20
-210.3479349186483
 30
0.0
 41
7.646601831087536
 42
5.031938088706951
 50
270.0
  0
INSERT
  5
565
330
1F
100
AcDbEntity
  8
Layer0015
 62
     2
100
AcDbBlockReference
  2
_OPEN30
 10
-273.7499999999998
 20
-100.3479349186483
 30
0.0
 41
7.646601831087536
 42
5.031938088706951
 50
90.0
  0
LINE
  5
566
330
1F
100
AcDbEntity
  8
Layer0015
  6
Continuous
 62
     2
370
    25
100
AcDbLine
 10
-421.4499999999999
 20
-17.3479349186483
 30
0.0
 11
-211.7499999999998
 21
-17.3479349186483
 31
0.0
  0
LINE
  5
567
330
1F
100
AcDbEntity
  8
Layer0015
  6
Continuous
 62
     2
370
    25
100
AcDbLine
 10
-322.7499999999998
 20
-220.3479349186483
 30
0.0
 11
-322.7499999999998
 21
-257.8479349186483
 31
0.0
  0
LINE
  5
568
330
1F
100
AcDbEntity
  8
Layer0015
  6
Continuous
 62
     2
370
    25
100
AcDbLine
 10
-304.7499999999998
 20
-220.3479349186483
 30
0.0
 11
-304.7499999999998
 21
-257.8479349186483
 31
0.0
  0
LINE
  5
569
330
1F
100
AcDbEntity
  8
Layer0015
  6
Continuous
 62
     2
370
    25
100
AcDbLine
 10
-322.7499999999998
 20
-255.8479349186483
 30
0.0
 11
-304.7499999999998
 21
-255.8479349186483
 31
0.0
  0
LINE
  5
56A
330
1F
100
AcDbEntity
  8
Layer0015
  6
Continuous
 62
     2
370
    25
100
AcDbLine
 10
-302.7499999999998
 20
-218.3479349186483
 30
0.0
 11
-271.7499999999998
 21
-218.3479349186483
 31
0.0
  0
LINE
  5
56B
330
1F
100
AcDbEntity
  8
Layer0015
  6
Continuous
 62
     2
370
    25
100
AcDbLine
 10
-273.7499999999998
 20
-218.3479349186483
 30
0.0
 11
-273.7499999999998
 21
-210.3479349186483
 31
0.0
  0
LINE
  5
56C
330
1F
100
AcDbEntity
  8
Layer0015
  6
Continuous
 62
     2
370
    25
100
AcDbLine
 10
-391.4499999999998
 20
-38.34793491864829
 30
0.0
 11
-271.7499999999998
 21
-38.34793491864829
 31
0.0
  0
LINE
  5
56D
330
1F
100
AcDbEntity
  8
Layer0015
  6
Continuous
 62
     2
370
    25
100
AcDbLine
 10
-313.7499999999998
 20
-221.8479349186483
 30
0.0
 11
-313.7499999999998
 21
-282.8479349186483
 31
0.0
  0
LINE
  5
56E
330
1F
100
AcDbEntity
  8
Layer0015
  6
Continuous
 62
     2
370
    25
100
AcDbLine
 10
-373.7499999999998
 20
-213.8479349186483
 30
0.0
 11
-373.7499999999998
 21
-282.8479349186483
 31
0.0
  0
LINE
  5
56F
330
1F
100
AcDbEntity
  8
Layer0015
  6
Continuous
 62
     2
370
    25
100
AcDbLine
 10
-253.7499999999998
 20
-213.8479349186483
 30
0.0
 11
-253.7499999999998
 21
-282.8479349186483
 31
0.0
  0
LINE
  5
570
330
1F
100
AcDbEntity
  8
Layer0015
  6
Continuous
 62
     2
370
    25
100
AcDbLine
 10
-313.7499999999998
 20
-285.3479349186483
 30
0.0
 11
-313.7499999999998
 21
-307.8479349186483
 31
0.0
  0
LINE
  5
571
330
1F
100
AcDbEntity
  8
Layer0015
  6
Continuous
 62
     2
370
    25
100
AcDbLine
 10
-393.7499999999998
 20
-99.34793491864829
 30
0.0
 11
-393.7499999999998
 21
-307.8479349186483
 31
0.0
  0
LINE
  5
572
330
1F
100
AcDbEntity
  8
Layer0015
  6
Continuous
 62
     2
370
    25
100
AcDbLine
 10
-281.3639499999998
 20
-255.8479349186483
 30
0.0
 11
-304.7499999999998
 21
-255.8479349186483
 31
0.0
  0
INSERT
  5
573
330
1F
100
AcDbEntity
  8
Layer0015
 62
     2
100
AcDbBlockReference
  2
_OPEN30
 10
-304.7499999999998
 20
-255.8479349186483
 30
0.0
 41
7.646601831087536
 42
5.031938088706951
 50
180.0
  0
LINE
  5
574
330
1F
100
AcDbEntity
  8
Layer0015
  6
Continuous
 62
     2
370
    25
100
AcDbLine
 10
-332.7499999999998
 20
-255.8479349186483
 30
0.0
 11
-322.7499999999998
 21
-255.8479349186483
 31
0.0
  0
INSERT
  5
575
330
1F
100
AcDbEntity
  8
Layer0015
 62
     2
100
AcDbBlockReference
  2
_OPEN30
 10
-322.7499999999998
 20
-255.8479349186483
 30
0.0
 41
7.646601831087536
 42
5.031938088706951
 50
360.0
  0
LINE
  5
576
330
1F
100
AcDbEntity
  8
Layer0015
  6
Continuous
 62
     2
370
    25
100
AcDbLine
 10
-273.7499999999998
 20
-233.7339849186483
 30
0.0
 11
-273.7499999999998
 21
-218.3479349186483
 31
0.0
  0
INSERT
  5
577
330
1F
100
AcDbEntity
  8
Layer0015
 62
     2
100
AcDbBlockReference
  2
_OPEN30
 10
-273.7499999999998
 20
-218.3479349186483
 30
0.0
 41
7.646601831087536
 42
5.031938088706951
 50
90.0
  0
TEXT
  5
578
330
1F
100
AcDbEntity
  8
Layer0015
 62
     2
100
AcDbText
 10
-301.2499999999998
 20
301.6520650813517
 30
0.0
 40
10.0
  1
70
 50
90.0
 41
0.8
  7
dcStyle0
 72
     5
 11
-301.2499999999998
 21
317.6520650813517
 31
0.0
100
AcDbText
  0
TEXT
  5
579
330
1F
100
AcDbEntity
  8
Layer0015
 62
     2
100
AcDbText
 10
-276.2499999999998
 20
297.6520650813517
 30
0.0
 40
10.0
  1
160
 50
90.0
 41
0.8
  7
dcStyle0
 72
     5
 11
-276.2499999999998
 21
321.6520650813517
 31
0.0
100
AcDbText
  0
TEXT
  5
57A
330
1F
100
AcDbEntity
  8
Layer0015
 62
     2
100
AcDbText
 10
-216.2499999999998
 20
-130.8479349186483
 30
0.0
 40
10.0
  1
193
 50
90.0
 41
0.8
  7
dcStyle0
 72
     5
 11
-216.2499999999998
 21
-106.8479349186483
 31
0.0
100
AcDbText
  0
TEXT
  5
57B
330
1F
100
AcDbEntity
  8
Layer0015
 62
     2
100
AcDbText
 10
-276.2499999999998
 20
-77.34793491864829
 30
0.0
 40
10.0
  1
62
 50
90.0
 41
0.8
  7
dcStyle0
 72
     5
 11
-276.2499999999998
 21
-61.34793491864829
 31
0.0
100
AcDbText
  0
TEXT
  5
57C
330
1F
100
AcDbEntity
  8
Layer0015
 62
     2
100
AcDbText
 10
-276.2499999999998
 20
-167.3479349186483
 30
0.0
 40
10.0
  1
110
 50
90.0
 41
0.8
  7
dcStyle0
 72
     5
 11
-276.2499999999998
 21
-143.3479349186483
 31
0.0
100
AcDbText
  0
TEXT
  5
57D
330
1F
100
AcDbEntity
  8
Layer0015
 62
     2
100
AcDbText
 10
-297.3639499999998
 20
-253.3479349186483
 30
0.0
 40
10.0
  1
18
 41
0.8
  7
dcStyle0
 72
     5
 11
-281.3639499999998
 21
-253.3479349186483
 31
0.0
100
AcDbText
  0
TEXT
  5
57E
330
1F
100
AcDbEntity
  8
Layer0015
 62
     2
100
AcDbText
 10
-276.2499999999998
 20
-233.7339849186483
 30
0.0
 40
10.0
  1
8
 50
90.0
 41
0.8
  7
dcStyle0
 72
     5
 11
-276.2499999999998
 21
-225.7339849186483
 31
0.0
100
AcDbText
  0
TEXT
  5
57F
330
1F
100
AcDbEntity
  8
Layer0015
 62
     2
100
AcDbText
 10
-361.7499999999998
 20
-303.3479349186483
 30
0.0
 40
10.0
  1
80
 41
0.8
  7
dcStyle0
 72
     5
 11
-345.7499999999998
 21
-303.3479349186483
 31
0.0
100
AcDbText
  0
TEXT
  5
580
330
1F
100
AcDbEntity
  8
Layer0015
 62
     2
100
AcDbText
 10
-351.7499999999998
 20
-278.3479349186483
 30
0.0
 40
10.0
  1
60
 41
0.8
  7
dcStyle0
 72
     5
 11
-335.7499999999998
 21
-278.3479349186483
 31
0.0
100
AcDbText
  0
TEXT
  5
581
330
1F
100
AcDbEntity
  8
Layer0015
 62
     2
100
AcDbText
 10
-291.7499999999998
 20
-278.3479349186483
 30
0.0
 40
10.0
  1
60
 41
0.8
  7
dcStyle0
 72
     5
 11
-275.7499999999998
 21
-278.3479349186483
 31
0.0
100
AcDbText
  0
LINE
  5
582
330
1F
100
AcDbEntity
  8
Layer0000
  6
DASHED2
 62
    30
370
    18
100
AcDbLine
 10
-135.9673890898165
 20
-384.8995836378458
 30
0.0
 11
-110.9673890898165
 21
-384.8995836378458
 31
0.0
  0
LINE
  5
583
330
1F
100
AcDbEntity
  8
Layer0000
  6
DASHED2
 62
    30
370
    18
100
AcDbLine
 10
-135.9673890898165
 20
-386.3866732215444
 30
0.0
 11
-110.9673890898165
 21
-386.3866732215444
 31
0.0
  0
ARC
  5
584
330
1F
100
AcDbEntity
  8
Layer0000
  6
DASHED2
 62
    30
370
    18
100
AcDbCircle
 10
-151.9673890898143
 20
-394.6328844727792
 30
0.0
 40
17.99999999999785
100
AcDbArc
 50
0.000000000000007
 51
27.26604445073447
  0
LINE
  5
585
330
1F
100
AcDbEntity
  8
Layer0000
  6
DASHED2
 62
    30
370
    18
100
AcDbLine
 10
-110.9673890898165
 20
-381.1328844727792
 30
0.0
 11
-71.96738908981649
 21
-381.1328844727792
 31
0.0
  0
LINE
  5
586
330
1F
100
AcDbEntity
  8
Layer0000
  6
DASHED2
 62
    30
370
    18
100
AcDbLine
 10
-70.96738908981649
 20
-382.1328844727792
 30
0.0
 11
-70.96738908981649
 21
-394.6328844727792
 31
0.0
  0
LINE
  5
587
330
1F
100
AcDbEntity
  8
Layer0000
  6
DASHED2
 62
    30
370
    18
100
AcDbLine
 10
-71.96738908981649
 20
-381.1328844727792
 30
0.0
 11
-70.96738908981649
 21
-382.1328844727792
 31
0.0
  0
LINE
  5
588
330
1F
100
AcDbEntity
  8
Layer0000
  6
DASHED2
 62
    30
370
    18
100
AcDbLine
 10
-135.9673890898165
 20
-412.6328844727793
 30
0.0
 11
-110.9673890898165
 21
-412.6328844727793
 31
0.0
  0
LINE
  5
589
330
1F
100
AcDbEntity
  8
Layer0000
  6
DASHED2
 62
    30
370
    18
100
AcDbLine
 10
-135.9673890898165
 20
-404.3661853077126
 30
0.0
 11
-110.9673890898165
 21
-404.3661853077126
 31
0.0
  0
LINE
  5
58A
330
1F
100
AcDbEntity
  8
Layer0000
  6
DASHED2
 62
    30
370
    18
100
AcDbLine
 10
-135.9673890898165
 20
-402.879095724014
 30
0.0
 11
-110.9673890898165
 21
-402.879095724014
 31
0.0
  0
LINE
  5
58B
330
1F
100
AcDbEntity
  8
Layer0000
  6
DASHED2
 62
    30
370
    18
100
AcDbLine
 10
-110.9673890898165
 20
-412.6328844727793
 30
0.0
 11
-110.9673890898165
 21
-394.6328844727792
 31
0.0
  0
ARC
  5
58C
330
1F
100
AcDbEntity
  8
Layer0000
  6
DASHED2
 62
    30
370
    18
100
AcDbCircle
 10
-139.2385337826736
 20
-408.4995348902459
 30
0.0
 40
5.271144692857096
100
AcDbArc
 50
308.3581926761688
 51
51.64180732383124
  0
ARC
  5
58D
330
1F
100
AcDbEntity
  8
Layer0000
  6
DASHED2
 62
    30
370
    18
100
AcDbCircle
 10
-151.9673890898143
 20
-394.6328844727792
 30
0.0
 40
17.99999999999785
100
AcDbArc
 50
332.7339555492655
 51
0.0
  0
LINE
  5
58E
330
1F
100
AcDbEntity
  8
Layer0000
  6
DASHED2
 62
    30
370
    18
100
AcDbLine
 10
-110.9673890898165
 20
-408.1328844727792
 30
0.0
 11
-71.96738908981649
 21
-408.1328844727792
 31
0.0
  0
LINE
  5
58F
330
1F
100
AcDbEntity
  8
Layer0000
  6
DASHED2
 62
    30
370
    18
100
AcDbLine
 10
-70.96738908981649
 20
-407.1328844727792
 30
0.0
 11
-70.96738908981649
 21
-394.6328844727792
 31
0.0
  0
LINE
  5
590
330
1F
100
AcDbEntity
  8
Layer0000
  6
DASHED2
 62
    30
370
    18
100
AcDbLine
 10
-71.96738908981649
 20
-408.1328844727792
 30
0.0
 11
-70.96738908981649
 21
-407.1328844727792
 31
0.0
  0
LINE
  5
591
330
1F
100
AcDbEntity
  8
Layer0000
  6
DASHED2
 62
    30
370
    18
100
AcDbLine
 10
-135.9673890898165
 20
-376.6328844727792
 30
0.0
 11
-110.9673890898165
 21
-376.6328844727792
 31
0.0
  0
LINE
  5
592
330
1F
100
AcDbEntity
  8
Layer0000
  6
DASHED2
 62
    30
370
    18
100
AcDbLine
 10
-110.9673890898165
 20
-376.6328844727792
 30
0.0
 11
-110.9673890898165
 21
-394.6328844727792
 31
0.0
  0
ARC
  5
593
330
1F
100
AcDbEntity
  8
Layer0000
  6
DASHED2
 62
    30
370
    18
100
AcDbCircle
 10
-139.2385337826736
 20
-380.7662340553125
 30
0.0
 40
5.271144692857096
100
AcDbArc
 50
308.3581926761688
 51
51.64180732383124
  0
LINE
  5
594
330
1F
100
AcDbEntity
  8
Layer0000
  6
CENTER
 62
     2
370
    18
100
AcDbLine
 10
-137.9673890898165
 20
-394.6328844727792
 30
0.0
 11
-33.96738908981648
 21
-394.6328844727792
 31
0.0
  0
LINE
  5
595
330
1F
100
AcDbEntity
  8
Layer0000
  6
DASHED2
 62
    30
370
    25
100
AcDbLine
 10
-530.9673890898168
 20
-383.6328844727792
 30
0.0
 11
-525.9673890898168
 21
-383.6328844727792
 31
0.0
  0
LINE
  5
596
330
1F
100
AcDbEntity
  8
Layer0000
  6
DASHED2
 62
    30
370
    25
100
AcDbLine
 10
-530.9673890898168
 20
-405.6328844727792
 30
0.0
 11
-525.9673890898168
 21
-405.6328844727792
 31
0.0
  0
LINE
  5
597
330
1F
100
AcDbEntity
  8
Layer0000
  6
DASHED2
 62
    30
370
    25
100
AcDbLine
 10
-525.9673890898168
 20
-405.6025395873819
 30
0.0
 11
-507.9673890898168
 21
-405.6025395873819
 31
0.0
  0
LINE
  5
598
330
1F
100
AcDbEntity
  8
Layer0000
  6
DASHED2
 62
    30
370
    25
100
AcDbLine
 10
-525.9673890898168
 20
-405.6328844727792
 30
0.0
 11
-525.9673890897345
 21
-383.6328844727792
 31
0.0
  0
LINE
  5
599
330
1F
100
AcDbEntity
  8
Layer0000
  6
DASHED2
 62
    30
370
    25
100
AcDbLine
 10
-525.9673890898168
 20
-383.6632293581764
 30
0.0
 11
-507.9673890898168
 21
-383.6632293581764
 31
0.0
  0
LINE
  5
59A
330
1F
100
AcDbEntity
  8
Layer0000
  6
DASHED2
 62
    30
370
    25
100
AcDbLine
 10
-530.9673890898168
 20
-383.6328844727792
 30
0.0
 11
-531.9673890898168
 21
-382.6328844727792
 31
0.0
  0
LINE
  5
59B
330
1F
100
AcDbEntity
  8
Layer0000
  6
DASHED2
 62
    30
370
    25
100
AcDbLine
 10
-530.9673890898168
 20
-405.6328844727792
 30
0.0
 11
-531.9673890898168
 21
-406.6328844727792
 31
0.0
  0
LINE
  5
59C
330
1F
100
AcDbEntity
  8
Layer0000
  6
DASHED2
 62
    30
370
    25
100
AcDbLine
 10
-507.9673890898184
 20
-383.1328844727792
 30
0.0
 11
-497.9673890898184
 21
-383.1328844727792
 31
0.0
  0
LINE
  5
59D
330
1F
100
AcDbEntity
  8
Layer0000
  6
DASHED2
 62
    30
370
    25
100
AcDbLine
 10
-507.9673890898184
 20
-406.1328844727792
 30
0.0
 11
-507.96738908974
 21
-383.1328844727792
 31
0.0
  0
LINE
  5
59E
330
1F
100
AcDbEntity
  8
Layer0000
  6
DASHED2
 62
    30
370
    25
100
AcDbLine
 10
-507.9673890898184
 20
-406.1328844727792
 30
0.0
 11
-497.9673890898184
 21
-406.1328844727792
 31
0.0
  0
LINE
  5
59F
330
1F
100
AcDbEntity
  8
Layer0000
  6
DASHED2
 62
    30
370
    25
100
AcDbLine
 10
-497.9673890898184
 20
-406.1328844727792
 30
0.0
 11
-497.9673890898184
 21
-383.1328844727792
 31
0.0
  0
LINE
  5
5A0
330
1F
100
AcDbEntity
  8
Layer0000
  6
DASHED2
 62
    30
370
    25
100
AcDbLine
 10
-497.9673890898184
 20
-404.1328844727749
 30
0.0
 11
-492.4825615325194
 21
-394.6328844727792
 31
0.0
  0
LINE
  5
5A1
330
1F
100
AcDbEntity
  8
Layer0000
  6
DASHED2
 62
    30
370
    25
100
AcDbLine
 10
-497.9673890898184
 20
-385.1328844727835
 30
0.0
 11
-492.4825615325194
 21
-394.6328844727792
 31
0.0
  0
LINE
  5
5A2
330
1F
100
AcDbEntity
  8
Layer0000
  6
DASHED2
 62
    30
370
    25
100
AcDbLine
 10
-530.9673890898168
 20
-383.6328844727792
 30
0.0
 11
-530.9673890898168
 21
-405.6328844727792
 31
0.0
  0
LINE
  5
5A3
330
1F
100
AcDbEntity
  8
Layer0000
  6
DASHED2
 62
    30
370
    25
100
AcDbLine
 10
-525.9673890897552
 20
-389.1480569154778
 30
0.0
 11
-507.9673890897604
 21
-389.1480569154778
 31
0.0
  0
LINE
  5
5A4
330
1F
100
AcDbEntity
  8
Layer0000
  6
DASHED2
 62
    30
370
    25
100
AcDbLine
 10
-525.9673890897552
 20
-400.1177120300807
 30
0.0
 11
-507.9673890897604
 21
-400.1177120300807
 31
0.0
  0
ARC
  5
5A5
330
1F
100
AcDbEntity
  8
Layer0000
  6
DASHED2
 62
    30
370
    25
100
AcDbCircle
 10
-529.2278057576252
 20
-386.4056431367586
 30
0.0
 40
4.26041666784944
100
AcDbArc
 50
319.9320129591628
 51
40.06798703485975
  0
ARC
  5
5A6
330
1F
100
AcDbEntity
  8
Layer0000
  6
DASHED2
 62
    30
370
    25
100
AcDbCircle
 10
-540.5090557543087
 20
-394.6328844726742
 30
0.0
 40
15.54166666453311
100
AcDbArc
 50
339.3345218143253
 51
20.66547818643462
  0
ARC
  5
5A7
330
1F
100
AcDbEntity
  8
Layer0000
  6
DASHED2
 62
    30
370
    25
100
AcDbCircle
 10
-529.2278057568058
 20
-402.8601258085499
 30
0.0
 40
4.260416667030052
100
AcDbArc
 50
319.9320129514803
 51
40.06798705011659
  0
LINE
  5
5A8
330
1F
100
AcDbEntity
  8
Layer0014
  6
DIVIDE
 62
     4
370
    25
100
AcDbLine
 10
-70.44999999999982
 20
-38.84793491864829
 30
0.0
 11
-70.4499999999998
 21
-96.34793491864829
 31
0.0
  0
LINE
  5
5A9
330
1F
100
AcDbEntity
  8
Layer0014
  6
DIVIDE
 62
     4
370
    25
100
AcDbLine
 10
-45.2496787849314
 20
-96.34793491864832
 30
0.0
 11
-64.09502116644002
 21
-38.34793491864829
 31
0.0
  0
LINE
  5
5AA
330
1F
100
AcDbEntity
  8
Layer0014
  6
DIVIDE
 62
     4
370
    25
100
AcDbLine
 10
-35.44999999999982
 20
-38.34793491864829
 30
0.0
 11
-64.09502116644002
 21
-38.34793491864829
 31
0.0
  0
LINE
  5
5AB
330
1F
100
AcDbEntity
  8
Layer0014
  6
DIVIDE
 62
     4
370
    25
100
AcDbLine
 10
-70.44999999999982
 20
-38.84793491864829
 30
0.0
 11
-63.93256131832356
 21
-38.84793491864829
 31
0.0
  0
LINE
  5
5AC
330
1F
100
AcDbEntity
  8
Layer0014
  6
DIVIDE
 62
     4
370
    25
100
AcDbLine
 10
-45.2496787849314
 20
-96.34793491864832
 30
0.0
 11
-56.64999999999981
 21
-96.3479349186483
 31
0.0
  0
LINE
  5
5AD
330
1F
100
AcDbEntity
  8
Layer0014
  6
DIVIDE
 62
     4
370
    25
100
AcDbLine
 10
-46.64999999999979
 20
-100.3479349186483
 30
0.0
 11
-46.64999999999979
 21
-99.34793491864829
 31
0.0
  0
LINE
  5
5AE
330
1F
100
AcDbEntity
  8
Layer0014
  6
DIVIDE
 62
     4
370
    25
100
AcDbLine
 10
-46.64999999999979
 20
-99.34793491864829
 30
0.0
 11
-61.64999999999981
 21
-99.34793491864829
 31
0.0
  0
LINE
  5
5AF
330
1F
100
AcDbEntity
  8
Layer0014
  6
DIVIDE
 62
     4
370
    25
100
AcDbLine
 10
-61.64999999999981
 20
-96.34793491864829
 30
0.0
 11
-61.64999999999981
 21
-99.34793491864829
 31
0.0
  0
LINE
  5
5B0
330
1F
100
AcDbEntity
  8
Layer0014
  6
DIVIDE
 62
     4
370
    25
100
AcDbLine
 10
-56.64999999999981
 20
-96.34793491864826
 30
0.0
 11
-56.64999999999981
 21
-95.84793491864826
 31
0.0
  0
LINE
  5
5B1
330
1F
100
AcDbEntity
  8
Layer0014
  6
DIVIDE
 62
     4
370
    25
100
AcDbLine
 10
-56.64999999999981
 20
-95.84793491864826
 30
0.0
 11
-45.41213863304787
 21
-95.84793491864826
 31
0.0
  0
LINE
  5
5B2
330
1F
100
AcDbEntity
  8
Layer0014
  6
DIVIDE
 62
     4
370
    25
100
AcDbLine
 10
-35.4499999999998
 20
-96.34793491864829
 30
0.0
 11
-45.2496787849314
 21
-96.34793491864832
 31
0.0
  0
LINE
  5
5B3
330
1F
100
AcDbEntity
  8
Layer0014
  6
DIVIDE
 62
     4
370
    25
100
AcDbLine
 10
-56.64999999999981
 20
-96.34793491864829
 30
0.0
 11
-70.4499999999998
 21
-96.34793491864829
 31
0.0
  0
LINE
  5
5B4
330
1F
100
AcDbEntity
  8
Layer0014
  6
DIVIDE
 62
     4
370
    25
100
AcDbLine
 10
-35.6499999999998
 20
-96.34793491864829
 30
0.0
 11
-35.6499999999998
 21
-100.3479349186483
 31
0.0
  0
LINE
  5
5B5
330
1F
100
AcDbEntity
  8
Layer0014
  6
DIVIDE
 62
     4
370
    25
100
AcDbLine
 10
-35.44999999999982
 20
-38.34793491864829
 30
0.0
 11
-35.44999999999982
 21
-96.34793491864829
 31
0.0
  0
LINE
  5
5B6
330
1F
100
AcDbEntity
  8
Layer0014
  6
DIVIDE
 62
     4
370
    25
100
AcDbLine
 10
-35.6499999999998
 20
-100.3479349186483
 30
0.0
 11
-46.64999999999979
 21
-100.3479349186483
 31
0.0
  0
LINE
  5
5B7
330
1F
100
AcDbEntity
  8
Layer0014
  6
Continuous
 62
     3
370
    25
100
AcDbLine
 10
382.55
 20
-120.3479349186483
 30
0.0
 11
301.1895913843821
 21
-120.3479349186483
 31
0.0
  0
LINE
  5
5B8
330
1F
100
AcDbEntity
  8
Layer0014
  6
Continuous
 62
     3
370
    25
100
AcDbLine
 10
312.5500000000002
 20
-17.54793491864834
 30
0.0
 11
312.5500000000002
 21
-38.34793491864829
 31
0.0
  0
LINE
  5
5B9
330
1F
100
AcDbEntity
  8
Layer0014
  6
Continuous
 62
     3
370
    25
100
AcDbLine
 10
312.7500000000002
 20
-17.34793491864829
 30
0.0
 11
312.5500000000002
 21
-17.54793491864834
 31
0.0
  0
LINE
  5
5BA
330
1F
100
AcDbEntity
  8
Layer0014
  6
Continuous
 62
     3
370
    25
100
AcDbLine
 10
347.0500000000002
 20
-17.34793491864829
 30
0.0
 11
312.7500000000002
 21
-17.34793491864829
 31
0.0
  0
LINE
  5
5BB
330
1F
100
AcDbEntity
  8
Layer0014
  6
Continuous
 62
     3
370
    25
100
AcDbLine
 10
347.5500000000002
 20
-16.84793491864829
 30
0.0
 11
347.5500000000002
 21
-12.54793491864834
 31
0.0
  0
ARC
  5
5BC
330
1F
100
AcDbEntity
  8
Layer0014
  6
Continuous
 62
     3
370
    25
100
AcDbCircle
 10
347.5500000000002
 20
-17.34793491864829
 30
0.0
 40
0.5
100
AcDbArc
 50
180.0
 51
90.0
  0
LINE
  5
5BD
330
1F
100
AcDbEntity
  8
Layer0014
  6
Continuous
 62
     3
370
    25
100
AcDbLine
 10
347.7500000000002
 20
-12.34793491864829
 30
0.0
 11
347.5500000000002
 21
-12.54793491864834
 31
0.0
  0
LINE
  5
5BE
330
1F
100
AcDbEntity
  8
Layer0014
  6
Continuous
 62
     3
370
    25
100
AcDbLine
 10
347.7500000000002
 20
-12.34793491864829
 30
0.0
 11
376.5500000000002
 21
-12.34793491864829
 31
0.0
  0
LINE
  5
5BF
330
1F
100
AcDbEntity
  8
Layer0014
  6
Continuous
 62
     3
370
    25
100
AcDbLine
 10
377.5500000000002
 20
-13.34793491864829
 30
0.0
 11
376.5500000000002
 21
-12.34793491864829
 31
0.0
  0
LINE
  5
5C0
330
1F
100
AcDbEntity
  8
Layer0014
  6
Continuous
 62
     3
370
    25
100
AcDbLine
 10
377.5500000000002
 20
-13.34793491864829
 30
0.0
 11
377.5500000000002
 21
-38.34793491864829
 31
0.0
  0
LINE
  5
5C1
330
1F
100
AcDbEntity
  8
Layer0014
  6
Continuous
 62
     3
370
    25
100
AcDbLine
 10
382.5500000000003
 20
-39.34793491864829
 30
0.0
 11
383.5500000000003
 21
-40.34793491864829
 31
0.0
  0
LINE
  5
5C2
330
1F
100
AcDbEntity
  8
Layer0014
  6
Continuous
 62
     3
370
    25
100
AcDbLine
 10
376.5500000000002
 20
-39.34793491864829
 30
0.0
 11
377.5500000000002
 21
-38.34793491864829
 31
0.0
  0
LINE
  5
5C3
330
1F
100
AcDbEntity
  8
Layer0014
  6
Continuous
 62
     3
370
    25
100
AcDbLine
 10
301.1895913843821
 20
-39.34793491864829
 30
0.0
 11
382.5500000000003
 21
-39.34793491864829
 31
0.0
  0
LINE
  5
5C4
330
1F
100
AcDbEntity
  8
Layer0014
  6
Continuous
 62
     3
370
    25
100
AcDbLine
 10
313.5500000000002
 20
-39.34793491864829
 30
0.0
 11
312.5500000000002
 21
-38.34793491864829
 31
0.0
  0
LINE
  5
5C5
330
1F
100
AcDbEntity
  8
Layer0014
  6
Continuous
 62
     3
370
    25
100
AcDbLine
 10
383.55
 20
-119.3479349186483
 30
0.0
 11
383.5500000000003
 21
-40.34793491864829
 31
0.0
  0
LINE
  5
5C6
330
1F
100
AcDbEntity
  8
Layer0014
  6
Continuous
 62
     3
370
    25
100
AcDbLine
 10
426.7320693123776
 20
-39.34793491864829
 30
0.0
 11
459.0499999999993
 21
-58.00670090079831
 31
0.0
  0
LINE
  5
5C7
330
1F
100
AcDbEntity
  8
Layer0014
  6
Continuous
 62
     3
370
    25
100
AcDbLine
 10
426.7320693123776
 20
-39.34793491864829
 30
0.0
 11
387.55
 21
-39.34793491864825
 31
0.0
  0
LINE
  5
5C8
330
1F
100
AcDbEntity
  8
Layer0014
  6
Continuous
 62
     3
370
    25
100
AcDbLine
 10
459.0499999999993
 20
-58.00670090079831
 30
0.0
 11
459.0499999999993
 21
-111.3479349186483
 31
0.0
  0
LINE
  5
5C9
330
1F
100
AcDbEntity
  8
Layer0014
  6
Continuous
 62
     3
370
    25
100
AcDbLine
 10
459.0499999999993
 20
-111.3479349186483
 30
0.0
 11
383.55
 21
-111.3479349186482
 31
0.0
  0
LINE
  5
5CA
330
1F
100
AcDbEntity
  8
Layer0014
  6
Continuous
 62
     3
370
    25
100
AcDbLine
 10
383.55
 20
-43.34793491864825
 30
0.0
 11
387.55
 21
-39.34793491864825
 31
0.0
  0
LINE
  5
5CB
330
1F
100
AcDbEntity
  8
Layer0014
  6
Continuous
 62
     3
370
    25
100
AcDbLine
 10
382.55
 20
-120.3479349186483
 30
0.0
 11
383.55
 21
-119.3479349186483
 31
0.0
  0
LINE
  5
5CC
330
1F
100
AcDbEntity
  8
Layer0014
  6
Continuous
 62
     3
370
    25
100
AcDbLine
 10
446.9567332602602
 20
-17.53833448023158
 30
0.0
 11
465.1432667397333
 21
-28.03833448023158
 31
0.0
  0
LINE
  5
5CD
330
1F
100
AcDbEntity
  8
Layer0014
  6
Continuous
 62
     3
370
    25
100
AcDbLine
 10
437.7737205583688
 20
-32.44377904645785
 30
0.0
 11
438.456733260261
 21
-32.26076634456558
 31
0.0
  0
LINE
  5
5CE
330
1F
100
AcDbEntity
  8
Layer0014
  6
Continuous
 62
     3
370
    25
100
AcDbLine
 10
438.456733260261
 20
-32.26076634456558
 30
0.0
 11
447.9567332602613
 21
-15.80628367266058
 31
0.0
  0
LINE
  5
5CF
330
1F
100
AcDbEntity
  8
Layer0014
  6
Continuous
 62
     3
370
    25
100
AcDbLine
 10
456.8262794416264
 20
-43.44377904645785
 30
0.0
 11
456.6432667397342
 21
-42.76076634456558
 31
0.0
  0
LINE
  5
5D0
330
1F
100
AcDbEntity
  8
Layer0014
  6
Continuous
 62
     3
370
    25
100
AcDbLine
 10
456.6432667397342
 20
-42.76076634456558
 30
0.0
 11
466.1432667397341
 21
-26.30628367266155
 31
0.0
  0
LINE
  5
5D1
330
1F
100
AcDbEntity
  8
Layer0014
  6
Continuous
 62
     3
370
    25
100
AcDbLine
 10
456.8262794416264
 20
-43.44377904645785
 30
0.0
 11
437.7737205583688
 21
-32.44377904645785
 31
0.0
  0
LINE
  5
5D2
330
1F
100
AcDbEntity
  8
Layer0014
  6
Continuous
 62
     3
370
    25
100
AcDbLine
 10
438.456733260261
 20
-32.26076634456558
 30
0.0
 11
456.6432667397342
 21
-42.76076634456558
 31
0.0
  0
LINE
  5
5D3
330
1F
100
AcDbEntity
  8
Layer0014
  6
Continuous
 62
     3
370
    25
100
AcDbLine
 10
437.7737205583686
 20
-32.44377904645768
 30
0.0
 11
432.0237205583685
 21
-42.40307118997873
 31
0.0
  0
LINE
  5
5D4
330
1F
100
AcDbEntity
  8
Layer0014
  6
Continuous
 62
     3
370
    25
100
AcDbLine
 10
456.8262794416262
 20
-43.44377904645768
 30
0.0
 11
451.0762794416261
 21
-53.40307118997872
 31
0.0
  0
LINE
  5
5D5
330
1F
100
AcDbEntity
  8
Layer0014
  6
CENTER
 62
     2
370
    25
100
AcDbLine
 10
383.5500000000001
 20
-77.34793491864825
 30
0.0
 11
424.5499999999982
 21
-77.34793491864826
 31
0.0
  0
LINE
  5
5D6
330
1F
100
AcDbEntity
  8
Layer0014
  6
CENTER
 62
     2
370
    25
100
AcDbLine
 10
424.5499999999982
 20
-77.34793491864826
 30
0.0
 11
458.2763533753302
 21
-18.93217731855106
 31
0.0
  0
LINE
  5
5D7
330
1F
100
AcDbEntity
  8
Layer0014
  6
Continuous
 62
    56
370
    25
100
AcDbLine
 10
465.7724318643344
 20
-39.94858851807595
 30
0.0
 11
467.7724318643346
 21
-36.48448690293827
 31
0.0
  0
LINE
  5
5D8
330
1F
100
AcDbEntity
  8
Layer0014
  6
Continuous
 62
    56
370
    25
100
AcDbLine
 10
470.5044826719036
 20
-35.7524360953696
 30
0.0
 11
472.5044826719037
 21
-32.28833448023192
 31
0.0
  0
ARC
  5
5D9
330
1F
100
AcDbEntity
  8
Layer0014
  6
Continuous
 62
    56
370
    25
100
AcDbCircle
 10
470.7724318643348
 20
-31.28833448023181
 30
0.0
 40
2.0
100
AcDbArc
 50
329.9999999999976
 51
59.99999999999734
  0
ARC
  5
5DA
330
1F
100
AcDbEntity
  8
Layer0014
  6
Continuous
 62
    56
370
    25
100
AcDbCircle
 10
468.7724318643348
 20
-34.7524360953696
 30
0.0
 40
2.0
100
AcDbArc
 50
239.9999999999975
 51
329.9999999999976
  0
LINE
  5
5DB
330
1F
100
AcDbEntity
  8
Layer0014
  6
Continuous
 62
    56
370
    25
100
AcDbLine
 10
465.7724318643344
 20
-39.94858851807595
 30
0.0
 11
464.90640646055
 21
-39.44858851807589
 31
0.0
  0
LINE
  5
5DC
330
1F
100
AcDbEntity
  8
Layer0014
  6
Continuous
 62
    56
370
    25
100
AcDbLine
 10
458.9064064605498
 20
-49.84089336348865
 30
0.0
 11
464.90640646055
 21
-39.44858851807589
 31
0.0
  0
LINE
  5
5DD
330
1F
100
AcDbEntity
  8
Layer0014
  6
Continuous
 62
    56
370
    25
100
AcDbLine
 10
457.5403810567653
 20
-50.20691876727312
 30
0.0
 11
458.9064064605498
 21
-49.84089336348865
 31
0.0
  0
LINE
  5
5DE
330
1F
100
AcDbEntity
  8
Layer0014
  6
Continuous
 62
    56
370
    25
100
AcDbLine
 10
457.5403810567653
 20
-50.20691876727312
 30
0.0
 11
454.0762794416264
 21
-48.20691876727233
 31
0.0
  0
LINE
  5
5DF
330
1F
100
AcDbEntity
  8
Layer0014
  6
Continuous
 62
    56
370
    25
100
AcDbLine
 10
436.3275681356645
 20
-22.9485885180747
 30
0.0
 11
437.3275681356645
 21
-21.2165377105058
 31
0.0
  0
ARC
  5
5E0
330
1F
100
AcDbEntity
  8
Layer0014
  6
Continuous
 62
    56
370
    25
100
AcDbCircle
 10
435.5955173280956
 20
-20.2165377105058
 30
0.0
 40
2.0
100
AcDbArc
 50
329.9999999999974
 51
59.99999999999739
  0
LINE
  5
5E1
330
1F
100
AcDbEntity
  8
Layer0014
  6
Continuous
 62
    56
370
    25
100
AcDbLine
 10
437.1935935394489
 20
-23.44858851807476
 30
0.0
 11
436.3275681356645
 21
-22.9485885180747
 31
0.0
  0
LINE
  5
5E2
330
1F
100
AcDbEntity
  8
Layer0014
  6
Continuous
 62
    56
370
    25
100
AcDbLine
 10
431.5596189432325
 20
-35.2069187672725
 30
0.0
 11
431.193593539448
 21
-33.84089336348814
 31
0.0
  0
LINE
  5
5E3
330
1F
100
AcDbEntity
  8
Layer0014
  6
Continuous
 62
    56
370
    25
100
AcDbLine
 10
431.5596189432327
 20
-35.20691876727335
 30
0.0
 11
435.0237205583687
 21
-37.20691876727227
 31
0.0
  0
LINE
  5
5E4
330
1F
100
AcDbEntity
  8
Layer0014
  6
Continuous
 62
    56
370
    25
100
AcDbLine
 10
431.193593539448
 20
-33.84089336348814
 30
0.0
 11
437.1935935394489
 21
-23.44858851807476
 31
0.0
  0
LINE
  5
5E5
330
1F
100
AcDbEntity
  8
Layer0014
  6
Continuous
 62
    56
370
    25
100
AcDbLine
 10
471.772431864335
 20
-29.55628367266308
 30
0.0
 11
358.3231039685766
 21
35.94371632734254
 31
0.0
  0
LINE
  5
5E6
330
1F
100
AcDbEntity
  8
Layer0014
  6
Continuous
 62
    56
370
    25
100
AcDbLine
 10
436.5955173280956
 20
-18.48448690293691
 30
0.0
 11
338.7346467004568
 21
38.01551309706798
 31
0.0
  0
LINE
  5
5E7
330
1F
100
AcDbEntity
  8
Layer0014
  6
Continuous
 62
    56
370
    25
100
AcDbLine
 10
338.0025958928881
 20
40.74756390463682
 30
0.0
 11
345.5025958928887
 21
53.73794496140306
 31
0.0
  0
LINE
  5
5E8
330
1F
100
AcDbEntity
  8
Layer0014
  6
Continuous
 62
    56
370
    25
100
AcDbLine
 10
345.5025958928887
 20
53.73794496140306
 30
0.0
 11
361.0910531610082
 21
44.73794496140226
 31
0.0
  0
LINE
  5
5E9
330
1F
100
AcDbEntity
  8
Layer0014
  6
Continuous
 62
    56
370
    25
100
AcDbLine
 10
357.5910531610078
 20
38.6757671349115
 30
0.0
 11
361.0910531610082
 21
44.73794496140226
 31
0.0
  0
ARC
  5
5EA
330
1F
100
AcDbEntity
  8
Layer0014
  6
Continuous
 62
    56
370
    25
100
AcDbCircle
 10
359.3231039685766
 20
37.67576713491138
 30
0.0
 40
2.0
100
AcDbArc
 50
149.9999999999974
 51
239.9999999999974
  0
ARC
  5
5EB
330
1F
100
AcDbEntity
  8
Layer0014
  6
Continuous
 62
    56
370
    25
100
AcDbCircle
 10
339.7346467004569
 20
39.74756390463665
 30
0.0
 40
2.0
100
AcDbArc
 50
149.9999999999974
 51
239.9999999999974
  0
LINE
  5
5EC
330
1F
100
AcDbEntity
  8
Layer0014
  6
Continuous
 62
    56
370
    25
100
AcDbLine
 10
341.2657356137004
 20
35.3994876932843
 30
0.0
 11
347.3279134401914
 21
31.8994876932843
 31
0.0
  0
LINE
  5
5ED
330
1F
100
AcDbEntity
  8
Layer0014
  6
Continuous
 62
    56
370
    25
100
AcDbLine
 10
363.7250277572214
 20
51.30012278789525
 30
0.0
 11
349.8686212966704
 21
59.30012278789513
 31
0.0
  0
LINE
  5
5EE
330
1F
100
AcDbEntity
  8
Layer0014
  6
Continuous
 62
    56
370
    25
100
AcDbLine
 10
363.7250277572214
 20
51.30012278789525
 30
0.0
 11
402.6596216396757
 21
110.7399865092092
 31
0.0
  0
LINE
  5
5EF
330
1F
100
AcDbEntity
  8
Layer0014
  6
Continuous
 62
    56
370
    25
100
AcDbLine
 10
349.8686212966704
 20
59.30012278789513
 30
0.0
 11
381.8777563355862
 21
122.7384020367878
 31
0.0
  0
LINE
  5
5F0
330
1F
100
AcDbEntity
  8
Layer0014
  6
Continuous
 62
    56
370
    25
100
AcDbLine
 10
383.2705473471527
 20
123.1539505544996
 30
0.0
 11
402.3231062209663
 21
112.153950559952
 31
0.0
  0
ARC
  5
5F1
330
1F
100
AcDbEntity
  8
Layer0014
  6
Continuous
 62
    56
370
    25
100
AcDbCircle
 10
382.7705450853172
 20
122.2879264565905
 30
0.0
 40
1.0
100
AcDbArc
 50
59.99985035805202
 51
153.2257992241577
  0
ARC
  5
5F2
330
1F
100
AcDbEntity
  8
Layer0014
  6
Continuous
 62
    56
370
    25
100
AcDbCircle
 10
401.8231039685749
 20
111.2879264565904
 30
0.0
 40
1.0
100
AcDbArc
 50
326.7742007758422
 51
60.00014964194711
  0
LINE
  5
5F3
330
1F
100
AcDbEntity
  8
Layer0014
  6
Continuous
 62
    56
370
    25
100
AcDbLine
 10
381.877756338575
 20
122.7384020350622
 30
0.0
 11
402.6596216366869
 21
110.7399865109347
 31
0.0
  0
LINE
  5
5F4
330
1F
100
AcDbEntity
  8
Layer0014
  6
Continuous
 62
    56
370
    25
100
AcDbLine
 10
360.7250277572214
 20
46.10397036518862
 30
0.0
 11
363.7250277572214
 21
51.30012278789525
 31
0.0
  0
LINE
  5
5F5
330
1F
100
AcDbEntity
  8
Layer0014
  6
Continuous
 62
    56
370
    25
100
AcDbLine
 10
346.8686212966704
 20
54.1039703651885
 30
0.0
 11
349.8686212966704
 21
59.30012278789513
 31
0.0
  0
LINE
  5
5F6
330
1F
100
AcDbEntity
  8
Layer0014
  6
Continuous
 62
    56
370
    25
100
AcDbLine
 10
359.3590023534369
 20
45.7379449614042
 30
0.0
 11
360.7250277572214
 21
46.10397036518862
 31
0.0
  0
LINE
  5
5F7
330
1F
100
AcDbEntity
  8
Layer0014
  6
Continuous
 62
    56
370
    25
100
AcDbLine
 10
347.2346467004548
 20
52.7379449614042
 30
0.0
 11
346.8686212966704
 21
54.1039703651885
 31
0.0
  0
LINE
  5
5F8
330
1F
100
AcDbEntity
  8
Layer0014
  6
Continuous
 62
    56
370
    25
100
AcDbLine
 10
359.3590023534369
 20
45.7379449614042
 30
0.0
 11
347.2346467004548
 21
52.7379449614042
 31
0.0
  0
LINE
  5
5F9
330
1F
100
AcDbEntity
  8
Layer0014
  6
Continuous
 62
    56
370
    25
100
AcDbLine
 10
340.8997102099219
 20
36.76551309706542
 30
0.0
 11
341.2657356137004
 21
35.3994876932843
 31
0.0
  0
LINE
  5
5FA
330
1F
100
AcDbEntity
  8
Layer0014
  6
Continuous
 62
    56
370
    25
100
AcDbLine
 10
348.6939388439656
 20
32.26551309707435
 30
0.0
 11
347.3279134401914
 21
31.8994876932843
 31
0.0
  0
LINE
  5
5FB
330
1F
100
AcDbEntity
  8
Layer0014
  6
Continuous
 62
    56
370
    25
100
AcDbLine
 10
348.4774324930297
 20
32.39051309706838
 30
0.0
 11
348.3524324930322
 21
32.17400674612679
 31
0.0
  0
LINE
  5
5FC
330
1F
100
AcDbEntity
  8
Layer0014
  6
Continuous
 62
    56
370
    25
100
AcDbLine
 10
341.1162165608619
 20
36.64051309706849
 30
0.0
 11
340.9912165608645
 21
36.42400674612674
 31
0.0
  0
LINE
  5
5FD
330
1F
100
AcDbEntity
  8
Layer0014
  6
Continuous
 62
    56
370
    25
100
AcDbLine
 10
570.0974041071136
 20
-93.25243609536085
 30
0.0
 11
577.597404107113
 21
-80.26205503859393
 31
0.0
  0
LINE
  5
5FE
330
1F
100
AcDbEntity
  8
Layer0014
  6
Continuous
 62
    56
370
    25
100
AcDbLine
 10
577.597404107113
 20
-80.26205503859393
 30
0.0
 11
562.0089468389926
 21
-71.26205503859467
 31
0.0
  0
LINE
  5
5FF
330
1F
100
AcDbEntity
  8
Layer0014
  6
Continuous
 62
    56
370
    25
100
AcDbLine
 10
558.5089468389931
 20
-77.32423286508595
 30
0.0
 11
562.0089468389926
 21
-71.26205503859467
 31
0.0
  0
ARC
  5
600
330
1F
100
AcDbEntity
  8
Layer0014
  6
Continuous
 62
    56
370
    25
100
AcDbCircle
 10
556.7768960314241
 20
-76.32423286508606
 30
0.0
 40
2.0
100
AcDbArc
 50
240.0000000000026
 51
330.0000000000026
  0
ARC
  5
601
330
1F
100
AcDbEntity
  8
Layer0014
  6
Continuous
 62
    56
370
    25
100
AcDbCircle
 10
568.3653532995446
 20
-92.25243609536096
 30
0.0
 40
2.0
100
AcDbArc
 50
240.0000000000026
 51
330.0000000000026
  0
LINE
  5
602
330
1F
100
AcDbEntity
  8
Layer0014
  6
Continuous
 62
    56
370
    25
100
AcDbLine
 10
563.8342643863009
 20
-93.10051230671559
 30
0.0
 11
557.7720865598098
 21
-89.60051230671564
 31
0.0
  0
LINE
  5
603
330
1F
100
AcDbEntity
  8
Layer0014
  6
Continuous
 62
    56
370
    25
100
AcDbLine
 10
566.3749722427799
 20
-65.6998772121047
 30
0.0
 11
580.2313787033308
 21
-73.6998772121047
 31
0.0
  0
LINE
  5
604
330
1F
100
AcDbEntity
  8
Layer0014
  6
Continuous
 62
    56
370
    25
100
AcDbLine
 10
566.3749722427799
 20
-65.6998772121047
 30
0.0
 11
598.3841072816957
 21
-2.261597963212125
 31
0.0
  0
LINE
  5
605
330
1F
100
AcDbEntity
  8
Layer0014
  6
Continuous
 62
    56
370
    25
100
AcDbLine
 10
580.2313787033308
 20
-73.6998772121047
 30
0.0
 11
619.1659725857851
 21
-14.2600134907907
 31
0.0
  0
LINE
  5
606
330
1F
100
AcDbEntity
  8
Layer0014
  6
Continuous
 62
    56
370
    25
100
AcDbLine
 10
618.8294526528452
 20
-12.84604683375557
 30
0.0
 11
599.7768937790316
 21
-1.8460468392081
 31
0.0
  0
ARC
  5
607
330
1F
100
AcDbEntity
  8
Layer0014
  6
Continuous
 62
    56
370
    25
100
AcDbCircle
 10
599.2768960314265
 20
-2.712073543409417
 30
0.0
 40
1.0
100
AcDbArc
 50
59.9998503580529
 51
153.2257992241578
  0
LINE
  5
608
330
1F
100
AcDbEntity
  8
Layer0014
  6
Continuous
 62
    56
370
    25
100
AcDbLine
 10
619.1659725827964
 20
-14.26001348906516
 30
0.0
 11
598.3841072846844
 21
-2.261597964937664
 31
0.0
  0
LINE
  5
609
330
1F
100
AcDbEntity
  8
Layer0014
  6
Continuous
 62
    56
370
    25
100
AcDbLine
 10
563.3749722427799
 20
-70.89602963481133
 30
0.0
 11
566.3749722427799
 21
-65.6998772121047
 31
0.0
  0
LINE
  5
60A
330
1F
100
AcDbEntity
  8
Layer0014
  6
Continuous
 62
    56
370
    25
100
AcDbLine
 10
577.2313787033308
 20
-78.89602963481133
 30
0.0
 11
580.2313787033308
 21
-73.6998772121047
 31
0.0
  0
LINE
  5
60B
330
1F
100
AcDbEntity
  8
Layer0014
  6
Continuous
 62
    56
370
    25
100
AcDbLine
 10
563.7409976465644
 20
-72.26205503859575
 30
0.0
 11
563.3749722427799
 21
-70.89602963481133
 31
0.0
  0
LINE
  5
60C
330
1F
100
AcDbEntity
  8
Layer0014
  6
Continuous
 62
    56
370
    25
100
AcDbLine
 10
575.8653532995465
 20
-79.26205503859569
 30
0.0
 11
577.2313787033308
 21
-78.89602963481133
 31
0.0
  0
LINE
  5
60D
330
1F
100
AcDbEntity
  8
Layer0014
  6
Continuous
 62
    56
370
    25
100
AcDbLine
 10
563.7409976465644
 20
-72.26205503859575
 30
0.0
 11
575.8653532995465
 21
-79.26205503859569
 31
0.0
  0
LINE
  5
60E
330
1F
100
AcDbEntity
  8
Layer0014
  6
Continuous
 62
    56
370
    25
100
AcDbLine
 10
565.2002897900795
 20
-92.73448690292764
 30
0.0
 11
563.8342643863009
 21
-93.10051230671559
 31
0.0
  0
LINE
  5
60F
330
1F
100
AcDbEntity
  8
Layer0014
  6
Continuous
 62
    56
370
    25
100
AcDbLine
 10
557.4060611560354
 20
-88.2344869029373
 30
0.0
 11
557.7720865598098
 21
-89.60051230671564
 31
0.0
  0
LINE
  5
610
330
1F
100
AcDbEntity
  8
Layer0014
  6
Continuous
 62
    56
370
    25
100
AcDbLine
 10
557.6225675069713
 20
-88.35948690293145
 30
0.0
 11
557.497567506974
 21
-88.5759932538731
 31
0.0
  0
LINE
  5
611
330
1F
100
AcDbEntity
  8
Layer0014
  6
Continuous
 62
    56
370
    25
100
AcDbLine
 10
564.9837834391392
 20
-92.6094869029314
 30
0.0
 11
564.8587834391416
 21
-92.8259932538731
 31
0.0
  0
LINE
  5
612
330
1F
100
AcDbEntity
  8
Layer0014
  6
Continuous
 62
    56
370
    25
100
AcDbLine
 10
528.8701297375383
 20
-62.52165490985924
 30
0.0
 11
555.7768960314241
 21
-78.0562836726549
 31
0.0
  0
LINE
  5
613
330
1F
100
AcDbEntity
  8
Layer0014
  6
Continuous
 62
    56
370
    25
100
AcDbLine
 10
524.2467760960275
 20
-69.08996474740837
 30
0.0
 11
567.3653532995448
 21
-93.98448690292992
 31
0.0
  0
LINE
  5
614
330
1F
100
AcDbEntity
  8
Layer0014
  6
CENTER
 62
    56
370
    25
100
AcDbLine
 10
344.2968245269485
 20
33.64948769328271
 30
0.0
 11
392.7968245269468
 21
117.6539518603705
 31
0.0
  0
LINE
  5
615
330
1F
100
AcDbEntity
  8
Layer0014
  6
CENTER
 62
    56
370
    25
100
AcDbLine
 10
560.8031754730528
 20
-91.35051230671417
 30
0.0
 11
609.3031754730512
 21
-7.346048139626475
 31
0.0
  0
LINE
  5
616
330
1F
100
AcDbEntity
  8
Layer0015
  6
Continuous
 62
     2
370
    18
100
AcDbLine
 10
333.0239327296248
 20
-210.3479349186483
 30
0.0
 11
616.998917485848
 21
-210.3479349186483
 31
0.0
  0
ARC
  5
617
330
1F
100
AcDbEntity
  8
Layer0015
  6
Continuous
 62
     3
370
    25
100
AcDbCircle
 10
618.3294549146843
 20
-13.71207354340936
 30
0.0
 40
1.0
100
AcDbArc
 50
326.7742007758423
 51
60.00014964194798
  0
DIMENSION
  5
618
330
1F
100
AcDbEntity
  8
Layer0015
  6
Continuous
370
    13
100
AcDbDimension
  2
*D1
 10
-549.2880483994694
 20
409.6520650813517
 30
0.0
 11
-549.2880483994694
 21
309.6520650813517
 31
0.0
 70
    32
 71
     8
 42
-1.0
  3
DaDimRotatedStyle
100
AcDbAlignedDimension
 13
-517.75
 23
209.6520650813518
 33
0.0
 14
-517.75
 24
409.6520650813517
 34
0.0
 50
90.0
100
AcDbRotatedDimension
1001
ACAD
1000
DSTYLE
1002
{
1070
   274
1070
     4
1070
    41
1040
7.499992178923005
1070
   289
1070
     0
1070
    79
1070
     2
1070
   343
1005
EC
1070
   344
1005
EC
1070
   176
1070
     2
1070
   177
1070
     2
1070
   178
1070
     2
1070
   271
1070
     3
1070
    44
1040
2.0
1070
    42
1040
2.5
1070
   147
1040
2.5
1070
   173
1070
     1
1070
    77
1070
     3
1070
    73
1070
     0
1070
   172
1070
     1
1070
    74
1070
     0
1070
   283
1070
     0
1070
   340
1005
F6
1070
   140
1040
10.0
1070
   284
1070
     8
1070
   288
1070
     1
1070
    78
1070
     8
1002
}
  0
DIMENSION
  5
61A
330
1F
100
AcDbEntity
  8
Layer0015
  6
Continuous
370
    13
100
AcDbDimension
  2
*D2
 10
198.2499999999975
 20
102.0289685666772
 30
0.0
 11
-160.2500000000013
 21
102.0289685666772
 31
0.0
 70
    32
  1
714
 71
     8
 42
-1.0
  3
DaDimRotatedStyle
100
AcDbAlignedDimension
 13
-518.75
 23
210.6520650813505
 33
0.0
 14
198.2499999999975
 24
300.1520650813517
 34
0.0
100
AcDbRotatedDimension
1001
ACAD
1000
DSTYLE
1002
{
1070
   274
1070
     4
1070
    41
1040
7.499992178923005
1070
   289
1070
     0
1070
    79
1070
     2
1070
   343
1005
EC
1070
   344
1005
EC
1070
   176
1070
     2
1070
   177
1070
     2
1070
   178
1070
     2
1070
   271
1070
     3
1070
    44
1040
2.0
1070
    42
1040
2.5
1070
   147
1040
2.5
1070
   173
1070
     1
1070
    77
1070
     3
1070
    73
1070
     0
1070
   172
1070
     1
1070
    74
1070
     0
1070
   283
1070
     0
1070
   340
1005
F6
1070
   140
1040
10.0
1070
   284
1070
     8
1070
   288
1070
     1
1070
    78
1070
     8
1002
}
  0
DIMENSION
  5
61B
330
1F
100
AcDbEntity
  8
Layer0015
  6
Continuous
370
    13
100
AcDbDimension
  2
*D3
 10
549.4883394134243
 20
209.6520650813517
 30
0.0
 11
549.4883394134243
 21
186.6520650813516
 31
0.0
 70
    32
 71
     8
 42
-1.0
  3
DaDimRotatedStyle
100
AcDbAlignedDimension
 13
517.75
 23
163.6520650813516
 33
0.0
 14
517.75
 24
209.6520650813517
 34
0.0
 50
90.0
100
AcDbRotatedDimension
1001
ACAD
1000
DSTYLE
1002
{
1070
   274
1070
     4
1070
    41
1040
7.499992178923005
1070
   289
1070
     0
1070
    79
1070
     2
1070
   343
1005
EC
1070
   344
1005
EC
1070
   176
1070
     2
1070
   177
1070
     2
1070
   178
1070
     2
1070
   271
1070
     3
1070
    44
1040
2.0
1070
    42
1040
2.5
1070
   147
1040
2.5
1070
   173
1070
     1
1070
    77
1070
     3
1070
    73
1070
     0
1070
   172
1070
     1
1070
    74
1070
     0
1070
   283
1070
     0
1070
   340
1005
F6
1070
   140
1040
10.0
1070
   284
1070
     8
1070
   288
1070
     1
1070
    78
1070
     8
1002
}
  0
DIMENSION
  5
61C
330
1F
100
AcDbEntity
  8
Layer0015
  6
Continuous
370
    13
100
AcDbDimension
  2
*D4
 10
549.4883394134243
 20
409.6520650813514
 30
0.0
 11
549.4883394134243
 21
309.6520650813515
 31
0.0
 70
    32
 71
     8
 42
-1.0
  3
DaDimRotatedStyle
100
AcDbAlignedDimension
 13
517.75
 23
209.6520650813517
 33
0.0
 14
517.75
 24
409.6520650813514
 34
0.0
 50
90.0
100
AcDbRotatedDimension
1001
ACAD
1000
DSTYLE
1002
{
1070
   274
1070
     4
1070
    41
1040
7.499992178923005
1070
   289
1070
     0
1070
    79
1070
     2
1070
   343
1005
EC
1070
   344
1005
EC
1070
   176
1070
     2
1070
   177
1070
     2
1070
   178
1070
     2
1070
   271
1070
     3
1070
    44
1040
2.0
1070
    42
1040
2.5
1070
   147
1040
2.5
1070
   173
1070
     1
1070
    77
1070
     3
1070
    73
1070
     0
1070
   172
1070
     1
1070
    74
1070
     0
1070
   283
1070
     0
1070
   340
1005
F6
1070
   140
1040
10.0
1070
   284
1070
     8
1070
   288
1070
     1
1070
    78
1070
     8
1002
}
  0
DIMENSION
  5
61D
330
1F
100
AcDbEntity
  8
Layer0015
  6
Continuous
370
    13
100
AcDbDimension
  2
*D5
 10
549.4883394134243
 20
455.6520650813519
 30
0.0
 11
549.4883394134243
 21
432.6520650813516
 31
0.0
 70
    32
 71
     8
 42
-1.0
  3
DaDimRotatedStyle
100
AcDbAlignedDimension
 13
517.75
 23
409.6520650813514
 33
0.0
 14
517.75
 24
455.6520650813519
 34
0.0
 50
90.0
100
AcDbRotatedDimension
1001
ACAD
1000
DSTYLE
1002
{
1070
   274
1070
     4
1070
    41
1040
7.499992178923005
1070
   289
1070
     0
1070
    79
1070
     2
1070
   343
1005
EC
1070
   344
1005
EC
1070
   176
1070
     2
1070
   177
1070
     2
1070
   178
1070
     2
1070
   271
1070
     3
1070
    44
1040
2.0
1070
    42
1040
2.5
1070
   147
1040
2.5
1070
   173
1070
     1
1070
    77
1070
     3
1070
    73
1070
     0
1070
   172
1070
     1
1070
    74
1070
     0
1070
   283
1070
     0
1070
   340
1005
F6
1070
   140
1040
10.0
1070
   284
1070
     8
1070
   288
1070
     1
1070
    78
1070
     8
1002
}
  0
DIMENSION
  5
61E
330
1F
100
AcDbEntity
  8
Layer0015
  6
Continuous
370
    13
100
AcDbDimension
  2
*D6
 10
569.6962083382858
 20
455.6520650813519
 30
0.0
 11
569.6962083382858
 21
309.6520650813517
 31
0.0
 70
    32
 71
     8
 42
-1.0
  3
DaDimRotatedStyle
100
AcDbAlignedDimension
 13
517.75
 23
163.6520650813516
 33
0.0
 14
517.75
 24
455.6520650813519
 34
0.0
 50
90.0
100
AcDbRotatedDimension
1001
ACAD
1000
DSTYLE
1002
{
1070
   274
1070
     4
1070
    41
1040
7.499992178923005
1070
   289
1070
     0
1070
    79
1070
     2
1070
   343
1005
EC
1070
   344
1005
EC
1070
   176
1070
     2
1070
   177
1070
     2
1070
   178
1070
     2
1070
   271
1070
     3
1070
    44
1040
2.0
1070
    42
1040
2.5
1070
   147
1040
2.5
1070
   173
1070
     1
1070
    77
1070
     3
1070
    73
1070
     0
1070
   172
1070
     1
1070
    74
1070
     0
1070
   283
1070
     0
1070
   340
1005
F6
1070
   140
1040
10.0
1070
   284
1070
     8
1070
   288
1070
     1
1070
    78
1070
     8
1002
}
  0
DIMENSION
  5
61F
330
1F
100
AcDbEntity
  8
Layer0015
  6
Continuous
370
    13
100
AcDbDimension
  2
*D7
 10
-544.522252457196
 20
-39.34793491864829
 30
0.0
 11
-544.522252457196
 21
-124.8479349186483
 31
0.0
 70
    32
 71
     8
 42
-1.0
  3
DaDimRotatedStyle
100
AcDbAlignedDimension
 13
-517.75
 23
-210.3479349186483
 33
0.0
 14
-517.75
 24
-39.34793491864829
 34
0.0
 50
90.0
100
AcDbRotatedDimension
1001
ACAD
1000
DSTYLE
1002
{
1070
   274
1070
     4
1070
    41
1040
7.499992178923005
1070
   289
1070
     0
1070
    79
1070
     2
1070
   343
1005
EC
1070
   344
1005
EC
1070
   176
1070
     2
1070
   177
1070
     2
1070
   178
1070
     2
1070
   271
1070
     3
1070
    44
1040
2.0
1070
    42
1040
2.5
1070
   147
1040
2.5
1070
   173
1070
     1
1070
    77
1070
     3
1070
    73
1070
     0
1070
   172
1070
     1
1070
    74
1070
     0
1070
   283
1070
     0
1070
   340
1005
F6
1070
   140
1040
10.0
1070
   284
1070
     8
1070
   288
1070
     1
1070
    78
1070
     8
1002
}
  0
INSERT
  5
620
330
1F
100
AcDbEntity
  8
Layer0015
  6
Continuous
100
AcDbBlockReference
  2
DA_IMAGEDIMGROUP_1
 10
0.0
 20
0.0
 30
0.0
  0
DIMENSION
  5
621
330
1F
100
AcDbEntity
  8
Layer0015
  6
Continuous
370
    13
100
AcDbDimension
  2
*D9
 10
-393.7499999999998
 20
-2.627388318706436
 30
0.0
 11
-403.7499999999999
 21
-2.627388318706436
 31
0.0
 70
    32
 71
     8
 42
-1.0
  3
DaDimRotatedStyle
100
AcDbAlignedDimension
 13
-413.7499999999999
 23
-39.34793491864829
 33
0.0
 14
-393.7499999999998
 24
-38.54793491864834
 34
0.0
100
AcDbRotatedDimension
1001
ACAD
1000
DSTYLE
1002
{
1070
   274
1070
     4
1070
    41
1040
7.499992178923005
1070
   289
1070
     0
1070
    79
1070
     2
1070
   343
1005
EC
1070
   344
1005
EC
1070
   176
1070
     2
1070
   177
1070
     2
1070
   178
1070
     2
1070
   271
1070
     3
1070
    44
1040
2.0
1070
    42
1040
2.5
1070
   147
1040
2.5
1070
   173
1070
     1
1070
    77
1070
     3
1070
    73
1070
     0
1070
   172
1070
     1
1070
    74
1070
     0
1070
   283
1070
     0
1070
   340
1005
F6
1070
   140
1040
10.0
1070
   284
1070
     8
1070
   288
1070
     1
1070
    78
1070
     8
1002
}
  0
DIMENSION
  5
622
330
1F
100
AcDbEntity
  8
Layer0015
  6
Continuous
370
    13
100
AcDbDimension
  2
*D10
 10
-393.7499999999998
 20
35.95768587297459
 30
0.0
 11
-456.2499999999999
 21
35.95768587297459
 31
0.0
 70
    32
 71
     8
 42
-1.0
  3
DaDimRotatedStyle
100
AcDbAlignedDimension
 13
-518.75
 23
-40.34793491864829
 33
0.0
 14
-393.7499999999998
 24
-38.54793491864834
 34
0.0
100
AcDbRotatedDimension
1001
ACAD
1000
DSTYLE
1002
{
1070
   274
1070
     4
1070
    41
1040
7.499992178923005
1070
   289
1070
     0
1070
    79
1070
     2
1070
   343
1005
EC
1070
   344
1005
EC
1070
   176
1070
     2
1070
   177
1070
     2
1070
   178
1070
     2
1070
   271
1070
     3
1070
    44
1040
2.0
1070
    42
1040
2.5
1070
   147
1040
2.5
1070
   173
1070
     1
1070
    77
1070
     3
1070
    73
1070
     0
1070
   172
1070
     1
1070
    74
1070
     0
1070
   283
1070
     0
1070
   340
1005
F6
1070
   140
1040
10.0
1070
   284
1070
     8
1070
   288
1070
     1
1070
    78
1070
     8
1002
}
  0
DIMENSION
  5
623
330
1F
100
AcDbEntity
  8
Layer0015
  6
Continuous
370
    13
100
AcDbDimension
  2
*D11
 10
-55.45000000000002
 20
35.95768587297459
 30
0.0
 11
-224.5999999999999
 21
35.95768587297459
 31
0.0
 70
    32
  1
0～335
 71
     8
 42
-1.0
  3
DaDimRotatedStyle
100
AcDbAlignedDimension
 13
-393.7499999999998
 23
-38.54793491864834
 33
0.0
 14
-55.45000000000002
 24
-38.54793491864834
 34
0.0
100
AcDbRotatedDimension
1001
ACAD
1000
DSTYLE
1002
{
1070
   274
1070
     4
1070
    41
1040
7.499992178923005
1070
   289
1070
     0
1070
    79
1070
     2
1070
   343
1005
EC
1070
   344
1005
EC
1070
   176
1070
     2
1070
   177
1070
     2
1070
   178
1070
     2
1070
   271
1070
     3
1070
    44
1040
2.0
1070
    42
1040
2.5
1070
   147
1040
2.5
1070
   173
1070
     1
1070
    77
1070
     3
1070
    73
1070
     0
1070
   172
1070
     1
1070
    74
1070
     0
1070
   283
1070
     0
1070
   340
1005
F6
1070
   140
1040
10.0
1070
   284
1070
     8
1070
   288
1070
     1
1070
    78
1070
     8
1002
}
  0
DIMENSION
  5
624
330
1F
100
AcDbEntity
  8
Layer0015
  6
Continuous
370
    13
100
AcDbDimension
  2
*D12
 10
198.2500000000017
 20
35.95768587297459
 30
0.0
 11
71.40000000000084
 21
35.95768587297459
 31
0.0
 70
    32
  1
254
 71
     8
 42
-1.0
  3
DaDimRotatedStyle
100
AcDbAlignedDimension
 13
-55.45000000000002
 23
-38.54793491864834
 33
0.0
 14
198.2500000000017
 24
-67.8479349186484
 34
0.0
100
AcDbRotatedDimension
1001
ACAD
1000
DSTYLE
1002
{
1070
   274
1070
     4
1070
    41
1040
7.499992178923005
1070
   289
1070
     0
1070
    79
1070
     2
1070
   343
1005
EC
1070
   344
1005
EC
1070
   176
1070
     2
1070
   177
1070
     2
1070
   178
1070
     2
1070
   271
1070
     3
1070
    44
1040
2.0
1070
    42
1040
2.5
1070
   147
1040
2.5
1070
   173
1070
     1
1070
    77
1070
     3
1070
    73
1070
     0
1070
   172
1070
     1
1070
    74
1070
     0
1070
   283
1070
     0
1070
   340
1005
F6
1070
   140
1040
10.0
1070
   284
1070
     8
1070
   288
1070
     1
1070
    78
1070
     8
1002
}
  0
DIMENSION
  5
625
330
1F
100
AcDbEntity
  8
Layer0015
  6
Continuous
370
    13
100
AcDbDimension
  2
*D13
 10
71.24999999999994
 20
-321.2038418595508
 30
0.0
 11
-223.75
 21
-321.2038418595508
 31
0.0
 70
    32
 71
     8
 42
-1.0
  3
DaDimRotatedStyle
100
AcDbAlignedDimension
 13
-518.75
 23
-209.3479349186483
 33
0.0
 14
71.24999999999994
 24
-209.3479349186483
 34
0.0
100
AcDbRotatedDimension
1001
ACAD
1000
DSTYLE
1002
{
1070
   274
1070
     4
1070
    41
1040
7.499992178923005
1070
   289
1070
     0
1070
    79
1070
     2
1070
   343
1005
EC
1070
   344
1005
EC
1070
   176
1070
     2
1070
   177
1070
     2
1070
   178
1070
     2
1070
   271
1070
     3
1070
    44
1040
2.0
1070
    42
1040
2.5
1070
   147
1040
2.5
1070
   173
1070
     1
1070
    77
1070
     3
1070
    73
1070
     0
1070
   172
1070
     1
1070
    74
1070
     0
1070
   283
1070
     0
1070
   340
1005
F6
1070
   140
1040
10.0
1070
   284
1070
     8
1070
   288
1070
     1
1070
    78
1070
     8
1002
}
  0
DIMENSION
  5
626
330
1F
100
AcDbEntity
  8
Layer0015
  6
Continuous
370
    13
100
AcDbDimension
  2
*D14
 10
198.2500000000017
 20
-321.2038418595508
 30
0.0
 11
134.7500000000008
 21
-321.2038418595508
 31
0.0
 70
    32
  1
124
 71
     8
 42
-1.0
  3
DaDimRotatedStyle
100
AcDbAlignedDimension
 13
71.24999999999994
 23
-209.3479349186483
 33
0.0
 14
198.2500000000017
 24
-86.8479349186484
 34
0.0
100
AcDbRotatedDimension
1001
ACAD
1000
DSTYLE
1002
{
1070
   274
1070
     4
1070
    41
1040
7.499992178923005
1070
   289
1070
     0
1070
    79
1070
     2
1070
   343
1005
EC
1070
   344
1005
EC
1070
   176
1070
     2
1070
   177
1070
     2
1070
   178
1070
     2
1070
   271
1070
     3
1070
    44
1040
2.0
1070
    42
1040
2.5
1070
   147
1040
2.5
1070
   173
1070
     1
1070
    77
1070
     3
1070
    73
1070
     0
1070
   172
1070
     1
1070
    74
1070
     0
1070
   283
1070
     0
1070
   340
1005
F6
1070
   140
1040
10.0
1070
   284
1070
     8
1070
   288
1070
     1
1070
    78
1070
     8
1002
}
  0
DIMENSION
  5
627
330
1F
100
AcDbEntity
  8
Layer0015
  6
Continuous
370
    13
100
AcDbDimension
  2
*D15
 10
287.2500000000038
 20
-321.2038418595508
 30
0.0
 11
242.7500000000027
 21
-321.2038418595508
 31
0.0
 70
    32
 71
     8
 42
-1.0
  3
DaDimRotatedStyle
100
AcDbAlignedDimension
 13
198.2500000000017
 23
-86.8479349186484
 33
0.0
 14
287.2500000000038
 24
-213.3479349186484
 34
0.0
100
AcDbRotatedDimension
1001
ACAD
1000
DSTYLE
1002
{
1070
   274
1070
     4
1070
    41
1040
7.499992178923005
1070
   289
1070
     0
1070
    79
1070
     2
1070
   343
1005
EC
1070
   344
1005
EC
1070
   176
1070
     2
1070
   177
1070
     2
1070
   178
1070
     2
1070
   271
1070
     3
1070
    44
1040
2.0
1070
    42
1040
2.5
1070
   147
1040
2.5
1070
   173
1070
     1
1070
    77
1070
     3
1070
    73
1070
     0
1070
   172
1070
     1
1070
    74
1070
     0
1070
   283
1070
     0
1070
   340
1005
F6
1070
   140
1040
10.0
1070
   284
1070
     8
1070
   288
1070
     1
1070
    78
1070
     8
1002
}
  0
DIMENSION
  5
628
330
1F
100
AcDbEntity
  8
Layer0015
  6
Continuous
370
    13
100
AcDbDimension
  2
*D16
 10
-35.96738908981648
 20
-451.4872222319747
 30
0.0
 11
-85.96738908981649
 21
-451.4872222319747
 31
0.0
 70
    32
 71
     8
 42
-1.0
  3
DaDimRotatedStyle
100
AcDbAlignedDimension
 13
-135.9673890898165
 23
-415.6328844727792
 33
0.0
 14
-35.96738908981648
 24
-402.3784711520054
 34
0.0
100
AcDbRotatedDimension
1001
ACAD
1000
DSTYLE
1002
{
1070
   274
1070
     4
1070
    41
1040
7.499992178923005
1070
   289
1070
     0
1070
    79
1070
     2
1070
   343
1005
EC
1070
   344
1005
EC
1070
   176
1070
     2
1070
   177
1070
     2
1070
   178
1070
     2
1070
   271
1070
     2
1070
    44
1040
1.600000000000023
1070
    42
1040
2.5
1070
   147
1040
2.0
1070
   173
1070
     1
1070
    77
1070
     3
1070
    73
1070
     0
1070
   172
1070
     1
1070
    74
1070
     0
1070
   283
1070
     0
1070
   340
1005
F6
1070
   140
1040
12.5
1070
   284
1070
     8
1070
   288
1070
     1
1070
    78
1070
     8
1002
}
  0
INSERT
  5
629
330
1F
100
AcDbEntity
  8
Layer0015
  6
Continuous
100
AcDbBlockReference
  2
DA_IMAGEDIMGROUP_2
 10
0.0
 20
0.0
 30
0.0
  0
INSERT
  5
62A
330
1F
100
AcDbEntity
  8
Layer0015
  6
Continuous
100
AcDbBlockReference
  2
DA_IMAGEDIMGROUP_3
 10
0.0
 20
0.0
 30
0.0
  0
INSERT
  5
62B
330
1F
100
AcDbEntity
  8
Layer0015
  6
Continuous
100
AcDbBlockReference
  2
DA_IMAGEDIMGROUP_4
 10
0.0
 20
0.0
 30
0.0
  0
DIMENSION
  5
62C
330
1F
100
AcDbEntity
  8
Layer0015
  6
Continuous
370
    13
100
AcDbDimension
  2
*D20
 10
-211.9673890898144
 20
-445.1907869983098
 30
0.0
 11
-371.9673890898156
 21
-445.1907869983098
 31
0.0
 70
    32
 71
     8
 42
-1.0
  3
DaDimRotatedStyle
100
AcDbAlignedDimension
 13
-531.9673890898168
 23
-408.6328844727792
 33
0.0
 14
-211.9673890898144
 24
-404.1328844727793
 34
0.0
100
AcDbRotatedDimension
1001
ACAD
1000
DSTYLE
1002
{
1070
   274
1070
     4
1070
    41
1040
7.499992178923005
1070
   289
1070
     0
1070
    79
1070
     2
1070
   343
1005
EC
1070
   344
1005
EC
1070
   176
1070
     2
1070
   177
1070
     2
1070
   178
1070
     2
1070
   271
1070
     3
1070
    44
1040
2.0
1070
    42
1040
2.5
1070
   147
1040
2.5
1070
   173
1070
     1
1070
    77
1070
     3
1070
    73
1070
     0
1070
   172
1070
     1
1070
    74
1070
     0
1070
   283
1070
     0
1070
   340
1005
F6
1070
   140
1040
10.0
1070
   284
1070
     8
1070
   288
1070
     1
1070
    78
1070
     8
1002
}
  0
DIMENSION
  5
62D
330
1F
100
AcDbEntity
  8
Layer0015
  6
Continuous
370
    13
100
AcDbDimension
  2
*D21
 10
-70.44999999999982
 20
17.33458012261652
 30
0.0
 11
-232.0999999999998
 21
17.33458012261652
 31
0.0
 70
    32
  1
0～320
 71
     8
 42
-1.0
  3
DaDimRotatedStyle
100
AcDbAlignedDimension
 13
-393.7499999999998
 23
-38.54793491864834
 33
0.0
 14
-70.44999999999982
 24
-38.84793491864829
 34
0.0
100
AcDbRotatedDimension
1001
ACAD
1000
DSTYLE
1002
{
1070
   274
1070
     4
1070
    41
1040
7.499992178923005
1070
   289
1070
     0
1070
    79
1070
     2
1070
   343
1005
EC
1070
   344
1005
EC
1070
   176
1070
     2
1070
   177
1070
     2
1070
   178
1070
     2
1070
   271
1070
     2
1070
    44
1040
2.0
1070
    42
1040
2.5
1070
   147
1040
2.5
1070
   173
1070
     1
1070
    77
1070
     3
1070
    73
1070
     0
1070
   172
1070
     1
1070
    74
1070
     0
1070
   283
1070
     0
1070
   340
1005
F6
1070
   140
1040
10.0
1070
   284
1070
     8
1070
   288
1070
     1
1070
    78
1070
     8
1002
}
  0
DIMENSION
  5
62E
330
1F
100
AcDbEntity
  8
Layer0015
  6
Continuous
370
    13
100
AcDbDimension
  2
*D22
 10
645.9588565774219
 20
-1.712073543409417
 30
0.0
 11
645.9588565774219
 21
-106.0300042310289
 31
0.0
 70
    32
  1
209
 71
     8
 42
-1.0
  3
DaDimRotatedStyle
100
AcDbAlignedDimension
 13
616.998917485848
 23
-210.3479349186483
 33
0.0
 14
599.2768960314265
 24
-1.712073543409417
 34
0.0
 50
90.0
100
AcDbRotatedDimension
1001
ACAD
1000
DSTYLE
1002
{
1070
   274
1070
     4
1070
    41
1040
7.499992178923005
1070
   289
1070
     0
1070
    79
1070
     2
1070
   343
1005
EC
1070
   344
1005
EC
1070
   176
1070
     2
1070
   177
1070
     2
1070
   178
1070
     2
1070
   271
1070
     2
1070
    44
1040
2.0
1070
    42
1040
2.5
1070
   147
1040
2.5
1070
   173
1070
     1
1070
    77
1070
     3
1070
    73
1070
     0
1070
   172
1070
     1
1070
    74
1070
     0
1070
   283
1070
     0
1070
   340
1005
F6
1070
   140
1040
12.5
1070
   284
1070
     8
1070
   288
1070
     1
1070
    78
1070
     8
1002
}
  0
DIMENSION
  5
62F
330
1F
100
AcDbEntity
  8
Layer0015
  6
Continuous
370
    13
100
AcDbDimension
  2
*D23
 10
520.4106840991183
 20
123.2879264565905
 30
0.0
 11
520.4106840991183
 21
-43.53000423102888
 31
0.0
 70
    32
  1
334
 71
     8
 42
-1.0
  3
DaDimRotatedStyle
100
AcDbAlignedDimension
 13
520.4106840991183
 23
-210.3479349186483
 33
0.0
 14
382.7705450853172
 24
123.2879264565905
 34
0.0
 50
90.0
100
AcDbRotatedDimension
1001
ACAD
1000
DSTYLE
1002
{
1070
   274
1070
     4
1070
    41
1040
7.499992178923005
1070
   289
1070
     0
1070
    79
1070
     2
1070
   343
1005
EC
1070
   344
1005
EC
1070
   176
1070
     2
1070
   177
1070
     2
1070
   178
1070
     2
1070
   271
1070
     2
1070
    44
1040
2.0
1070
    42
1040
2.5
1070
   147
1040
2.5
1070
   173
1070
     1
1070
    75
1070
     1
1070
    77
1070
     3
1070
    73
1070
     0
1070
   172
1070
     1
1070
    74
1070
     0
1070
   283
1070
     0
1070
   340
1005
F6
1070
   140
1040
12.5
1070
   284
1070
     8
1070
   288
1070
     1
1070
    78
1070
     8
1002
}
  0
DIMENSION
  5
630
330
1F
100
AcDbEntity
  8
Layer0015
  6
Continuous
370
    13
100
AcDbDimension
  2
*D24
 10
499.0220582327835
 20
-17.53833448023158
 30
0.0
 11
499.0220582327835
 21
-113.94313469944
 31
0.0
 70
    32
  1
193
 71
     8
 42
-1.0
  3
DaDimRotatedStyle
100
AcDbAlignedDimension
 13
499.0220582327835
 23
-210.3479349186483
 33
0.0
 14
446.9567332602602
 24
-17.53833448023158
 34
0.0
 50
90.0
100
AcDbRotatedDimension
1001
ACAD
1000
DSTYLE
1002
{
1070
   274
1070
     4
1070
    41
1040
7.499992178923005
1070
   289
1070
     0
1070
    79
1070
     2
1070
   343
1005
EC
1070
   344
1005
EC
1070
   176
1070
     2
1070
   177
1070
     2
1070
   178
1070
     2
1070
   271
1070
     2
1070
    44
1040
2.0
1070
    42
1040
2.5
1070
   147
1040
2.5
1070
   173
1070
     1
1070
    75
1070
     1
1070
    77
1070
     3
1070
    73
1070
     0
1070
   172
1070
     1
1070
    74
1070
     0
1070
   283
1070
     0
1070
   340
1005
F6
1070
   140
1040
12.5
1070
   284
1070
     8
1070
   288
1070
     1
1070
    78
1070
     8
1002
}
  0
INSERT
  5
631
330
1F
100
AcDbEntity
  8
Layer0015
  6
Continuous
100
AcDbBlockReference
  2
DC_GROUP_ACE200_1
 10
0.0
 20
0.0
 30
0.0
  0
INSERT
  5
632
330
1F
100
AcDbEntity
  8
Layer0015
  6
Continuous
100
AcDbBlockReference
  2
DC_GROUP_ACE200_2
 10
0.0
 20
0.0
 30
0.0
  0
INSERT
  5
633
330
1F
100
AcDbEntity
  8
Layer0004
  6
Continuous
100
AcDbBlockReference
  2
DC_GROUP_ACE200_3
 10
0.0
 20
0.0
 30
0.0
  0
INSERT
  5
634
330
1F
100
AcDbEntity
  8
Layer0004
  6
Continuous
100
AcDbBlockReference
  2
DC_GROUP_ACE200_4
 10
0.0
 20
0.0
 30
0.0
  0
INSERT
  5
635
330
1F
100
AcDbEntity
  8
Layer0004
  6
Continuous
100
AcDbBlockReference
  2
DC_GROUP_ACE200_5
 10
0.0
 20
0.0
 30
0.0
  0
INSERT
  5
636
330
1F
100
AcDbEntity
  8
Layer0004
  6
Continuous
100
AcDbBlockReference
  2
DC_GROUP_ACE200_6
 10
0.0
 20
0.0
 30
0.0
  0
INSERT
  5
637
330
1F
100
AcDbEntity
  8
Layer0004
  6
Continuous
100
AcDbBlockReference
  2
DC_GROUP_ACE200_7
 10
0.0
 20
0.0
 30
0.0
  0
INSERT
  5
638
330
1F
100
AcDbEntity
  8
Layer0004
  6
Continuous
100
AcDbBlockReference
  2
DC_GROUP_ACE200_8
 10
0.0
 20
0.0
 30
0.0
  0
INSERT
  5
639
330
1F
100
AcDbEntity
  8
Layer0004
  6
Continuous
100
AcDbBlockReference
  2
DC_GROUP_ACE200_9
 10
0.0
 20
0.0
 30
0.0
  0
INSERT
  5
63A
330
1F
100
AcDbEntity
  8
Layer0004
  6
Continuous
100
AcDbBlockReference
  2
DC_GROUP_ACE200_12
 10
0.0
 20
0.0
 30
0.0
  0
INSERT
  5
63B
330
1F
100
AcDbEntity
  8
Layer0004
  6
Continuous
100
AcDbBlockReference
  2
DC_GROUP_ACE200_13
 10
0.0
 20
0.0
 30
0.0
  0
INSERT
  5
63C
330
1F
100
AcDbEntity
  8
Layer0004
  6
Continuous
100
AcDbBlockReference
  2
DC_GROUP_ACE200_14
 10
0.0
 20
0.0
 30
0.0
  0
INSERT
  5
63D
330
1F
100
AcDbEntity
  8
Layer0014
  6
Continuous
100
AcDbBlockReference
  2
DC_GROUP_ACE200_10
 10
0.0
 20
0.0
 30
0.0
  0
INSERT
  5
63E
330
1F
100
AcDbEntity
  8
Layer0014
  6
Continuous
100
AcDbBlockReference
  2
DC_GROUP_ACE200_11
 10
0.0
 20
0.0
 30
0.0
  0
INSERT
  5
63F
330
1F
100
AcDbEntity
  8
Layer0014
  6
Continuous
100
AcDbBlockReference
  2
DC_GROUP_ACE200_15
 10
0.0
 20
0.0
 30
0.0
  0
VIEWPORT
  5
75
330
1B
100
AcDbEntity
 67
     1
  8
0
100
AcDbViewport
 10
35.69755395094751
 20
22.74774080656891
 30
0.0
 40
3673.567815758846
 41
2870.398835327524
 68
     1
 69
     1
 12
35.69755395094751
 22
22.74774080656891
 13
0.0
 23
0.0
 14
0.5
 24
0.5
 15
0.0
 25
0.0
 16
0.0
 26
0.0
 36
1.0
 17
0.0
 27
0.0
 37
0.0
 42
50.0
 43
0.0
 44
0.0
 45
2870.398835327524
 50
0.0
 51
0.0
 72
   100
 90
   557152
  1

281
     0
 71
     1
 74
     0
110
0.0
120
0.0
130
0.0
111
1.0
121
0.0
131
0.0
112
0.0
122
1.0
132
0.0
 79
     0
146
0.0
  0
ENDSEC
  0
SECTION
  2
OBJECTS
  0
DICTIONARY
  5
C
330
0
100
AcDbDictionary
281
     1
  3
ACAD_GROUP
350
D
  3
ACAD_LAYOUT
350
1A
  3
ACAD_MLEADERSTYLE
350
641
  3
ACAD_MLINESTYLE
350
17
  3
ACAD_PLOTSETTINGS
350
19
  3
ACAD_PLOTSTYLENAME
350
E
  3
ACAD_TABLESTYLE
350
640
  3
ACAD_VISUALSTYLE
350
2A
  0
DICTIONARY
  5
D
102
{ACAD_REACTORS
330
C
102
}
330
C
100
AcDbDictionary
281
     1
  0
DICTIONARY
  5
1A
102
{ACAD_REACTORS
330
C
102
}
330
C
100
AcDbDictionary
281
     1
  3
Layout1
350
1E
  3
Layout2
350
26
  3
Model
350
22
  0
DICTIONARY
  5
641
102
{ACAD_REACTORS
330
C
102
}
330
C
100
AcDbDictionary
281
     1
  0
DICTIONARY
  5
17
102
{ACAD_REACTORS
330
C
102
}
330
C
100
AcDbDictionary
281
     1
  3
Standard
350
18
  0
DICTIONARY
  5
19
102
{ACAD_REACTORS
330
C
102
}
330
C
100
AcDbDictionary
281
     1
  0
ACDBDICTIONARYWDFLT
  5
E
102
{ACAD_REACTORS
330
C
102
}
330
C
100
AcDbDictionary
281
     1
  3
Normal
350
F
100
AcDbDictionaryWithDefault
340
F
  0
DICTIONARY
  5
640
102
{ACAD_REACTORS
330
C
102
}
330
C
100
AcDbDictionary
281
     1
  0
DICTIONARY
  5
2A
102
{ACAD_REACTORS
330
C
102
}
330
C
100
AcDbDictionary
281
     1
  3
2dWireframe
350
2F
  3
3D Hidden
350
31
  3
3dWireframe
350
30
  3
Basic
350
32
  3
Brighten
350
36
  3
ColorChange
350
3A
  3
Conceptual
350
34
  3
Dim
350
35
  3
Facepattern
350
39
  3
Flat
350
2B
  3
FlatWithEdges
350
2C
  3
Gouraud
350
2D
  3
GouraudWithEdges
350
2E
  3
Linepattern
350
38
  3
Realistic
350
33
  3
Thicken
350
37
  0
LAYOUT
  5
1E
102
{ACAD_REACTORS
330
1A
102
}
330
1A
100
AcDbPlotSettings
  1

  2
none_device
  4

  6

 40
0.0
 41
0.0
 42
0.0
 43
0.0
 44
0.0
 45
0.0
 46
0.0
 47
0.0
 48
0.0
 49
0.0
140
0.0
141
0.0
142
1.0
143
1.0
 70
   688
 72
     0
 73
     0
 74
     5
  7

 75
    16
147
1.0
148
0.0
149
0.0
100
AcDbLayout
  1
Layout1
 70
     0
 71
     1
 10
0.0
 20
0.0
 11
12.0
 21
9.0
 12
0.0
 22
0.0
 32
0.0
 14
1.000000000000000E+20
 24
1.000000000000000E+20
 34
1.000000000000000E+20
 15
-1.000000000000000E+20
 25
-1.000000000000000E+20
 35
-1.000000000000000E+20
146
0.0
 13
0.0
 23
0.0
 33
0.0
 16
1.0
 26
0.0
 36
0.0
 17
0.0
 27
1.0
 37
0.0
 76
     0
330
1B
331
75
  0
LAYOUT
  5
26
102
{ACAD_REACTORS
330
1A
102
}
330
1A
100
AcDbPlotSettings
  1

  2
none_device
  4

  6

 40
0.0
 41
0.0
 42
0.0
 43
0.0
 44
0.0
 45
0.0
 46
0.0
 47
0.0
 48
0.0
 49
0.0
140
0.0
141
0.0
142
1.0
143
1.0
 70
   688
 72
     0
 73
     0
 74
     5
  7

 75
    16
147
1.0
148
0.0
149
0.0
100
AcDbLayout
  1
Layout2
 70
     1
 71
     2
 10
0.0
 20
0.0
 11
0.0
 21
0.0
 12
0.0
 22
0.0
 32
0.0
 14
0.0
 24
0.0
 34
0.0
 15
0.0
 25
0.0
 35
0.0
146
0.0
 13
0.0
 23
0.0
 33
0.0
 16
1.0
 26
0.0
 36
0.0
 17
0.0
 27
1.0
 37
0.0
 76
     0
330
23
  0
LAYOUT
  5
22
102
{ACAD_REACTORS
330
1A
102
}
330
1A
100
AcDbPlotSettings
  1

  2
none_device
  4

  6

 40
0.0
 41
0.0
 42
0.0
 43
0.0
 44
0.0
 45
0.0
 46
0.0
 47
0.0
 48
0.0
 49
0.0
140
0.0
141
0.0
142
1.0
143
1.0
 70
  1712
 72
     0
 73
     0
 74
     0
  7

 75
     0
147
1.0
148
0.0
149
0.0
100
AcDbLayout
  1
Model
 70
     1
 71
     0
 10
-696.25
 20
-508.75
 11
696.25
 21
508.75
 12
0.0
 22
0.0
 32
0.0
 14
-1801.086353928476
 24
-1412.451676857193
 34
0.0
 15
1872.481461830371
 25
1457.947158470331
 35
0.0
146
0.0
 13
0.0
 23
0.0
 33
0.0
 16
1.0
 26
0.0
 36
0.0
 17
0.0
 27
1.0
 37
0.0
 76
     0
330
1F
331
29
  0
MLINESTYLE
  5
18
102
{ACAD_REACTORS
330
17
102
}
330
17
100
AcDbMlineStyle
  2
Standard
 70
     0
  3

 62
   256
 51
90.0
 52
90.0
 71
     2
 49
0.5
 62
   256
  6
BYLAYER
 49
-0.5
 62
   256
  6
BYLAYER
  0
ACDBPLACEHOLDER
  5
F
102
{ACAD_REACTORS
330
E
102
}
330
E
  0
VISUALSTYLE
  5
2F
102
{ACAD_REACTORS
330
2A
102
}
330
2A
100
AcDbVisualStyle
  2
2dWireframe
 70
     4
 71
     0
 72
     2
 73
     0
 90
        0
 40
-0.6
 41
-30.0
 62
     5
 63
     7
 74
     1
 91
        4
 64
     7
 65
   257
 75
     1
175
     1
 42
1.0
 92
        0
 66
   257
 43
1.0
 76
     1
 77
     6
 78
     2
 67
     7
 79
     5
170
     0
171
     0
290
     0
174
     0
 93
        1
 44
0.0
173
     0
291
     0
 45
0.0
1001
ACAD
1000
AcDbSavedByObjectVersion
1070
     0
  0
VISUALSTYLE
  5
31
102
{ACAD_REACTORS
330
2A
102
}
330
2A
100
AcDbVisualStyle
  2
3D Hidden
 70
     6
 71
     1
 72
     2
 73
     2
 90
        0
 40
-0.6
 41
-30.0
 62
     5
 63
     7
 74
     2
 91
        2
 64
     7
 65
   257
 75
     2
175
     1
 42
40.0
 92
        0
 66
   257
 43
1.0
 76
     1
 77
     6
 78
     2
 67
     7
 79
     3
170
     0
171
     0
290
     0
174
     0
 93
        1
 44
0.0
173
     0
291
     0
 45
0.0
1001
ACAD
1000
AcDbSavedByObjectVersion
1070
     0
  0
VISUALSTYLE
  5
30
102
{ACAD_REACTORS
330
2A
102
}
330
2A
100
AcDbVisualStyle
  2
3dWireframe
 70
     5
 71
     0
 72
     2
 73
     0
 90
        0
 40
-0.6
 41
-30.0
 62
     5
 63
     7
 74
     1
 91
        4
 64
     7
 65
   257
 75
     1
175
     1
 42
1.0
 92
        0
 66
   257
 43
1.0
 76
     1
 77
     6
 78
     2
 67
     7
 79
     5
170
     0
171
     0
290
     0
174
     0
 93
        1
 44
0.0
173
     0
291
     0
 45
0.0
1001
ACAD
1000
AcDbSavedByObjectVersion
1070
     0
  0
VISUALSTYLE
  5
32
102
{ACAD_REACTORS
330
2A
102
}
330
2A
100
AcDbVisualStyle
  2
Basic
 70
     7
 71
     1
 72
     0
 73
     1
 90
        0
 40
-0.6
 41
-30.0
 62
     5
 63
     7
 74
     0
 91
        4
 64
     7
 65
   257
 75
     1
175
     1
 42
1.0
 92
        8
 66
     7
 43
1.0
 76
     1
 77
     6
 78
     2
 67
     7
 79
     5
170
     0
171
     0
290
     0
174
     0
 93
        1
 44
0.0
173
     0
291
     1
 45
0.0
1001
ACAD
1000
AcDbSavedByObjectVersion
1070
     0
  0
VISUALSTYLE
  5
36
102
{ACAD_REACTORS
330
2A
102
}
330
2A
100
AcDbVisualStyle
  2
Brighten
 70
    12
 71
     2
 72
     2
 73
     0
 90
        0
 40
-0.6
 41
-30.0
 62
     5
 63
     7
 74
     1
 91
        4
 64
     7
 65
   257
 75
     1
175
     1
 42
1.0
 92
        8
 66
     7
 43
1.0
 76
     1
 77
     6
 78
     2
 67
     7
 79
     5
170
     0
171
     0
290
     0
174
     0
 93
        1
 44
50.0
173
     0
291
     1
 45
0.0
1001
ACAD
1000
AcDbSavedByObjectVersion
1070
     0
  0
VISUALSTYLE
  5
3A
102
{ACAD_REACTORS
330
2A
102
}
330
2A
100
AcDbVisualStyle
  2
ColorChange
 70
    16
 71
     2
 72
     2
 73
     3
 90
        0
 40
-0.6
 41
-30.0
 62
     5
 63
     8
 74
     1
 91
        4
 64
     7
 65
   257
 75
     1
175
     1
 42
1.0
 92
        8
 66
     8
 43
1.0
 76
     1
 77
     6
 78
     2
 67
     7
 79
     5
170
     0
171
     0
290
     0
174
     0
 93
        1
 44
0.0
173
     0
291
     1
 45
0.0
1001
ACAD
1000
AcDbSavedByObjectVersion
1070
     0
  0
VISUALSTYLE
  5
34
102
{ACAD_REACTORS
330
2A
102
}
330
2A
100
AcDbVisualStyle
  2
Conceptual
 70
     9
 71
     3
 72
     2
 73
     0
 90
        0
 40
-0.6
 41
-30.0
 62
     5
 63
     7
 74
     2
 91
        2
 64
     7
 65
   257
 75
     1
175
     1
 42
40.0
 92
        8
 66
     7
 43
1.0
 76
     1
 77
     6
 78
     2
 67
     7
 79
     3
170
     0
171
     0
290
     0
174
     0
 93
        1
 44
0.0
173
     0
291
     0
 45
0.0
1001
ACAD
1000
AcDbSavedByObjectVersion
1070
     0
  0
VISUALSTYLE
  5
35
102
{ACAD_REACTORS
330
2A
102
}
330
2A
100
AcDbVisualStyle
  2
Dim
 70
    11
 71
     2
 72
     2
 73
     0
 90
        0
 40
-0.6
 41
-30.0
 62
     5
 63
     7
 74
     1
 91
        4
 64
     7
 65
   257
 75
     1
175
     1
 42
1.0
 92
        8
 66
     7
 43
1.0
 76
     1
 77
     6
 78
     2
 67
     7
 79
     5
170
     0
171
     0
290
     0
174
     0
 93
        1
 44
-50.0
173
     0
291
     1
 45
0.0
1001
ACAD
1000
AcDbSavedByObjectVersion
1070
     0
  0
VISUALSTYLE
  5
39
102
{ACAD_REACTORS
330
2A
102
}
330
2A
100
AcDbVisualStyle
  2
Facepattern
 70
    15
 71
     2
 72
     2
 73
     0
 90
        0
 40
-0.6
 41
-30.0
 62
     5
 63
     7
 74
     1
 91
        4
 64
     7
 65
   257
 75
     1
175
     1
 42
1.0
 92
        8
 66
     7
 43
1.0
 76
     1
 77
     6
 78
     2
 67
     7
 79
     5
170
     0
171
     0
290
     0
174
     0
 93
        1
 44
0.0
173
     0
291
     1
 45
0.0
1001
ACAD
1000
AcDbSavedByObjectVersion
1070
     0
  0
VISUALSTYLE
  5
2B
102
{ACAD_REACTORS
330
2A
102
}
330
2A
100
AcDbVisualStyle
  2
Flat
 70
     0
 71
     2
 72
     1
 73
     1
 90
        2
 40
-0.6
 41
30.0
 62
     5
 63
     7
 74
     0
 91
        4
 64
     7
 65
   257
 75
     1
175
     1
 42
1.0
 92
        8
 66
     7
 43
1.0
 76
     1
 77
     6
 78
     2
 67
     7
 79
     5
170
     0
171
     0
290
     0
174
     0
 93
       13
 44
0.0
173
     0
291
     1
 45
0.0
1001
ACAD
1000
AcDbSavedByObjectVersion
1070
     0
  0
VISUALSTYLE
  5
2C
102
{ACAD_REACTORS
330
2A
102
}
330
2A
100
AcDbVisualStyle
  2
FlatWithEdges
 70
     1
 71
     2
 72
     1
 73
     1
 90
        2
 40
-0.6
 41
30.0
 62
     5
 63
     7
 74
     1
 91
        4
 64
     7
 65
   257
 75
     1
175
     1
 42
1.0
 92
        0
 66
   257
 43
1.0
 76
     1
 77
     6
 78
     2
 67
     7
 79
     5
170
     0
171
     0
290
     0
174
     0
 93
       13
 44
0.0
173
     0
291
     1
 45
0.0
1001
ACAD
1000
AcDbSavedByObjectVersion
1070
     0
  0
VISUALSTYLE
  5
2D
102
{ACAD_REACTORS
330
2A
102
}
330
2A
100
AcDbVisualStyle
  2
Gouraud
 70
     2
 71
     2
 72
     2
 73
     1
 90
        2
 40
-0.6
 41
30.0
 62
     5
 63
     7
 74
     0
 91
        4
 64
     7
 65
   257
 75
     1
175
     1
 42
1.0
 92
        0
 66
     7
 43
1.0
 76
     1
 77
     6
 78
     2
 67
     7
 79
     5
170
     0
171
     0
290
     0
174
     0
 93
       13
 44
0.0
173
     0
291
     1
 45
0.0
1001
ACAD
1000
AcDbSavedByObjectVersion
1070
     0
  0
VISUALSTYLE
  5
2E
102
{ACAD_REACTORS
330
2A
102
}
330
2A
100
AcDbVisualStyle
  2
GouraudWithEdges
 70
     3
 71
     2
 72
     2
 73
     1
 90
        2
 40
-0.6
 41
30.0
 62
     5
 63
     7
 74
     1
 91
        4
 64
     7
 65
   257
 75
     1
175
     1
 42
1.0
 92
        0
 66
   257
 43
1.0
 76
     1
 77
     6
 78
     2
 67
     7
 79
     5
170
     0
171
     0
290
     0
174
     0
 93
       13
 44
0.0
173
     0
291
     1
 45
0.0
1001
ACAD
1000
AcDbSavedByObjectVersion
1070
     0
  0
VISUALSTYLE
  5
38
102
{ACAD_REACTORS
330
2A
102
}
330
2A
100
AcDbVisualStyle
  2
Linepattern
 70
    14
 71
     2
 72
     2
 73
     0
 90
        0
 40
-0.6
 41
-30.0
 62
     5
 63
     7
 74
     1
 91
        4
 64
     7
 65
   257
 75
     7
175
     7
 42
1.0
 92
        8
 66
     7
 43
1.0
 76
     1
 77
     6
 78
     2
 67
     7
 79
     5
170
     0
171
     0
290
     0
174
     0
 93
        1
 44
0.0
173
     0
291
     1
 45
0.0
1001
ACAD
1000
AcDbSavedByObjectVersion
1070
     0
  0
VISUALSTYLE
  5
33
102
{ACAD_REACTORS
330
2A
102
}
330
2A
100
AcDbVisualStyle
  2
Realistic
 70
     8
 71
     2
 72
     2
 73
     0
 90
        0
 40
-0.6
 41
-30.0
 62
     5
 63
     7
 74
     1
 91
        0
 64
     7
 65
   257
 75
     1
175
     1
 42
1.0
 92
        8
 66
     8
 43
1.0
 76
     1
 77
     6
 78
     2
 67
     7
 79
     5
170
     0
171
     0
290
     0
174
     0
 93
       13
 44
0.0
173
     0
291
     0
 45
0.0
1001
ACAD
1000
AcDbSavedByObjectVersion
1070
     0
  0
VISUALSTYLE
  5
37
102
{ACAD_REACTORS
330
2A
102
}
330
2A
100
AcDbVisualStyle
  2
Thicken
 70
    13
 71
     2
 72
     2
 73
     0
 90
        0
 40
-0.6
 41
-30.0
 62
     5
 63
     7
 74
     1
 91
        4
 64
     7
 65
   257
 75
     1
175
     1
 42
1.0
 92
       12
 66
     7
 43
1.0
 76
     1
 77
     6
 78
     2
 67
     7
 79
     5
170
     0
171
     0
290
     0
174
     0
 93
        1
 44
0.0
173
     0
291
     1
 45
0.0
1001
ACAD
1000
AcDbSavedByObjectVersion
1070
     0
  0
ENDSEC
  0
EOF
