  0
SECTION
  2
HEADER
  9
$ACADVER
  1
AC1015
  9
$ACADMAINTVER
 70
     6
  9
$DWGCODEPAGE
  3
ANSI_932
  9
$INSBASE
 10
0.0
 20
0.0
 30
0.0
  9
$EXTMIN
 10
-2194.422619408205
 20
-1357.864226782586
 30
0.0
  9
$EXTMAX
 10
2125.697145503114
 20
1442.346489041437
 30
0.0
  9
$LIMMIN
 10
-835.5
 20
-610.5
  9
$LIMMAX
 10
835.5
 20
610.5
  9
$ORTHOMODE
 70
     0
  9
$REGENMODE
 70
     1
  9
$FILLMODE
 70
     1
  9
$QTEXTMODE
 70
     0
  9
$MIRRTEXT
 70
     1
  9
$LTSCALE
 40
0.75
  9
$ATTMODE
 70
     1
  9
$TEXTSIZE
 40
0.2
  9
$TRACEWID
 40
0.05
  9
$TEXTSTYLE
  7
Standard
  9
$CLAYER
  8
0
  9
$CELTYPE
  6
ByLayer
  9
$CECOLOR
 62
   256
  9
$CELTSCALE
 40
1.0
  9
$DISPSILH
 70
     0
  9
$DIMSCALE
 40
1.0
  9
$DIMASZ
 40
7.5
  9
$DIMEXO
 40
0.0625
  9
$DIMDLI
 40
0.38
  9
$DIMRND
 40
0.0
  9
$DIMDLE
 40
0.0
  9
$DIMEXE
 40
0.18
  9
$DIMTP
 40
0.0
  9
$DIMTM
 40
0.0
  9
$DIMTXT
 40
0.18
  9
$DIMCEN
 40
0.09
  9
$DIMTSZ
 40
0.0
  9
$DIMTOL
 70
     0
  9
$DIMLIM
 70
     0
  9
$DIMTIH
 70
     1
  9
$DIMTOH
 70
     1
  9
$DIMSE1
 70
     0
  9
$DIMSE2
 70
     0
  9
$DIMTAD
 70
     3
  9
$DIMZIN
 70
     0
  9
$DIMBLK
  1

  9
$DIMASO
 70
     1
  9
$DIMSHO
 70
     1
  9
$DIMPOST
  1

  9
$DIMAPOST
  1

  9
$DIMALT
 70
     0
  9
$DIMALTD
 70
     2
  9
$DIMALTF
 40
25.4
  9
$DIMLFAC
 40
1.0
  9
$DIMTOFL
 70
     0
  9
$DIMTVP
 40
0.0
  9
$DIMTIX
 70
     0
  9
$DIMSOXD
 70
     0
  9
$DIMSAH
 70
     0
  9
$DIMBLK1
  1

  9
$DIMBLK2
  1

  9
$DIMSTYLE
  2
Standard
  9
$DIMCLRD
 70
     0
  9
$DIMCLRE
 70
     0
  9
$DIMCLRT
 70
     0
  9
$DIMTFAC
 40
1.0
  9
$DIMGAP
 40
0.09
  9
$DIMJUST
 70
     0
  9
$DIMSD1
 70
     0
  9
$DIMSD2
 70
     0
  9
$DIMTOLJ
 70
     1
  9
$DIMTZIN
 70
     0
  9
$DIMALTZ
 70
     0
  9
$DIMALTTZ
 70
     0
  9
$DIMUPT
 70
     0
  9
$DIMDEC
 70
     4
  9
$DIMTDEC
 70
     4
  9
$DIMALTU
 70
     2
  9
$DIMALTTD
 70
     2
  9
$DIMTXSTY
  7
Standard
  9
$DIMAUNIT
 70
     0
  9
$DIMADEC
 70
     0
  9
$DIMALTRND
 40
0.0
  9
$DIMAZIN
 70
     0
  9
$DIMDSEP
 70
    46
  9
$DIMATFIT
 70
     3
  9
$DIMFRAC
 70
     0
  9
$DIMLDRBLK
  1

  9
$DIMLUNIT
 70
     2
  9
$DIMLWD
 70
    -2
  9
$DIMLWE
 70
    -2
  9
$DIMTMOVE
 70
     0
  9
$LUNITS
 70
     2
  9
$LUPREC
 70
     4
  9
$SKETCHINC
 40
0.1
  9
$FILLETRAD
 40
0.5
  9
$AUNITS
 70
     0
  9
$AUPREC
 70
     0
  9
$MENU
  1
.
  9
$ELEVATION
 40
0.0
  9
$PELEVATION
 40
0.0
  9
$THICKNESS
 40
0.0
  9
$LIMCHECK
 70
     0
  9
$CHAMFERA
 40
0.5
  9
$CHAMFERB
 40
0.5
  9
$CHAMFERC
 40
1.0
  9
$CHAMFERD
 40
0.0
  9
$SKPOLY
 70
     0
  9
$TDCREATE
 40
2454973.737194363
  9
$TDUCREATE
 40
2454973.362194363
  9
$TDUPDATE
 40
2454973.737194375
  9
$TDUUPDATE
 40
2454973.362194375
  9
$TDINDWG
 40
0.0000000116
  9
$TDUSRTIMER
 40
0.0000000116
  9
$USRTIMER
 70
     1
  9
$ANGBASE
 50
0.0
  9
$ANGDIR
 70
     0
  9
$PDMODE
 70
     0
  9
$PDSIZE
 40
1.0
  9
$PLINEWID
 40
0.0
  9
$SPLFRAME
 70
     0
  9
$SPLINETYPE
 70
     6
  9
$SPLINESEGS
 70
     8
  9
$HANDSEED
  5
647
  9
$SURFTAB1
 70
     6
  9
$SURFTAB2
 70
     6
  9
$SURFTYPE
 70
     6
  9
$SURFU
 70
     6
  9
$SURFV
 70
     6
  9
$UCSBASE
  2

  9
$UCSNAME
  2

  9
$UCSORG
 10
0.0
 20
0.0
 30
0.0
  9
$UCSXDIR
 10
1.0
 20
0.0
 30
0.0
  9
$UCSYDIR
 10
0.0
 20
1.0
 30
0.0
  9
$UCSORTHOREF
  2

  9
$UCSORTHOVIEW
 70
     0
  9
$UCSORGTOP
 10
0.0
 20
0.0
 30
0.0
  9
$UCSORGBOTTOM
 10
0.0
 20
0.0
 30
0.0
  9
$UCSORGLEFT
 10
0.0
 20
0.0
 30
0.0
  9
$UCSORGRIGHT
 10
0.0
 20
0.0
 30
0.0
  9
$UCSORGFRONT
 10
0.0
 20
0.0
 30
0.0
  9
$UCSORGBACK
 10
0.0
 20
0.0
 30
0.0
  9
$PUCSBASE
  2

  9
$PUCSNAME
  2

  9
$PUCSORG
 10
0.0
 20
0.0
 30
0.0
  9
$PUCSXDIR
 10
1.0
 20
0.0
 30
0.0
  9
$PUCSYDIR
 10
0.0
 20
1.0
 30
0.0
  9
$PUCSORTHOREF
  2

  9
$PUCSORTHOVIEW
 70
     0
  9
$PUCSORGTOP
 10
0.0
 20
0.0
 30
0.0
  9
$PUCSORGBOTTOM
 10
0.0
 20
0.0
 30
0.0
  9
$PUCSORGLEFT
 10
0.0
 20
0.0
 30
0.0
  9
$PUCSORGRIGHT
 10
0.0
 20
0.0
 30
0.0
  9
$PUCSORGFRONT
 10
0.0
 20
0.0
 30
0.0
  9
$PUCSORGBACK
 10
0.0
 20
0.0
 30
0.0
  9
$USERI1
 70
     0
  9
$USERI2
 70
     0
  9
$USERI3
 70
     0
  9
$USERI4
 70
     0
  9
$USERI5
 70
     0
  9
$USERR1
 40
0.0
  9
$USERR2
 40
0.0
  9
$USERR3
 40
0.0
  9
$USERR4
 40
0.0
  9
$USERR5
 40
0.0
  9
$WORLDVIEW
 70
     1
  9
$SHADEDGE
 70
     3
  9
$SHADEDIF
 70
    70
  9
$TILEMODE
 70
     1
  9
$MAXACTVP
 70
    64
  9
$PINSBASE
 10
0.0
 20
0.0
 30
0.0
  9
$PLIMCHECK
 70
     0
  9
$PEXTMIN
 10
1.000000000000000E+20
 20
1.000000000000000E+20
 30
1.000000000000000E+20
  9
$PEXTMAX
 10
-1.000000000000000E+20
 20
-1.000000000000000E+20
 30
-1.000000000000000E+20
  9
$PLIMMIN
 10
0.0
 20
0.0
  9
$PLIMMAX
 10
12.0
 20
9.0
  9
$UNITMODE
 70
     0
  9
$VISRETAIN
 70
     0
  9
$PLINEGEN
 70
     1
  9
$PSLTSCALE
 70
     0
  9
$TREEDEPTH
 70
  3020
  9
$CMLSTYLE
  2
Standard
  9
$CMLJUST
 70
     0
  9
$CMLSCALE
 40
1.0
  9
$PROXYGRAPHICS
 70
     0
  9
$MEASUREMENT
 70
     1
  9
$CELWEIGHT
370
    -1
  9
$ENDCAPS
280
     0
  9
$JOINSTYLE
280
     0
  9
$LWDISPLAY
290
     1
  9
$INSUNITS
 70
     4
  9
$HYPERLINKBASE
  1

  9
$STYLESHEET
  1

  9
$XEDIT
290
     1
  9
$CEPSNTYPE
380
     0
  9
$PSTYLEMODE
290
     1
  9
$FINGERPRINTGUID
  2
{D6B8A62C-4321-4343-9199-8A7878CBB76F}
  9
$VERSIONGUID
  2
{FAEB1C32-E019-11D5-929B-00C0DF256EC4}
  9
$EXTNAMES
290
     1
  9
$PSVPSCALE
 40
0.0
  9
$OLESTARTUP
290
     0
  0
ENDSEC
  0
SECTION
  2
CLASSES
  0
CLASS
  1
ACDBDICTIONARYWDFLT
  2
AcDbDictionaryWithDefault
  3
ObjectDBX Classes
 90
        0
280
     0
281
     0
  0
CLASS
  1
VISUALSTYLE
  2
AcDbVisualStyle
  3
ObjectDBX Classes
 90
     4095
280
     0
281
     0
  0
CLASS
  1
ACDBPLACEHOLDER
  2
AcDbPlaceHolder
  3
ObjectDBX Classes
 90
        0
280
     0
281
     0
  0
CLASS
  1
LAYOUT
  2
AcDbLayout
  3
ObjectDBX Classes
 90
        0
280
     0
281
     0
  0
ENDSEC
  0
SECTION
  2
TABLES
  0
TABLE
  2
VPORT
  5
8
330
0
100
AcDbSymbolTable
 70
     1
  0
VPORT
  5
29
330
8
100
AcDbSymbolTableRecord
100
AcDbViewportTableRecord
  2
*Active
 70
     0
 10
0.0
 20
0.0
 11
1.0
 21
1.0
 12
0.0
 22
0.0
 13
0.0
 23
0.0
 14
0.5
 24
0.5
 15
0.5
 25
0.5
 16
0.0
 26
0.0
 36
1.0
 17
-34.36273695254545
 27
-16.02958103740804
 37
0.0
 40
1007.641264045998
 41
1.457702033928215
 42
50.0
 43
0.0
 44
0.0
 50
0.0
 51
0.0
 71
     0
 72
  1000
 73
     1
 74
     1
 75
     0
 76
     0
 77
     0
 78
     0
281
     0
 65
     1
110
0.0
120
0.0
130
0.0
111
1.0
121
0.0
131
0.0
112
0.0
122
1.0
132
0.0
 79
     0
146
0.0
  0
ENDTAB
  0
TABLE
  2
LTYPE
  5
5
330
0
100
AcDbSymbolTable
 70
    53
  0
LTYPE
  5
14
330
5
100
AcDbSymbolTableRecord
100
AcDbLinetypeTableRecord
  2
ByBlock
 70
     0
  3

 72
    65
 73
     0
 40
0.0
  0
LTYPE
  5
15
330
5
100
AcDbSymbolTableRecord
100
AcDbLinetypeTableRecord
  2
ByLayer
 70
     0
  3

 72
    65
 73
     0
 40
0.0
  0
LTYPE
  5
16
330
5
100
AcDbSymbolTableRecord
100
AcDbLinetypeTableRecord
  2
Continuous
 70
     0
  3
Solid line
 72
    65
 73
     0
 40
0.0
  0
LTYPE
  5
3C
330
5
100
AcDbSymbolTableRecord
100
AcDbLinetypeTableRecord
  2
HIDDENX2
 70
     0
  3
Hidden (2x) ____ ____ ____ ____ ____ ____ ____ 
 72
    65
 73
     2
 40
19.05
 49
12.7
 74
     0
 49
-6.35
 74
     0
  0
LTYPE
  5
3D
330
5
100
AcDbSymbolTableRecord
100
AcDbLinetypeTableRecord
  2
HIDDEN
 70
     0
  3
Hidden __ __ __ __ __ __ __ __ __ __ __ __ __ __
 72
    65
 73
     2
 40
9.524999999999999
 49
6.35
 74
     0
 49
-3.175
 74
     0
  0
LTYPE
  5
3E
330
5
100
AcDbSymbolTableRecord
100
AcDbLinetypeTableRecord
  2
HIDDEN2
 70
     0
  3
Hidden (.5x) _ _ _ _ _ _ _ _ _ _ _ _ _ _ _ _ _ 
 72
    65
 73
     2
 40
4.762499999999999
 49
3.175
 74
     0
 49
-1.5875
 74
     0
  0
LTYPE
  5
3F
330
5
100
AcDbSymbolTableRecord
100
AcDbLinetypeTableRecord
  2
DASHED
 70
     0
  3
Dashed __ __ __ __ __ __ __ __ __ __ __ __ __ _
 72
    65
 73
     2
 40
19.05
 49
12.7
 74
     0
 49
-6.35
 74
     0
  0
LTYPE
  5
40
330
5
100
AcDbSymbolTableRecord
100
AcDbLinetypeTableRecord
  2
DASHED2
 70
     0
  3
Dashed (.5x) _ _ _ _ _ _ _ _ _ _ _ _ _ _ _ _ _ 
 72
    65
 73
     2
 40
9.524999999999999
 49
6.35
 74
     0
 49
-3.175
 74
     0
  0
LTYPE
  5
41
330
5
100
AcDbSymbolTableRecord
100
AcDbLinetypeTableRecord
  2
DASHEDX2
 70
     0
  3
Dashed (2x) ____  ____  ____  ____  ____  ___
 72
    65
 73
     2
 40
38.09999999999999
 49
25.4
 74
     0
 49
-12.7
 74
     0
  0
LTYPE
  5
42
330
5
100
AcDbSymbolTableRecord
100
AcDbLinetypeTableRecord
  2
DOTX2
 70
     0
  3
Dot (2x) .  .  .  .  .  .  .  .  .  .  .  .  .  .
 72
    65
 73
     2
 40
12.7
 49
0.0
 74
     0
 49
-12.7
 74
     0
  0
LTYPE
  5
43
330
5
100
AcDbSymbolTableRecord
100
AcDbLinetypeTableRecord
  2
DOT
 70
     0
  3
Dot . . . . . . . . . . . . . . . . . . . . . . . .
 72
    65
 73
     2
 40
6.35
 49
0.0
 74
     0
 49
-6.35
 74
     0
  0
LTYPE
  5
44
330
5
100
AcDbSymbolTableRecord
100
AcDbLinetypeTableRecord
  2
DOT2
 70
     0
  3
Dot (.5x) ........................................
 72
    65
 73
     2
 40
3.175
 49
0.0
 74
     0
 49
-3.175
 74
     0
  0
LTYPE
  5
45
330
5
100
AcDbSymbolTableRecord
100
AcDbLinetypeTableRecord
  2
CENTERX2
 70
     0
  3
Center (2x) ________  __  ________  __  _____
 72
    65
 73
     4
 40
101.6
 49
63.5
 74
     0
 49
-12.7
 74
     0
 49
12.7
 74
     0
 49
-12.7
 74
     0
  0
LTYPE
  5
46
330
5
100
AcDbSymbolTableRecord
100
AcDbLinetypeTableRecord
  2
CENTER
 70
     0
  3
Center ____ _ ____ _ ____ _ ____ _ ____ _ ____
 72
    65
 73
     4
 40
50.8
 49
31.75
 74
     0
 49
-6.35
 74
     0
 49
6.35
 74
     0
 49
-6.35
 74
     0
  0
LTYPE
  5
47
330
5
100
AcDbSymbolTableRecord
100
AcDbLinetypeTableRecord
  2
CENTER2
 70
     0
  3
Center (.5x) ___ _ ___ _ ___ _ ___ _ ___ _ ___
 72
    65
 73
     4
 40
28.575
 49
19.05
 74
     0
 49
-3.175
 74
     0
 49
3.175
 74
     0
 49
-3.175
 74
     0
  0
LTYPE
  5
48
330
5
100
AcDbSymbolTableRecord
100
AcDbLinetypeTableRecord
  2
DASHDOTX2
 70
     0
  3
Dash dot (2x) ____  .  ____  .  ____  .  ___
 72
    65
 73
     4
 40
50.8
 49
25.4
 74
     0
 49
-12.7
 74
     0
 49
0.0
 74
     0
 49
-12.7
 74
     0
  0
LTYPE
  5
49
330
5
100
AcDbSymbolTableRecord
100
AcDbLinetypeTableRecord
  2
DASHDOT
 70
     0
  3
Dash dot __ . __ . __ . __ . __ . __ . __ . __
 72
    65
 73
     4
 40
25.4
 49
12.7
 74
     0
 49
-6.35
 74
     0
 49
0.0
 74
     0
 49
-6.35
 74
     0
  0
LTYPE
  5
4A
330
5
100
AcDbSymbolTableRecord
100
AcDbLinetypeTableRecord
  2
DASHDOT2
 70
     0
  3
Dash dot (.5x) _._._._._._._._._._._._._._._.
 72
    65
 73
     4
 40
12.7
 49
6.35
 74
     0
 49
-3.175
 74
     0
 49
0.0
 74
     0
 49
-3.175
 74
     0
  0
LTYPE
  5
4B
330
5
100
AcDbSymbolTableRecord
100
AcDbLinetypeTableRecord
  2
DIVIDEX2
 70
     0
  3
Divide (2x) ________  .  .  ________  .  .  _
 72
    65
 73
     6
 40
63.5
 49
25.4
 74
     0
 49
-12.7
 74
     0
 49
0.0
 74
     0
 49
-12.7
 74
     0
 49
0.0
 74
     0
 49
-12.7
 74
     0
  0
LTYPE
  5
4C
330
5
100
AcDbSymbolTableRecord
100
AcDbLinetypeTableRecord
  2
DIVIDE
 70
     0
  3
Divide ____ . . ____ . . ____ . . ____ . . ____
 72
    65
 73
     6
 40
31.75
 49
12.7
 74
     0
 49
-6.35
 74
     0
 49
0.0
 74
     0
 49
-6.35
 74
     0
 49
0.0
 74
     0
 49
-6.35
 74
     0
  0
LTYPE
  5
4D
330
5
100
AcDbSymbolTableRecord
100
AcDbLinetypeTableRecord
  2
DIVIDE2
 70
     0
  3
Divide (.5x) __..__..__..__..__..__..__..__.._
 72
    65
 73
     6
 40
15.875
 49
6.35
 74
     0
 49
-3.175
 74
     0
 49
0.0
 74
     0
 49
-3.175
 74
     0
 49
0.0
 74
     0
 49
-3.175
 74
     0
  0
LTYPE
  5
4E
330
5
100
AcDbSymbolTableRecord
100
AcDbLinetypeTableRecord
  2
BORDERX2
 70
     0
  3
Border (2x) ____  ____  .  ____  ____  .  ___
 72
    65
 73
     6
 40
88.89999999999999
 49
25.4
 74
     0
 49
-12.7
 74
     0
 49
25.4
 74
     0
 49
-12.7
 74
     0
 49
0.0
 74
     0
 49
-12.7
 74
     0
  0
LTYPE
  5
4F
330
5
100
AcDbSymbolTableRecord
100
AcDbLinetypeTableRecord
  2
BORDER
 70
     0
  3
Border __ __ . __ __ . __ __ . __ __ . __ __ .
 72
    65
 73
     6
 40
44.45
 49
12.7
 74
     0
 49
-6.35
 74
     0
 49
12.7
 74
     0
 49
-6.35
 74
     0
 49
0.0
 74
     0
 49
-6.35
 74
     0
  0
LTYPE
  5
50
330
5
100
AcDbSymbolTableRecord
100
AcDbLinetypeTableRecord
  2
BORDER2
 70
     0
  3
Border (.5x) __.__.__.__.__.__.__.__.__.__.__.
 72
    65
 73
     6
 40
22.225
 49
6.35
 74
     0
 49
-3.175
 74
     0
 49
6.35
 74
     0
 49
-3.175
 74
     0
 49
0.0
 74
     0
 49
-3.175
 74
     0
  0
LTYPE
  5
51
330
5
100
AcDbSymbolTableRecord
100
AcDbLinetypeTableRecord
  2
PHANTOMX2
 70
     0
  3
Phantom (2x) ____________    ____    ____   _
 72
    65
 73
     6
 40
127.0
 49
63.5
 74
     0
 49
-12.7
 74
     0
 49
12.7
 74
     0
 49
-12.7
 74
     0
 49
12.7
 74
     0
 49
-12.7
 74
     0
  0
LTYPE
  5
52
330
5
100
AcDbSymbolTableRecord
100
AcDbLinetypeTableRecord
  2
PHANTOM
 70
     0
  3
Phantom ______  __  __  ______  __  __  ______ 
 72
    65
 73
     6
 40
63.5
 49
31.75
 74
     0
 49
-6.35
 74
     0
 49
6.35
 74
     0
 49
-6.35
 74
     0
 49
6.35
 74
     0
 49
-6.35
 74
     0
  0
LTYPE
  5
53
330
5
100
AcDbSymbolTableRecord
100
AcDbLinetypeTableRecord
  2
PHANTOM2
 70
     0
  3
Phantom (.5x) ___ _ _ ___ _ _ ___ _ _ ___ _ _
 72
    65
 73
     6
 40
31.75
 49
15.875
 74
     0
 49
-3.175
 74
     0
 49
3.175
 74
     0
 49
-3.175
 74
     0
 49
3.175
 74
     0
 49
-3.175
 74
     0
  0
LTYPE
  5
54
330
5
100
AcDbSymbolTableRecord
100
AcDbLinetypeTableRecord
  2
ACAD_ISO06W100
 70
     0
  3
ISO long-dash triple-dot ____ ... ____ ... ____
 72
    65
 73
     8
 40
36.0
 49
24.0
 74
     0
 49
-3.0
 74
     0
 49
0.0
 74
     0
 49
-3.0
 74
     0
 49
0.0
 74
     0
 49
-3.0
 74
     0
 49
0.0
 74
     0
 49
-3.0
 74
     0
  0
LTYPE
  5
55
330
5
100
AcDbSymbolTableRecord
100
AcDbLinetypeTableRecord
  2
ACAD_ISO13W100
 70
     0
  3
ISO double-dash double-dot __ __ . . __ __ . . _
 72
    65
 73
     8
 40
36.0
 49
12.0
 74
     0
 49
-3.0
 74
     0
 49
12.0
 74
     0
 49
-3.0
 74
     0
 49
0.0
 74
     0
 49
-3.0
 74
     0
 49
0.0
 74
     0
 49
-3.0
 74
     0
  0
LTYPE
  5
56
330
5
100
AcDbSymbolTableRecord
100
AcDbLinetypeTableRecord
  2
ACAD_ISO14W100
 70
     0
  3
ISO dash triple-dot __ . . . __ . . . __ . . . _
 72
    65
 73
     8
 40
24.0
 49
12.0
 74
     0
 49
-3.0
 74
     0
 49
0.0
 74
     0
 49
-3.0
 74
     0
 49
0.0
 74
     0
 49
-3.0
 74
     0
 49
0.0
 74
     0
 49
-3.0
 74
     0
  0
LTYPE
  5
57
330
5
100
AcDbSymbolTableRecord
100
AcDbLinetypeTableRecord
  2
ACAD_ISO02W100
 70
     0
  3
ISO dash __ __ __ __ __ __ __ __ __ __ __ __ __
 72
    65
 73
     2
 40
15.0
 49
12.0
 74
     0
 49
-3.0
 74
     0
  0
LTYPE
  5
58
330
5
100
AcDbSymbolTableRecord
100
AcDbLinetypeTableRecord
  2
ACAD_ISO03W100
 70
     0
  3
ISO dash space __    __    __    __    __    __
 72
    65
 73
     2
 40
30.0
 49
12.0
 74
     0
 49
-18.0
 74
     0
  0
LTYPE
  5
59
330
5
100
AcDbSymbolTableRecord
100
AcDbLinetypeTableRecord
  2
ACAD_ISO04W100
 70
     0
  3
ISO long-dash dot ____ . ____ . ____ . ____ . _
 72
    65
 73
     4
 40
30.0
 49
24.0
 74
     0
 49
-3.0
 74
     0
 49
0.0
 74
     0
 49
-3.0
 74
     0
  0
LTYPE
  5
5A
330
5
100
AcDbSymbolTableRecord
100
AcDbLinetypeTableRecord
  2
ACAD_ISO05W100
 70
     0
  3
ISO long-dash double-dot ____ .. ____ .. ____ . 
 72
    65
 73
     6
 40
33.0
 49
24.0
 74
     0
 49
-3.0
 74
     0
 49
0.0
 74
     0
 49
-3.0
 74
     0
 49
0.0
 74
     0
 49
-3.0
 74
     0
  0
LTYPE
  5
5B
330
5
100
AcDbSymbolTableRecord
100
AcDbLinetypeTableRecord
  2
ACAD_ISO07W100
 70
     0
  3
ISO dot . . . . . . . . . . . . . . . . . . . . 
 72
    65
 73
     2
 40
3.0
 49
0.0
 74
     0
 49
-3.0
 74
     0
  0
LTYPE
  5
5C
330
5
100
AcDbSymbolTableRecord
100
AcDbLinetypeTableRecord
  2
ACAD_ISO08W100
 70
     0
  3
ISO long-dash short-dash ____ __ ____ __ ____ _
 72
    65
 73
     4
 40
36.0
 49
24.0
 74
     0
 49
-3.0
 74
     0
 49
6.0
 74
     0
 49
-3.0
 74
     0
  0
LTYPE
  5
5D
330
5
100
AcDbSymbolTableRecord
100
AcDbLinetypeTableRecord
  2
ACAD_ISO09W100
 70
     0
  3
ISO long-dash double-short-dash ____ __ __ ____
 72
    65
 73
     6
 40
45.0
 49
24.0
 74
     0
 49
-3.0
 74
     0
 49
6.0
 74
     0
 49
-3.0
 74
     0
 49
6.0
 74
     0
 49
-3.0
 74
     0
  0
LTYPE
  5
5E
330
5
100
AcDbSymbolTableRecord
100
AcDbLinetypeTableRecord
  2
ACAD_ISO10W100
 70
     0
  3
ISO dash dot __ . __ . __ . __ . __ . __ . __ . 
 72
    65
 73
     4
 40
18.0
 49
12.0
 74
     0
 49
-3.0
 74
     0
 49
0.0
 74
     0
 49
-3.0
 74
     0
  0
LTYPE
  5
5F
330
5
100
AcDbSymbolTableRecord
100
AcDbLinetypeTableRecord
  2
ACAD_ISO11W100
 70
     0
  3
ISO double-dash dot __ __ . __ __ . __ __ . __ _
 72
    65
 73
     6
 40
33.0
 49
12.0
 74
     0
 49
-3.0
 74
     0
 49
12.0
 74
     0
 49
-3.0
 74
     0
 49
0.0
 74
     0
 49
-3.0
 74
     0
  0
LTYPE
  5
60
330
5
100
AcDbSymbolTableRecord
100
AcDbLinetypeTableRecord
  2
ACAD_ISO12W100
 70
     0
  3
ISO dash double-dot __ . . __ . . __ . . __ . . 
 72
    65
 73
     6
 40
21.0
 49
12.0
 74
     0
 49
-3.0
 74
     0
 49
0.0
 74
     0
 49
-3.0
 74
     0
 49
0.0
 74
     0
 49
-3.0
 74
     0
  0
LTYPE
  5
61
330
5
100
AcDbSymbolTableRecord
100
AcDbLinetypeTableRecord
  2
ACAD_ISO15W100
 70
     0
  3
ISO double-dash triple-dot __ __ . . . __ __ . .
 72
    65
 73
    10
 40
39.0
 49
12.0
 74
     0
 49
-3.0
 74
     0
 49
12.0
 74
     0
 49
-3.0
 74
     0
 49
0.0
 74
     0
 49
-3.0
 74
     0
 49
0.0
 74
     0
 49
-3.0
 74
     0
 49
0.0
 74
     0
 49
-3.0
 74
     0
  0
LTYPE
  5
62
330
5
100
AcDbSymbolTableRecord
100
AcDbLinetypeTableRecord
  2
JIS_02_0.7
 70
     0
  3
HIDDEN0.75 _ _ _ _ _ _ _ _ _ _ _ _ _ _ _ _ _ 
 72
    65
 73
     2
 40
1.35
 49
0.75
 74
     0
 49
-0.6
 74
     0
  0
LTYPE
  5
63
330
5
100
AcDbSymbolTableRecord
100
AcDbLinetypeTableRecord
  2
JIS_02_1.0
 70
     0
  3
HIDDEN01 _ _ _ _ _ _ _ _ _ _ _ _ _ _ _ _ _ 
 72
    65
 73
     2
 40
2.0
 49
1.0
 74
     0
 49
-1.0
 74
     0
  0
LTYPE
  5
64
330
5
100
AcDbSymbolTableRecord
100
AcDbLinetypeTableRecord
  2
JIS_02_1.2
 70
     0
  3
HIDDEN01.25  _ _ _ _ _ _ _ _ _ _ _ _ _ _ _ _ _ 
 72
    65
 73
     2
 40
2.5
 49
1.25
 74
     0
 49
-1.25
 74
     0
  0
LTYPE
  5
65
330
5
100
AcDbSymbolTableRecord
100
AcDbLinetypeTableRecord
  2
JIS_02_2.0
 70
     0
  3
HIDDEN02 __ __ __ __ __ __ __ __ __ __ __ 
 72
    65
 73
     2
 40
3.0
 49
2.0
 74
     0
 49
-1.0
 74
     0
  0
LTYPE
  5
66
330
5
100
AcDbSymbolTableRecord
100
AcDbLinetypeTableRecord
  2
JIS_02_4.0
 70
     0
  3
HIDDEN04 ____ ____ ____ ____ ____ ____ ____ 
 72
    65
 73
     2
 40
5.5
 49
4.0
 74
     0
 49
-1.5
 74
     0
  0
LTYPE
  5
67
330
5
100
AcDbSymbolTableRecord
100
AcDbLinetypeTableRecord
  2
JIS_08_11
 70
     0
  3
1SASEN11 ___ _ ___ _ ___ _ ___ _ ___ _ ___
 72
    65
 73
     4
 40
12.8
 49
11.0
 74
     0
 49
-0.6
 74
     0
 49
0.6
 74
     0
 49
-0.6
 74
     0
  0
LTYPE
  5
68
330
5
100
AcDbSymbolTableRecord
100
AcDbLinetypeTableRecord
  2
JIS_08_15
 70
     0
  3
1SASEN15 ____ _ ____ _ ____ _ ____ _ ____ 
 72
    65
 73
     4
 40
17.25
 49
15.0
 74
     0
 49
-0.75
 74
     0
 49
0.75
 74
     0
 49
-0.75
 74
     0
  0
LTYPE
  5
69
330
5
100
AcDbSymbolTableRecord
100
AcDbLinetypeTableRecord
  2
JIS_08_25
 70
     0
  3
1SASEN25 ________  __  ________  __  _____
 72
    65
 73
     4
 40
28.0
 49
25.0
 74
     0
 49
-1.125
 74
     0
 49
0.75
 74
     0
 49
-1.125
 74
     0
  0
LTYPE
  5
6A
330
5
100
AcDbSymbolTableRecord
100
AcDbLinetypeTableRecord
  2
JIS_08_37
 70
     0
  3
1SASEN37 ________  __  ________  __  _____
 72
    65
 73
     4
 40
40.5
 49
37.5
 74
     0
 49
-1.125
 74
     0
 49
0.75
 74
     0
 49
-1.125
 74
     0
  0
LTYPE
  5
6B
330
5
100
AcDbSymbolTableRecord
100
AcDbLinetypeTableRecord
  2
JIS_08_50
 70
     0
  3
1SASEN50 _______________  __  ____________
 72
    65
 73
     4
 40
53.0
 49
50.0
 74
     0
 49
-1.125
 74
     0
 49
0.75
 74
     0
 49
-1.125
 74
     0
  0
LTYPE
  5
6C
330
5
100
AcDbSymbolTableRecord
100
AcDbLinetypeTableRecord
  2
JIS_09_08
 70
     0
  3
2SASEN8 __ _ _ __ _ _ __ _ _ __ _ _ __ _ _ 
 72
    65
 73
     6
 40
10.75
 49
8.0
 74
     0
 49
-0.55
 74
     0
 49
0.55
 74
     0
 49
-0.55
 74
     0
 49
0.55
 74
     0
 49
-0.55
 74
     0
  0
LTYPE
  5
6D
330
5
100
AcDbSymbolTableRecord
100
AcDbLinetypeTableRecord
  2
JIS_09_15
 70
     0
  3
2SASEN15 ___ _ _ ___ _ _ ___ _ _ ___ _ _ ___ 
 72
    65
 73
     6
 40
18.9
 49
15.0
 74
     0
 49
-0.9
 74
     0
 49
0.6
 74
     0
 49
-0.9
 74
     0
 49
0.6
 74
     0
 49
-0.9
 74
     0
  0
LTYPE
  5
6E
330
5
100
AcDbSymbolTableRecord
100
AcDbLinetypeTableRecord
  2
JIS_09_29
 70
     0
  3
2SASEN29 ______　__  __  ______　__  __  ___
 72
    65
 73
     6
 40
34.0
 49
29.0
 74
     0
 49
-1.2
 74
     0
 49
0.7
 74
     0
 49
-1.2
 74
     0
 49
0.7
 74
     0
 49
-1.2
 74
     0
  0
LTYPE
  5
6F
330
5
100
AcDbSymbolTableRecord
100
AcDbLinetypeTableRecord
  2
JIS_09_50
 70
     0
  3
2SASEN50 ____________　__  __  _____________
 72
    65
 73
     6
 40
55.0
 49
50.0
 74
     0
 49
-1.2
 74
     0
 49
0.7
 74
     0
 49
-1.2
 74
     0
 49
0.7
 74
     0
 49
-1.2
 74
     0
  0
ENDTAB
  0
TABLE
  2
LAYER
  5
2
330
0
100
AcDbSymbolTable
 70
     6
  0
LAYER
  5
10
330
2
100
AcDbSymbolTableRecord
100
AcDbLayerTableRecord
  2
0
 70
     0
 62
     7
  6
Continuous
370
    -3
390
F
  0
LAYER
  5
70
330
2
100
AcDbSymbolTableRecord
100
AcDbLayerTableRecord
  2
Layer0000
 70
     0
 62
     7
  6
Continuous
370
    -3
390
F
  0
LAYER
  5
71
330
2
100
AcDbSymbolTableRecord
100
AcDbLayerTableRecord
  2
Layer0001
 70
     0
 62
     7
  6
Continuous
370
    -3
390
F
  0
LAYER
  5
72
330
2
100
AcDbSymbolTableRecord
100
AcDbLayerTableRecord
  2
Layer0004
 70
     0
 62
     7
  6
Continuous
370
    -3
390
F
  0
LAYER
  5
73
330
2
100
AcDbSymbolTableRecord
100
AcDbLayerTableRecord
  2
Layer0014
 70
     0
 62
     7
  6
Continuous
370
    -3
390
F
  0
LAYER
  5
74
330
2
100
AcDbSymbolTableRecord
100
AcDbLayerTableRecord
  2
Layer0015
 70
     0
 62
     7
  6
Continuous
370
    -3
390
F
  0
ENDTAB
  0
TABLE
  2
STYLE
  5
3
330
0
100
AcDbSymbolTable
 70
     2
  0
STYLE
  5
11
330
3
100
AcDbSymbolTableRecord
100
AcDbTextStyleTableRecord
  2
Standard
 70
     0
 40
0.0
 41
1.0
 50
0.0
 71
     0
 42
0.2
  3
txt
  4

  0
STYLE
  5
E1
330
3
100
AcDbSymbolTableRecord
100
AcDbTextStyleTableRecord
  2
dcStyle0
 70
     0
 40
0.0
 41
0.8000000000000019
 50
0.0
 71
     0
 42
0.2
  3
txt.shx
  4
bigfont
  0
ENDTAB
  0
TABLE
  2
VIEW
  5
6
330
0
100
AcDbSymbolTable
 70
     0
  0
ENDTAB
  0
TABLE
  2
UCS
  5
7
330
0
100
AcDbSymbolTable
 70
     0
  0
ENDTAB
  0
TABLE
  2
APPID
  5
9
330
0
100
AcDbSymbolTable
 70
     2
  0
APPID
  5
12
330
9
100
AcDbSymbolTableRecord
100
AcDbRegAppTableRecord
  2
ACAD
 70
     0
  0
APPID
  5
3B
330
9
100
AcDbSymbolTableRecord
100
AcDbRegAppTableRecord
  2
DaFusionOut
 70
     0
  0
ENDTAB
  0
TABLE
  2
DIMSTYLE
  5
A
330
0
100
AcDbSymbolTable
 70
     2
100
AcDbDimStyleTable
  0
DIMSTYLE
105
27
330
A
100
AcDbSymbolTableRecord
100
AcDbDimStyleTableRecord
  2
Standard
 70
     0
340
11
  0
DIMSTYLE
105
625
102
{ACAD_REACTORS
330
624
330
626
330
627
330
628
330
629
330
62A
330
62B
330
62C
330
62F
330
630
330
632
330
634
330
635
330
636
102
}
330
A
100
AcDbSymbolTableRecord
100
AcDbDimStyleTableRecord
  2
DaDimRotatedStyle
 70
     0
 41
8.999990614707606
 42
3.0
 44
2.0
 73
     0
 74
     0
 77
     3
 78
     8
 79
     2
140
12.0
147
2.5
172
     1
173
     1
176
     2
177
     2
178
     2
271
     3
274
     4
283
     0
284
     8
288
     1
289
     0
340
E1
343
D7
344
D7
  0
ENDTAB
  0
TABLE
  2
BLOCK_RECORD
  5
1
330
0
100
AcDbSymbolTable
 70
    34
  0
BLOCK_RECORD
  5
1F
330
1
100
AcDbSymbolTableRecord
100
AcDbBlockTableRecord
  2
*Model_Space
340
22
  0
BLOCK_RECORD
  5
1B
330
1
100
AcDbSymbolTableRecord
100
AcDbBlockTableRecord
  2
*Paper_Space
340
1E
  0
BLOCK_RECORD
  5
23
330
1
100
AcDbSymbolTableRecord
100
AcDbBlockTableRecord
  2
*Paper_Space0
340
26
  0
BLOCK_RECORD
  5
76
330
1
100
AcDbSymbolTableRecord
100
AcDbBlockTableRecord
  2
*D1
340
0
  0
BLOCK_RECORD
  5
79
330
1
100
AcDbSymbolTableRecord
100
AcDbBlockTableRecord
  2
*D2
340
0
  0
BLOCK_RECORD
  5
7C
330
1
100
AcDbSymbolTableRecord
100
AcDbBlockTableRecord
  2
*D3
340
0
  0
BLOCK_RECORD
  5
7F
330
1
100
AcDbSymbolTableRecord
100
AcDbBlockTableRecord
  2
*D4
340
0
  0
BLOCK_RECORD
  5
82
330
1
100
AcDbSymbolTableRecord
100
AcDbBlockTableRecord
  2
*D5
340
0
  0
BLOCK_RECORD
  5
85
330
1
100
AcDbSymbolTableRecord
100
AcDbBlockTableRecord
  2
*D6
340
0
  0
BLOCK_RECORD
  5
88
330
1
100
AcDbSymbolTableRecord
100
AcDbBlockTableRecord
  2
*D7
340
0
  0
BLOCK_RECORD
  5
8B
330
1
100
AcDbSymbolTableRecord
100
AcDbBlockTableRecord
  2
*D8
340
0
  0
BLOCK_RECORD
  5
8E
330
1
100
AcDbSymbolTableRecord
100
AcDbBlockTableRecord
  2
DA_IMAGEDIMGROUP_1
340
0
102
{BLKREFS
331
62D
102
}
  0
BLOCK_RECORD
  5
91
330
1
100
AcDbSymbolTableRecord
100
AcDbBlockTableRecord
  2
DA_IMAGEDIMGROUP_2
340
0
102
{BLKREFS
331
62E
102
}
  0
BLOCK_RECORD
  5
94
330
1
100
AcDbSymbolTableRecord
100
AcDbBlockTableRecord
  2
*D11
340
0
  0
BLOCK_RECORD
  5
97
330
1
100
AcDbSymbolTableRecord
100
AcDbBlockTableRecord
  2
*D12
340
0
  0
BLOCK_RECORD
  5
9A
330
1
100
AcDbSymbolTableRecord
100
AcDbBlockTableRecord
  2
DA_IMAGEDIMGROUP_3
340
0
102
{BLKREFS
331
631
102
}
  0
BLOCK_RECORD
  5
9D
330
1
100
AcDbSymbolTableRecord
100
AcDbBlockTableRecord
  2
*D14
340
0
  0
BLOCK_RECORD
  5
A0
330
1
100
AcDbSymbolTableRecord
100
AcDbBlockTableRecord
  2
DC_GROUP_ACE200L_1
340
0
102
{BLKREFS
331
633
102
}
  0
BLOCK_RECORD
  5
A3
330
1
100
AcDbSymbolTableRecord
100
AcDbBlockTableRecord
  2
*D16
340
0
  0
BLOCK_RECORD
  5
A6
330
1
100
AcDbSymbolTableRecord
100
AcDbBlockTableRecord
  2
*D17
340
0
  0
BLOCK_RECORD
  5
A9
330
1
100
AcDbSymbolTableRecord
100
AcDbBlockTableRecord
  2
*D18
340
0
  0
BLOCK_RECORD
  5
AC
330
1
100
AcDbSymbolTableRecord
100
AcDbBlockTableRecord
  2
DC_GROUP_ACE200L_2
340
0
102
{BLKREFS
331
637
102
}
  0
BLOCK_RECORD
  5
AF
330
1
100
AcDbSymbolTableRecord
100
AcDbBlockTableRecord
  2
DC_GROUP_ACE200L_3
340
0
102
{BLKREFS
331
638
102
}
  0
BLOCK_RECORD
  5
B2
330
1
100
AcDbSymbolTableRecord
100
AcDbBlockTableRecord
  2
DC_GROUP_ACE200L_4
340
0
102
{BLKREFS
331
639
102
}
  0
BLOCK_RECORD
  5
B5
330
1
100
AcDbSymbolTableRecord
100
AcDbBlockTableRecord
  2
DC_GROUP_ACE200L_5
340
0
102
{BLKREFS
331
63A
102
}
  0
BLOCK_RECORD
  5
B8
330
1
100
AcDbSymbolTableRecord
100
AcDbBlockTableRecord
  2
DC_GROUP_ACE200L_6
340
0
102
{BLKREFS
331
63B
102
}
  0
BLOCK_RECORD
  5
BB
330
1
100
AcDbSymbolTableRecord
100
AcDbBlockTableRecord
  2
DC_GROUP_ACE200L_7
340
0
102
{BLKREFS
331
63C
102
}
  0
BLOCK_RECORD
  5
BE
330
1
100
AcDbSymbolTableRecord
100
AcDbBlockTableRecord
  2
DC_GROUP_ACE200L_8
340
0
102
{BLKREFS
331
63D
102
}
  0
BLOCK_RECORD
  5
C1
330
1
100
AcDbSymbolTableRecord
100
AcDbBlockTableRecord
  2
DC_GROUP_ACE200L_9
340
0
102
{BLKREFS
331
63E
102
}
  0
BLOCK_RECORD
  5
C4
330
1
100
AcDbSymbolTableRecord
100
AcDbBlockTableRecord
  2
DC_GROUP_ACE200L_10
340
0
102
{BLKREFS
331
642
102
}
  0
BLOCK_RECORD
  5
C7
330
1
100
AcDbSymbolTableRecord
100
AcDbBlockTableRecord
  2
DC_GROUP_ACE200L_11
340
0
102
{BLKREFS
331
643
102
}
  0
BLOCK_RECORD
  5
CA
330
1
100
AcDbSymbolTableRecord
100
AcDbBlockTableRecord
  2
DC_GROUP_ACE200L_12
340
0
102
{BLKREFS
331
644
102
}
  0
BLOCK_RECORD
  5
CD
330
1
100
AcDbSymbolTableRecord
100
AcDbBlockTableRecord
  2
DC_GROUP_ACE200L_13
340
0
102
{BLKREFS
331
63F
102
}
  0
BLOCK_RECORD
  5
D0
330
1
100
AcDbSymbolTableRecord
100
AcDbBlockTableRecord
  2
DC_GROUP_ACE200L_14
340
0
102
{BLKREFS
331
640
102
}
  0
BLOCK_RECORD
  5
D3
330
1
100
AcDbSymbolTableRecord
100
AcDbBlockTableRecord
  2
DC_GROUP_ACE200L_15
340
0
102
{BLKREFS
331
641
102
}
  0
BLOCK_RECORD
  5
D7
330
1
100
AcDbSymbolTableRecord
100
AcDbBlockTableRecord
  2
_OPEN30
340
0
102
{BLKREFS
331
DD
331
DE
331
E4
331
E5
331
EA
331
EB
331
F0
331
F1
331
F6
331
F7
331
FC
331
FD
331
102
331
103
331
108
331
109
331
111
331
113
331
119
331
11B
331
11E
331
11F
331
124
331
125
331
12D
331
12F
331
132
331
133
331
139
331
13C
331
13D
331
142
331
143
331
147
331
148
331
14D
331
15B
331
15F
331
163
331
53E
331
53F
331
541
331
542
331
544
331
545
331
547
331
548
331
54A
331
54B
331
54D
331
54E
331
550
331
551
331
553
331
554
331
556
331
557
331
559
331
55A
331
55C
331
55D
331
55F
331
560
331
562
331
563
331
57A
331
57C
331
57E
102
}
  0
ENDTAB
  0
ENDSEC
  0
SECTION
  2
BLOCKS
  0
BLOCK
  5
20
330
1F
100
AcDbEntity
  8
0
100
AcDbBlockBegin
  2
*Model_Space
 70
     0
 10
0.0
 20
0.0
 30
0.0
  3
*Model_Space
  1

  0
ENDBLK
  5
21
330
1F
100
AcDbEntity
  8
0
100
AcDbBlockEnd
  0
BLOCK
  5
1C
330
1B
100
AcDbEntity
 67
     1
  8
0
100
AcDbBlockBegin
  2
*Paper_Space
 70
     0
 10
0.0
 20
0.0
 30
0.0
  3
*Paper_Space
  1

  0
ENDBLK
  5
1D
330
1B
100
AcDbEntity
 67
     1
  8
0
100
AcDbBlockEnd
  0
BLOCK
  5
24
330
23
100
AcDbEntity
  8
0
100
AcDbBlockBegin
  2
*Paper_Space0
 70
     0
 10
0.0
 20
0.0
 30
0.0
  3
*Paper_Space0
  1

  0
ENDBLK
  5
25
330
23
100
AcDbEntity
  8
0
100
AcDbBlockEnd
  0
BLOCK
  5
77
330
76
100
AcDbEntity
  8
0
100
AcDbBlockBegin
  2
*D1
 70
     1
 10
0.0
 20
0.0
 30
0.0
  3
*D1
  1

  0
LINE
  5
D6
330
76
100
AcDbEntity
  8
Layer0015
  6
Continuous
 62
     2
370
    13
100
AcDbLine
 10
-572.3826977710986
 20
-34.67869236787021
 30
0.0
 11
-552.3826977710986
 21
-34.67869236787021
 31
0.0
  0
INSERT
  5
DD
330
76
100
AcDbEntity
  8
Layer0015
 62
     2
100
AcDbBlockReference
  2
_OPEN30
 10
-572.3826977710986
 20
-34.67869236787021
 30
0.0
 41
9.175922197305043
 42
6.038325706448341
 50
180.0
  0
INSERT
  5
DE
330
76
100
AcDbEntity
  8
Layer0015
 62
     2
100
AcDbBlockReference
  2
_OPEN30
 10
-552.3826977710986
 20
-34.67869236787021
 30
0.0
 41
9.175922197305043
 42
6.038325706448341
 50
360.0
  0
LINE
  5
DF
330
76
100
AcDbEntity
  8
Layer0015
  6
Continuous
 62
     2
370
    13
100
AcDbLine
 10
-572.3826977710986
 20
-67.57518785344422
 30
0.0
 11
-572.3826977710986
 21
-32.67869236787021
 31
0.0
  0
LINE
  5
E0
330
76
100
AcDbEntity
  8
Layer0015
  6
Continuous
 62
     2
370
    13
100
AcDbLine
 10
-552.3826977710986
 20
-66.77518785344427
 30
0.0
 11
-552.3826977710986
 21
-32.67869236787021
 31
0.0
  0
MTEXT
  5
E2
330
76
100
AcDbEntity
  8
Layer0015
 62
     2
100
AcDbMText
 10
-562.3826977710986
 20
-32.17869236787021
 30
0.0
 40
12.0
 41
39.00000000000006
 71
     8
 72
     1
  1
\T1.00;20
  7
dcStyle0
 73
     1
 44
1.0
  0
ENDBLK
  5
78
330
76
100
AcDbEntity
  8
0
100
AcDbBlockEnd
  0
BLOCK
  5
7A
330
79
100
AcDbEntity
  8
0
100
AcDbBlockBegin
  2
*D2
 70
     1
 10
0.0
 20
0.0
 30
0.0
  3
*D2
  1

  0
LINE
  5
E3
330
79
100
AcDbEntity
  8
Layer0015
  6
Continuous
 62
     2
370
    13
100
AcDbLine
 10
-677.3826977710987
 20
9.812693865065512
 30
0.0
 11
-552.3826977710986
 21
9.812693865065512
 31
0.0
  0
INSERT
  5
E4
330
79
100
AcDbEntity
  8
Layer0015
 62
     2
100
AcDbBlockReference
  2
_OPEN30
 10
-677.3826977710987
 20
9.812693865065512
 30
0.0
 41
9.175922197305043
 42
6.038325706448341
 50
180.0
  0
INSERT
  5
E5
330
79
100
AcDbEntity
  8
Layer0015
 62
     2
100
AcDbBlockReference
  2
_OPEN30
 10
-552.3826977710986
 20
9.812693865065512
 30
0.0
 41
9.175922197305043
 42
6.038325706448341
 50
360.0
  0
LINE
  5
E6
330
79
100
AcDbEntity
  8
Layer0015
  6
Continuous
 62
     2
370
    13
100
AcDbLine
 10
-677.3826977710987
 20
-68.57518785344422
 30
0.0
 11
-677.3826977710987
 21
11.81269386506551
 31
0.0
  0
LINE
  5
E7
330
79
100
AcDbEntity
  8
Layer0015
  6
Continuous
 62
     2
370
    13
100
AcDbLine
 10
-552.3826977710986
 20
-66.77518785344427
 30
0.0
 11
-552.3826977710986
 21
11.81269386506551
 31
0.0
  0
MTEXT
  5
E8
330
79
100
AcDbEntity
  8
Layer0015
 62
     2
100
AcDbMText
 10
-614.8826977710986
 20
12.31269386506551
 30
0.0
 40
12.0
 41
50.99999999999994
 71
     8
 72
     1
  1
\T1.00;125
  7
dcStyle0
 73
     1
 44
1.0
  0
ENDBLK
  5
7B
330
79
100
AcDbEntity
  8
0
100
AcDbBlockEnd
  0
BLOCK
  5
7D
330
7C
100
AcDbEntity
  8
0
100
AcDbBlockBegin
  2
*D3
 70
     1
 10
0.0
 20
0.0
 30
0.0
  3
*D3
  1

  0
LINE
  5
E9
330
7C
100
AcDbEntity
  8
Layer0015
  6
Continuous
 62
     2
370
    13
100
AcDbLine
 10
-552.3826977710986
 20
9.812693865065512
 30
0.0
 11
-34.08269777109874
 21
9.812693865065512
 31
0.0
  0
INSERT
  5
EA
330
7C
100
AcDbEntity
  8
Layer0015
 62
     2
100
AcDbBlockReference
  2
_OPEN30
 10
-552.3826977710986
 20
9.812693865065512
 30
0.0
 41
9.175922197305043
 42
6.038325706448341
 50
180.0
  0
INSERT
  5
EB
330
7C
100
AcDbEntity
  8
Layer0015
 62
     2
100
AcDbBlockReference
  2
_OPEN30
 10
-34.08269777109874
 20
9.812693865065512
 30
0.0
 41
9.175922197305043
 42
6.038325706448341
 50
360.0
  0
LINE
  5
EC
330
7C
100
AcDbEntity
  8
Layer0015
  6
Continuous
 62
     2
370
    13
100
AcDbLine
 10
-552.3826977710986
 20
-66.77518785344427
 30
0.0
 11
-552.3826977710986
 21
11.81269386506551
 31
0.0
  0
LINE
  5
ED
330
7C
100
AcDbEntity
  8
Layer0015
  6
Continuous
 62
     2
370
    13
100
AcDbLine
 10
-34.08269777109874
 20
-66.77518785344427
 30
0.0
 11
-34.08269777109874
 21
11.81269386506551
 31
0.0
  0
MTEXT
  5
EE
330
7C
100
AcDbEntity
  8
Layer0015
 62
     2
100
AcDbMText
 10
-293.2326977710986
 20
12.31269386506551
 30
0.0
 40
12.0
 41
75.0
 71
     8
 72
     1
  1
\T1.00;0～515
  7
dcStyle0
 73
     1
 44
1.0
  0
ENDBLK
  5
7E
330
7C
100
AcDbEntity
  8
0
100
AcDbBlockEnd
  0
BLOCK
  5
80
330
7F
100
AcDbEntity
  8
0
100
AcDbBlockBegin
  2
*D4
 70
     1
 10
0.0
 20
0.0
 30
0.0
  3
*D4
  1

  0
LINE
  5
EF
330
7F
100
AcDbEntity
  8
Layer0015
  6
Continuous
 62
     2
370
    13
100
AcDbLine
 10
-34.08269777109874
 20
9.812693865065512
 30
0.0
 11
219.617302228903
 21
9.812693865065512
 31
0.0
  0
INSERT
  5
F0
330
7F
100
AcDbEntity
  8
Layer0015
 62
     2
100
AcDbBlockReference
  2
_OPEN30
 10
-34.08269777109874
 20
9.812693865065512
 30
0.0
 41
9.175922197305043
 42
6.038325706448341
 50
180.0
  0
INSERT
  5
F1
330
7F
100
AcDbEntity
  8
Layer0015
 62
     2
100
AcDbBlockReference
  2
_OPEN30
 10
219.617302228903
 20
9.812693865065512
 30
0.0
 41
9.175922197305043
 42
6.038325706448341
 50
360.0
  0
LINE
  5
F2
330
7F
100
AcDbEntity
  8
Layer0015
  6
Continuous
 62
     2
370
    13
100
AcDbLine
 10
-34.08269777109874
 20
-66.77518785344427
 30
0.0
 11
-34.08269777109874
 21
11.81269386506551
 31
0.0
  0
LINE
  5
F3
330
7F
100
AcDbEntity
  8
Layer0015
  6
Continuous
 62
     2
370
    13
100
AcDbLine
 10
219.617302228903
 20
-96.07518785344445
 30
0.0
 11
219.617302228903
 21
11.81269386506551
 31
0.0
  0
MTEXT
  5
F4
330
7F
100
AcDbEntity
  8
Layer0015
 62
     2
100
AcDbMText
 10
92.76730222890211
 20
12.31269386506551
 30
0.0
 40
12.0
 41
51.00000000000001
 71
     8
 72
     1
  1
\T1.00;254
  7
dcStyle0
 73
     1
 44
1.0
  0
ENDBLK
  5
81
330
7F
100
AcDbEntity
  8
0
100
AcDbBlockEnd
  0
BLOCK
  5
83
330
82
100
AcDbEntity
  8
0
100
AcDbBlockBegin
  2
*D5
 70
     1
 10
0.0
 20
0.0
 30
0.0
  3
*D5
  1

  0
LINE
  5
F5
330
82
100
AcDbEntity
  8
Layer0015
  6
Continuous
 62
     2
370
    13
100
AcDbLine
 10
-677.3826977710987
 20
118.5514341438748
 30
0.0
 11
219.6173022288988
 21
118.5514341438748
 31
0.0
  0
INSERT
  5
F6
330
82
100
AcDbEntity
  8
Layer0015
 62
     2
100
AcDbBlockReference
  2
_OPEN30
 10
-677.3826977710987
 20
118.5514341438748
 30
0.0
 41
9.175922197305043
 42
6.038325706448341
 50
180.0
  0
INSERT
  5
F7
330
82
100
AcDbEntity
  8
Layer0015
 62
     2
100
AcDbBlockReference
  2
_OPEN30
 10
219.6173022288988
 20
118.5514341438748
 30
0.0
 41
9.175922197305043
 42
6.038325706448341
 50
360.0
  0
LINE
  5
F8
330
82
100
AcDbEntity
  8
Layer0015
  6
Continuous
 62
     2
370
    13
100
AcDbLine
 10
-677.3826977710987
 20
230.4122150635701
 30
0.0
 11
-677.3826977710987
 21
116.5514341438748
 31
0.0
  0
LINE
  5
F9
330
82
100
AcDbEntity
  8
Layer0015
  6
Continuous
 62
     2
370
    13
100
AcDbLine
 10
219.6173022288988
 20
319.9122150635715
 30
0.0
 11
219.6173022288988
 21
116.5514341438748
 31
0.0
  0
MTEXT
  5
FA
330
82
100
AcDbEntity
  8
Layer0015
 62
     2
100
AcDbMText
 10
-228.8826977711
 20
121.0514341438748
 30
0.0
 40
12.0
 41
51.00000000000001
 71
     8
 72
     1
  1
\T1.00;894
  7
dcStyle0
 73
     1
 44
1.0
  0
ENDBLK
  5
84
330
82
100
AcDbEntity
  8
0
100
AcDbBlockEnd
  0
BLOCK
  5
86
330
85
100
AcDbEntity
  8
0
100
AcDbBlockBegin
  2
*D6
 70
     1
 10
0.0
 20
0.0
 30
0.0
  3
*D6
  1

  0
LINE
  5
FB
330
85
100
AcDbEntity
  8
Layer0015
  6
Continuous
 62
     2
370
    13
100
AcDbLine
 10
-677.3826977710987
 20
-332.2798192368007
 30
0.0
 11
92.61730222890122
 21
-332.2798192368007
 31
0.0
  0
INSERT
  5
FC
330
85
100
AcDbEntity
  8
Layer0015
 62
     2
100
AcDbBlockReference
  2
_OPEN30
 10
-677.3826977710987
 20
-332.2798192368007
 30
0.0
 41
9.175922197305043
 42
6.038325706448341
 50
180.0
  0
INSERT
  5
FD
330
85
100
AcDbEntity
  8
Layer0015
 62
     2
100
AcDbBlockReference
  2
_OPEN30
 10
92.61730222890122
 20
-332.2798192368007
 30
0.0
 41
9.175922197305043
 42
6.038325706448341
 50
360.0
  0
LINE
  5
FE
330
85
100
AcDbEntity
  8
Layer0015
  6
Continuous
 62
     2
370
    13
100
AcDbLine
 10
-677.3826977710987
 20
-242.5751878534442
 30
0.0
 11
-677.3826977710987
 21
-334.2798192368007
 31
0.0
  0
LINE
  5
FF
330
85
100
AcDbEntity
  8
Layer0015
  6
Continuous
 62
     2
370
    13
100
AcDbLine
 10
92.61730222890122
 20
-242.5751878534442
 30
0.0
 11
92.61730222890122
 21
-334.2798192368007
 31
0.0
  0
MTEXT
  5
100
330
85
100
AcDbEntity
  8
Layer0015
 62
     2
100
AcDbMText
 10
-292.3826977710987
 20
-329.7798192368007
 30
0.0
 40
12.0
 41
50.99999999999994
 71
     8
 72
     1
  1
\T1.00;770
  7
dcStyle0
 73
     1
 44
1.0
  0
ENDBLK
  5
87
330
85
100
AcDbEntity
  8
0
100
AcDbBlockEnd
  0
BLOCK
  5
89
330
88
100
AcDbEntity
  8
0
100
AcDbBlockBegin
  2
*D7
 70
     1
 10
0.0
 20
0.0
 30
0.0
  3
*D7
  1

  0
LINE
  5
101
330
88
100
AcDbEntity
  8
Layer0015
  6
Continuous
 62
     2
370
    13
100
AcDbLine
 10
92.61730222890122
 20
-332.2798192368007
 30
0.0
 11
219.617302228903
 21
-332.2798192368007
 31
0.0
  0
INSERT
  5
102
330
88
100
AcDbEntity
  8
Layer0015
 62
     2
100
AcDbBlockReference
  2
_OPEN30
 10
92.61730222890122
 20
-332.2798192368007
 30
0.0
 41
9.175922197305043
 42
6.038325706448341
 50
180.0
  0
INSERT
  5
103
330
88
100
AcDbEntity
  8
Layer0015
 62
     2
100
AcDbBlockReference
  2
_OPEN30
 10
219.617302228903
 20
-332.2798192368007
 30
0.0
 41
9.175922197305043
 42
6.038325706448341
 50
360.0
  0
LINE
  5
104
330
88
100
AcDbEntity
  8
Layer0015
  6
Continuous
 62
     2
370
    13
100
AcDbLine
 10
92.61730222890122
 20
-242.5751878534442
 30
0.0
 11
92.61730222890122
 21
-334.2798192368007
 31
0.0
  0
LINE
  5
105
330
88
100
AcDbEntity
  8
Layer0015
  6
Continuous
 62
     2
370
    13
100
AcDbLine
 10
219.617302228903
 20
-120.0751878534444
 30
0.0
 11
219.617302228903
 21
-334.2798192368007
 31
0.0
  0
MTEXT
  5
106
330
88
100
AcDbEntity
  8
Layer0015
 62
     2
100
AcDbMText
 10
156.1173022289021
 20
-329.7798192368007
 30
0.0
 40
12.0
 41
51.00000000000001
 71
     8
 72
     1
  1
\T1.00;124
  7
dcStyle0
 73
     1
 44
1.0
  0
ENDBLK
  5
8A
330
88
100
AcDbEntity
  8
0
100
AcDbBlockEnd
  0
BLOCK
  5
8C
330
8B
100
AcDbEntity
  8
0
100
AcDbBlockBegin
  2
*D8
 70
     1
 10
0.0
 20
0.0
 30
0.0
  3
*D8
  1

  0
LINE
  5
107
330
8B
100
AcDbEntity
  8
Layer0015
  6
Continuous
 62
     2
370
    13
100
AcDbLine
 10
219.617302228903
 20
-332.2798192368007
 30
0.0
 11
308.6173022289016
 21
-332.2798192368007
 31
0.0
  0
INSERT
  5
108
330
8B
100
AcDbEntity
  8
Layer0015
 62
     2
100
AcDbBlockReference
  2
_OPEN30
 10
219.617302228903
 20
-332.2798192368007
 30
0.0
 41
9.175922197305043
 42
6.038325706448341
 50
180.0
  0
INSERT
  5
109
330
8B
100
AcDbEntity
  8
Layer0015
 62
     2
100
AcDbBlockReference
  2
_OPEN30
 10
308.6173022289016
 20
-332.2798192368007
 30
0.0
 41
9.175922197305043
 42
6.038325706448341
 50
360.0
  0
LINE
  5
10A
330
8B
100
AcDbEntity
  8
Layer0015
  6
Continuous
 62
     2
370
    13
100
AcDbLine
 10
219.617302228903
 20
-120.0751878534444
 30
0.0
 11
219.617302228903
 21
-334.2798192368007
 31
0.0
  0
LINE
  5
10B
330
8B
100
AcDbEntity
  8
Layer0015
  6
Continuous
 62
     2
370
    13
100
AcDbLine
 10
308.6173022289016
 20
-246.5751852416996
 30
0.0
 11
308.6173022289016
 21
-334.2798192368007
 31
0.0
  0
MTEXT
  5
10C
330
8B
100
AcDbEntity
  8
Layer0015
 62
     2
100
AcDbMText
 10
264.1173022289023
 20
-329.7798192368007
 30
0.0
 40
12.0
 41
39.00000000000002
 71
     8
 72
     1
  1
\T1.00;89
  7
dcStyle0
 73
     1
 44
1.0
  0
ENDBLK
  5
8D
330
8B
100
AcDbEntity
  8
0
100
AcDbBlockEnd
  0
BLOCK
  5
8F
330
8E
100
AcDbEntity
  8
0
100
AcDbBlockBegin
  2
DA_IMAGEDIMGROUP_1
 70
     0
 10
0.0
 20
0.0
 30
0.0
  3
DA_IMAGEDIMGROUP_1
  1

  0
LINE
  5
10D
330
8E
100
AcDbEntity
  8
Layer0015
  6
Continuous
 62
     2
370
    13
100
AcDbLine
 10
-625.5246881187353
 20
-418.4606548412452
 30
0.0
 11
-625.5246881187353
 21
-436.6612323825042
 31
0.0
  0
LINE
  5
10E
330
8E
100
AcDbEntity
  8
Layer0015
  6
Continuous
 62
     2
370
    13
100
AcDbLine
 10
-619.5246881187353
 20
-415.430309955848
 30
0.0
 11
-619.5246881187353
 21
-436.6612323825042
 31
0.0
  0
LINE
  5
10F
330
8E
100
AcDbEntity
  8
Layer0015
  6
Continuous
 62
     2
370
    13
100
AcDbLine
 10
-625.5246881187353
 20
-435.0612323825042
 30
0.0
 11
-619.5246881187353
 21
-435.0612323825042
 31
0.0
  0
LINE
  5
110
330
8E
100
AcDbEntity
  8
Layer0015
  6
Continuous
 62
     2
370
    13
100
AcDbLine
 10
-605.6158481187352
 20
-435.0612323825042
 30
0.0
 11
-619.5246881187353
 21
-435.0612323825042
 31
0.0
  0
INSERT
  5
111
330
8E
100
AcDbEntity
  8
Layer0015
 62
     2
100
AcDbBlockReference
  2
_OPEN30
 10
-619.5246881187353
 20
-435.0612323825042
 30
0.0
 41
9.175922197305043
 42
6.038325706448341
 50
180.0
  0
LINE
  5
112
330
8E
100
AcDbEntity
  8
Layer0015
  6
Continuous
 62
     2
370
    13
100
AcDbLine
 10
-633.5246881187353
 20
-435.0612323825042
 30
0.0
 11
-625.5246881187353
 21
-435.0612323825042
 31
0.0
  0
INSERT
  5
113
330
8E
100
AcDbEntity
  8
Layer0015
 62
     2
100
AcDbBlockReference
  2
_OPEN30
 10
-625.5246881187353
 20
-435.0612323825042
 30
0.0
 41
9.175922197305043
 42
6.038325706448341
 50
360.0
  0
MTEXT
  5
114
330
8E
100
AcDbEntity
  8
Layer0015
 62
     2
100
AcDbMText
 10
-613.6158481187352
 20
-433.0612323825042
 30
0.0
 40
15.0
 41
33.75
 71
     7
 72
     1
  1
\T1.00;6
  7
dcStyle0
 73
     1
 44
1.0
  0
ENDBLK
  5
90
330
8E
100
AcDbEntity
  8
0
100
AcDbBlockEnd
  0
BLOCK
  5
92
330
91
100
AcDbEntity
  8
0
100
AcDbBlockBegin
  2
DA_IMAGEDIMGROUP_2
 70
     0
 10
0.0
 20
0.0
 30
0.0
  3
DA_IMAGEDIMGROUP_2
  1

  0
LINE
  5
115
330
91
100
AcDbEntity
  8
Layer0015
  6
Continuous
 62
     2
370
    13
100
AcDbLine
 10
-402.5246881187352
 20
-414.9606548412453
 30
0.0
 11
-402.5246881187352
 21
-437.5033544591919
 31
0.0
  0
LINE
  5
116
330
91
100
AcDbEntity
  8
Layer0015
  6
Continuous
 62
     2
370
    13
100
AcDbLine
 10
-385.5246881187354
 20
-413.9606548412453
 30
0.0
 11
-385.5246881187354
 21
-437.5033544591919
 31
0.0
  0
LINE
  5
117
330
91
100
AcDbEntity
  8
Layer0015
  6
Continuous
 62
     2
370
    13
100
AcDbLine
 10
-402.5246881187352
 20
-435.9033544591919
 30
0.0
 11
-385.5246881187354
 21
-435.9033544591919
 31
0.0
  0
LINE
  5
118
330
91
100
AcDbEntity
  8
Layer0015
  6
Continuous
 62
     2
370
    13
100
AcDbLine
 10
-424.4335281187352
 20
-435.9033544591919
 30
0.0
 11
-402.5246881187352
 21
-435.9033544591919
 31
0.0
  0
INSERT
  5
119
330
91
100
AcDbEntity
  8
Layer0015
 62
     2
100
AcDbBlockReference
  2
_OPEN30
 10
-402.5246881187352
 20
-435.9033544591919
 30
0.0
 41
9.175922197305043
 42
6.038325706448341
 50
360.0
  0
LINE
  5
11A
330
91
100
AcDbEntity
  8
Layer0015
  6
Continuous
 62
     2
370
    13
100
AcDbLine
 10
-377.5246881187354
 20
-435.9033544591919
 30
0.0
 11
-385.5246881187354
 21
-435.9033544591919
 31
0.0
  0
INSERT
  5
11B
330
91
100
AcDbEntity
  8
Layer0015
 62
     2
100
AcDbBlockReference
  2
_OPEN30
 10
-385.5246881187354
 20
-435.9033544591919
 30
0.0
 41
9.175922197305043
 42
6.038325706448341
 50
180.0
  0
MTEXT
  5
11C
330
91
100
AcDbEntity
  8
Layer0015
 62
     2
100
AcDbMText
 10
-408.4335281187352
 20
-433.9033544591919
 30
0.0
 40
15.0
 41
48.75
 71
     9
 72
     1
  1
\T1.00;17
  7
dcStyle0
 73
     1
 44
1.0
  0
ENDBLK
  5
93
330
91
100
AcDbEntity
  8
0
100
AcDbBlockEnd
  0
BLOCK
  5
95
330
94
100
AcDbEntity
  8
0
100
AcDbBlockBegin
  2
*D11
 70
     1
 10
0.0
 20
0.0
 30
0.0
  3
*D11
  1

  0
LINE
  5
11D
330
94
100
AcDbEntity
  8
Layer0015
  6
Continuous
 62
     2
370
    13
100
AcDbLine
 10
-625.5246881187353
 20
-448.9625389562096
 30
0.0
 11
-385.5246881187354
 21
-448.9625389562096
 31
0.0
  0
INSERT
  5
11E
330
94
100
AcDbEntity
  8
Layer0015
 62
     2
100
AcDbBlockReference
  2
_OPEN30
 10
-625.5246881187353
 20
-448.9625389562096
 30
0.0
 41
9.175922197305043
 42
6.038325706448341
 50
180.0
  0
INSERT
  5
11F
330
94
100
AcDbEntity
  8
Layer0015
 62
     2
100
AcDbBlockReference
  2
_OPEN30
 10
-385.5246881187354
 20
-448.9625389562096
 30
0.0
 41
9.175922197305043
 42
6.038325706448341
 50
360.0
  0
LINE
  5
120
330
94
100
AcDbEntity
  8
Layer0015
  6
Continuous
 62
     2
370
    13
100
AcDbLine
 10
-625.5246881187353
 20
-418.4606548412452
 30
0.0
 11
-625.5246881187353
 21
-450.5625389562097
 31
0.0
  0
LINE
  5
121
330
94
100
AcDbEntity
  8
Layer0015
  6
Continuous
 62
     2
370
    13
100
AcDbLine
 10
-385.5246881187354
 20
-413.9606548412453
 30
0.0
 11
-385.5246881187354
 21
-450.5625389562097
 31
0.0
  0
MTEXT
  5
122
330
94
100
AcDbEntity
  8
Layer0015
 62
     2
100
AcDbMText
 10
-505.5246881187354
 20
-446.9625389562096
 30
0.0
 40
15.0
 41
63.75000000000007
 71
     8
 72
     1
  1
\T1.00;240
  7
dcStyle0
 73
     1
 44
1.0
  0
ENDBLK
  5
96
330
94
100
AcDbEntity
  8
0
100
AcDbBlockEnd
  0
BLOCK
  5
98
330
97
100
AcDbEntity
  8
0
100
AcDbBlockBegin
  2
*D12
 70
     1
 10
0.0
 20
0.0
 30
0.0
  3
*D12
  1

  0
LINE
  5
123
330
97
100
AcDbEntity
  8
Layer0015
  6
Continuous
 62
     2
370
    13
100
AcDbLine
 10
-263.5246881187353
 20
-459.3149926004407
 30
0.0
 11
-163.5246881187352
 21
-459.3149926004407
 31
0.0
  0
INSERT
  5
124
330
97
100
AcDbEntity
  8
Layer0015
 62
     2
100
AcDbBlockReference
  2
_OPEN30
 10
-263.5246881187353
 20
-459.3149926004407
 30
0.0
 41
9.175922197305043
 42
6.038325706448341
 50
180.0
  0
INSERT
  5
125
330
97
100
AcDbEntity
  8
Layer0015
 62
     2
100
AcDbBlockReference
  2
_OPEN30
 10
-163.5246881187352
 20
-459.3149926004407
 30
0.0
 41
9.175922197305043
 42
6.038325706448341
 50
360.0
  0
LINE
  5
126
330
97
100
AcDbEntity
  8
Layer0015
  6
Continuous
 62
     2
370
    13
100
AcDbLine
 10
-263.5246881187353
 20
-425.9606548412452
 30
0.0
 11
-263.5246881187353
 21
-460.9149926004408
 31
0.0
  0
LINE
  5
127
330
97
100
AcDbEntity
  8
Layer0015
  6
Continuous
 62
     2
370
    13
100
AcDbLine
 10
-163.5246881187352
 20
-412.7062415204714
 30
0.0
 11
-163.5246881187352
 21
-460.9149926004408
 31
0.0
  0
MTEXT
  5
128
330
97
100
AcDbEntity
  8
Layer0015
 62
     2
100
AcDbMText
 10
-213.5246881187353
 20
-457.3149926004407
 30
0.0
 40
15.0
 41
63.75
 71
     8
 72
     1
  1
\T1.00;100
  7
dcStyle0
 73
     1
 44
1.0
  0
ENDBLK
  5
99
330
97
100
AcDbEntity
  8
0
100
AcDbBlockEnd
  0
BLOCK
  5
9B
330
9A
100
AcDbEntity
  8
0
100
AcDbBlockBegin
  2
DA_IMAGEDIMGROUP_3
 70
     0
 10
0.0
 20
0.0
 30
0.0
  3
DA_IMAGEDIMGROUP_3
  1

  0
LINE
  5
129
330
9A
100
AcDbEntity
  8
Layer0015
  6
Continuous
 62
     2
370
    13
100
AcDbLine
 10
-181.5246881187352
 20
-415.4606548412452
 30
0.0
 11
-181.5246881187352
 21
-443.052094566884
 31
0.0
  0
LINE
  5
12A
330
9A
100
AcDbEntity
  8
Layer0015
  6
Continuous
 62
     2
370
    13
100
AcDbLine
 10
-163.5246881187352
 20
-412.7062415204714
 30
0.0
 11
-163.5246881187352
 21
-443.052094566884
 31
0.0
  0
LINE
  5
12B
330
9A
100
AcDbEntity
  8
Layer0015
  6
Continuous
 62
     2
370
    13
100
AcDbLine
 10
-181.5246881187352
 20
-441.4520945668839
 30
0.0
 11
-163.5246881187352
 21
-441.4520945668839
 31
0.0
  0
LINE
  5
12C
330
9A
100
AcDbEntity
  8
Layer0015
  6
Continuous
 62
     2
370
    13
100
AcDbLine
 10
-141.6158481187353
 20
-441.4520945668839
 30
0.0
 11
-163.5246881187352
 21
-441.4520945668839
 31
0.0
  0
INSERT
  5
12D
330
9A
100
AcDbEntity
  8
Layer0015
 62
     2
100
AcDbBlockReference
  2
_OPEN30
 10
-163.5246881187352
 20
-441.4520945668839
 30
0.0
 41
9.175922197305043
 42
6.038325706448341
 50
180.0
  0
LINE
  5
12E
330
9A
100
AcDbEntity
  8
Layer0015
  6
Continuous
 62
     2
370
    13
100
AcDbLine
 10
-189.5246881187352
 20
-441.4520945668839
 30
0.0
 11
-181.5246881187352
 21
-441.4520945668839
 31
0.0
  0
INSERT
  5
12F
330
9A
100
AcDbEntity
  8
Layer0015
 62
     2
100
AcDbBlockReference
  2
_OPEN30
 10
-181.5246881187352
 20
-441.4520945668839
 30
0.0
 41
9.175922197305043
 42
6.038325706448341
 50
360.0
  0
MTEXT
  5
130
330
9A
100
AcDbEntity
  8
Layer0015
 62
     2
100
AcDbMText
 10
-157.6158481187352
 20
-439.4520945668839
 30
0.0
 40
15.0
 41
48.75
 71
     7
 72
     1
  1
\T1.00;18
  7
dcStyle0
 73
     1
 44
1.0
  0
ENDBLK
  5
9C
330
9A
100
AcDbEntity
  8
0
100
AcDbBlockEnd
  0
BLOCK
  5
9E
330
9D
100
AcDbEntity
  8
0
100
AcDbBlockBegin
  2
*D14
 70
     1
 10
0.0
 20
0.0
 30
0.0
  3
*D14
  1

  0
LINE
  5
131
330
9D
100
AcDbEntity
  8
Layer0015
  6
Continuous
 62
     2
370
    13
100
AcDbLine
 10
-552.3826977710986
 20
-11.77187312460961
 30
0.0
 11
-49.08269777109854
 21
-11.77187312460961
 31
0.0
  0
INSERT
  5
132
330
9D
100
AcDbEntity
  8
Layer0015
 62
     2
100
AcDbBlockReference
  2
_OPEN30
 10
-552.3826977710986
 20
-11.77187312460961
 30
0.0
 41
9.175922197305043
 42
6.038325706448341
 50
180.0
  0
INSERT
  5
133
330
9D
100
AcDbEntity
  8
Layer0015
 62
     2
100
AcDbBlockReference
  2
_OPEN30
 10
-49.08269777109854
 20
-11.77187312460961
 30
0.0
 41
9.175922197305043
 42
6.038325706448341
 50
360.0
  0
LINE
  5
134
330
9D
100
AcDbEntity
  8
Layer0015
  6
Continuous
 62
     2
370
    13
100
AcDbLine
 10
-552.3826977710986
 20
-66.77518785344427
 30
0.0
 11
-552.3826977710986
 21
-9.771873124609606
 31
0.0
  0
LINE
  5
135
330
9D
100
AcDbEntity
  8
Layer0015
  6
Continuous
 62
     2
370
    13
100
AcDbLine
 10
-49.08269777109854
 20
-67.07518785344419
 30
0.0
 11
-49.08269777109854
 21
-9.771873124609606
 31
0.0
  0
MTEXT
  5
136
330
9D
100
AcDbEntity
  8
Layer0015
 62
     2
100
AcDbMText
 10
-300.7326977710985
 20
-9.271873124609606
 30
0.0
 40
12.0
 41
75.0
 71
     8
 72
     1
  1
\T1.00;0～500
  7
dcStyle0
 73
     1
 44
1.0
  0
ENDBLK
  5
9F
330
9D
100
AcDbEntity
  8
0
100
AcDbBlockEnd
  0
BLOCK
  5
A1
330
A0
100
AcDbEntity
  8
0
100
AcDbBlockBegin
  2
DC_GROUP_ACE200L_1
 70
     0
 10
0.0
 20
0.0
 30
0.0
  3
DC_GROUP_ACE200L_1
  1

  0
LINE
  5
137
330
A0
100
AcDbEntity
  8
Layer0015
  6
Continuous
 62
     2
370
    13
100
AcDbLine
 10
496.7483672885853
 20
-144.5751878534443
 30
0.0
 11
496.7483672885853
 21
-188.838946794579
 31
0.0
  0
LINE
  5
138
330
A0
100
AcDbEntity
  8
Layer0015
  6
Continuous
 62
     2
370
    13
100
AcDbLine
 10
363.410911783804
 20
-186.838946794579
 30
0.0
 11
496.7483672885853
 21
-186.838946794579
 31
0.0
  0
INSERT
  5
139
330
A0
100
AcDbEntity
  8
Layer0015
 62
     2
100
AcDbBlockReference
  2
_OPEN30
 10
496.7483672885853
 20
-186.838946794579
 30
0.0
 41
9.175922197305043
 42
6.038325706448341
 50
360.0
  0
TEXT
  5
13A
330
A0
100
AcDbEntity
  8
Layer0015
 62
     2
100
AcDbText
 10
399.8181629807767
 20
-184.338946794579
 30
0.0
 40
15.0
  1
915
 41
0.8
  7
dcStyle0
 72
     5
 11
435.8181629807767
 21
-184.338946794579
 31
0.0
100
AcDbText
  0
ENDBLK
  5
A2
330
A0
100
AcDbEntity
  8
0
100
AcDbBlockEnd
  0
BLOCK
  5
A4
330
A3
100
AcDbEntity
  8
0
100
AcDbBlockBegin
  2
*D16
 70
     1
 10
0.0
 20
0.0
 30
0.0
  3
*D16
  1

  0
LINE
  5
13B
330
A3
100
AcDbEntity
  8
Layer0015
  6
Continuous
 62
     2
370
    13
100
AcDbLine
 10
683.6572238660079
 20
-241.0751878534443
 30
0.0
 11
683.6572238660079
 21
-32.43932647820546
 31
0.0
  0
INSERT
  5
13C
330
A3
100
AcDbEntity
  8
Layer0015
 62
     2
100
AcDbBlockReference
  2
_OPEN30
 10
683.6572238660079
 20
-241.0751878534443
 30
0.0
 41
9.175922197305043
 42
6.038325706448341
 50
270.0
  0
INSERT
  5
13D
330
A3
100
AcDbEntity
  8
Layer0015
 62
     2
100
AcDbBlockReference
  2
_OPEN30
 10
683.6572238660079
 20
-32.43932647820546
 30
0.0
 41
9.175922197305043
 42
6.038325706448341
 50
90.0
  0
LINE
  5
13E
330
A3
100
AcDbEntity
  8
Layer0015
  6
Continuous
 62
     2
370
    13
100
AcDbLine
 10
657.197284774434
 20
-241.0751878534443
 30
0.0
 11
685.6572238660079
 21
-241.0751878534443
 31
0.0
  0
LINE
  5
13F
330
A3
100
AcDbEntity
  8
Layer0015
  6
Continuous
 62
     2
370
    13
100
AcDbLine
 10
639.4752633200125
 20
-32.43932647820546
 30
0.0
 11
685.6572238660079
 21
-32.43932647820546
 31
0.0
  0
MTEXT
  5
140
330
A3
100
AcDbEntity
  8
Layer0015
 62
     2
100
AcDbMText
 10
681.1572238660079
 20
-136.7572571658249
 30
0.0
 40
15.0
 41
63.75
 71
     8
 72
     1
  1
\T1.00;209
  7
dcStyle0
 11
6.123031769111886E-17
 21
1.0
 31
0.0
 73
     1
 44
1.0
  0
ENDBLK
  5
A5
330
A3
100
AcDbEntity
  8
0
100
AcDbBlockEnd
  0
BLOCK
  5
A7
330
A6
100
AcDbEntity
  8
0
100
AcDbBlockBegin
  2
*D17
 70
     1
 10
0.0
 20
0.0
 30
0.0
  3
*D17
  1

  0
LINE
  5
141
330
A6
100
AcDbEntity
  8
Layer0015
  6
Continuous
 62
     2
370
    13
100
AcDbLine
 10
558.1090513877042
 20
-241.0751878534443
 30
0.0
 11
558.1090513877042
 21
92.56067352179448
 31
0.0
  0
INSERT
  5
142
330
A6
100
AcDbEntity
  8
Layer0015
 62
     2
100
AcDbBlockReference
  2
_OPEN30
 10
558.1090513877042
 20
-241.0751878534443
 30
0.0
 41
9.175922197305043
 42
6.038325706448341
 50
270.0
  0
INSERT
  5
143
330
A6
100
AcDbEntity
  8
Layer0015
 62
     2
100
AcDbBlockReference
  2
_OPEN30
 10
558.1090513877042
 20
92.56067352179448
 30
0.0
 41
9.175922197305043
 42
6.038325706448341
 50
90.0
  0
LINE
  5
144
330
A6
100
AcDbEntity
  8
Layer0015
  6
Continuous
 62
     2
370
    13
100
AcDbLine
 10
422.9689123739032
 20
92.56067352179448
 30
0.0
 11
560.1090513877042
 21
92.56067352179448
 31
0.0
  0
MTEXT
  5
145
330
A6
100
AcDbEntity
  8
Layer0015
 62
     2
100
AcDbMText
 10
555.6090513877042
 20
-74.25725716582491
 30
0.0
 40
15.0
 41
63.75
 71
     8
 72
     1
  1
\T1.00;334
  7
dcStyle0
 11
6.123031769111886E-17
 21
1.0
 31
0.0
 73
     1
 44
1.0
  0
ENDBLK
  5
A8
330
A6
100
AcDbEntity
  8
0
100
AcDbBlockEnd
  0
BLOCK
  5
AA
330
A9
100
AcDbEntity
  8
0
100
AcDbBlockBegin
  2
*D18
 70
     1
 10
0.0
 20
0.0
 30
0.0
  3
*D18
  1

  0
LINE
  5
146
330
A9
100
AcDbEntity
  8
Layer0015
  6
Continuous
 62
     2
370
    13
100
AcDbLine
 10
536.7204255213695
 20
-241.0751878534443
 30
0.0
 11
536.7204255213695
 21
-48.26558741502762
 31
0.0
  0
INSERT
  5
147
330
A9
100
AcDbEntity
  8
Layer0015
 62
     2
100
AcDbBlockReference
  2
_OPEN30
 10
536.7204255213695
 20
-241.0751878534443
 30
0.0
 41
9.175922197305043
 42
6.038325706448341
 50
270.0
  0
INSERT
  5
148
330
A9
100
AcDbEntity
  8
Layer0015
 62
     2
100
AcDbBlockReference
  2
_OPEN30
 10
536.7204255213695
 20
-48.26558741502762
 30
0.0
 41
9.175922197305043
 42
6.038325706448341
 50
90.0
  0
LINE
  5
149
330
A9
100
AcDbEntity
  8
Layer0015
  6
Continuous
 62
     2
370
    13
100
AcDbLine
 10
487.1551005488462
 20
-48.26558741502762
 30
0.0
 11
538.7204255213695
 21
-48.26558741502762
 31
0.0
  0
MTEXT
  5
14A
330
A9
100
AcDbEntity
  8
Layer0015
 62
     2
100
AcDbMText
 10
534.2204255213695
 20
-144.670387634236
 30
0.0
 40
15.0
 41
63.75
 71
     8
 72
     1
  1
\T1.00;193
  7
dcStyle0
 11
6.123031769111886E-17
 21
1.0
 31
0.0
 73
     1
 44
1.0
  0
ENDBLK
  5
AB
330
A9
100
AcDbEntity
  8
0
100
AcDbBlockEnd
  0
BLOCK
  5
AD
330
AC
100
AcDbEntity
  8
0
100
AcDbBlockBegin
  2
DC_GROUP_ACE200L_2
 70
     0
 10
0.0
 20
0.0
 30
0.0
  3
DC_GROUP_ACE200L_2
  1

  0
LINE
  5
14B
330
AC
100
AcDbEntity
  8
Layer0015
  6
Continuous
 62
     2
370
    13
100
AcDbLine
 10
657.0278222032704
 20
-46.9393264782054
 30
0.0
 11
657.0278222032704
 21
-218.9837212401001
 31
0.0
  0
LINE
  5
14C
330
AC
100
AcDbEntity
  8
Layer0015
  6
Continuous
 62
     2
370
    13
100
AcDbLine
 10
363.410911783804
 20
-216.9837212401001
 30
0.0
 11
657.0278222032704
 21
-216.9837212401001
 31
0.0
  0
INSERT
  5
14D
330
AC
100
AcDbEntity
  8
Layer0015
 62
     2
100
AcDbBlockReference
  2
_OPEN30
 10
657.0278222032704
 20
-216.9837212401001
 30
0.0
 41
9.175922197305043
 42
6.038325706448341
 50
360.0
  0
TEXT
  5
14E
330
AC
100
AcDbEntity
  8
Layer0015
 62
     2
100
AcDbText
 10
473.9578904381192
 20
-214.4837212401001
 30
0.0
 40
15.0
  1
1075
 41
0.8
  7
dcStyle0
 72
     5
 11
521.9578904381192
 21
-214.4837212401001
 31
0.0
100
AcDbText
  0
ENDBLK
  5
AE
330
AC
100
AcDbEntity
  8
0
100
AcDbBlockEnd
  0
BLOCK
  5
B0
330
AF
100
AcDbEntity
  8
0
100
AcDbBlockBegin
  2
DC_GROUP_ACE200L_3
 70
     0
 10
0.0
 20
0.0
 30
0.0
  3
DC_GROUP_ACE200L_3
  1

  0
TEXT
  5
14F
330
AF
100
AcDbEntity
  8
Layer0004
 62
     2
100
AcDbText
 10
-597.5598167491494
 20
-486.4430351125583
 30
0.0
 40
15.0
  1
ハンドルジョイント(2セット)
 41
0.6896551724137931
  7
dcStyle0
 72
     5
 11
-417.5598167491494
 21
-486.4430351125583
 31
0.0
100
AcDbText
  0
LINE
  5
150
330
AF
100
AcDbEntity
  8
Layer0004
  6
Continuous
 62
     2
370
    18
100
AcDbLine
 10
-617.0598167491494
 20
-487.9430351125583
 30
0.0
 11
-398.0598167491494
 21
-487.9430351125583
 31
0.0
  0
ENDBLK
  5
B1
330
AF
100
AcDbEntity
  8
0
100
AcDbBlockEnd
  0
BLOCK
  5
B3
330
B2
100
AcDbEntity
  8
0
100
AcDbBlockBegin
  2
DC_GROUP_ACE200L_4
 70
     0
 10
0.0
 20
0.0
 30
0.0
  3
DC_GROUP_ACE200L_4
  1

  0
TEXT
  5
151
330
B2
100
AcDbEntity
  8
Layer0004
 62
     2
100
AcDbText
 10
-257.8635896017851
 20
-490.4145750742666
 30
0.0
 40
15.0
  1
ハンドルソケット
 41
0.6666666666666669
  7
dcStyle0
 72
     5
 11
-161.863589601785
 21
-490.4145750742666
 31
0.0
100
AcDbText
  0
LINE
  5
152
330
B2
100
AcDbEntity
  8
Layer0004
  6
Continuous
 62
     2
370
    18
100
AcDbLine
 10
-289.3635896017851
 20
-491.9145750742666
 30
0.0
 11
-130.3635896017851
 21
-491.9145750742666
 31
0.0
  0
ENDBLK
  5
B4
330
B2
100
AcDbEntity
  8
0
100
AcDbBlockEnd
  0
BLOCK
  5
B6
330
B5
100
AcDbEntity
  8
0
100
AcDbBlockBegin
  2
DC_GROUP_ACE200L_5
 70
     0
 10
0.0
 20
0.0
 30
0.0
  3
DC_GROUP_ACE200L_5
  1

  0
TEXT
  5
153
330
B5
100
AcDbEntity
  8
Layer0004
 62
     2
100
AcDbText
 10
-615.5598167491494
 20
-504.9713771383875
 30
0.0
 40
15.0
  1
HANDLE JOINT(2pcs)
 41
0.8
  7
dcStyle0
 72
     5
 11
-399.5598167491494
 21
-504.9713771383875
 31
0.0
100
AcDbText
  0
ENDBLK
  5
B7
330
B5
100
AcDbEntity
  8
0
100
AcDbBlockEnd
  0
BLOCK
  5
B9
330
B8
100
AcDbEntity
  8
0
100
AcDbBlockBegin
  2
DC_GROUP_ACE200L_6
 70
     0
 10
0.0
 20
0.0
 30
0.0
  3
DC_GROUP_ACE200L_6
  1

  0
TEXT
  5
154
330
B8
100
AcDbEntity
  8
Layer0004
 62
     2
100
AcDbText
 10
-287.8635896017851
 20
-508.9429171000959
 30
0.0
 40
15.0
  1
HANDLE SOCKET
 41
0.8
  7
dcStyle0
 72
     5
 11
-131.8635896017851
 21
-508.9429171000959
 31
0.0
100
AcDbText
  0
ENDBLK
  5
BA
330
B8
100
AcDbEntity
  8
0
100
AcDbBlockEnd
  0
BLOCK
  5
BC
330
BB
100
AcDbEntity
  8
0
100
AcDbBlockBegin
  2
DC_GROUP_ACE200L_7
 70
     0
 10
0.0
 20
0.0
 30
0.0
  3
DC_GROUP_ACE200L_7
  1

  0
TEXT
  5
155
330
BB
100
AcDbEntity
  8
Layer0004
 62
     2
100
AcDbText
 10
441.6221164287772
 20
6.938197630931409
 30
0.0
 40
15.0
  1
U-HANDLE
 41
0.7999999999999995
  7
dcStyle0
 72
     5
 11
537.6221164287772
 21
6.938197630931409
 31
0.0
100
AcDbText
  0
LINE
  5
156
330
BB
100
AcDbEntity
  8
Layer0004
  6
Continuous
 62
     2
370
    18
100
AcDbLine
 10
440.1221164287772
 20
5.438197630931413
 30
0.0
 11
539.1221164287772
 21
5.438197630931413
 31
0.0
  0
ENDBLK
  5
BD
330
BB
100
AcDbEntity
  8
0
100
AcDbBlockEnd
  0
BLOCK
  5
BF
330
BE
100
AcDbEntity
  8
0
100
AcDbBlockBegin
  2
DC_GROUP_ACE200L_8
 70
     0
 10
0.0
 20
0.0
 30
0.0
  3
DC_GROUP_ACE200L_8
  1

  0
TEXT
  5
157
330
BE
100
AcDbEntity
  8
Layer0004
 62
     2
100
AcDbText
 10
-582.1823629136289
 20
140.1108281856143
 30
0.0
 40
15.0
  1
ワークストッパー
 41
0.6666666666666666
  7
dcStyle0
 72
     5
 11
-486.1823629136289
 21
140.1108281856143
 31
0.0
100
AcDbText
  0
LINE
  5
158
330
BE
100
AcDbEntity
  8
Layer0004
  6
Continuous
 62
     2
370
    18
100
AcDbLine
 10
-607.6823629136289
 20
138.6108281856143
 30
0.0
 11
-460.6823629136289
 21
138.6108281856143
 31
0.0
  0
ENDBLK
  5
C0
330
BE
100
AcDbEntity
  8
0
100
AcDbBlockEnd
  0
BLOCK
  5
C2
330
C1
100
AcDbEntity
  8
0
100
AcDbBlockBegin
  2
DC_GROUP_ACE200L_9
 70
     0
 10
0.0
 20
0.0
 30
0.0
  3
DC_GROUP_ACE200L_9
  1

  0
TEXT
  5
159
330
C1
100
AcDbEntity
  8
Layer0004
 62
     2
100
AcDbText
 10
-606.1823629136289
 20
121.582486159785
 30
0.0
 40
15.0
  1
WORK STOPPER
 41
0.8
  7
dcStyle0
 72
     5
 11
-462.1823629136289
 21
121.582486159785
 31
0.0
100
AcDbText
  0
ENDBLK
  5
C3
330
C1
100
AcDbEntity
  8
0
100
AcDbBlockEnd
  0
BLOCK
  5
C5
330
C4
100
AcDbEntity
  8
0
100
AcDbBlockBegin
  2
DC_GROUP_ACE200L_10
 70
     0
 10
0.0
 20
0.0
 30
0.0
  3
DC_GROUP_ACE200L_10
  1

  0
LINE
  5
15A
330
C4
100
AcDbEntity
  8
Layer0014
  6
Continuous
 62
     2
370
    18
100
AcDbLine
 10
-83.25491084463053
 20
196.0677425722256
 30
0.0
 11
-61.03640905434126
 21
157.5841686033846
 31
0.0
  0
INSERT
  5
15B
330
C4
100
AcDbEntity
  8
Layer0014
 62
     2
100
AcDbBlockReference
  2
_OPEN30
 10
-83.25491084463053
 20
196.0677425722256
 30
0.0
 41
9.175922197305043
 42
6.038325706448341
 50
120.0
  0
LINE
  5
15C
330
C4
100
AcDbEntity
  8
Layer0014
  6
Continuous
 62
     2
370
    18
100
AcDbLine
 10
-61.03640905434126
 20
157.5841686033846
 30
0.0
 11
111.4635909456587
 21
157.5841686033846
 31
0.0
  0
TEXT
  5
15D
330
C4
100
AcDbEntity
  8
Layer0014
 62
     2
100
AcDbText
 10
-58.03640905434126
 20
158.1841686033846
 30
0.0
 40
15.0
  1
クランピングブロック
 41
0.6666666666666666
  7
dcStyle0
 72
     5
 11
61.96359094565874
 21
158.1841686033846
 31
0.0
100
AcDbText
  0
ENDBLK
  5
C6
330
C4
100
AcDbEntity
  8
0
100
AcDbBlockEnd
  0
BLOCK
  5
C8
330
C7
100
AcDbEntity
  8
0
100
AcDbBlockBegin
  2
DC_GROUP_ACE200L_11
 70
     0
 10
0.0
 20
0.0
 30
0.0
  3
DC_GROUP_ACE200L_11
  1

  0
LINE
  5
15E
330
C7
100
AcDbEntity
  8
Layer0014
  6
Continuous
 62
     2
370
    18
100
AcDbLine
 10
-41.6286648612414
 20
-106.9309047402188
 30
0.0
 11
-66.98457939530499
 21
-63.01317249484654
 31
0.0
  0
INSERT
  5
15F
330
C7
100
AcDbEntity
  8
Layer0014
 62
     2
100
AcDbBlockReference
  2
_OPEN30
 10
-41.6286648612414
 20
-106.9309047402188
 30
0.0
 41
9.175922197305043
 42
6.038325706448341
 50
299.9999999999999
  0
LINE
  5
160
330
C7
100
AcDbEntity
  8
Layer0014
  6
Continuous
 62
     2
370
    18
100
AcDbLine
 10
-66.98457939530499
 20
-63.01317249484654
 30
0.0
 11
-227.484579395305
 21
-63.01317249484654
 31
0.0
  0
TEXT
  5
161
330
C7
100
AcDbEntity
  8
Layer0014
 62
     2
100
AcDbText
 10
-165.984579395305
 20
-62.41317249484655
 30
0.0
 40
15.0
  1
アンチリフト口金
 41
0.6666666666666666
  7
dcStyle0
 72
     5
 11
-69.98457939530499
 21
-62.41317249484655
 31
0.0
100
AcDbText
  0
ENDBLK
  5
C9
330
C7
100
AcDbEntity
  8
0
100
AcDbBlockEnd
  0
BLOCK
  5
CB
330
CA
100
AcDbEntity
  8
0
100
AcDbBlockBegin
  2
DC_GROUP_ACE200L_12
 70
     0
 10
0.0
 20
0.0
 30
0.0
  3
DC_GROUP_ACE200L_12
  1

  0
LINE
  5
162
330
CA
100
AcDbEntity
  8
Layer0014
  6
Continuous
 62
     2
370
    18
100
AcDbLine
 10
35.96318781369502
 20
-54.5822010218057
 30
0.0
 11
55.29921572863695
 21
-21.09121825655619
 31
0.0
  0
INSERT
  5
163
330
CA
100
AcDbEntity
  8
Layer0014
 62
     2
100
AcDbBlockReference
  2
_OPEN30
 10
35.96318781369502
 20
-54.5822010218057
 30
0.0
 41
9.175922197305043
 42
6.038325706448341
 50
240.0
  0
LINE
  5
164
330
CA
100
AcDbEntity
  8
Layer0014
  6
Continuous
 62
     2
370
    18
100
AcDbLine
 10
55.29921572863695
 20
-21.09121825655619
 30
0.0
 11
167.799215728637
 21
-21.09121825655619
 31
0.0
  0
TEXT
  5
165
330
CA
100
AcDbEntity
  8
Layer0014
 62
     2
100
AcDbText
 10
58.29921572863695
 20
-20.49121825655619
 30
0.0
 40
15.0
  1
上口金
 41
0.6666666666666666
  7
dcStyle0
 72
     5
 11
94.29921572863695
 21
-20.49121825655619
 31
0.0
100
AcDbText
  0
ENDBLK
  5
CC
330
CA
100
AcDbEntity
  8
0
100
AcDbBlockEnd
  0
BLOCK
  5
CE
330
CD
100
AcDbEntity
  8
0
100
AcDbBlockBegin
  2
DC_GROUP_ACE200L_13
 70
     0
 10
0.0
 20
0.0
 30
0.0
  3
DC_GROUP_ACE200L_13
  1

  0
TEXT
  5
166
330
CD
100
AcDbEntity
  8
Layer0004
 62
     2
100
AcDbText
 10
58.29921572863695
 20
-36.49121825655619
 30
0.0
 40
15.0
  1
UPPER JAW
 41
0.8000000000000002
  7
dcStyle0
 72
     5
 11
166.299215728637
 21
-36.49121825655619
 31
0.0
100
AcDbText
  0
ENDBLK
  5
CF
330
CD
100
AcDbEntity
  8
0
100
AcDbBlockEnd
  0
BLOCK
  5
D1
330
D0
100
AcDbEntity
  8
0
100
AcDbBlockBegin
  2
DC_GROUP_ACE200L_14
 70
     0
 10
0.0
 20
0.0
 30
0.0
  3
DC_GROUP_ACE200L_14
  1

  0
TEXT
  5
167
330
D0
100
AcDbEntity
  8
Layer0004
 62
     2
100
AcDbText
 10
-58.03640905434126
 20
142.1841686033845
 30
0.0
 40
15.0
  1
CLAMPING BLOCK
 41
0.8
  7
dcStyle0
 72
     5
 11
109.9635909456587
 21
142.1841686033845
 31
0.0
100
AcDbText
  0
ENDBLK
  5
D2
330
D0
100
AcDbEntity
  8
0
100
AcDbBlockEnd
  0
BLOCK
  5
D4
330
D3
100
AcDbEntity
  8
0
100
AcDbBlockBegin
  2
DC_GROUP_ACE200L_15
 70
     0
 10
0.0
 20
0.0
 30
0.0
  3
DC_GROUP_ACE200L_15
  1

  0
TEXT
  5
168
330
D3
100
AcDbEntity
  8
Layer0004
 62
     2
100
AcDbText
 10
-225.984579395305
 20
-78.41317249484655
 30
0.0
 40
15.0
  1
ANTI-LIFT JAW
 41
0.8
  7
dcStyle0
 72
     5
 11
-69.98457939530499
 21
-78.41317249484655
 31
0.0
100
AcDbText
  0
ENDBLK
  5
D5
330
D3
100
AcDbEntity
  8
0
100
AcDbBlockEnd
  0
BLOCK
  5
D8
330
D7
100
AcDbEntity
  8
0
100
AcDbBlockBegin
  2
_OPEN30
 70
     0
 10
0.0
 20
0.0
 30
0.0
  3
_OPEN30
  1

  0
LINE
  5
DA
330
D7
100
AcDbEntity
  8
0
  6
ByBlock
 62
     0
370
    -2
100
AcDbLine
 10
-1.0
 20
0.267949
 30
0.0
 11
0.0
 21
0.0
 31
0.0
  0
LINE
  5
DB
330
D7
100
AcDbEntity
  8
0
  6
ByBlock
 62
     0
370
    -2
100
AcDbLine
 10
0.0
 20
0.0
 30
0.0
 11
-1.0
 21
-0.267949
 31
0.0
  0
LINE
  5
DC
330
D7
100
AcDbEntity
  8
0
  6
ByBlock
 62
     0
370
    -2
100
AcDbLine
 10
0.0
 20
0.0
 30
0.0
 11
-1.0
 21
0.0
 31
0.0
  0
ENDBLK
  5
D9
330
D7
100
AcDbEntity
  8
0
100
AcDbBlockEnd
  0
ENDSEC
  0
SECTION
  2
ENTITIES
  0
LINE
  5
169
330
1F
100
AcDbEntity
  8
Layer0000
  6
Continuous
 62
     3
370
    25
100
AcDbLine
 10
-572.3826977710986
 20
430.9122150635715
 30
0.0
 11
-572.3826977710986
 21
232.9122150635715
 31
0.0
  0
LINE
  5
16A
330
1F
100
AcDbEntity
  8
Layer0000
  6
Continuous
 62
     3
370
    25
100
AcDbLine
 10
-552.3826977710986
 20
431.7122150635714
 30
0.0
 11
-552.3826977710986
 21
232.1122150635715
 31
0.0
  0
LINE
  5
16B
330
1F
100
AcDbEntity
  8
Layer0000
  6
Continuous
 62
     3
370
    25
100
AcDbLine
 10
-571.3826977710986
 20
231.9122150635715
 30
0.0
 11
-572.3826977710986
 21
232.9122150635715
 31
0.0
  0
LINE
  5
16C
330
1F
100
AcDbEntity
  8
Layer0000
  6
Continuous
 62
     3
370
    25
100
AcDbLine
 10
-571.3826977710986
 20
431.9122150635715
 30
0.0
 11
-572.3826977710986
 21
430.9122150635715
 31
0.0
  0
LINE
  5
16D
330
1F
100
AcDbEntity
  8
Layer0000
  6
Continuous
 62
     3
370
    25
100
AcDbLine
 10
-573.3826977710986
 20
232.4122150635715
 30
0.0
 11
-572.3826977710986
 21
233.4122150635715
 31
0.0
  0
LINE
  5
16E
330
1F
100
AcDbEntity
  8
Layer0000
  6
Continuous
 62
     3
370
    25
100
AcDbLine
 10
-573.3826977710986
 20
431.4122150635715
 30
0.0
 11
-572.3826977710986
 21
430.4122150635715
 31
0.0
  0
LINE
  5
16F
330
1F
100
AcDbEntity
  8
Layer0000
  6
Continuous
 62
     3
370
    25
100
AcDbLine
 10
-552.5826977710985
 20
231.9122150635715
 30
0.0
 11
-552.3826977710986
 21
232.1122150635715
 31
0.0
  0
LINE
  5
170
330
1F
100
AcDbEntity
  8
Layer0000
  6
Continuous
 62
     3
370
    25
100
AcDbLine
 10
-552.5826977710985
 20
431.9122150635715
 30
0.0
 11
-552.3826977710986
 21
431.7122150635714
 31
0.0
  0
LINE
  5
171
330
1F
100
AcDbEntity
  8
Layer0000
  6
Continuous
 62
     3
370
    25
100
AcDbLine
 10
-676.3826977710987
 20
231.9122150635715
 30
0.0
 11
91.61730222890128
 21
231.9122150635715
 31
0.0
  0
LINE
  5
172
330
1F
100
AcDbEntity
  8
Layer0000
  6
Continuous
 62
     3
370
    25
100
AcDbLine
 10
-676.3826977710987
 20
431.9122150635715
 30
0.0
 11
91.61730222890128
 21
431.9122150635717
 31
0.0
  0
LINE
  5
173
330
1F
100
AcDbEntity
  8
Layer0000
  6
Continuous
 62
     3
370
    25
100
AcDbLine
 10
-676.3826977710987
 20
231.9122150635715
 30
0.0
 11
-677.3826977710987
 21
232.9122150635715
 31
0.0
  0
LINE
  5
174
330
1F
100
AcDbEntity
  8
Layer0000
  6
Continuous
 62
     3
370
    25
100
AcDbLine
 10
-677.3826977710987
 20
233.4122150635715
 30
0.0
 11
-676.3826977710987
 21
232.4122150635715
 31
0.0
  0
LINE
  5
175
330
1F
100
AcDbEntity
  8
Layer0000
  6
Continuous
 62
     3
370
    25
100
AcDbLine
 10
-676.3826977710987
 20
232.4122150635715
 30
0.0
 11
-573.3826977710986
 21
232.4122150635715
 31
0.0
  0
LINE
  5
176
330
1F
100
AcDbEntity
  8
Layer0000
  6
Continuous
 62
     3
370
    25
100
AcDbLine
 10
-677.3826977710987
 20
232.9122150635701
 30
0.0
 11
-677.3826977710987
 21
430.9122150635715
 31
0.0
  0
LINE
  5
177
330
1F
100
AcDbEntity
  8
Layer0000
  6
Continuous
 62
     3
370
    25
100
AcDbLine
 10
-676.3826977710987
 20
431.9122150635715
 30
0.0
 11
-677.3826977710987
 21
430.9122150635715
 31
0.0
  0
LINE
  5
178
330
1F
100
AcDbEntity
  8
Layer0000
  6
Continuous
 62
     3
370
    25
100
AcDbLine
 10
-677.3826977710987
 20
430.4122150635715
 30
0.0
 11
-676.3826977710987
 21
431.4122150635715
 31
0.0
  0
LINE
  5
179
330
1F
100
AcDbEntity
  8
Layer0000
  6
Continuous
 62
     3
370
    25
100
AcDbLine
 10
-34.08269777109871
 20
232.1122150635715
 30
0.0
 11
-34.08269777109871
 21
431.7122150635716
 31
0.0
  0
LINE
  5
17A
330
1F
100
AcDbEntity
  8
Layer0000
  6
Continuous
 62
     3
370
    25
100
AcDbLine
 10
-33.88269777109871
 20
231.9122150635715
 30
0.0
 11
-34.08269777109871
 21
232.1122150635715
 31
0.0
  0
LINE
  5
17B
330
1F
100
AcDbEntity
  8
Layer0000
  6
Continuous
 62
     3
370
    25
100
AcDbLine
 10
-15.08269777109851
 20
231.9122150635715
 30
0.0
 11
-14.08269777109851
 21
232.9122150635715
 31
0.0
  0
LINE
  5
17C
330
1F
100
AcDbEntity
  8
Layer0000
  6
Continuous
 62
     3
370
    25
100
AcDbLine
 10
-14.08269777109851
 20
430.9122150635715
 30
0.0
 11
-14.08269777109851
 21
232.9122150635715
 31
0.0
  0
LINE
  5
17D
330
1F
100
AcDbEntity
  8
Layer0000
  6
Continuous
 62
     3
370
    25
100
AcDbLine
 10
-15.08269777109851
 20
431.9122150635715
 30
0.0
 11
-14.08269777109851
 21
430.9122150635715
 31
0.0
  0
LINE
  5
17E
330
1F
100
AcDbEntity
  8
Layer0000
  6
Continuous
 62
     3
370
    25
100
AcDbLine
 10
-33.88269777109871
 20
431.9122150635715
 30
0.0
 11
-34.08269777109871
 21
431.7122150635716
 31
0.0
  0
LINE
  5
17F
330
1F
100
AcDbEntity
  8
Layer0000
  6
Continuous
 62
     3
370
    25
100
AcDbLine
 10
-14.08269777109851
 20
430.4122150635715
 30
0.0
 11
-13.08269777109851
 21
431.4122150635715
 31
0.0
  0
LINE
  5
180
330
1F
100
AcDbEntity
  8
Layer0000
  6
Continuous
 62
     3
370
    25
100
AcDbLine
 10
-14.08269777109851
 20
233.4122150635715
 30
0.0
 11
-13.08269777109851
 21
232.4122150635715
 31
0.0
  0
LINE
  5
181
330
1F
100
AcDbEntity
  8
Layer0000
  6
Continuous
 62
     3
370
    25
100
AcDbLine
 10
163.9173022289015
 20
232.4122150635715
 30
0.0
 11
164.9173022289015
 21
233.4122150635715
 31
0.0
  0
LINE
  5
182
330
1F
100
AcDbEntity
  8
Layer0000
  6
Continuous
 62
     3
370
    25
100
AcDbLine
 10
164.9173022289015
 20
430.4122150635715
 30
0.0
 11
164.9173022289015
 21
233.4122150635715
 31
0.0
  0
LINE
  5
183
330
1F
100
AcDbEntity
  8
Layer0000
  6
Continuous
 62
     3
370
    25
100
AcDbLine
 10
163.9173022289015
 20
431.4122150635715
 30
0.0
 11
164.9173022289015
 21
430.4122150635715
 31
0.0
  0
LINE
  5
184
330
1F
100
AcDbEntity
  8
Layer0000
  6
Continuous
 62
     3
370
    25
100
AcDbLine
 10
92.11730222890131
 20
431.4122150635715
 30
0.0
 11
91.61730222890128
 21
431.9122150635717
 31
0.0
  0
LINE
  5
185
330
1F
100
AcDbEntity
  8
Layer0000
  6
Continuous
 62
     3
370
    25
100
AcDbLine
 10
92.11730222890128
 20
232.4122150635715
 30
0.0
 11
91.61730222890128
 21
231.9122150635715
 31
0.0
  0
LINE
  5
186
330
1F
100
AcDbEntity
  8
Layer0000
  6
Continuous
 62
     3
370
    25
100
AcDbLine
 10
-632.3826977710987
 20
-141.0751878534442
 30
0.0
 11
-607.3826977710988
 21
-141.0751878534442
 31
0.0
  0
LINE
  5
187
330
1F
100
AcDbEntity
  8
Layer0000
  6
Continuous
 62
     3
370
    25
100
AcDbLine
 10
-676.3826977710987
 20
-131.0751878534442
 30
0.0
 11
-633.3826977710987
 21
-131.0751878534442
 31
0.0
  0
LINE
  5
188
330
1F
100
AcDbEntity
  8
Layer0000
  6
Continuous
 62
     3
370
    25
100
AcDbLine
 10
-677.3826977710987
 20
-132.0751878534442
 30
0.0
 11
-676.3826977710987
 21
-131.0751878534442
 31
0.0
  0
LINE
  5
189
330
1F
100
AcDbEntity
  8
Layer0000
  6
Continuous
 62
     3
370
    25
100
AcDbLine
 10
-572.5826977710987
 20
-130.5751878534442
 30
0.0
 11
-572.5826977710987
 21
-126.0751878534442
 31
0.0
  0
LINE
  5
18A
330
1F
100
AcDbEntity
  8
Layer0000
  6
Continuous
 62
     3
370
    25
100
AcDbLine
 10
-572.5826977710987
 20
-126.0751878534442
 30
0.0
 11
-572.3826977710986
 21
-126.0751878534442
 31
0.0
  0
LINE
  5
18B
330
1F
100
AcDbEntity
  8
Layer0000
  6
Continuous
 62
     3
370
    25
100
AcDbLine
 10
-572.3826977710986
 20
-130.0751878534442
 30
0.0
 11
-572.3826977710986
 21
-70.07518785344422
 31
0.0
  0
LINE
  5
18C
330
1F
100
AcDbEntity
  8
Layer0000
  6
Continuous
 62
     3
370
    25
100
AcDbLine
 10
-572.8826977710986
 20
-70.07518785344422
 30
0.0
 11
-611.8826977710986
 21
-70.07518785344422
 31
0.0
  0
LINE
  5
18D
330
1F
100
AcDbEntity
  8
Layer0000
  6
Continuous
 62
     3
370
    25
100
AcDbLine
 10
-612.3826977710986
 20
-70.57518785344422
 30
0.0
 11
-612.3826977710986
 21
-74.57518785344422
 31
0.0
  0
LINE
  5
18E
330
1F
100
AcDbEntity
  8
Layer0000
  6
Continuous
 62
     3
370
    25
100
AcDbLine
 10
-612.3826977710986
 20
-74.57518785344422
 30
0.0
 11
-628.3826977710985
 21
-74.57518785344422
 31
0.0
  0
LINE
  5
18F
330
1F
100
AcDbEntity
  8
Layer0000
  6
Continuous
 62
     3
370
    25
100
AcDbLine
 10
-628.3826977710985
 20
-74.57518785344422
 30
0.0
 11
-628.3826977710985
 21
-70.57518785344422
 31
0.0
  0
LINE
  5
190
330
1F
100
AcDbEntity
  8
Layer0000
  6
Continuous
 62
     3
370
    25
100
AcDbLine
 10
-628.8826977710985
 20
-70.07518785344422
 30
0.0
 11
-676.3826977710987
 21
-70.07518785344422
 31
0.0
  0
LINE
  5
191
330
1F
100
AcDbEntity
  8
Layer0000
  6
Continuous
 62
     3
370
    25
100
AcDbLine
 10
-677.3826977710987
 20
-71.07518785344422
 30
0.0
 11
-677.3826977710987
 21
-130.0751878534442
 31
0.0
  0
LINE
  5
192
330
1F
100
AcDbEntity
  8
Layer0000
  6
Continuous
 62
     3
370
    25
100
AcDbLine
 10
-632.3826977710987
 20
-132.0751878534442
 30
0.0
 11
-632.3826977710987
 21
-141.0751878534442
 31
0.0
  0
LINE
  5
193
330
1F
100
AcDbEntity
  8
Layer0000
  6
Continuous
 62
     3
370
    25
100
AcDbLine
 10
-631.8826977710987
 20
-140.5751878534442
 30
0.0
 11
-607.8826977710988
 21
-140.5751878534442
 31
0.0
  0
LINE
  5
194
330
1F
100
AcDbEntity
  8
Layer0000
  6
Continuous
 62
     3
370
    25
100
AcDbLine
 10
-632.3826977710987
 20
-140.0751878534442
 30
0.0
 11
-631.8826977710987
 21
-140.5751878534442
 31
0.0
  0
LINE
  5
195
330
1F
100
AcDbEntity
  8
Layer0000
  6
Continuous
 62
     3
370
    25
100
AcDbLine
 10
-632.2166723673145
 20
-132.2751878534442
 30
0.0
 11
-632.3826977710987
 21
-132.5627522881458
 31
0.0
  0
LINE
  5
196
330
1F
100
AcDbEntity
  8
Layer0000
  6
Continuous
 62
     3
370
    25
100
AcDbLine
 10
-633.5826977710988
 20
-130.9091624496597
 30
0.0
 11
-633.8702622058006
 21
-131.0751878534442
 31
0.0
  0
ARC
  5
197
330
1F
100
AcDbEntity
  8
Layer0000
  6
Continuous
 62
     3
370
    25
100
AcDbCircle
 10
-633.0826977710988
 20
-131.7751878534442
 30
0.0
 40
1.0
100
AcDbArc
 50
329.9999999999999
 51
119.9999999999965
  0
LINE
  5
198
330
1F
100
AcDbEntity
  8
Layer0000
  6
Continuous
 62
     3
370
    25
100
AcDbLine
 10
-607.3826977710988
 20
-132.0751878534442
 30
0.0
 11
-607.3826977710988
 21
-141.0751878534442
 31
0.0
  0
LINE
  5
199
330
1F
100
AcDbEntity
  8
Layer0000
  6
Continuous
 62
     3
370
    25
100
AcDbLine
 10
-607.3826977710988
 20
-140.0751878534442
 30
0.0
 11
-607.8826977710988
 21
-140.5751878534442
 31
0.0
  0
LINE
  5
19A
330
1F
100
AcDbEntity
  8
Layer0000
  6
Continuous
 62
     3
370
    25
100
AcDbLine
 10
-607.5487231748832
 20
-132.2751878534442
 30
0.0
 11
-607.3826977710988
 21
-132.5627522881458
 31
0.0
  0
LINE
  5
19B
330
1F
100
AcDbEntity
  8
Layer0000
  6
Continuous
 62
     3
370
    25
100
AcDbLine
 10
-606.1826977710988
 20
-130.9091624496597
 30
0.0
 11
-605.8951333363971
 21
-131.0751878534442
 31
0.0
  0
ARC
  5
19C
330
1F
100
AcDbEntity
  8
Layer0000
  6
Continuous
 62
     3
370
    25
100
AcDbCircle
 10
-606.6826977710988
 20
-131.7751878534442
 30
0.0
 40
1.0
100
AcDbArc
 50
60.0000000000035
 51
210.0000000000001
  0
LINE
  5
19D
330
1F
100
AcDbEntity
  8
Layer0000
  6
Continuous
 62
     3
370
    25
100
AcDbLine
 10
-628.3826977710985
 20
-70.57518785344422
 30
0.0
 11
-628.8826977710985
 21
-70.07518785344422
 31
0.0
  0
LINE
  5
19E
330
1F
100
AcDbEntity
  8
Layer0000
  6
Continuous
 62
     3
370
    25
100
AcDbLine
 10
-611.8826977710986
 20
-70.07518785344422
 30
0.0
 11
-612.3826977710986
 21
-70.57518785344422
 31
0.0
  0
LINE
  5
19F
330
1F
100
AcDbEntity
  8
Layer0000
  6
Continuous
 62
     3
370
    25
100
AcDbLine
 10
-676.3826977710987
 20
-131.0751878534442
 30
0.0
 11
-677.3826977710987
 21
-130.0751878534442
 31
0.0
  0
LINE
  5
1A0
330
1F
100
AcDbEntity
  8
Layer0000
  6
Continuous
 62
     3
370
    25
100
AcDbLine
 10
-677.3826977710987
 20
-71.07518785344422
 30
0.0
 11
-676.3826977710987
 21
-70.07518785344422
 31
0.0
  0
LINE
  5
1A1
330
1F
100
AcDbEntity
  8
Layer0000
  6
Continuous
 62
     3
370
    25
100
AcDbLine
 10
-572.8826977710986
 20
-70.07518785344422
 30
0.0
 11
-572.3826977710986
 21
-70.57518785344422
 31
0.0
  0
LINE
  5
1A2
330
1F
100
AcDbEntity
  8
Layer0000
  6
Continuous
 62
     3
370
    25
100
AcDbLine
 10
-573.0826977710987
 20
-131.0751878534442
 30
0.0
 11
-572.5826977710987
 21
-130.5751878534442
 31
0.0
  0
LINE
  5
1A3
330
1F
100
AcDbEntity
  8
Layer0000
  6
Continuous
 62
     3
370
    25
100
AcDbLine
 10
-607.3826977710988
 20
-132.0751878534442
 30
0.0
 11
-606.3826977710988
 21
-131.0751878534442
 31
0.0
  0
LINE
  5
1A4
330
1F
100
AcDbEntity
  8
Layer0000
  6
Continuous
 62
     3
370
    25
100
AcDbLine
 10
-633.3826977710987
 20
-131.0751878534442
 30
0.0
 11
-632.3826977710987
 21
-132.0751878534442
 31
0.0
  0
CIRCLE
  5
1A5
330
1F
100
AcDbEntity
  8
Layer0000
  6
Continuous
 62
     3
370
    25
100
AcDbCircle
 10
-621.3826977710987
 20
-92.07518785344422
 30
0.0
 40
6.899999999999977
  0
LINE
  5
1A6
330
1F
100
AcDbEntity
  8
Layer0000
  6
Continuous
 62
     3
370
    25
100
AcDbLine
 10
-677.3826977710987
 20
-130.0751878534442
 30
0.0
 11
-572.5826977710987
 21
-130.0751878534442
 31
0.0
  0
LINE
  5
1A7
330
1F
100
AcDbEntity
  8
Layer0000
  6
Continuous
 62
     3
370
    25
100
AcDbLine
 10
-552.3826977710986
 20
-69.27518785344427
 30
0.0
 11
-552.3826977710986
 21
-129.0751878534442
 31
0.0
  0
LINE
  5
1A8
330
1F
100
AcDbEntity
  8
Layer0000
  6
Continuous
 62
     3
370
    25
100
AcDbLine
 10
-552.5826977710985
 20
-69.07518785344422
 30
0.0
 11
-571.3826977710986
 21
-69.07518785344422
 31
0.0
  0
LINE
  5
1A9
330
1F
100
AcDbEntity
  8
Layer0000
  6
Continuous
 62
     3
370
    25
100
AcDbLine
 10
-572.3826977710986
 20
-70.07518785344422
 30
0.0
 11
-571.3826977710986
 21
-69.07518785344422
 31
0.0
  0
LINE
  5
1AA
330
1F
100
AcDbEntity
  8
Layer0000
  6
Continuous
 62
     3
370
    25
100
AcDbLine
 10
-571.3826977710986
 20
-131.0751878534442
 30
0.0
 11
-572.3826977710986
 21
-130.0751878534442
 31
0.0
  0
LINE
  5
1AB
330
1F
100
AcDbEntity
  8
Layer0000
  6
Continuous
 62
     3
370
    25
100
AcDbLine
 10
-552.5826977710985
 20
-69.07518785344422
 30
0.0
 11
-552.3826977710986
 21
-69.27518785344427
 31
0.0
  0
LINE
  5
1AC
330
1F
100
AcDbEntity
  8
Layer0000
  6
Continuous
 62
     3
370
    25
100
AcDbLine
 10
-554.3826977710986
 20
-131.0751878534442
 30
0.0
 11
-552.3826977710986
 21
-129.0751878534442
 31
0.0
  0
LINE
  5
1AD
330
1F
100
AcDbEntity
  8
Layer0000
  6
Continuous
 62
     3
370
    25
100
AcDbLine
 10
-606.3826977710988
 20
-131.0751878534442
 30
0.0
 11
-14.08269777109851
 21
-131.0751878534442
 31
0.0
  0
LINE
  5
1AE
330
1F
100
AcDbEntity
  8
Layer0000
  6
Continuous
 62
     3
370
    25
100
AcDbLine
 10
-677.3826977710987
 20
-132.0751878534442
 30
0.0
 11
-677.3826977710987
 21
-240.0751878534442
 31
0.0
  0
LINE
  5
1AF
330
1F
100
AcDbEntity
  8
Layer0000
  6
Continuous
 62
     3
370
    25
100
AcDbLine
 10
-601.8826977710986
 20
330.4688393905974
 30
0.0
 11
-604.3826977710986
 21
329.0254637176233
 31
0.0
  0
LINE
  5
1B0
330
1F
100
AcDbEntity
  8
Layer0000
  6
Continuous
 62
     3
370
    25
100
AcDbLine
 10
-606.8826977710986
 20
330.4688393905974
 30
0.0
 11
-604.3826977710987
 21
329.0254637176233
 31
0.0
  0
LINE
  5
1B1
330
1F
100
AcDbEntity
  8
Layer0000
  6
Continuous
 62
     3
370
    25
100
AcDbLine
 10
-676.3826977710987
 20
-241.0751878534442
 30
0.0
 11
-481.3826977710985
 21
-241.0751878534442
 31
0.0
  0
LINE
  5
1B2
330
1F
100
AcDbEntity
  8
Layer0000
  6
Continuous
 62
     3
370
    25
100
AcDbLine
 10
-676.3826977710987
 20
-241.0751878534442
 30
0.0
 11
-677.3826977710987
 21
-240.0751878534442
 31
0.0
  0
LINE
  5
1B3
330
1F
100
AcDbEntity
  8
Layer0000
  6
Continuous
 62
     3
370
    25
100
AcDbLine
 10
-14.08269777109854
 20
-70.07518785344422
 30
0.0
 11
-14.08269777109851
 21
-151.0751878534442
 31
0.0
  0
LINE
  5
1B4
330
1F
100
AcDbEntity
  8
Layer0000
  6
Continuous
 62
     3
370
    25
100
AcDbLine
 10
-34.08269777109874
 20
-69.27518785344427
 30
0.0
 11
-34.08269777109874
 21
-129.0751878534442
 31
0.0
  0
LINE
  5
1B5
330
1F
100
AcDbEntity
  8
Layer0000
  6
Continuous
 62
     3
370
    25
100
AcDbLine
 10
-15.08269777109854
 20
-69.07518785344422
 30
0.0
 11
-33.88269777109872
 21
-69.07518785344422
 31
0.0
  0
LINE
  5
1B6
330
1F
100
AcDbEntity
  8
Layer0000
  6
Continuous
 62
     3
370
    25
100
AcDbLine
 10
-14.08269777109854
 20
-70.07518785344422
 30
0.0
 11
-15.08269777109854
 21
-69.07518785344422
 31
0.0
  0
LINE
  5
1B7
330
1F
100
AcDbEntity
  8
Layer0000
  6
Continuous
 62
     3
370
    25
100
AcDbLine
 10
-14.08269777109854
 20
-130.0751878534442
 30
0.0
 11
-15.08269777109854
 21
-131.0751878534442
 31
0.0
  0
LINE
  5
1B8
330
1F
100
AcDbEntity
  8
Layer0000
  6
Continuous
 62
     3
370
    25
100
AcDbLine
 10
-32.08269777109874
 20
-131.0751878534442
 30
0.0
 11
-34.08269777109874
 21
-129.0751878534442
 31
0.0
  0
LINE
  5
1B9
330
1F
100
AcDbEntity
  8
Layer0000
  6
Continuous
 62
     3
370
    25
100
AcDbLine
 10
-33.88269777109872
 20
-69.07518785344422
 30
0.0
 11
-34.08269777109874
 21
-69.27518785344427
 31
0.0
  0
LINE
  5
1BA
330
1F
100
AcDbEntity
  8
Layer0000
  6
Continuous
 62
     3
370
    25
100
AcDbLine
 10
-13.58269777109854
 20
-70.07518785344422
 30
0.0
 11
-14.08269777109854
 21
-70.57518785344422
 31
0.0
  0
LINE
  5
1BB
330
1F
100
AcDbEntity
  8
Layer0000
  6
Continuous
 62
     3
370
    25
100
AcDbLine
 10
163.9173022289015
 20
-70.07518785344422
 30
0.0
 11
164.9173022289015
 21
-71.07518785344422
 31
0.0
  0
LINE
  5
1BC
330
1F
100
AcDbEntity
  8
Layer0000
  6
Continuous
 62
     3
370
    25
100
AcDbLine
 10
91.61730222890122
 20
-241.0751878534442
 30
0.0
 11
92.61730222890122
 21
-240.0751878534442
 31
0.0
  0
LINE
  5
1BD
330
1F
100
AcDbEntity
  8
Layer0000
  6
Continuous
 62
     3
370
    25
100
AcDbLine
 10
-463.3826977710985
 20
-241.0751878534442
 30
0.0
 11
91.61730222890122
 21
-241.0751878534442
 31
0.0
  0
LINE
  5
1BE
330
1F
100
AcDbEntity
  8
Layer0000
  6
Continuous
 62
     3
370
    25
100
AcDbLine
 10
-481.3826977710985
 20
-248.5751878534442
 30
0.0
 11
-481.3826977710985
 21
-237.0751878534442
 31
0.0
  0
LINE
  5
1BF
330
1F
100
AcDbEntity
  8
Layer0000
  6
Continuous
 62
     3
370
    25
100
AcDbLine
 10
-481.3826977710985
 20
-237.0751878534442
 30
0.0
 11
-463.3826977710985
 21
-237.0751878534442
 31
0.0
  0
LINE
  5
1C0
330
1F
100
AcDbEntity
  8
Layer0000
  6
Continuous
 62
     3
370
    25
100
AcDbLine
 10
-463.3826977710985
 20
-237.0751878534442
 30
0.0
 11
-463.3826977710985
 21
-248.5751878534442
 31
0.0
  0
LINE
  5
1C1
330
1F
100
AcDbEntity
  8
Layer0000
  6
Continuous
 62
     3
370
    25
100
AcDbLine
 10
-480.8826977710985
 20
-249.0751878534442
 30
0.0
 11
-463.8826977710985
 21
-249.0751878534442
 31
0.0
  0
LINE
  5
1C2
330
1F
100
AcDbEntity
  8
Layer0000
  6
Continuous
 62
     3
370
    25
100
AcDbLine
 10
-463.3826977710985
 20
-248.5751878534442
 30
0.0
 11
-463.8826977710985
 21
-249.0751878534442
 31
0.0
  0
LINE
  5
1C3
330
1F
100
AcDbEntity
  8
Layer0000
  6
Continuous
 62
     3
370
    25
100
AcDbLine
 10
-481.3826977710985
 20
-248.5751878534442
 30
0.0
 11
-480.8826977710985
 21
-249.0751878534442
 31
0.0
  0
LINE
  5
1C4
330
1F
100
AcDbEntity
  8
Layer0000
  6
Continuous
 62
     3
370
    25
100
AcDbLine
 10
-481.3826977710985
 20
-237.5751878534442
 30
0.0
 11
-480.8826977710985
 21
-237.0751878534442
 31
0.0
  0
LINE
  5
1C5
330
1F
100
AcDbEntity
  8
Layer0000
  6
Continuous
 62
     3
370
    25
100
AcDbLine
 10
-463.8826977710985
 20
-237.0751878534442
 30
0.0
 11
-463.3826977710985
 21
-237.5751878534442
 31
0.0
  0
LINE
  5
1C6
330
1F
100
AcDbEntity
  8
Layer0000
  6
Continuous
 62
     3
370
    25
100
AcDbLine
 10
-677.3826977710987
 20
-219.0751878534442
 30
0.0
 11
92.61730222890122
 21
-219.0751878534442
 31
0.0
  0
CIRCLE
  5
1C7
330
1F
100
AcDbEntity
  8
Layer0000
  6
Continuous
 62
     3
370
    25
100
AcDbCircle
 10
-492.3826977710986
 20
-179.0751878534444
 30
0.0
 40
11.0
  0
CIRCLE
  5
1C8
330
1F
100
AcDbEntity
  8
Layer0000
  6
Continuous
 62
     3
370
    25
100
AcDbCircle
 10
-402.3826977710985
 20
-179.0751878534444
 30
0.0
 40
11.0
  0
CIRCLE
  5
1C9
330
1F
100
AcDbEntity
  8
Layer0000
  6
Continuous
 62
     3
370
    25
100
AcDbCircle
 10
-312.3826977710985
 20
-179.0751878534444
 30
0.0
 40
11.0
  0
LINE
  5
1CA
330
1F
100
AcDbEntity
  8
Layer0000
  6
Continuous
 62
     3
370
    25
100
AcDbLine
 10
164.9173022289015
 20
-71.07518785344422
 30
0.0
 11
164.9173022289012
 21
-150.0751878534442
 31
0.0
  0
CIRCLE
  5
1CB
330
1F
100
AcDbEntity
  8
Layer0000
  6
Continuous
 62
     3
370
    25
100
AcDbCircle
 10
-42.38269777109849
 20
-179.0751878534444
 30
0.0
 40
11.0
  0
LINE
  5
1CC
330
1F
100
AcDbEntity
  8
Layer0000
  6
Continuous
 62
     3
370
    25
100
AcDbLine
 10
94.61730222890125
 20
-159.0751878534442
 30
0.0
 11
92.61730222890122
 21
-159.0751878534442
 31
0.0
  0
LINE
  5
1CD
330
1F
100
AcDbEntity
  8
Layer0000
  6
Continuous
 62
     3
370
    25
100
AcDbLine
 10
94.61730222890125
 20
-201.0751878534442
 30
0.0
 11
92.61730222890125
 21
-203.0751878534442
 31
0.0
  0
LINE
  5
1CE
330
1F
100
AcDbEntity
  8
Layer0000
  6
Continuous
 62
     3
370
    25
100
AcDbLine
 10
94.61730222890125
 20
-201.0751878534442
 30
0.0
 11
94.61730222890125
 21
-159.0751878534442
 31
0.0
  0
LINE
  5
1CF
330
1F
100
AcDbEntity
  8
Layer0000
  6
Continuous
 62
     3
370
    25
100
AcDbLine
 10
163.9173022289012
 20
-151.0751878534442
 30
0.0
 11
164.9173022289012
 21
-150.0751878534442
 31
0.0
  0
LINE
  5
1D0
330
1F
100
AcDbEntity
  8
Layer0000
  6
Continuous
 62
     3
370
    25
100
AcDbLine
 10
-72.38269777109849
 20
361.9122150635715
 30
0.0
 11
-72.38269777109849
 21
301.9122150635715
 31
0.0
  0
LINE
  5
1D1
330
1F
100
AcDbEntity
  8
Layer0000
  6
Continuous
 62
     3
370
    25
100
AcDbLine
 10
-58.52629131054744
 20
366.9122150635715
 30
0.0
 11
-58.52629131054744
 21
296.9122150635715
 31
0.0
  0
ARC
  5
1D2
330
1F
100
AcDbEntity
  8
Layer0000
  6
Continuous
 62
     3
370
    25
100
AcDbCircle
 10
-67.38269777109849
 20
361.9122150635715
 30
0.0
 40
5.0
100
AcDbArc
 50
90.0
 51
180.0
  0
ARC
  5
1D3
330
1F
100
AcDbEntity
  8
Layer0000
  6
Continuous
 62
     3
370
    25
100
AcDbCircle
 10
-67.38269777109849
 20
301.9122150635715
 30
0.0
 40
5.0
100
AcDbArc
 50
180.0
 51
270.0
  0
LINE
  5
1D4
330
1F
100
AcDbEntity
  8
Layer0000
  6
Continuous
 62
     3
370
    25
100
AcDbLine
 10
-552.3826977710986
 20
366.9122150635715
 30
0.0
 11
-34.08269777109871
 21
366.9122150635715
 31
0.0
  0
LINE
  5
1D5
330
1F
100
AcDbEntity
  8
Layer0000
  6
Continuous
 62
     3
370
    25
100
AcDbLine
 10
-552.3826977710986
 20
296.9122150635715
 30
0.0
 11
-34.08269777109871
 21
296.9122150635715
 31
0.0
  0
LINE
  5
1D6
330
1F
100
AcDbEntity
  8
Layer0000
  6
Continuous
 62
     3
370
    25
100
AcDbLine
 10
-34.08269777109871
 20
411.9122150635715
 30
0.0
 11
-552.3826977710986
 21
411.9122150635715
 31
0.0
  0
LINE
  5
1D7
330
1F
100
AcDbEntity
  8
Layer0000
  6
Continuous
 62
     3
370
    25
100
AcDbLine
 10
-34.08269777109871
 20
251.9122150635715
 30
0.0
 11
-552.3826977710986
 21
251.9122150635715
 31
0.0
  0
LINE
  5
1D8
330
1F
100
AcDbEntity
  8
Layer0000
  6
Continuous
 62
     3
370
    25
100
AcDbLine
 10
92.61730222890122
 20
-151.0751878534442
 30
0.0
 11
92.61730222890122
 21
-240.0751878534442
 31
0.0
  0
LINE
  5
1D9
330
1F
100
AcDbEntity
  8
Layer0000
  6
Continuous
 62
     3
370
    25
100
AcDbLine
 10
-601.8826977710986
 20
333.3555907365455
 30
0.0
 11
-601.8826977710986
 21
330.4688393905974
 31
0.0
  0
LINE
  5
1DA
330
1F
100
AcDbEntity
  8
Layer0000
  6
Continuous
 62
     3
370
    25
100
AcDbLine
 10
-606.8826977710986
 20
333.3555907365455
 30
0.0
 11
-606.8826977710986
 21
330.4688393905974
 31
0.0
  0
LINE
  5
1DB
330
1F
100
AcDbEntity
  8
Layer0000
  6
Continuous
 62
     3
370
    25
100
AcDbLine
 10
390.1173022289012
 20
252.9122150635715
 30
0.0
 11
390.1173022289012
 21
294.9122150635715
 31
0.0
  0
LINE
  5
1DC
330
1F
100
AcDbEntity
  8
Layer0000
  6
Continuous
 62
     3
370
    25
100
AcDbLine
 10
390.1173022289012
 20
368.9122150635715
 30
0.0
 11
390.1173022289012
 21
410.9122150635715
 31
0.0
  0
LINE
  5
1DD
330
1F
100
AcDbEntity
  8
Layer0000
  6
Continuous
 62
     3
370
    25
100
AcDbLine
 10
391.1173022289012
 20
411.9122150635715
 30
0.0
 11
409.6173022289012
 21
411.9122150635715
 31
0.0
  0
LINE
  5
1DE
330
1F
100
AcDbEntity
  8
Layer0000
  6
Continuous
 62
     3
370
    25
100
AcDbLine
 10
391.1173022289012
 20
251.9122150635715
 30
0.0
 11
409.6173022289012
 21
251.9122150635715
 31
0.0
  0
LINE
  5
1DF
330
1F
100
AcDbEntity
  8
Layer0000
  6
Continuous
 62
     3
370
    25
100
AcDbLine
 10
391.6173022289012
 20
367.4122150635715
 30
0.0
 11
410.1173022289012
 21
367.4122150635715
 31
0.0
  0
LINE
  5
1E0
330
1F
100
AcDbEntity
  8
Layer0000
  6
Continuous
 62
     3
370
    25
100
AcDbLine
 10
391.6173022289012
 20
296.4122150635715
 30
0.0
 11
410.1173022289012
 21
296.4122150635715
 31
0.0
  0
LINE
  5
1E1
330
1F
100
AcDbEntity
  8
Layer0000
  6
Continuous
 62
     3
370
    25
100
AcDbLine
 10
391.6173022289012
 20
251.9122150635715
 30
0.0
 11
390.1173022289012
 21
253.4122150635715
 31
0.0
  0
LINE
  5
1E2
330
1F
100
AcDbEntity
  8
Layer0000
  6
Continuous
 62
     3
370
    25
100
AcDbLine
 10
390.1173022289012
 20
410.4122150635715
 30
0.0
 11
391.6173022289012
 21
411.9122150635715
 31
0.0
  0
LINE
  5
1E3
330
1F
100
AcDbEntity
  8
Layer0000
  6
Continuous
 62
     3
370
    25
100
AcDbLine
 10
390.1173022289012
 20
294.9122150635715
 30
0.0
 11
391.6173022289012
 21
296.4122150635715
 31
0.0
  0
LINE
  5
1E4
330
1F
100
AcDbEntity
  8
Layer0000
  6
Continuous
 62
     3
370
    25
100
AcDbLine
 10
391.6173022289012
 20
367.4122150635715
 30
0.0
 11
390.1173022289012
 21
368.9122150635715
 31
0.0
  0
LINE
  5
1E5
330
1F
100
AcDbEntity
  8
Layer0000
  6
Continuous
 62
     3
370
    25
100
AcDbLine
 10
400.1173022289012
 20
366.9122150635715
 30
0.0
 11
459.1173022289013
 21
366.9122150635715
 31
0.0
  0
LINE
  5
1E6
330
1F
100
AcDbEntity
  8
Layer0000
  6
Continuous
 62
     3
370
    25
100
AcDbLine
 10
400.1173022289012
 20
296.9122150635715
 30
0.0
 11
459.1173022289013
 21
296.9122150635715
 31
0.0
  0
LINE
  5
1E7
330
1F
100
AcDbEntity
  8
Layer0000
  6
Continuous
 62
     3
370
    25
100
AcDbLine
 10
410.1173022289012
 20
296.4122150635715
 30
0.0
 11
410.1173022289012
 21
296.9122150635715
 31
0.0
  0
LINE
  5
1E8
330
1F
100
AcDbEntity
  8
Layer0000
  6
Continuous
 62
     3
370
    25
100
AcDbLine
 10
410.1173022289012
 20
366.9122150635715
 30
0.0
 11
410.1173022289012
 21
367.4122150635715
 31
0.0
  0
LINE
  5
1E9
330
1F
100
AcDbEntity
  8
Layer0000
  6
Continuous
 62
     3
370
    25
100
AcDbLine
 10
410.1173022289012
 20
266.4122150635715
 30
0.0
 11
415.1173022289012
 21
266.4122150635715
 31
0.0
  0
LINE
  5
1EA
330
1F
100
AcDbEntity
  8
Layer0000
  6
Continuous
 62
     3
370
    25
100
AcDbLine
 10
415.1173022289012
 20
266.4122150635715
 30
0.0
 11
415.1173022289012
 21
267.4122150635715
 31
0.0
  0
LINE
  5
1EB
330
1F
100
AcDbEntity
  8
Layer0000
  6
Continuous
 62
     3
370
    25
100
AcDbLine
 10
415.1173022289012
 20
267.4122150635715
 30
0.0
 11
463.6173031756646
 21
267.4122150635715
 31
0.0
  0
LINE
  5
1EC
330
1F
100
AcDbEntity
  8
Layer0000
  6
Continuous
 62
     3
370
    25
100
AcDbLine
 10
410.1173022289012
 20
397.4122150635715
 30
0.0
 11
415.1173022289012
 21
397.4122150635715
 31
0.0
  0
LINE
  5
1ED
330
1F
100
AcDbEntity
  8
Layer0000
  6
Continuous
 62
     3
370
    25
100
AcDbLine
 10
415.1173022289012
 20
397.4122150635715
 30
0.0
 11
415.1173022289012
 21
396.4122150635715
 31
0.0
  0
LINE
  5
1EE
330
1F
100
AcDbEntity
  8
Layer0000
  6
Continuous
 62
     3
370
    25
100
AcDbLine
 10
415.1173022289012
 20
396.4122150635715
 30
0.0
 11
463.6173031756646
 21
396.4122150635715
 31
0.0
  0
LINE
  5
1EF
330
1F
100
AcDbEntity
  8
Layer0000
  6
Continuous
 62
     3
370
    25
100
AcDbLine
 10
410.1173022289012
 20
252.4122150635715
 30
0.0
 11
409.6173022289012
 21
251.9122150635715
 31
0.0
  0
LINE
  5
1F0
330
1F
100
AcDbEntity
  8
Layer0000
  6
Continuous
 62
     3
370
    25
100
AcDbLine
 10
410.1173022289012
 20
411.4122150635715
 30
0.0
 11
409.6173022289012
 21
411.9122150635715
 31
0.0
  0
LINE
  5
1F1
330
1F
100
AcDbEntity
  8
Layer0000
  6
Continuous
 62
     3
370
    25
100
AcDbLine
 10
463.6173031756646
 20
266.4122150635715
 30
0.0
 11
463.6173031756646
 21
267.4122150635715
 31
0.0
  0
LINE
  5
1F2
330
1F
100
AcDbEntity
  8
Layer0000
  6
Continuous
 62
     3
370
    25
100
AcDbLine
 10
473.1173031756643
 20
266.4122150635715
 30
0.0
 11
463.6173031756646
 21
266.4122150635715
 31
0.0
  0
ARC
  5
1F3
330
1F
100
AcDbEntity
  8
Layer0000
  6
Continuous
 62
     3
370
    25
100
AcDbCircle
 10
473.1173031756643
 20
261.4122150635715
 30
0.0
 40
5.0
100
AcDbArc
 50
359.9647407304175
 51
90.0
  0
LINE
  5
1F4
330
1F
100
AcDbEntity
  8
Layer0000
  6
Continuous
 62
     3
370
    25
100
AcDbLine
 10
463.6173031756646
 20
397.4122150635715
 30
0.0
 11
463.6173031756646
 21
396.4122150635715
 31
0.0
  0
LINE
  5
1F5
330
1F
100
AcDbEntity
  8
Layer0000
  6
Continuous
 62
     3
370
    25
100
AcDbLine
 10
473.1173031756643
 20
397.4122150635715
 30
0.0
 11
463.6173031756646
 21
397.4122150635715
 31
0.0
  0
ARC
  5
1F6
330
1F
100
AcDbEntity
  8
Layer0000
  6
Continuous
 62
     3
370
    25
100
AcDbCircle
 10
473.1173031756643
 20
402.4122150635715
 30
0.0
 40
5.0
100
AcDbArc
 50
270.0
 51
0.0352592695825467
  0
LINE
  5
1F7
330
1F
100
AcDbEntity
  8
Layer0000
  6
Continuous
 62
     3
370
    25
100
AcDbLine
 10
479.1173022289013
 20
431.912215063571
 30
0.0
 11
499.1173022289013
 21
431.912215063571
 31
0.0
  0
LINE
  5
1F8
330
1F
100
AcDbEntity
  8
Layer0000
  6
Continuous
 62
     3
370
    25
100
AcDbLine
 10
479.1173022289013
 20
231.9122150635715
 30
0.0
 11
499.1173022289013
 21
231.9122150635715
 31
0.0
  0
LINE
  5
1F9
330
1F
100
AcDbEntity
  8
Layer0000
  6
Continuous
 62
     3
370
    25
100
AcDbLine
 10
500.1173022289013
 20
232.9122150635715
 30
0.0
 11
499.1173022289013
 21
231.9122150635715
 31
0.0
  0
LINE
  5
1FA
330
1F
100
AcDbEntity
  8
Layer0000
  6
Continuous
 62
     3
370
    25
100
AcDbLine
 10
500.1173022289013
 20
430.912215063571
 30
0.0
 11
499.1173022289013
 21
431.912215063571
 31
0.0
  0
LINE
  5
1FB
330
1F
100
AcDbEntity
  8
Layer0000
  6
Continuous
 62
     3
370
    25
100
AcDbLine
 10
478.1173022289013
 20
306.9122150635715
 30
0.0
 11
478.1173022289013
 21
356.9122150635715
 31
0.0
  0
LINE
  5
1FC
330
1F
100
AcDbEntity
  8
Layer0000
  6
Continuous
 62
     3
370
    25
100
AcDbLine
 10
478.1173022289013
 20
306.9122150635715
 30
0.0
 11
462.1173022289013
 21
306.9122150635715
 31
0.0
  0
LINE
  5
1FD
330
1F
100
AcDbEntity
  8
Layer0000
  6
Continuous
 62
     3
370
    25
100
AcDbLine
 10
478.1173022289013
 20
356.9122150635715
 30
0.0
 11
462.1173022289013
 21
356.9122150635715
 31
0.0
  0
LINE
  5
1FE
330
1F
100
AcDbEntity
  8
Layer0000
  6
Continuous
 62
     3
370
    25
100
AcDbLine
 10
478.1173022289013
 20
232.9122150635715
 30
0.0
 11
478.1173022289013
 21
261.4122150635715
 31
0.0
  0
LINE
  5
1FF
330
1F
100
AcDbEntity
  8
Layer0000
  6
Continuous
 62
     3
370
    25
100
AcDbLine
 10
478.1173022289013
 20
430.912215063571
 30
0.0
 11
478.1173022289013
 21
402.4152920151075
 31
0.0
  0
LINE
  5
200
330
1F
100
AcDbEntity
  8
Layer0000
  6
Continuous
 62
     3
370
    25
100
AcDbLine
 10
479.1173022289013
 20
431.912215063571
 30
0.0
 11
478.1173022289013
 21
430.912215063571
 31
0.0
  0
LINE
  5
201
330
1F
100
AcDbEntity
  8
Layer0000
  6
Continuous
 62
     3
370
    25
100
AcDbLine
 10
479.1173022289013
 20
231.9122150635715
 30
0.0
 11
478.1173022289013
 21
232.9122150635715
 31
0.0
  0
LINE
  5
202
330
1F
100
AcDbEntity
  8
Layer0000
  6
Continuous
 62
     3
370
    25
100
AcDbLine
 10
462.1173022289013
 20
299.9122150635715
 30
0.0
 11
462.1173022289013
 21
363.9122150635715
 31
0.0
  0
ARC
  5
203
330
1F
100
AcDbEntity
  8
Layer0000
  6
Continuous
 62
     3
370
    25
100
AcDbCircle
 10
459.1173022289013
 20
299.9122150635715
 30
0.0
 40
3.0
100
AcDbArc
 50
270.0
 51
0.0
  0
ARC
  5
204
330
1F
100
AcDbEntity
  8
Layer0000
  6
Continuous
 62
     3
370
    25
100
AcDbCircle
 10
459.1173022289013
 20
363.9122150635715
 30
0.0
 40
3.0
100
AcDbArc
 50
0.0
 51
90.0
  0
LINE
  5
205
330
1F
100
AcDbEntity
  8
Layer0000
  6
Continuous
 62
     3
370
    25
100
AcDbLine
 10
500.1173022289013
 20
232.9122150635715
 30
0.0
 11
500.1173022289013
 21
430.912215063571
 31
0.0
  0
LINE
  5
206
330
1F
100
AcDbEntity
  8
Layer0000
  6
Continuous
 62
     3
370
    25
100
AcDbLine
 10
426.1173022289014
 20
267.4122150635715
 30
0.0
 11
426.1173022289014
 21
257.9122150635715
 31
0.0
  0
LINE
  5
207
330
1F
100
AcDbEntity
  8
Layer0000
  6
Continuous
 62
     3
370
    25
100
AcDbLine
 10
426.1173022289014
 20
257.9122150635715
 30
0.0
 11
426.6173022289014
 21
257.4122150635715
 31
0.0
  0
LINE
  5
208
330
1F
100
AcDbEntity
  8
Layer0000
  6
Continuous
 62
     3
370
    25
100
AcDbLine
 10
426.1173022289014
 20
247.4122150635715
 30
0.0
 11
426.1173022289014
 21
249.9122150635715
 31
0.0
  0
LINE
  5
209
330
1F
100
AcDbEntity
  8
Layer0000
  6
Continuous
 62
     3
370
    25
100
AcDbLine
 10
426.1173022289014
 20
249.9122150635715
 30
0.0
 11
426.6173022289014
 21
250.4122150635715
 31
0.0
  0
LINE
  5
20A
330
1F
100
AcDbEntity
  8
Layer0000
  6
Continuous
 62
     3
370
    25
100
AcDbLine
 10
426.1173022289014
 20
247.4122150635715
 30
0.0
 11
427.1173022289014
 21
246.4122150635715
 31
0.0
  0
LINE
  5
20B
330
1F
100
AcDbEntity
  8
Layer0000
  6
Continuous
 62
     3
370
    25
100
AcDbLine
 10
427.1173022289014
 20
246.4122150635715
 30
0.0
 11
449.1173022289013
 21
246.4122150635715
 31
0.0
  0
LINE
  5
20C
330
1F
100
AcDbEntity
  8
Layer0000
  6
Continuous
 62
     3
370
    25
100
AcDbLine
 10
449.1173022289013
 20
246.4122150635715
 30
0.0
 11
450.1173022289013
 21
247.4122150635715
 31
0.0
  0
LINE
  5
20D
330
1F
100
AcDbEntity
  8
Layer0000
  6
Continuous
 62
     3
370
    25
100
AcDbLine
 10
450.1173022289013
 20
267.4122150635715
 30
0.0
 11
450.1173022289013
 21
257.9122150635715
 31
0.0
  0
LINE
  5
20E
330
1F
100
AcDbEntity
  8
Layer0000
  6
Continuous
 62
     3
370
    25
100
AcDbLine
 10
450.1173022289013
 20
257.9122150635715
 30
0.0
 11
449.6173022289013
 21
257.4122150635715
 31
0.0
  0
LINE
  5
20F
330
1F
100
AcDbEntity
  8
Layer0000
  6
Continuous
 62
     3
370
    25
100
AcDbLine
 10
450.1173022289013
 20
247.4122150635715
 30
0.0
 11
450.1173022289013
 21
249.9122150635715
 31
0.0
  0
LINE
  5
210
330
1F
100
AcDbEntity
  8
Layer0000
  6
Continuous
 62
     3
370
    25
100
AcDbLine
 10
450.1173022289013
 20
249.9122150635715
 30
0.0
 11
449.6173022289013
 21
250.4122150635715
 31
0.0
  0
LINE
  5
211
330
1F
100
AcDbEntity
  8
Layer0000
  6
Continuous
 62
     3
370
    25
100
AcDbLine
 10
426.1173022289014
 20
247.4122150635715
 30
0.0
 11
450.1173022289013
 21
247.4122150635715
 31
0.0
  0
LINE
  5
212
330
1F
100
AcDbEntity
  8
Layer0000
  6
Continuous
 62
     3
370
    25
100
AcDbLine
 10
426.6173022289014
 20
250.4122150635715
 30
0.0
 11
449.6173022289013
 21
250.4122150635715
 31
0.0
  0
LINE
  5
213
330
1F
100
AcDbEntity
  8
Layer0000
  6
Continuous
 62
     3
370
    25
100
AcDbLine
 10
426.6173022289014
 20
257.4122150635715
 30
0.0
 11
449.6173022289013
 21
257.4122150635715
 31
0.0
  0
LINE
  5
214
330
1F
100
AcDbEntity
  8
Layer0000
  6
Continuous
 62
     3
370
    25
100
AcDbLine
 10
426.1173022289014
 20
257.9122150635715
 30
0.0
 11
450.1173022289013
 21
257.9122150635715
 31
0.0
  0
LINE
  5
215
330
1F
100
AcDbEntity
  8
Layer0000
  6
Continuous
 62
     3
370
    25
100
AcDbLine
 10
426.1173022289014
 20
249.9122150635715
 30
0.0
 11
450.1173022289013
 21
249.9122150635715
 31
0.0
  0
ARC
  5
216
330
1F
100
AcDbEntity
  8
Layer0000
  6
Continuous
 62
     3
370
    25
100
AcDbCircle
 10
425.4173022289013
 20
253.9122150635715
 30
0.0
 40
3.700000000000005
100
AcDbArc
 50
288.9246444160511
 51
71.07535558394896
  0
ARC
  5
217
330
1F
100
AcDbEntity
  8
Layer0000
  6
Continuous
 62
     3
370
    25
100
AcDbCircle
 10
450.8173022289013
 20
253.9122150635715
 30
0.0
 40
3.700000000000006
100
AcDbArc
 50
108.9246444160512
 51
251.0753555839489
  0
LINE
  5
218
330
1F
100
AcDbEntity
  8
Layer0000
  6
Continuous
 62
     3
370
    25
100
AcDbLine
 10
428.6532006137635
 20
402.4122150635715
 30
0.0
 11
447.5814038440392
 21
402.4122150635715
 31
0.0
  0
LINE
  5
219
330
1F
100
AcDbEntity
  8
Layer0000
  6
Continuous
 62
     3
370
    25
100
AcDbLine
 10
428.1173022289014
 20
400.4122150635715
 30
0.0
 11
448.1173022289013
 21
400.4122150635715
 31
0.0
  0
LINE
  5
21A
330
1F
100
AcDbEntity
  8
Layer0000
  6
Continuous
 62
     3
370
    25
100
AcDbLine
 10
448.1173022289013
 20
400.4122150635715
 30
0.0
 11
447.5814038440392
 21
402.4122150635715
 31
0.0
  0
LINE
  5
21B
330
1F
100
AcDbEntity
  8
Layer0000
  6
Continuous
 62
     3
370
    25
100
AcDbLine
 10
428.1173022289014
 20
400.4122150635715
 30
0.0
 11
428.6532006137635
 21
402.4122150635715
 31
0.0
  0
LINE
  5
21C
330
1F
100
AcDbEntity
  8
Layer0000
  6
Continuous
 62
     3
370
    25
100
AcDbLine
 10
449.1173022289013
 20
396.4122150635715
 30
0.0
 11
449.1173022289013
 21
397.4122150635728
 31
0.0
  0
LINE
  5
21D
330
1F
100
AcDbEntity
  8
Layer0000
  6
Continuous
 62
     3
370
    25
100
AcDbLine
 10
427.1173022289014
 20
396.4122150635715
 30
0.0
 11
427.1173022289014
 21
397.4122150635717
 31
0.0
  0
LINE
  5
21E
330
1F
100
AcDbEntity
  8
Layer0000
  6
Continuous
 62
     3
370
    25
100
AcDbLine
 10
428.1173022289014
 20
400.4122150635715
 30
0.0
 11
428.1173022289014
 21
398.412215063571
 31
0.0
  0
LINE
  5
21F
330
1F
100
AcDbEntity
  8
Layer0000
  6
Continuous
 62
     3
370
    25
100
AcDbLine
 10
448.1173022289013
 20
400.4122150635715
 30
0.0
 11
448.1173022289013
 21
398.4122150635719
 31
0.0
  0
LINE
  5
220
330
1F
100
AcDbEntity
  8
Layer0000
  6
Continuous
 62
     3
370
    25
100
AcDbLine
 10
428.1173022289014
 20
398.412215063571
 30
0.0
 11
448.1173022289013
 21
398.4122150635719
 31
0.0
  0
LINE
  5
221
330
1F
100
AcDbEntity
  8
Layer0000
  6
Continuous
 62
     3
370
    25
100
AcDbLine
 10
427.1173022289014
 20
397.4122150635717
 30
0.0
 11
449.1173022289013
 21
397.4122150635728
 31
0.0
  0
LINE
  5
222
330
1F
100
AcDbEntity
  8
Layer0000
  6
Continuous
 62
     3
370
    25
100
AcDbLine
 10
449.1173022289013
 20
397.4122150635728
 30
0.0
 11
448.1173022289033
 21
398.4122150635719
 31
0.0
  0
LINE
  5
223
330
1F
100
AcDbEntity
  8
Layer0000
  6
Continuous
 62
     3
370
    25
100
AcDbLine
 10
427.1173022289014
 20
397.4122150635717
 30
0.0
 11
428.1173022289014
 21
398.4122150635717
 31
0.0
  0
LINE
  5
224
330
1F
100
AcDbEntity
  8
Layer0000
  6
Continuous
 62
     3
370
    25
100
AcDbLine
 10
394.1173022289012
 20
330.1801642560026
 30
0.0
 11
395.6173022289012
 21
331.0461896597869
 31
0.0
  0
LINE
  5
225
330
1F
100
AcDbEntity
  8
Layer0000
  6
Continuous
 62
     3
370
    25
100
AcDbLine
 10
395.6173022289012
 20
331.0461896597869
 30
0.0
 11
395.6173022289012
 21
332.778240467356
 31
0.0
  0
LINE
  5
226
330
1F
100
AcDbEntity
  8
Layer0000
  6
Continuous
 62
     3
370
    25
100
AcDbLine
 10
392.6173022289012
 20
332.778240467356
 30
0.0
 11
392.6173022289012
 21
331.0461896597869
 31
0.0
  0
LINE
  5
227
330
1F
100
AcDbEntity
  8
Layer0000
  6
Continuous
 62
     3
370
    25
100
AcDbLine
 10
392.6173022289012
 20
331.0461896597869
 30
0.0
 11
394.1173022289012
 21
330.1801642560026
 31
0.0
  0
CIRCLE
  5
228
330
1F
100
AcDbEntity
  8
Layer0000
  6
Continuous
 62
     3
370
    25
100
AcDbCircle
 10
367.1173022289012
 20
304.9122150635715
 30
0.0
 40
2.807179676972453
  0
CIRCLE
  5
229
330
1F
100
AcDbEntity
  8
Layer0000
  6
Continuous
 62
     3
370
    25
100
AcDbCircle
 10
367.1173022289012
 20
304.9122150635715
 30
0.0
 40
3.5
  0
LINE
  5
22A
330
1F
100
AcDbEntity
  8
Layer0000
  6
Continuous
 62
     3
370
    25
100
AcDbLine
 10
367.1173022289012
 20
303.1801642560026
 30
0.0
 11
368.6173022289012
 21
304.0461896597869
 31
0.0
  0
LINE
  5
22B
330
1F
100
AcDbEntity
  8
Layer0000
  6
Continuous
 62
     3
370
    25
100
AcDbLine
 10
368.6173022289012
 20
304.0461896597869
 30
0.0
 11
368.6173022289012
 21
305.778240467356
 31
0.0
  0
LINE
  5
22C
330
1F
100
AcDbEntity
  8
Layer0000
  6
Continuous
 62
     3
370
    25
100
AcDbLine
 10
368.6173022289012
 20
305.778240467356
 30
0.0
 11
367.1173022289012
 21
306.6442658711403
 31
0.0
  0
LINE
  5
22D
330
1F
100
AcDbEntity
  8
Layer0000
  6
Continuous
 62
     3
370
    25
100
AcDbLine
 10
367.1173022289012
 20
306.6442658711403
 30
0.0
 11
365.6173022289012
 21
305.778240467356
 31
0.0
  0
LINE
  5
22E
330
1F
100
AcDbEntity
  8
Layer0000
  6
Continuous
 62
     3
370
    25
100
AcDbLine
 10
365.6173022289012
 20
305.778240467356
 30
0.0
 11
365.6173022289012
 21
304.0461896597869
 31
0.0
  0
LINE
  5
22F
330
1F
100
AcDbEntity
  8
Layer0000
  6
Continuous
 62
     3
370
    25
100
AcDbLine
 10
365.6173022289012
 20
304.0461896597869
 30
0.0
 11
367.1173022289012
 21
303.1801642560026
 31
0.0
  0
LINE
  5
230
330
1F
100
AcDbEntity
  8
Layer0000
  6
Continuous
 62
     3
370
    25
100
AcDbLine
 10
340.1173022289012
 20
330.1801642560026
 30
0.0
 11
341.6173022289012
 21
331.0461896597869
 31
0.0
  0
LINE
  5
231
330
1F
100
AcDbEntity
  8
Layer0000
  6
Continuous
 62
     3
370
    25
100
AcDbLine
 10
338.6173022289012
 20
331.0461896597869
 30
0.0
 11
340.1173022289012
 21
330.1801642560026
 31
0.0
  0
LINE
  5
232
330
1F
100
AcDbEntity
  8
Layer0000
  6
Continuous
 62
     3
370
    25
100
AcDbLine
 10
341.6173022289012
 20
331.0461896597869
 30
0.0
 11
341.6173022289012
 21
332.778240467356
 31
0.0
  0
LINE
  5
233
330
1F
100
AcDbEntity
  8
Layer0000
  6
Continuous
 62
     3
370
    25
100
AcDbLine
 10
338.6173022289012
 20
332.778240467356
 30
0.0
 11
338.6173022289012
 21
331.0461896597869
 31
0.0
  0
LINE
  5
234
330
1F
100
AcDbEntity
  8
Layer0000
  6
Continuous
 62
     3
370
    25
100
AcDbLine
 10
376.8506030638346
 20
316.7707866350286
 30
0.0
 11
385.0968143150699
 21
331.0536434921144
 31
0.0
  0
LINE
  5
235
330
1F
100
AcDbEntity
  8
Layer0000
  6
Continuous
 62
     3
370
    25
100
AcDbLine
 10
358.8710909776659
 20
315.9122150635715
 30
0.0
 11
375.3635134801365
 21
315.9122150635715
 31
0.0
  0
ARC
  5
236
330
1F
100
AcDbEntity
  8
Layer0000
  6
Continuous
 62
     3
370
    25
100
AcDbCircle
 10
367.1173022289012
 20
331.9122150635715
 30
0.0
 40
16.5
100
AcDbArc
 50
224.1411102339325
 51
255.8588897660675
  0
LINE
  5
237
330
1F
100
AcDbEntity
  8
Layer0000
  6
Continuous
 62
     3
370
    25
100
AcDbLine
 10
349.1377901427326
 20
331.0536434921144
 30
0.0
 11
357.3840013939679
 21
316.7707866350286
 31
0.0
  0
ARC
  5
238
330
1F
100
AcDbEntity
  8
Layer0000
  6
Continuous
 62
     3
370
    25
100
AcDbCircle
 10
367.1173022289012
 20
331.9122150635715
 30
0.0
 40
16.5
100
AcDbArc
 50
284.1411102339325
 51
315.8588897660687
  0
ARC
  5
239
330
1F
100
AcDbEntity
  8
Layer0000
  6
Continuous
 62
     3
370
    25
100
AcDbCircle
 10
367.1173022289012
 20
331.9122150635715
 30
0.0
 40
16.5
100
AcDbArc
 50
344.1411102339315
 51
15.85888976606875
  0
ARC
  5
23A
330
1F
100
AcDbEntity
  8
Layer0000
  6
Continuous
 62
     3
370
    25
100
AcDbCircle
 10
367.1173022289012
 20
331.9122150635715
 30
0.0
 40
16.5
100
AcDbArc
 50
164.1411102339329
 51
195.8588897660675
  0
LINE
  5
23B
330
1F
100
AcDbEntity
  8
Layer0000
  6
Continuous
 62
     3
370
    25
100
AcDbLine
 10
373.1084755873537
 20
323.2892317173639
 30
0.0
 11
377.5806115423532
 21
331.035198409779
 31
0.0
  0
LINE
  5
23C
330
1F
100
AcDbEntity
  8
Layer0000
  6
Continuous
 62
     3
370
    25
100
AcDbLine
 10
356.6539929154494
 20
331.0351984097788
 30
0.0
 11
361.1261288704489
 21
323.2892317173639
 31
0.0
  0
LINE
  5
23D
330
1F
100
AcDbEntity
  8
Layer0000
  6
Continuous
 62
     3
370
    25
100
AcDbLine
 10
362.6451662739017
 20
322.4122150635715
 30
0.0
 11
371.5894381839008
 21
322.4122150635715
 31
0.0
  0
ARC
  5
23E
330
1F
100
AcDbEntity
  8
Layer0000
  6
Continuous
 62
     3
370
    25
100
AcDbCircle
 10
367.1173022289012
 20
331.9122150635715
 30
0.0
 40
10.5
100
AcDbArc
 50
235.2087652967585
 51
244.7912347032416
  0
ARC
  5
23F
330
1F
100
AcDbEntity
  8
Layer0000
  6
Continuous
 62
     3
370
    25
100
AcDbCircle
 10
367.1173022289012
 20
331.9122150635715
 30
0.0
 40
10.5
100
AcDbArc
 50
295.2087652967583
 51
304.7912347032418
  0
ARC
  5
240
330
1F
100
AcDbEntity
  8
Layer0000
  6
Continuous
 62
     3
370
    25
100
AcDbCircle
 10
367.1173022289012
 20
331.9122150635715
 30
0.0
 40
10.5
100
AcDbArc
 50
355.2087652967584
 51
4.791234703242167
  0
ARC
  5
241
330
1F
100
AcDbEntity
  8
Layer0000
  6
Continuous
 62
     3
370
    25
100
AcDbCircle
 10
367.1173022289012
 20
331.9122150635715
 30
0.0
 40
10.5
100
AcDbArc
 50
175.2087652967591
 51
184.7912347032415
  0
ARC
  5
242
330
1F
100
AcDbEntity
  8
Layer0000
  6
Continuous
 62
     3
370
    25
100
AcDbCircle
 10
393.1173022289012
 20
361.4122150635715
 30
0.0
 40
6.0
100
AcDbArc
 50
324.3033833985198
 51
0.0
  0
LINE
  5
243
330
1F
100
AcDbEntity
  8
Layer0000
  6
Continuous
 62
     3
370
    25
100
AcDbLine
 10
399.1173022289012
 20
361.4122150635715
 30
0.0
 11
399.1173022289012
 21
361.9122150635715
 31
0.0
  0
CIRCLE
  5
244
330
1F
100
AcDbEntity
  8
Layer0000
  6
Continuous
 62
     3
370
    25
100
AcDbCircle
 10
367.1173022289012
 20
331.9122150635715
 30
0.0
 40
17.99999999999989
  0
LINE
  5
245
330
1F
100
AcDbEntity
  8
Layer0000
  6
Continuous
 62
     3
370
    25
100
AcDbLine
 10
399.1173022289012
 20
361.9122150635715
 30
0.0
 11
399.1173022289012
 21
365.9122150635715
 31
0.0
  0
LINE
  5
246
330
1F
100
AcDbEntity
  8
Layer0000
  6
Continuous
 62
     3
370
    25
100
AcDbLine
 10
455.1173022289013
 20
366.9122150635712
 30
0.0
 11
462.1173022289013
 21
359.9122150635712
 31
0.0
  0
LINE
  5
247
330
1F
100
AcDbEntity
  8
Layer0000
  6
Continuous
 62
     3
370
    25
100
AcDbLine
 10
455.1173022289013
 20
296.9122150635715
 30
0.0
 11
462.1173022289013
 21
303.9122150635715
 31
0.0
  0
LINE
  5
248
330
1F
100
AcDbEntity
  8
Layer0000
  6
Continuous
 62
     3
370
    25
100
AcDbLine
 10
409.6173022289012
 20
431.4122150635715
 30
0.0
 11
330.1173022289012
 21
431.4122150635715
 31
0.0
  0
LINE
  5
249
330
1F
100
AcDbEntity
  8
Layer0000
  6
Continuous
 62
     3
370
    25
100
AcDbLine
 10
409.6173022289012
 20
232.4122150635715
 30
0.0
 11
330.1173022289012
 21
232.4122150635715
 31
0.0
  0
LINE
  5
24A
330
1F
100
AcDbEntity
  8
Layer0000
  6
Continuous
 62
     3
370
    25
100
AcDbLine
 10
329.1173022289012
 20
233.4122150635715
 30
0.0
 11
329.1173022289012
 21
430.4122150635715
 31
0.0
  0
LINE
  5
24B
330
1F
100
AcDbEntity
  8
Layer0000
  6
Continuous
 62
     3
370
    25
100
AcDbLine
 10
410.1173022289012
 20
232.9122150635715
 30
0.0
 11
410.1173022289012
 21
266.4122150635715
 31
0.0
  0
LINE
  5
24C
330
1F
100
AcDbEntity
  8
Layer0000
  6
Continuous
 62
     3
370
    25
100
AcDbLine
 10
410.1173022289012
 20
397.4122150635715
 30
0.0
 11
410.1173022289012
 21
430.9122150635715
 31
0.0
  0
LINE
  5
24D
330
1F
100
AcDbEntity
  8
Layer0000
  6
Continuous
 62
     3
370
    25
100
AcDbLine
 10
409.6173022289012
 20
251.9122150635715
 30
0.0
 11
410.1173022289012
 21
251.4122150635715
 31
0.0
  0
LINE
  5
24E
330
1F
100
AcDbEntity
  8
Layer0000
  6
Continuous
 62
     3
370
    25
100
AcDbLine
 10
410.1173022289012
 20
232.9122150635715
 30
0.0
 11
409.6173022289012
 21
232.4122150635715
 31
0.0
  0
LINE
  5
24F
330
1F
100
AcDbEntity
  8
Layer0000
  6
Continuous
 62
     3
370
    25
100
AcDbLine
 10
410.1173022289012
 20
430.9122150635715
 30
0.0
 11
409.6173022289012
 21
431.4122150635715
 31
0.0
  0
LINE
  5
250
330
1F
100
AcDbEntity
  8
Layer0000
  6
Continuous
 62
     3
370
    25
100
AcDbLine
 10
410.1173022289012
 20
412.4122150635715
 30
0.0
 11
409.6173022289012
 21
411.9122150635715
 31
0.0
  0
LINE
  5
251
330
1F
100
AcDbEntity
  8
Layer0000
  6
Continuous
 62
     3
370
    25
100
AcDbLine
 10
410.6173022289012
 20
232.4122150635715
 30
0.0
 11
410.1173022289012
 21
232.9122150635715
 31
0.0
  0
LINE
  5
252
330
1F
100
AcDbEntity
  8
Layer0000
  6
Continuous
 62
     3
370
    25
100
AcDbLine
 10
410.6173022289012
 20
232.4122150635715
 30
0.0
 11
421.6173022289012
 21
232.4122150635715
 31
0.0
  0
LINE
  5
253
330
1F
100
AcDbEntity
  8
Layer0000
  6
Continuous
 62
     3
370
    25
100
AcDbLine
 10
421.6173022289012
 20
232.4122150635715
 30
0.0
 11
422.1173022289012
 21
232.9122150635715
 31
0.0
  0
LINE
  5
254
330
1F
100
AcDbEntity
  8
Layer0000
  6
Continuous
 62
     3
370
    25
100
AcDbLine
 10
421.6173022289012
 20
264.4122150635715
 30
0.0
 11
410.6173022289012
 21
264.4122150635715
 31
0.0
  0
LINE
  5
255
330
1F
100
AcDbEntity
  8
Layer0000
  6
Continuous
 62
     3
370
    25
100
AcDbLine
 10
422.1173022289012
 20
263.9122150635715
 30
0.0
 11
421.6173022289012
 21
264.4122150635715
 31
0.0
  0
LINE
  5
256
330
1F
100
AcDbEntity
  8
Layer0000
  6
Continuous
 62
     3
370
    25
100
AcDbLine
 10
410.1173022289012
 20
263.9122150635715
 30
0.0
 11
410.6173022289012
 21
264.4122150635715
 31
0.0
  0
LINE
  5
257
330
1F
100
AcDbEntity
  8
Layer0000
  6
Continuous
 62
     3
370
    25
100
AcDbLine
 10
422.1173022289012
 20
232.9122150635715
 30
0.0
 11
422.1173022289012
 21
263.9122150635715
 31
0.0
  0
LINE
  5
258
330
1F
100
AcDbEntity
  8
Layer0000
  6
Continuous
 62
     3
370
    25
100
AcDbLine
 10
423.1173022289012
 20
250.3337540944888
 30
0.0
 11
423.1173022289012
 21
236.4906760326539
 31
0.0
  0
LINE
  5
259
330
1F
100
AcDbEntity
  8
Layer0000
  6
Continuous
 62
     3
370
    25
100
AcDbLine
 10
423.1173022289012
 20
250.3337540944888
 30
0.0
 11
422.1173022289012
 21
252.0658049020576
 31
0.0
  0
LINE
  5
25A
330
1F
100
AcDbEntity
  8
Layer0000
  6
Continuous
 62
     3
370
    25
100
AcDbLine
 10
423.1173022289012
 20
236.4906760326539
 30
0.0
 11
422.1173022289012
 21
234.7586252250851
 31
0.0
  0
LINE
  5
25B
330
1F
100
AcDbEntity
  8
Layer0000
  6
Continuous
 62
     3
370
    25
100
AcDbLine
 10
421.6173022289012
 20
431.4122150635715
 30
0.0
 11
422.1173022289012
 21
430.9122150635715
 31
0.0
  0
LINE
  5
25C
330
1F
100
AcDbEntity
  8
Layer0000
  6
Continuous
 62
     3
370
    25
100
AcDbLine
 10
422.1173022289012
 20
399.9122150635715
 30
0.0
 11
421.6173022289012
 21
399.4122150635715
 31
0.0
  0
LINE
  5
25D
330
1F
100
AcDbEntity
  8
Layer0000
  6
Continuous
 62
     3
370
    25
100
AcDbLine
 10
422.1173022289012
 20
430.9122150635715
 30
0.0
 11
422.1173022289012
 21
399.9122150635715
 31
0.0
  0
LINE
  5
25E
330
1F
100
AcDbEntity
  8
Layer0000
  6
Continuous
 62
     3
370
    25
100
AcDbLine
 10
421.6173022289012
 20
399.4122150635715
 30
0.0
 11
410.6173022289012
 21
399.4122150635715
 31
0.0
  0
LINE
  5
25F
330
1F
100
AcDbEntity
  8
Layer0000
  6
Continuous
 62
     3
370
    25
100
AcDbLine
 10
410.1173022289012
 20
399.9122150635715
 30
0.0
 11
410.6173022289012
 21
399.4122150635715
 31
0.0
  0
LINE
  5
260
330
1F
100
AcDbEntity
  8
Layer0000
  6
Continuous
 62
     3
370
    25
100
AcDbLine
 10
423.1173022289012
 20
413.4906760326542
 30
0.0
 11
423.1173022289012
 21
427.333754094489
 31
0.0
  0
LINE
  5
261
330
1F
100
AcDbEntity
  8
Layer0000
  6
Continuous
 62
     3
370
    25
100
AcDbLine
 10
423.1173022289012
 20
413.4906760326542
 30
0.0
 11
422.1173022289012
 21
411.7586252250853
 31
0.0
  0
LINE
  5
262
330
1F
100
AcDbEntity
  8
Layer0000
  6
Continuous
 62
     3
370
    25
100
AcDbLine
 10
423.1173022289012
 20
427.333754094489
 30
0.0
 11
422.1173022289012
 21
429.0658049020578
 31
0.0
  0
LINE
  5
263
330
1F
100
AcDbEntity
  8
Layer0000
  6
Continuous
 62
     3
370
    25
100
AcDbLine
 10
410.6173022289012
 20
431.4122150635715
 30
0.0
 11
421.6173022289012
 21
431.4122150635715
 31
0.0
  0
LINE
  5
264
330
1F
100
AcDbEntity
  8
Layer0000
  6
Continuous
 62
     3
370
    25
100
AcDbLine
 10
410.6173022289012
 20
431.4122150635715
 30
0.0
 11
410.1173022289012
 21
430.9122150635715
 31
0.0
  0
LINE
  5
265
330
1F
100
AcDbEntity
  8
Layer0000
  6
Continuous
 62
     3
370
    25
100
AcDbLine
 10
404.1173022289012
 20
321.9122150635715
 30
0.0
 11
395.1173022289012
 21
298.4122150635715
 31
0.0
  0
LINE
  5
266
330
1F
100
AcDbEntity
  8
Layer0000
  6
Continuous
 62
     3
370
    25
100
AcDbLine
 10
395.1173022289012
 20
298.4122150635715
 30
0.0
 11
389.6173022289012
 21
298.4122150635715
 31
0.0
  0
LINE
  5
267
330
1F
100
AcDbEntity
  8
Layer0000
  6
Continuous
 62
     3
370
    25
100
AcDbLine
 10
389.6173022289012
 20
288.4122150635715
 30
0.0
 11
389.6173022289012
 21
298.4122150635715
 31
0.0
  0
LINE
  5
268
330
1F
100
AcDbEntity
  8
Layer0000
  6
Continuous
 62
     3
370
    25
100
AcDbLine
 10
390.1173022289012
 20
288.4122150635715
 30
0.0
 11
389.6173022289012
 21
288.4122150635715
 31
0.0
  0
LINE
  5
269
330
1F
100
AcDbEntity
  8
Layer0000
  6
Continuous
 62
     3
370
    25
100
AcDbLine
 10
399.1173022289012
 20
365.9122150635715
 30
0.0
 11
400.1173022289012
 21
366.9122150635715
 31
0.0
  0
ARC
  5
26A
330
1F
100
AcDbEntity
  8
Layer0000
  6
Continuous
 62
     3
370
    25
100
AcDbCircle
 10
393.1173022289012
 20
302.4122150635715
 30
0.0
 40
6.0
100
AcDbArc
 50
0.0
 51
35.69661660147899
  0
LINE
  5
26B
330
1F
100
AcDbEntity
  8
Layer0000
  6
Continuous
 62
     3
370
    25
100
AcDbLine
 10
399.1173022289012
 20
302.4122150635715
 30
0.0
 11
399.1173022289012
 21
301.9122150635715
 31
0.0
  0
LINE
  5
26C
330
1F
100
AcDbEntity
  8
Layer0000
  6
Continuous
 62
     3
370
    25
100
AcDbLine
 10
399.1173022289012
 20
301.9122150635715
 30
0.0
 11
399.1173022289012
 21
297.9122150635715
 31
0.0
  0
LINE
  5
26D
330
1F
100
AcDbEntity
  8
Layer0000
  6
Continuous
 62
     3
370
    25
100
AcDbLine
 10
399.1173022289012
 20
297.9122150635715
 30
0.0
 11
400.1173022289012
 21
296.9122150635715
 31
0.0
  0
LINE
  5
26E
330
1F
100
AcDbEntity
  8
Layer0000
  6
Continuous
 62
     3
370
    25
100
AcDbLine
 10
418.1173022289012
 20
296.9122150635715
 30
0.0
 11
418.1173022289012
 21
366.9122150635715
 31
0.0
  0
LINE
  5
26F
330
1F
100
AcDbEntity
  8
Layer0000
  6
Continuous
 62
     3
370
    25
100
AcDbLine
 10
329.1173022289013
 20
289.9122150635715
 30
0.0
 11
333.6173022289013
 21
289.9122150635715
 31
0.0
  0
LINE
  5
270
330
1F
100
AcDbEntity
  8
Layer0000
  6
Continuous
 62
     3
370
    25
100
AcDbLine
 10
329.1173022289013
 20
273.9122150635715
 30
0.0
 11
333.6173022289013
 21
273.9122150635715
 31
0.0
  0
LINE
  5
271
330
1F
100
AcDbEntity
  8
Layer0000
  6
Continuous
 62
     3
370
    25
100
AcDbLine
 10
333.6173022289013
 20
289.9122150635715
 30
0.0
 11
333.6173022289013
 21
273.9122150635715
 31
0.0
  0
LINE
  5
272
330
1F
100
AcDbEntity
  8
Layer0000
  6
Continuous
 62
     3
370
    25
100
AcDbLine
 10
329.1173022289012
 20
373.9122150635715
 30
0.0
 11
333.6173022289012
 21
373.9122150635715
 31
0.0
  0
LINE
  5
273
330
1F
100
AcDbEntity
  8
Layer0000
  6
Continuous
 62
     3
370
    25
100
AcDbLine
 10
329.1173022289012
 20
389.9122150635715
 30
0.0
 11
333.6173022289012
 21
389.9122150635715
 31
0.0
  0
LINE
  5
274
330
1F
100
AcDbEntity
  8
Layer0000
  6
Continuous
 62
     3
370
    25
100
AcDbLine
 10
333.6173022289012
 20
373.9122150635715
 30
0.0
 11
333.6173022289012
 21
389.9122150635715
 31
0.0
  0
LINE
  5
275
330
1F
100
AcDbEntity
  8
Layer0000
  6
Continuous
 62
     3
370
    25
100
AcDbLine
 10
329.1173022289012
 20
233.4122150635715
 30
0.0
 11
330.1173022289012
 21
232.4122150635715
 31
0.0
  0
LINE
  5
276
330
1F
100
AcDbEntity
  8
Layer0000
  6
Continuous
 62
     3
370
    25
100
AcDbLine
 10
329.1173022289012
 20
430.4122150635715
 30
0.0
 11
330.1173022289012
 21
431.4122150635715
 31
0.0
  0
LINE
  5
277
330
1F
100
AcDbEntity
  8
Layer0000
  6
Continuous
 62
     3
370
    25
100
AcDbLine
 10
395.1173022289012
 20
365.4122150635715
 30
0.0
 11
389.6173022289012
 21
365.4122150635715
 31
0.0
  0
LINE
  5
278
330
1F
100
AcDbEntity
  8
Layer0000
  6
Continuous
 62
     3
370
    25
100
AcDbLine
 10
389.6173022289012
 20
375.4122150635715
 30
0.0
 11
389.6173022289012
 21
365.4122150635715
 31
0.0
  0
LINE
  5
279
330
1F
100
AcDbEntity
  8
Layer0000
  6
Continuous
 62
     3
370
    25
100
AcDbLine
 10
390.1173022289012
 20
375.4122150635715
 30
0.0
 11
389.6173022289012
 21
375.4122150635715
 31
0.0
  0
LINE
  5
27A
330
1F
100
AcDbEntity
  8
Layer0000
  6
Continuous
 62
     3
370
    25
100
AcDbLine
 10
404.1173022289012
 20
341.912215063571
 30
0.0
 11
395.1173022289012
 21
365.4122150635715
 31
0.0
  0
LINE
  5
27B
330
1F
100
AcDbEntity
  8
Layer0000
  6
Continuous
 62
     3
370
    25
100
AcDbLine
 10
404.1173022289012
 20
341.912215063571
 30
0.0
 11
404.1173022289012
 21
321.9122150635715
 31
0.0
  0
LINE
  5
27C
330
1F
100
AcDbEntity
  8
Layer0000
  6
Continuous
 62
     3
370
    25
100
AcDbLine
 10
139.9173022289016
 20
-70.57518785344422
 30
0.0
 11
139.9173022289016
 21
-74.57518785344422
 31
0.0
  0
LINE
  5
27D
330
1F
100
AcDbEntity
  8
Layer0000
  6
Continuous
 62
     3
370
    25
100
AcDbLine
 10
123.9173022289016
 20
-70.57518785344422
 30
0.0
 11
123.9173022289016
 21
-74.57518785344422
 31
0.0
  0
LINE
  5
27E
330
1F
100
AcDbEntity
  8
Layer0000
  6
Continuous
 62
     3
370
    25
100
AcDbLine
 10
123.9173022289016
 20
-74.57518785344422
 30
0.0
 11
139.9173022289016
 21
-74.57518785344422
 31
0.0
  0
LINE
  5
27F
330
1F
100
AcDbEntity
  8
Layer0000
  6
Continuous
 62
     3
370
    25
100
AcDbLine
 10
41.91730222890158
 20
-70.57518785344422
 30
0.0
 11
41.91730222890158
 21
-74.57518785344422
 31
0.0
  0
LINE
  5
280
330
1F
100
AcDbEntity
  8
Layer0000
  6
Continuous
 62
     3
370
    25
100
AcDbLine
 10
25.91730222890158
 20
-70.57518785344422
 30
0.0
 11
25.91730222890158
 21
-74.57518785344422
 31
0.0
  0
LINE
  5
281
330
1F
100
AcDbEntity
  8
Layer0000
  6
Continuous
 62
     3
370
    25
100
AcDbLine
 10
25.91730222890158
 20
-74.57518785344422
 30
0.0
 11
41.91730222890158
 21
-74.57518785344422
 31
0.0
  0
LINE
  5
282
330
1F
100
AcDbEntity
  8
Layer0000
  6
Continuous
 62
     3
370
    25
100
AcDbLine
 10
123.9173022289016
 20
-70.57518785344422
 30
0.0
 11
123.4173022289016
 21
-70.07518785344422
 31
0.0
  0
LINE
  5
283
330
1F
100
AcDbEntity
  8
Layer0000
  6
Continuous
 62
     3
370
    25
100
AcDbLine
 10
140.4173022289016
 20
-70.07518785344422
 30
0.0
 11
139.9173022289016
 21
-70.57518785344422
 31
0.0
  0
LINE
  5
284
330
1F
100
AcDbEntity
  8
Layer0000
  6
Continuous
 62
     3
370
    25
100
AcDbLine
 10
-13.58269777109854
 20
-70.07518785344422
 30
0.0
 11
163.9173022289015
 21
-70.07518785344422
 31
0.0
  0
LINE
  5
285
330
1F
100
AcDbEntity
  8
Layer0000
  6
Continuous
 62
     3
370
    25
100
AcDbLine
 10
25.9173022289016
 20
-70.57518785344422
 30
0.0
 11
25.4173022289016
 21
-70.07518785344422
 31
0.0
  0
LINE
  5
286
330
1F
100
AcDbEntity
  8
Layer0000
  6
Continuous
 62
     3
370
    25
100
AcDbLine
 10
42.4173022289016
 20
-70.07518785344422
 30
0.0
 11
41.9173022289016
 21
-70.57518785344422
 31
0.0
  0
LINE
  5
287
330
1F
100
AcDbEntity
  8
Layer0000
  6
Continuous
 62
     3
370
    25
100
AcDbLine
 10
92.61730222890122
 20
-204.5751878534444
 30
0.0
 11
-677.3826977710987
 21
-204.5751878534444
 31
0.0
  0
LINE
  5
288
330
1F
100
AcDbEntity
  8
Layer0000
  6
Continuous
 62
     3
370
    25
100
AcDbLine
 10
-14.08269777109845
 20
-162.5751888002075
 30
0.0
 11
-13.58269777109845
 21
-163.0751888002075
 31
0.0
  0
LINE
  5
289
330
1F
100
AcDbEntity
  8
Layer0000
  6
Continuous
 62
     3
370
    25
100
AcDbLine
 10
-14.08269777109848
 20
-151.5751888002075
 30
0.0
 11
-14.08269777109845
 21
-162.5751888002075
 31
0.0
  0
LINE
  5
28A
330
1F
100
AcDbEntity
  8
Layer0000
  6
Continuous
 62
     3
370
    25
100
AcDbLine
 10
-14.08269777109848
 20
-151.5751888002075
 30
0.0
 11
-13.58269777109848
 21
-151.0751888002075
 31
0.0
  0
LINE
  5
28B
330
1F
100
AcDbEntity
  8
Layer0000
  6
Continuous
 62
     3
370
    25
100
AcDbLine
 10
75.9173022289016
 20
-162.5751888002075
 30
0.0
 11
75.4173022289016
 21
-163.0751888002075
 31
0.0
  0
LINE
  5
28C
330
1F
100
AcDbEntity
  8
Layer0000
  6
Continuous
 62
     3
370
    25
100
AcDbLine
 10
75.91730222890163
 20
-151.5751888002075
 30
0.0
 11
75.9173022289016
 21
-162.5751888002075
 31
0.0
  0
LINE
  5
28D
330
1F
100
AcDbEntity
  8
Layer0000
  6
Continuous
 62
     3
370
    25
100
AcDbLine
 10
75.91730222890163
 20
-151.5751888002075
 30
0.0
 11
75.41730222890163
 21
-151.0751888002075
 31
0.0
  0
LINE
  5
28E
330
1F
100
AcDbEntity
  8
Layer0000
  6
Continuous
 62
     3
370
    25
100
AcDbLine
 10
75.4173022289016
 20
-163.0751888002075
 30
0.0
 11
-13.58269777109845
 21
-163.0751888002075
 31
0.0
  0
LINE
  5
28F
330
1F
100
AcDbEntity
  8
Layer0000
  6
Continuous
 62
     3
370
    25
100
AcDbLine
 10
75.91730222890163
 20
-156.0751888002075
 30
0.0
 11
92.61730222890122
 21
-156.0751888002075
 31
0.0
  0
LINE
  5
290
330
1F
100
AcDbEntity
  8
Layer0000
  6
Continuous
 62
     3
370
    25
100
AcDbLine
 10
12.83884125981888
 20
-164.0751888002077
 30
0.0
 11
-1.004236802015953
 21
-164.0751888002075
 31
0.0
  0
LINE
  5
291
330
1F
100
AcDbEntity
  8
Layer0000
  6
Continuous
 62
     3
370
    25
100
AcDbLine
 10
12.83884125981888
 20
-164.0751888002077
 30
0.0
 11
14.57089206738772
 21
-163.0751888002077
 31
0.0
  0
LINE
  5
292
330
1F
100
AcDbEntity
  8
Layer0000
  6
Continuous
 62
     3
370
    25
100
AcDbLine
 10
-1.004236802015953
 20
-164.0751888002075
 30
0.0
 11
-2.736287609584792
 21
-163.0751888002075
 31
0.0
  0
LINE
  5
293
330
1F
100
AcDbEntity
  8
Layer0000
  6
Continuous
 62
     3
370
    25
100
AcDbLine
 10
37.83884125981888
 20
-164.0751888002077
 30
0.0
 11
23.99576319798405
 21
-164.0751888002075
 31
0.0
  0
LINE
  5
294
330
1F
100
AcDbEntity
  8
Layer0000
  6
Continuous
 62
     3
370
    25
100
AcDbLine
 10
37.83884125981888
 20
-164.0751888002077
 30
0.0
 11
39.57089206738772
 21
-163.0751888002077
 31
0.0
  0
LINE
  5
295
330
1F
100
AcDbEntity
  8
Layer0000
  6
Continuous
 62
     3
370
    25
100
AcDbLine
 10
23.99576319798405
 20
-164.0751888002075
 30
0.0
 11
22.26371239041521
 21
-163.0751888002075
 31
0.0
  0
LINE
  5
296
330
1F
100
AcDbEntity
  8
Layer0000
  6
Continuous
 62
     3
370
    25
100
AcDbLine
 10
62.83884125981888
 20
-164.0751888002077
 30
0.0
 11
48.99576319798405
 21
-164.0751888002075
 31
0.0
  0
LINE
  5
297
330
1F
100
AcDbEntity
  8
Layer0000
  6
Continuous
 62
     3
370
    25
100
AcDbLine
 10
62.83884125981888
 20
-164.0751888002077
 30
0.0
 11
64.57089206738772
 21
-163.0751888002077
 31
0.0
  0
LINE
  5
298
330
1F
100
AcDbEntity
  8
Layer0000
  6
Continuous
 62
     3
370
    25
100
AcDbLine
 10
48.99576319798405
 20
-164.0751888002075
 30
0.0
 11
47.26371239041521
 21
-163.0751888002075
 31
0.0
  0
LINE
  5
299
330
1F
100
AcDbEntity
  8
Layer0000
  6
Continuous
 62
     3
370
    25
100
AcDbLine
 10
-676.3826977710987
 20
431.4122150635715
 30
0.0
 11
-573.3826977710986
 21
431.4122150635715
 31
0.0
  0
LINE
  5
29A
330
1F
100
AcDbEntity
  8
Layer0000
  6
Continuous
 62
     3
370
    25
100
AcDbLine
 10
-601.8826977710986
 20
333.3555907365455
 30
0.0
 11
-604.3826977710986
 21
334.7989664095196
 31
0.0
  0
LINE
  5
29B
330
1F
100
AcDbEntity
  8
Layer0000
  6
Continuous
 62
     3
370
    25
100
AcDbLine
 10
-606.8826977710986
 20
333.3555907365455
 30
0.0
 11
-604.3826977710987
 21
334.7989664095196
 31
0.0
  0
CIRCLE
  5
29C
330
1F
100
AcDbEntity
  8
Layer0000
  6
Continuous
 62
     3
370
    25
100
AcDbCircle
 10
-604.3826977710986
 20
331.9122150635715
 30
0.0
 40
4.189999999999998
  0
CIRCLE
  5
29D
330
1F
100
AcDbEntity
  8
Layer0000
  6
Continuous
 62
     3
370
    25
100
AcDbCircle
 10
-604.3826977710986
 20
331.9122150635715
 30
0.0
 40
5.0
  0
LINE
  5
29E
330
1F
100
AcDbEntity
  8
Layer0000
  6
Continuous
 62
     3
370
    25
100
AcDbLine
 10
-13.08269777109851
 20
232.4122150635715
 30
0.0
 11
163.9173022289015
 21
232.4122150635715
 31
0.0
  0
LINE
  5
29F
330
1F
100
AcDbEntity
  8
Layer0000
  6
Continuous
 62
     3
370
    25
100
AcDbLine
 10
-13.08269777109851
 20
431.4122150635715
 30
0.0
 11
163.9173022289015
 21
431.4122150635715
 31
0.0
  0
LINE
  5
2A0
330
1F
100
AcDbEntity
  8
Layer0000
  6
Continuous
 62
     3
370
    25
100
AcDbLine
 10
164.9173022289015
 20
289.9122150635715
 30
0.0
 11
-14.08269777109851
 21
289.9122150635715
 31
0.0
  0
LINE
  5
2A1
330
1F
100
AcDbEntity
  8
Layer0000
  6
Continuous
 62
     3
370
    25
100
AcDbLine
 10
164.9173022289015
 20
373.9122150635715
 30
0.0
 11
-14.08269777109851
 21
373.9122150635715
 31
0.0
  0
LINE
  5
2A2
330
1F
100
AcDbEntity
  8
Layer0000
  6
Continuous
 62
     3
370
    25
100
AcDbLine
 10
41.91730222890158
 20
431.4122150635715
 30
0.0
 11
41.91730222890158
 21
389.9122150635715
 31
0.0
  0
LINE
  5
2A3
330
1F
100
AcDbEntity
  8
Layer0000
  6
Continuous
 62
     3
370
    25
100
AcDbLine
 10
41.91730222890158
 20
273.9122150635715
 30
0.0
 11
41.91730222890158
 21
232.4122150635715
 31
0.0
  0
LINE
  5
2A4
330
1F
100
AcDbEntity
  8
Layer0000
  6
Continuous
 62
     3
370
    25
100
AcDbLine
 10
25.91730222890158
 20
232.4122150635715
 30
0.0
 11
25.91730222890158
 21
273.9122150635715
 31
0.0
  0
LINE
  5
2A5
330
1F
100
AcDbEntity
  8
Layer0000
  6
Continuous
 62
     3
370
    25
100
AcDbLine
 10
25.91730222890158
 20
389.9122150635715
 30
0.0
 11
25.91730222890158
 21
431.4122150635715
 31
0.0
  0
LINE
  5
2A6
330
1F
100
AcDbEntity
  8
Layer0000
  6
Continuous
 62
     3
370
    25
100
AcDbLine
 10
123.9173022289016
 20
389.9122150635715
 30
0.0
 11
41.91730222890158
 21
389.9122150635715
 31
0.0
  0
LINE
  5
2A7
330
1F
100
AcDbEntity
  8
Layer0000
  6
Continuous
 62
     3
370
    25
100
AcDbLine
 10
25.91730222890158
 20
389.9122150635715
 30
0.0
 11
-14.08269777109851
 21
389.9122150635715
 31
0.0
  0
LINE
  5
2A8
330
1F
100
AcDbEntity
  8
Layer0000
  6
Continuous
 62
     3
370
    25
100
AcDbLine
 10
123.9173022289016
 20
273.9122150635715
 30
0.0
 11
41.91730222890158
 21
273.9122150635715
 31
0.0
  0
LINE
  5
2A9
330
1F
100
AcDbEntity
  8
Layer0000
  6
Continuous
 62
     3
370
    25
100
AcDbLine
 10
25.91730222890158
 20
273.9122150635715
 30
0.0
 11
-14.08269777109851
 21
273.9122150635715
 31
0.0
  0
LINE
  5
2AA
330
1F
100
AcDbEntity
  8
Layer0000
  6
Continuous
 62
     3
370
    25
100
AcDbLine
 10
349.1377901427326
 20
332.7707866350286
 30
0.0
 11
357.3840013939679
 21
347.0536434921144
 31
0.0
  0
LINE
  5
2AB
330
1F
100
AcDbEntity
  8
Layer0000
  6
Continuous
 62
     3
370
    25
100
AcDbLine
 10
358.8710909776659
 20
347.9122150635715
 30
0.0
 11
375.3635134801365
 21
347.9122150635715
 31
0.0
  0
ARC
  5
2AC
330
1F
100
AcDbEntity
  8
Layer0000
  6
Continuous
 62
     3
370
    25
100
AcDbCircle
 10
367.1173022289012
 20
331.9122150635715
 30
0.0
 40
16.5
100
AcDbArc
 50
104.1411102339325
 51
135.8588897660675
  0
ARC
  5
2AD
330
1F
100
AcDbEntity
  8
Layer0000
  6
Continuous
 62
     3
370
    25
100
AcDbCircle
 10
367.1173022289012
 20
331.9122150635715
 30
0.0
 40
16.5
100
AcDbArc
 50
44.1411102339313
 51
75.85888976606755
  0
LINE
  5
2AE
330
1F
100
AcDbEntity
  8
Layer0000
  6
Continuous
 62
     3
370
    25
100
AcDbLine
 10
362.6451662739017
 20
341.4122150635715
 30
0.0
 11
371.5894381839008
 21
341.4122150635715
 31
0.0
  0
LINE
  5
2AF
330
1F
100
AcDbEntity
  8
Layer0000
  6
Continuous
 62
     3
370
    25
100
AcDbLine
 10
376.8506030638346
 20
347.0536434921144
 30
0.0
 11
385.0968143150699
 21
332.7707866350286
 31
0.0
  0
LINE
  5
2B0
330
1F
100
AcDbEntity
  8
Layer0000
  6
Continuous
 62
     3
370
    25
100
AcDbLine
 10
356.6539929154494
 20
332.7892317173639
 30
0.0
 11
361.1261288704489
 21
340.535198409779
 31
0.0
  0
ARC
  5
2B1
330
1F
100
AcDbEntity
  8
Layer0000
  6
Continuous
 62
     3
370
    25
100
AcDbCircle
 10
367.1173022289012
 20
331.9122150635715
 30
0.0
 40
10.5
100
AcDbArc
 50
115.2087652967583
 51
124.7912347032415
  0
ARC
  5
2B2
330
1F
100
AcDbEntity
  8
Layer0000
  6
Continuous
 62
     3
370
    25
100
AcDbCircle
 10
367.1173022289012
 20
331.9122150635715
 30
0.0
 40
10.5
100
AcDbArc
 50
55.20876529675823
 51
64.79123470324168
  0
LINE
  5
2B3
330
1F
100
AcDbEntity
  8
Layer0000
  6
Continuous
 62
     3
370
    25
100
AcDbLine
 10
373.1084755873537
 20
340.5351984097788
 30
0.0
 11
377.5806115423532
 21
332.7892317173639
 31
0.0
  0
CIRCLE
  5
2B4
330
1F
100
AcDbEntity
  8
Layer0000
  6
Continuous
 62
     3
370
    25
100
AcDbCircle
 10
367.1173022289012
 20
331.9122150635715
 30
0.0
 40
9.5
  0
CIRCLE
  5
2B5
330
1F
100
AcDbEntity
  8
Layer0000
  6
Continuous
 62
     3
370
    25
100
AcDbCircle
 10
367.1173022289012
 20
331.9122150635715
 30
0.0
 40
11.0
  0
CIRCLE
  5
2B6
330
1F
100
AcDbEntity
  8
Layer0000
  6
Continuous
 62
     3
370
    25
100
AcDbCircle
 10
367.1173022289012
 20
331.9122150635715
 30
0.0
 40
13.99999998577749
  0
CIRCLE
  5
2B7
330
1F
100
AcDbEntity
  8
Layer0000
  6
Continuous
 62
     3
370
    25
100
AcDbCircle
 10
367.1173022289012
 20
331.9122150635715
 30
0.0
 40
31.74999999999994
  0
CIRCLE
  5
2B8
330
1F
100
AcDbEntity
  8
Layer0000
  6
Continuous
 62
     3
370
    25
100
AcDbCircle
 10
367.1173022289012
 20
331.9122150635715
 30
0.0
 40
31.24999999999997
  0
CIRCLE
  5
2B9
330
1F
100
AcDbEntity
  8
Layer0000
  6
Continuous
 62
     3
370
    25
100
AcDbCircle
 10
367.1173022289012
 20
358.9122150635715
 30
0.0
 40
2.807179676972453
  0
CIRCLE
  5
2BA
330
1F
100
AcDbEntity
  8
Layer0000
  6
Continuous
 62
     3
370
    25
100
AcDbCircle
 10
367.1173022289012
 20
358.9122150635715
 30
0.0
 40
3.5
  0
LINE
  5
2BB
330
1F
100
AcDbEntity
  8
Layer0000
  6
Continuous
 62
     3
370
    25
100
AcDbLine
 10
367.1173022289012
 20
360.6442658711403
 30
0.0
 11
368.6173022289012
 21
359.778240467356
 31
0.0
  0
LINE
  5
2BC
330
1F
100
AcDbEntity
  8
Layer0000
  6
Continuous
 62
     3
370
    25
100
AcDbLine
 10
368.6173022289012
 20
359.778240467356
 30
0.0
 11
368.6173022289012
 21
358.0461896597869
 31
0.0
  0
LINE
  5
2BD
330
1F
100
AcDbEntity
  8
Layer0000
  6
Continuous
 62
     3
370
    25
100
AcDbLine
 10
368.6173022289012
 20
358.0461896597869
 30
0.0
 11
367.1173022289012
 21
357.1801642560024
 31
0.0
  0
LINE
  5
2BE
330
1F
100
AcDbEntity
  8
Layer0000
  6
Continuous
 62
     3
370
    25
100
AcDbLine
 10
367.1173022289012
 20
357.1801642560024
 30
0.0
 11
365.6173022289012
 21
358.0461896597869
 31
0.0
  0
LINE
  5
2BF
330
1F
100
AcDbEntity
  8
Layer0000
  6
Continuous
 62
     3
370
    25
100
AcDbLine
 10
365.6173022289012
 20
358.0461896597869
 30
0.0
 11
365.6173022289012
 21
359.778240467356
 31
0.0
  0
LINE
  5
2C0
330
1F
100
AcDbEntity
  8
Layer0000
  6
Continuous
 62
     3
370
    25
100
AcDbLine
 10
365.6173022289012
 20
359.778240467356
 30
0.0
 11
367.1173022289012
 21
360.6442658711403
 31
0.0
  0
LINE
  5
2C1
330
1F
100
AcDbEntity
  8
Layer0000
  6
Continuous
 62
     3
370
    25
100
AcDbLine
 10
394.1173022289012
 20
333.6442658711403
 30
0.0
 11
395.6173022289012
 21
332.778240467356
 31
0.0
  0
LINE
  5
2C2
330
1F
100
AcDbEntity
  8
Layer0000
  6
Continuous
 62
     3
370
    25
100
AcDbLine
 10
392.6173022289012
 20
332.778240467356
 30
0.0
 11
394.1173022289012
 21
333.6442658711403
 31
0.0
  0
LINE
  5
2C3
330
1F
100
AcDbEntity
  8
Layer0000
  6
Continuous
 62
     3
370
    25
100
AcDbLine
 10
340.1173022289012
 20
333.6442658711403
 30
0.0
 11
341.6173022289012
 21
332.778240467356
 31
0.0
  0
LINE
  5
2C4
330
1F
100
AcDbEntity
  8
Layer0000
  6
Continuous
 62
     3
370
    25
100
AcDbLine
 10
338.6173022289012
 20
332.778240467356
 30
0.0
 11
340.1173022289012
 21
333.6442658711403
 31
0.0
  0
CIRCLE
  5
2C5
330
1F
100
AcDbEntity
  8
Layer0000
  6
Continuous
 62
     3
370
    25
100
AcDbCircle
 10
394.1173022289012
 20
331.9122150635715
 30
0.0
 40
2.80717967697251
  0
CIRCLE
  5
2C6
330
1F
100
AcDbEntity
  8
Layer0000
  6
Continuous
 62
     3
370
    25
100
AcDbCircle
 10
394.1173022289012
 20
331.9122150635715
 30
0.0
 40
3.5
  0
CIRCLE
  5
2C7
330
1F
100
AcDbEntity
  8
Layer0000
  6
Continuous
 62
     3
370
    25
100
AcDbCircle
 10
340.1173022289012
 20
331.9122150635715
 30
0.0
 40
2.807179676972453
  0
CIRCLE
  5
2C8
330
1F
100
AcDbEntity
  8
Layer0000
  6
Continuous
 62
     3
370
    25
100
AcDbCircle
 10
340.1173022289013
 20
331.9122150635715
 30
0.0
 40
3.499999999999943
  0
LINE
  5
2C9
330
1F
100
AcDbEntity
  8
Layer0000
  6
Continuous
 62
     3
370
    25
100
AcDbLine
 10
-677.3826977710987
 20
-156.0751888002075
 30
0.0
 11
-389.8826977710985
 21
-156.0751888002075
 31
0.0
  0
LINE
  5
2CA
330
1F
100
AcDbEntity
  8
Layer0000
  6
Continuous
 62
     3
370
    25
100
AcDbLine
 10
-367.3826977710985
 20
-156.0751888002075
 30
0.0
 11
-14.08269777109851
 21
-156.0751888002075
 31
0.0
  0
LINE
  5
2CB
330
1F
100
AcDbEntity
  8
Layer0000
  6
Continuous
 62
     3
370
    25
100
AcDbLine
 10
163.9173022289012
 20
-151.0751888002075
 30
0.0
 11
-367.3826977710985
 21
-151.0751888002075
 31
0.0
  0
LINE
  5
2CC
330
1F
100
AcDbEntity
  8
Layer0000
  6
Continuous
 62
     3
370
    25
100
AcDbLine
 10
-389.8826977710985
 20
-151.0751888002075
 30
0.0
 11
-542.3826977710987
 21
-151.0751888002075
 31
0.0
  0
CIRCLE
  5
2CD
330
1F
100
AcDbEntity
  8
Layer0000
  6
Continuous
 62
     3
370
    25
100
AcDbCircle
 10
-42.38269777109849
 20
-179.0751878534444
 30
0.0
 40
12.0
  0
LINE
  5
2CE
330
1F
100
AcDbEntity
  8
Layer0000
  6
Continuous
 62
     3
370
    25
100
AcDbLine
 10
186.1173022288965
 20
320.9122150635715
 30
0.0
 11
182.117302228899
 21
320.9122150635715
 31
0.0
  0
LINE
  5
2CF
330
1F
100
AcDbEntity
  8
Layer0000
  6
Continuous
 62
     3
370
    25
100
AcDbLine
 10
186.1173022288965
 20
342.9122150635715
 30
0.0
 11
182.117302228899
 21
342.9122150635715
 31
0.0
  0
LINE
  5
2D0
330
1F
100
AcDbEntity
  8
Layer0000
  6
Continuous
 62
     3
370
    25
100
AcDbLine
 10
186.1173022288965
 20
342.9122150635715
 30
0.0
 11
186.1173022288965
 21
320.9122150635715
 31
0.0
  0
LINE
  5
2D1
330
1F
100
AcDbEntity
  8
Layer0000
  6
Continuous
 62
     3
370
    25
100
AcDbLine
 10
186.1173022288965
 20
342.7122150635716
 30
0.0
 11
186.6173022288965
 21
342.7122150635716
 31
0.0
  0
LINE
  5
2D2
330
1F
100
AcDbEntity
  8
Layer0000
  6
Continuous
 62
     3
370
    25
100
AcDbLine
 10
186.6173022288965
 20
320.9122150635715
 30
0.0
 11
186.6173022288965
 21
342.9122150635715
 31
0.0
  0
LINE
  5
2D3
330
1F
100
AcDbEntity
  8
Layer0000
  6
Continuous
 62
     3
370
    25
100
AcDbLine
 10
189.1173022288965
 20
342.9122150635715
 30
0.0
 11
189.1173022288965
 21
320.9122150635715
 31
0.0
  0
LINE
  5
2D4
330
1F
100
AcDbEntity
  8
Layer0000
  6
Continuous
 62
     3
370
    25
100
AcDbLine
 10
189.1173022288965
 20
342.7122150635716
 30
0.0
 11
189.6173022288965
 21
342.7122150635716
 31
0.0
  0
LINE
  5
2D5
330
1F
100
AcDbEntity
  8
Layer0000
  6
Continuous
 62
     3
370
    25
100
AcDbLine
 10
189.6173022288965
 20
320.9122150635715
 30
0.0
 11
189.6173022288965
 21
342.9122150635715
 31
0.0
  0
LINE
  5
2D6
330
1F
100
AcDbEntity
  8
Layer0000
  6
Continuous
 62
     3
370
    25
100
AcDbLine
 10
192.1173022288965
 20
342.9122150635715
 30
0.0
 11
192.1173022288965
 21
320.9122150635715
 31
0.0
  0
LINE
  5
2D7
330
1F
100
AcDbEntity
  8
Layer0000
  6
Continuous
 62
     3
370
    25
100
AcDbLine
 10
192.1173022288965
 20
342.7122150635716
 30
0.0
 11
192.6173022288965
 21
342.7122150635716
 31
0.0
  0
LINE
  5
2D8
330
1F
100
AcDbEntity
  8
Layer0000
  6
Continuous
 62
     3
370
    25
100
AcDbLine
 10
192.6173022288965
 20
320.9122150635715
 30
0.0
 11
192.6173022288965
 21
342.9122150635715
 31
0.0
  0
LINE
  5
2D9
330
1F
100
AcDbEntity
  8
Layer0000
  6
Continuous
 62
     3
370
    25
100
AcDbLine
 10
186.6173022288965
 20
342.9122150635715
 30
0.0
 11
189.1173022288965
 21
342.9122150635715
 31
0.0
  0
LINE
  5
2DA
330
1F
100
AcDbEntity
  8
Layer0000
  6
Continuous
 62
     3
370
    25
100
AcDbLine
 10
189.6173022288965
 20
342.9122150635715
 30
0.0
 11
192.1173022288965
 21
342.9122150635715
 31
0.0
  0
LINE
  5
2DB
330
1F
100
AcDbEntity
  8
Layer0000
  6
Continuous
 62
     3
370
    25
100
AcDbLine
 10
192.6173022288965
 20
342.9122150635715
 30
0.0
 11
201.7512768251078
 21
342.9122150635715
 31
0.0
  0
LINE
  5
2DC
330
1F
100
AcDbEntity
  8
Layer0000
  6
Continuous
 62
     3
370
    25
100
AcDbLine
 10
186.1173022288965
 20
321.1122150635715
 30
0.0
 11
186.6173022288965
 21
321.1122150635715
 31
0.0
  0
LINE
  5
2DD
330
1F
100
AcDbEntity
  8
Layer0000
  6
Continuous
 62
     3
370
    25
100
AcDbLine
 10
189.1173022288965
 20
321.1122150635715
 30
0.0
 11
189.6173022288965
 21
321.1122150635715
 31
0.0
  0
LINE
  5
2DE
330
1F
100
AcDbEntity
  8
Layer0000
  6
Continuous
 62
     3
370
    25
100
AcDbLine
 10
192.1173022288965
 20
321.1122150635715
 30
0.0
 11
192.6173022288965
 21
321.1122150635715
 31
0.0
  0
LINE
  5
2DF
330
1F
100
AcDbEntity
  8
Layer0000
  6
Continuous
 62
     3
370
    25
100
AcDbLine
 10
186.6173022288965
 20
320.9122150635715
 30
0.0
 11
189.1173022288965
 21
320.9122150635715
 31
0.0
  0
LINE
  5
2E0
330
1F
100
AcDbEntity
  8
Layer0000
  6
Continuous
 62
     3
370
    25
100
AcDbLine
 10
189.6173022288965
 20
320.9122150635715
 30
0.0
 11
192.1173022288965
 21
320.9122150635715
 31
0.0
  0
LINE
  5
2E1
330
1F
100
AcDbEntity
  8
Layer0000
  6
Continuous
 62
     3
370
    25
100
AcDbLine
 10
192.6173022288965
 20
320.9122150635715
 30
0.0
 11
201.7512768251078
 21
320.9122150635715
 31
0.0
  0
LINE
  5
2E2
330
1F
100
AcDbEntity
  8
Layer0000
  6
Continuous
 62
     3
370
    25
100
AcDbLine
 10
201.7512768251078
 20
342.9122150635715
 30
0.0
 11
201.7512768251078
 21
320.9122150635715
 31
0.0
  0
LINE
  5
2E3
330
1F
100
AcDbEntity
  8
Layer0000
  6
Continuous
 62
     3
370
    25
100
AcDbLine
 10
202.6173022289015
 20
341.4122150635715
 30
0.0
 11
219.6173022288988
 21
341.4122150635715
 31
0.0
  0
LINE
  5
2E4
330
1F
100
AcDbEntity
  8
Layer0000
  6
Continuous
 62
     3
370
    25
100
AcDbLine
 10
202.6173022289015
 20
322.4122150635715
 30
0.0
 11
219.6173022288988
 21
322.4122150635715
 31
0.0
  0
LINE
  5
2E5
330
1F
100
AcDbEntity
  8
Layer0000
  6
Continuous
 62
     3
370
    25
100
AcDbLine
 10
219.6173022288988
 20
322.4122150635715
 30
0.0
 11
219.6173022288988
 21
341.4122150635715
 31
0.0
  0
LINE
  5
2E6
330
1F
100
AcDbEntity
  8
Layer0000
  6
Continuous
 62
     3
370
    25
100
AcDbLine
 10
202.6173022289015
 20
332.7892317173641
 30
0.0
 11
218.6173022288988
 21
332.7892317173641
 31
0.0
  0
LINE
  5
2E7
330
1F
100
AcDbEntity
  8
Layer0000
  6
Continuous
 62
     3
370
    25
100
AcDbLine
 10
218.6173022288988
 20
331.035198409779
 30
0.0
 11
202.6173022289015
 21
331.035198409779
 31
0.0
  0
LINE
  5
2E8
330
1F
100
AcDbEntity
  8
Layer0000
  6
Continuous
 62
     3
370
    25
100
AcDbLine
 10
218.6173022288988
 20
323.2892317173639
 30
0.0
 11
202.6173022289015
 21
323.2892317173639
 31
0.0
  0
LINE
  5
2E9
330
1F
100
AcDbEntity
  8
Layer0000
  6
Continuous
 62
     3
370
    25
100
AcDbLine
 10
202.6173022289015
 20
340.535198409779
 30
0.0
 11
218.6173022288988
 21
340.535198409779
 31
0.0
  0
LINE
  5
2EA
330
1F
100
AcDbEntity
  8
Layer0000
  6
Continuous
 62
     3
370
    25
100
AcDbLine
 10
218.6173022288988
 20
340.535198409779
 30
0.0
 11
218.6173022288988
 21
341.4122150635715
 31
0.0
  0
LINE
  5
2EB
330
1F
100
AcDbEntity
  8
Layer0000
  6
Continuous
 62
     3
370
    25
100
AcDbLine
 10
218.6173022288988
 20
322.4122150635715
 30
0.0
 11
218.6173022288988
 21
323.2892317173639
 31
0.0
  0
LINE
  5
2EC
330
1F
100
AcDbEntity
  8
Layer0000
  6
Continuous
 62
     3
370
    25
100
AcDbLine
 10
218.6173022288988
 20
331.035198409779
 30
0.0
 11
218.6173022288988
 21
332.7892317173641
 31
0.0
  0
ARC
  5
2ED
330
1F
100
AcDbEntity
  8
Layer0000
  6
Continuous
 62
     3
370
    25
100
AcDbCircle
 10
211.6173022288988
 20
327.1622150635715
 30
0.0
 40
8.000000000000044
100
AcDbArc
 50
331.0449756281404
 51
28.95502437185956
  0
ARC
  5
2EE
330
1F
100
AcDbEntity
  8
Layer0000
  6
Continuous
 62
     3
370
    25
100
AcDbCircle
 10
211.6173022288989
 20
336.6622150635715
 30
0.0
 40
7.999999999999895
100
AcDbArc
 50
331.0449756281398
 51
28.95502437186017
  0
LINE
  5
2EF
330
1F
100
AcDbEntity
  8
Layer0000
  6
Continuous
 62
     3
370
    25
100
AcDbLine
 10
164.9173022289015
 20
349.9122150635715
 30
0.0
 11
167.117302228899
 21
349.9122150635715
 31
0.0
  0
LINE
  5
2F0
330
1F
100
AcDbEntity
  8
Layer0000
  6
Continuous
 62
     3
370
    25
100
AcDbLine
 10
164.9173022289015
 20
313.9122150635715
 30
0.0
 11
167.117302228899
 21
313.9122150635715
 31
0.0
  0
LINE
  5
2F1
330
1F
100
AcDbEntity
  8
Layer0000
  6
Continuous
 62
     3
370
    25
100
AcDbLine
 10
182.117302228899
 20
315.9122150635715
 30
0.0
 11
182.117302228899
 21
347.9122150635715
 31
0.0
  0
LINE
  5
2F2
330
1F
100
AcDbEntity
  8
Layer0000
  6
Continuous
 62
     3
370
    25
100
AcDbLine
 10
167.117302228899
 20
349.9122150635715
 30
0.0
 11
167.117302228899
 21
347.9122150635715
 31
0.0
  0
LINE
  5
2F3
330
1F
100
AcDbEntity
  8
Layer0000
  6
Continuous
 62
     3
370
    25
100
AcDbLine
 10
167.117302228899
 20
313.9122150635715
 30
0.0
 11
167.117302228899
 21
315.9122150635715
 31
0.0
  0
LINE
  5
2F4
330
1F
100
AcDbEntity
  8
Layer0000
  6
Continuous
 62
     3
370
    25
100
AcDbLine
 10
167.117302228899
 20
347.9122150635715
 30
0.0
 11
182.117302228899
 21
347.9122150635715
 31
0.0
  0
LINE
  5
2F5
330
1F
100
AcDbEntity
  8
Layer0000
  6
Continuous
 62
     3
370
    25
100
AcDbLine
 10
167.117302228899
 20
315.9122150635715
 30
0.0
 11
182.117302228899
 21
315.9122150635715
 31
0.0
  0
LINE
  5
2F6
330
1F
100
AcDbEntity
  8
Layer0000
  6
Continuous
 62
     3
370
    25
100
AcDbLine
 10
180.6173022288989
 20
316.7707866350286
 30
0.0
 11
167.117302228899
 21
316.7707866350286
 31
0.0
  0
LINE
  5
2F7
330
1F
100
AcDbEntity
  8
Layer0000
  6
Continuous
 62
     3
370
    25
100
AcDbLine
 10
167.117302228899
 20
316.7707866350286
 30
0.0
 11
167.117302228899
 21
331.0536434921144
 31
0.0
  0
LINE
  5
2F8
330
1F
100
AcDbEntity
  8
Layer0000
  6
Continuous
 62
     3
370
    25
100
AcDbLine
 10
167.117302228899
 20
331.0536434921144
 30
0.0
 11
180.6173022288989
 21
331.0536434921144
 31
0.0
  0
LINE
  5
2F9
330
1F
100
AcDbEntity
  8
Layer0000
  6
Continuous
 62
     3
370
    25
100
AcDbLine
 10
180.6173022288989
 20
331.0536434921144
 30
0.0
 11
182.117302228899
 21
327.4032750745139
 31
0.0
  0
LINE
  5
2FA
330
1F
100
AcDbEntity
  8
Layer0000
  6
Continuous
 62
     3
370
    25
100
AcDbLine
 10
180.6173022288989
 20
316.7707866350286
 30
0.0
 11
182.117302228899
 21
320.421155052629
 31
0.0
  0
LINE
  5
2FB
330
1F
100
AcDbEntity
  8
Layer0000
  6
Continuous
 62
     3
370
    25
100
AcDbLine
 10
180.6173022288989
 20
347.0536434921144
 30
0.0
 11
167.117302228899
 21
347.0536434921144
 31
0.0
  0
LINE
  5
2FC
330
1F
100
AcDbEntity
  8
Layer0000
  6
Continuous
 62
     3
370
    25
100
AcDbLine
 10
167.117302228899
 20
347.0536434921144
 30
0.0
 11
167.117302228899
 21
332.7707866350286
 31
0.0
  0
LINE
  5
2FD
330
1F
100
AcDbEntity
  8
Layer0000
  6
Continuous
 62
     3
370
    25
100
AcDbLine
 10
167.117302228899
 20
332.7707866350286
 30
0.0
 11
180.6173022288989
 21
332.7707866350286
 31
0.0
  0
LINE
  5
2FE
330
1F
100
AcDbEntity
  8
Layer0000
  6
Continuous
 62
     3
370
    25
100
AcDbLine
 10
180.6173022288989
 20
332.7707866350286
 30
0.0
 11
182.117302228899
 21
336.421155052629
 31
0.0
  0
LINE
  5
2FF
330
1F
100
AcDbEntity
  8
Layer0000
  6
Continuous
 62
     3
370
    25
100
AcDbLine
 10
180.6173022288989
 20
347.0536434921144
 30
0.0
 11
182.117302228899
 21
343.4032750745139
 31
0.0
  0
LINE
  5
300
330
1F
100
AcDbEntity
  8
Layer0000
  6
Continuous
 62
     3
370
    25
100
AcDbLine
 10
186.1173022288964
 20
-119.0751878534444
 30
0.0
 11
182.117302228899
 21
-119.0751878534444
 31
0.0
  0
LINE
  5
301
330
1F
100
AcDbEntity
  8
Layer0000
  6
Continuous
 62
     3
370
    25
100
AcDbLine
 10
186.1173022288964
 20
-97.07518785344445
 30
0.0
 11
186.1173022288964
 21
-119.0751878534444
 31
0.0
  0
LINE
  5
302
330
1F
100
AcDbEntity
  8
Layer0000
  6
Continuous
 62
     3
370
    25
100
AcDbLine
 10
186.1173022288964
 20
-97.27518785344449
 30
0.0
 11
186.6173022288964
 21
-97.27518785344449
 31
0.0
  0
LINE
  5
303
330
1F
100
AcDbEntity
  8
Layer0000
  6
Continuous
 62
     3
370
    25
100
AcDbLine
 10
186.6173022288964
 20
-119.0751878534444
 30
0.0
 11
186.6173022288964
 21
-97.07518785344445
 31
0.0
  0
LINE
  5
304
330
1F
100
AcDbEntity
  8
Layer0000
  6
Continuous
 62
     3
370
    25
100
AcDbLine
 10
189.1173022288964
 20
-97.07518785344445
 30
0.0
 11
189.1173022288964
 21
-119.0751878534444
 31
0.0
  0
LINE
  5
305
330
1F
100
AcDbEntity
  8
Layer0000
  6
Continuous
 62
     3
370
    25
100
AcDbLine
 10
189.1173022288964
 20
-97.27518785344449
 30
0.0
 11
189.6173022288964
 21
-97.27518785344449
 31
0.0
  0
LINE
  5
306
330
1F
100
AcDbEntity
  8
Layer0000
  6
Continuous
 62
     3
370
    25
100
AcDbLine
 10
189.6173022288964
 20
-119.0751878534444
 30
0.0
 11
189.6173022288964
 21
-97.07518785344445
 31
0.0
  0
LINE
  5
307
330
1F
100
AcDbEntity
  8
Layer0000
  6
Continuous
 62
     3
370
    25
100
AcDbLine
 10
192.1173022288964
 20
-97.07518785344445
 30
0.0
 11
192.1173022288964
 21
-119.0751878534444
 31
0.0
  0
LINE
  5
308
330
1F
100
AcDbEntity
  8
Layer0000
  6
Continuous
 62
     3
370
    25
100
AcDbLine
 10
192.1173022288964
 20
-97.27518785344449
 30
0.0
 11
192.6173022288964
 21
-97.27518785344449
 31
0.0
  0
LINE
  5
309
330
1F
100
AcDbEntity
  8
Layer0000
  6
Continuous
 62
     3
370
    25
100
AcDbLine
 10
192.6173022288964
 20
-119.0751878534444
 30
0.0
 11
192.6173022288964
 21
-97.07518785344445
 31
0.0
  0
LINE
  5
30A
330
1F
100
AcDbEntity
  8
Layer0000
  6
Continuous
 62
     3
370
    25
100
AcDbLine
 10
186.6173022288964
 20
-97.07518785344445
 30
0.0
 11
189.1173022288964
 21
-97.07518785344445
 31
0.0
  0
LINE
  5
30B
330
1F
100
AcDbEntity
  8
Layer0000
  6
Continuous
 62
     3
370
    25
100
AcDbLine
 10
189.6173022288964
 20
-97.07518785344445
 30
0.0
 11
192.1173022288964
 21
-97.07518785344445
 31
0.0
  0
LINE
  5
30C
330
1F
100
AcDbEntity
  8
Layer0000
  6
Continuous
 62
     3
370
    25
100
AcDbLine
 10
192.6173022288964
 20
-97.07518785344445
 30
0.0
 11
201.7512768251211
 21
-97.07518785344445
 31
0.0
  0
LINE
  5
30D
330
1F
100
AcDbEntity
  8
Layer0000
  6
Continuous
 62
     3
370
    25
100
AcDbLine
 10
186.1173022288964
 20
-118.8751878534444
 30
0.0
 11
186.6173022288964
 21
-118.8751878534444
 31
0.0
  0
LINE
  5
30E
330
1F
100
AcDbEntity
  8
Layer0000
  6
Continuous
 62
     3
370
    25
100
AcDbLine
 10
189.1173022288964
 20
-118.8751878534444
 30
0.0
 11
189.6173022288964
 21
-118.8751878534444
 31
0.0
  0
LINE
  5
30F
330
1F
100
AcDbEntity
  8
Layer0000
  6
Continuous
 62
     3
370
    25
100
AcDbLine
 10
192.1173022288964
 20
-118.8751878534444
 30
0.0
 11
192.6173022288964
 21
-118.8751878534444
 31
0.0
  0
LINE
  5
310
330
1F
100
AcDbEntity
  8
Layer0000
  6
Continuous
 62
     3
370
    25
100
AcDbLine
 10
186.6173022288964
 20
-119.0751878534444
 30
0.0
 11
189.1173022288964
 21
-119.0751878534444
 31
0.0
  0
LINE
  5
311
330
1F
100
AcDbEntity
  8
Layer0000
  6
Continuous
 62
     3
370
    25
100
AcDbLine
 10
189.6173022288964
 20
-119.0751878534444
 30
0.0
 11
192.1173022288964
 21
-119.0751878534444
 31
0.0
  0
LINE
  5
312
330
1F
100
AcDbEntity
  8
Layer0000
  6
Continuous
 62
     3
370
    25
100
AcDbLine
 10
192.6173022288964
 20
-119.0751878534444
 30
0.0
 11
201.7512768251079
 21
-119.0751878534444
 31
0.0
  0
LINE
  5
313
330
1F
100
AcDbEntity
  8
Layer0000
  6
Continuous
 62
     3
370
    25
100
AcDbLine
 10
186.1173022288964
 20
-97.07518785344445
 30
0.0
 11
182.117302228899
 21
-97.07518785344445
 31
0.0
  0
LINE
  5
314
330
1F
100
AcDbEntity
  8
Layer0000
  6
Continuous
 62
     3
370
    25
100
AcDbLine
 10
164.9173022289013
 20
-90.07518785344445
 30
0.0
 11
180.617302228899
 21
-90.07518785344445
 31
0.0
  0
LINE
  5
315
330
1F
100
AcDbEntity
  8
Layer0000
  6
Continuous
 62
     3
370
    25
100
AcDbLine
 10
164.9173022289013
 20
-126.0751878534451
 30
0.0
 11
180.6173022288975
 21
-126.0751878534458
 31
0.0
  0
LINE
  5
316
330
1F
100
AcDbEntity
  8
Layer0000
  6
Continuous
 62
     3
370
    25
100
AcDbLine
 10
182.117302228899
 20
-124.5751878534444
 30
0.0
 11
180.617302228899
 21
-126.0751878534444
 31
0.0
  0
LINE
  5
317
330
1F
100
AcDbEntity
  8
Layer0000
  6
Continuous
 62
     3
370
    25
100
AcDbLine
 10
182.117302228899
 20
-124.5751878534444
 30
0.0
 11
182.117302228899
 21
-91.57518785344445
 31
0.0
  0
LINE
  5
318
330
1F
100
AcDbEntity
  8
Layer0000
  6
Continuous
 62
     3
370
    25
100
AcDbLine
 10
182.117302228899
 20
-92.20321695581873
 30
0.0
 11
180.617302228899
 21
-90.07518785344422
 31
0.0
  0
LINE
  5
319
330
1F
100
AcDbEntity
  8
Layer0000
  6
Continuous
 62
     3
370
    25
100
AcDbLine
 10
180.617302228899
 20
-90.07518785344422
 30
0.0
 11
182.117302228899
 21
-91.57518785344422
 31
0.0
  0
LINE
  5
31A
330
1F
100
AcDbEntity
  8
Layer0000
  6
Continuous
 62
     3
370
    25
100
AcDbLine
 10
180.617302228899
 20
-116.3213991046793
 30
0.0
 11
182.117302228899
 21
-112.1063167275935
 31
0.0
  0
LINE
  5
31B
330
1F
100
AcDbEntity
  8
Layer0000
  6
Continuous
 62
     3
370
    25
100
AcDbLine
 10
180.617302228899
 20
-99.82897660220937
 30
0.0
 11
182.1173022288895
 21
-104.0440589792951
 31
0.0
  0
LINE
  5
31C
330
1F
100
AcDbEntity
  8
Layer0000
  6
Continuous
 62
     3
370
    25
100
AcDbLine
 10
180.617302228899
 20
-117.8084886883777
 30
0.0
 11
180.617302228899
 21
-116.3213991046793
 31
0.0
  0
LINE
  5
31D
330
1F
100
AcDbEntity
  8
Layer0000
  6
Continuous
 62
     3
370
    25
100
AcDbLine
 10
180.617302228899
 20
-99.82897660220937
 30
0.0
 11
180.617302228899
 21
-98.34188701851093
 31
0.0
  0
LINE
  5
31E
330
1F
100
AcDbEntity
  8
Layer0000
  6
Continuous
 62
     3
370
    25
100
AcDbLine
 10
182.117302228899
 20
-119.9160298769206
 30
0.0
 11
180.617302228899
 21
-117.8084886883777
 31
0.0
  0
LINE
  5
31F
330
1F
100
AcDbEntity
  8
Layer0000
  6
Continuous
 62
     3
370
    25
100
AcDbLine
 10
182.117302228889
 20
-96.23434582996805
 30
0.0
 11
180.617302228899
 21
-98.34188701851093
 31
0.0
  0
LINE
  5
320
330
1F
100
AcDbEntity
  8
Layer0000
  6
Continuous
 62
     3
370
    25
100
AcDbLine
 10
180.617302228899
 20
-99.82897660220937
 30
0.0
 11
167.1173022288974
 21
-99.82897660220937
 31
0.0
  0
LINE
  5
321
330
1F
100
AcDbEntity
  8
Layer0000
  6
Continuous
 62
     3
370
    25
100
AcDbLine
 10
180.617302228899
 20
-98.34188701851093
 30
0.0
 11
167.1173022288974
 21
-98.34188701851093
 31
0.0
  0
LINE
  5
322
330
1F
100
AcDbEntity
  8
Layer0000
  6
Continuous
 62
     3
370
    25
100
AcDbLine
 10
180.617302228899
 20
-116.3213991046793
 30
0.0
 11
167.1173022288974
 21
-116.3213991046793
 31
0.0
  0
LINE
  5
323
330
1F
100
AcDbEntity
  8
Layer0000
  6
Continuous
 62
     3
370
    25
100
AcDbLine
 10
180.617302228899
 20
-117.8084886883777
 30
0.0
 11
167.1173022288974
 21
-117.8084886883777
 31
0.0
  0
LINE
  5
324
330
1F
100
AcDbEntity
  8
Layer0000
  6
Continuous
 62
     3
370
    25
100
AcDbLine
 10
167.1173022288974
 20
-99.82897660220937
 30
0.0
 11
167.1173022288974
 21
-116.3213991046793
 31
0.0
  0
LINE
  5
325
330
1F
100
AcDbEntity
  8
Layer0000
  6
Continuous
 62
     3
370
    25
100
AcDbLine
 10
182.1173022288908
 20
-123.9471587510699
 30
0.0
 11
180.617302228899
 21
-126.0751878534444
 31
0.0
  0
LINE
  5
326
330
1F
100
AcDbEntity
  8
Layer0000
  6
Continuous
 62
     3
370
    25
100
AcDbLine
 10
167.1173022288985
 20
-126.0751878534444
 30
0.0
 11
167.1173022288974
 21
-117.8084886883777
 31
0.0
  0
LINE
  5
327
330
1F
100
AcDbEntity
  8
Layer0000
  6
Continuous
 62
     3
370
    25
100
AcDbLine
 10
167.1173022288974
 20
-90.07518785344422
 30
0.0
 11
167.1173022288974
 21
-98.34188701851093
 31
0.0
  0
LINE
  5
328
330
1F
100
AcDbEntity
  8
Layer0000
  6
Continuous
 62
     3
370
    25
100
AcDbLine
 10
201.7512768251252
 20
-97.07518785344422
 30
0.0
 11
201.7512768251252
 21
-119.0751878534444
 31
0.0
  0
LINE
  5
329
330
1F
100
AcDbEntity
  8
Layer0000
  6
Continuous
 62
     3
370
    25
100
AcDbLine
 10
202.6173022289017
 20
-97.57518785344445
 30
0.0
 11
218.617302228903
 21
-97.57518785344445
 31
0.0
  0
LINE
  5
32A
330
1F
100
AcDbEntity
  8
Layer0000
  6
Continuous
 62
     3
370
    25
100
AcDbLine
 10
202.6173022289016
 20
-118.5751878534444
 30
0.0
 11
218.617302228903
 21
-118.5751878534444
 31
0.0
  0
LINE
  5
32B
330
1F
100
AcDbEntity
  8
Layer0000
  6
Continuous
 62
     3
370
    25
100
AcDbLine
 10
219.617302228903
 20
-98.57518785344445
 30
0.0
 11
219.617302228903
 21
-117.5751878534444
 31
0.0
  0
LINE
  5
32C
330
1F
100
AcDbEntity
  8
Layer0000
  6
Continuous
 62
     3
370
    25
100
AcDbLine
 10
218.617302228903
 20
-118.5751878534444
 30
0.0
 11
219.617302228903
 21
-117.5751878534444
 31
0.0
  0
LINE
  5
32D
330
1F
100
AcDbEntity
  8
Layer0000
  6
Continuous
 62
     3
370
    25
100
AcDbLine
 10
218.617302228903
 20
-97.57518785344445
 30
0.0
 11
219.617302228903
 21
-98.57518785344445
 31
0.0
  0
LINE
  5
32E
330
1F
100
AcDbEntity
  8
Layer0000
  6
Continuous
 62
     3
370
    25
100
AcDbLine
 10
202.6173022289016
 20
-103.6030518984448
 30
0.0
 11
218.617302228903
 21
-103.6030518984448
 31
0.0
  0
LINE
  5
32F
330
1F
100
AcDbEntity
  8
Layer0000
  6
Continuous
 62
     3
370
    25
100
AcDbLine
 10
202.6173022289016
 20
-102.0840144949918
 30
0.0
 11
218.617302228903
 21
-102.0840144949918
 31
0.0
  0
LINE
  5
330
330
1F
100
AcDbEntity
  8
Layer0000
  6
Continuous
 62
     3
370
    25
100
AcDbLine
 10
202.6173022289016
 20
-114.0663612118969
 30
0.0
 11
218.617302228903
 21
-114.0663612118969
 31
0.0
  0
LINE
  5
331
330
1F
100
AcDbEntity
  8
Layer0000
  6
Continuous
 62
     3
370
    25
100
AcDbLine
 10
218.617302228903
 20
-112.5473238084437
 30
0.0
 11
202.6173022289016
 21
-112.5473238084437
 31
0.0
  0
LINE
  5
332
330
1F
100
AcDbEntity
  8
Layer0000
  6
Continuous
 62
     3
370
    25
100
AcDbLine
 10
218.617302228903
 20
-102.0840144949918
 30
0.0
 11
218.617302228903
 21
-103.6030518984448
 31
0.0
  0
LINE
  5
333
330
1F
100
AcDbEntity
  8
Layer0000
  6
Continuous
 62
     3
370
    25
100
AcDbLine
 10
218.617302228903
 20
-112.5473238084437
 30
0.0
 11
218.617302228903
 21
-114.0663612118969
 31
0.0
  0
ARC
  5
334
330
1F
100
AcDbEntity
  8
Layer0000
  6
Continuous
 62
     3
370
    25
100
AcDbCircle
 10
209.1173022289034
 20
-108.0751878534442
 30
0.0
 40
10.49999999999956
100
AcDbArc
 50
334.7912347032412
 51
25.20876529675892
  0
ARC
  5
335
330
1F
100
AcDbEntity
  8
Layer0000
  6
Continuous
 62
     3
370
    25
100
AcDbCircle
 10
216.5761125184637
 20
-99.82960117421743
 30
0.0
 40
3.041189710439299
100
AcDbArc
 50
312.1583048916353
 51
42.1583048916778
  0
ARC
  5
336
330
1F
100
AcDbEntity
  8
Layer0000
  6
Continuous
 62
     3
370
    25
100
AcDbCircle
 10
216.5761125184637
 20
-116.3207745326715
 30
0.0
 40
3.041189710439299
100
AcDbArc
 50
317.8416951083222
 51
47.84169510836464
  0
LINE
  5
337
330
1F
100
AcDbEntity
  8
Layer0000
  6
Continuous
 62
     3
370
    25
100
AcDbLine
 10
201.7512768251079
 20
-119.0751878534444
 30
0.0
 11
202.6173022288834
 21
-118.5751878534494
 31
0.0
  0
LINE
  5
338
330
1F
100
AcDbEntity
  8
Layer0000
  6
Continuous
 62
     3
370
    25
100
AcDbLine
 10
202.6173022289091
 20
-97.5751878534465
 30
0.0
 11
201.7512768251252
 21
-97.07518785344672
 31
0.0
  0
LINE
  5
339
330
1F
100
AcDbEntity
  8
Layer0000
  6
Continuous
 62
     3
370
    25
100
AcDbLine
 10
202.617302228909
 20
342.4122150635694
 30
0.0
 11
201.751276825125
 21
342.9122150635692
 31
0.0
  0
LINE
  5
33A
330
1F
100
AcDbEntity
  8
Layer0000
  6
Continuous
 62
     3
370
    25
100
AcDbLine
 10
201.7512768251078
 20
320.9122150635715
 30
0.0
 11
202.6173022288834
 21
321.4122150635665
 31
0.0
  0
LINE
  5
33B
330
1F
100
AcDbEntity
  8
Layer0000
  6
Continuous
 62
     3
370
    25
100
AcDbLine
 10
202.6173022289015
 20
342.4122150635715
 30
0.0
 11
202.6173022289015
 21
341.4122150635715
 31
0.0
  0
LINE
  5
33C
330
1F
100
AcDbEntity
  8
Layer0000
  6
Continuous
 62
     3
370
    25
100
AcDbLine
 10
202.6173022289015
 20
340.535198409779
 30
0.0
 11
202.6173022289015
 21
332.7892317173641
 31
0.0
  0
LINE
  5
33D
330
1F
100
AcDbEntity
  8
Layer0000
  6
Continuous
 62
     3
370
    25
100
AcDbLine
 10
202.6173022289015
 20
331.035198409779
 30
0.0
 11
202.6173022289015
 21
323.2892317173639
 31
0.0
  0
LINE
  5
33E
330
1F
100
AcDbEntity
  8
Layer0000
  6
Continuous
 62
     3
370
    25
100
AcDbLine
 10
202.6173022289015
 20
322.4122150635715
 30
0.0
 11
202.6173022289015
 21
321.4122150635715
 31
0.0
  0
LINE
  5
33F
330
1F
100
AcDbEntity
  8
Layer0000
  6
Continuous
 62
     3
370
    25
100
AcDbLine
 10
202.6173022289016
 20
-97.57518785344422
 30
0.0
 11
202.6173022289016
 21
-102.0840144949918
 31
0.0
  0
LINE
  5
340
330
1F
100
AcDbEntity
  8
Layer0000
  6
Continuous
 62
     3
370
    25
100
AcDbLine
 10
202.6173022289016
 20
-103.6030518984448
 30
0.0
 11
202.6173022289016
 21
-112.5473238084437
 31
0.0
  0
LINE
  5
341
330
1F
100
AcDbEntity
  8
Layer0000
  6
Continuous
 62
     3
370
    25
100
AcDbLine
 10
202.6173022289016
 20
-114.0663612118969
 30
0.0
 11
202.6173022289016
 21
-118.5751878534444
 31
0.0
  0
CIRCLE
  5
342
330
1F
100
AcDbEntity
  8
Layer0000
  6
Continuous
 62
     3
370
    25
100
AcDbCircle
 10
-222.3826977710985
 20
-179.0751878534444
 30
0.0
 40
11.0
  0
CIRCLE
  5
343
330
1F
100
AcDbEntity
  8
Layer0000
  6
Continuous
 62
     3
370
    25
100
AcDbCircle
 10
-132.3826977710985
 20
-179.0751878534444
 30
0.0
 40
11.0
  0
LINE
  5
344
330
1F
100
AcDbEntity
  8
Layer0000
  6
Continuous
 62
     3
370
    25
100
AcDbLine
 10
-601.8826977710986
 20
262.9688393905974
 30
0.0
 11
-604.3826977710986
 21
261.5254637176233
 31
0.0
  0
LINE
  5
345
330
1F
100
AcDbEntity
  8
Layer0000
  6
Continuous
 62
     3
370
    25
100
AcDbLine
 10
-606.8826977710986
 20
262.9688393905974
 30
0.0
 11
-604.3826977710987
 21
261.5254637176233
 31
0.0
  0
LINE
  5
346
330
1F
100
AcDbEntity
  8
Layer0000
  6
Continuous
 62
     3
370
    25
100
AcDbLine
 10
-601.8826977710986
 20
265.8555907365455
 30
0.0
 11
-601.8826977710986
 21
262.9688393905974
 31
0.0
  0
LINE
  5
347
330
1F
100
AcDbEntity
  8
Layer0000
  6
Continuous
 62
     3
370
    25
100
AcDbLine
 10
-606.8826977710986
 20
265.8555907365455
 30
0.0
 11
-606.8826977710986
 21
262.9688393905974
 31
0.0
  0
LINE
  5
348
330
1F
100
AcDbEntity
  8
Layer0000
  6
Continuous
 62
     3
370
    25
100
AcDbLine
 10
-601.8826977710986
 20
265.8555907365455
 30
0.0
 11
-604.3826977710986
 21
267.2989664095196
 31
0.0
  0
LINE
  5
349
330
1F
100
AcDbEntity
  8
Layer0000
  6
Continuous
 62
     3
370
    25
100
AcDbLine
 10
-606.8826977710986
 20
265.8555907365455
 30
0.0
 11
-604.3826977710987
 21
267.2989664095196
 31
0.0
  0
CIRCLE
  5
34A
330
1F
100
AcDbEntity
  8
Layer0000
  6
Continuous
 62
     3
370
    25
100
AcDbCircle
 10
-604.3826977710986
 20
264.4122150635715
 30
0.0
 40
4.189999999999998
  0
CIRCLE
  5
34B
330
1F
100
AcDbEntity
  8
Layer0000
  6
Continuous
 62
     3
370
    25
100
AcDbCircle
 10
-604.3826977710986
 20
264.4122150635715
 30
0.0
 40
5.0
  0
LINE
  5
34C
330
1F
100
AcDbEntity
  8
Layer0000
  6
Continuous
 62
     3
370
    25
100
AcDbLine
 10
-601.8826977710986
 20
397.9688393905974
 30
0.0
 11
-604.3826977710986
 21
396.5254637176233
 31
0.0
  0
LINE
  5
34D
330
1F
100
AcDbEntity
  8
Layer0000
  6
Continuous
 62
     3
370
    25
100
AcDbLine
 10
-606.8826977710986
 20
397.9688393905974
 30
0.0
 11
-604.3826977710987
 21
396.5254637176233
 31
0.0
  0
LINE
  5
34E
330
1F
100
AcDbEntity
  8
Layer0000
  6
Continuous
 62
     3
370
    25
100
AcDbLine
 10
-601.8826977710986
 20
400.8555907365455
 30
0.0
 11
-601.8826977710986
 21
397.9688393905974
 31
0.0
  0
LINE
  5
34F
330
1F
100
AcDbEntity
  8
Layer0000
  6
Continuous
 62
     3
370
    25
100
AcDbLine
 10
-606.8826977710986
 20
400.8555907365455
 30
0.0
 11
-606.8826977710986
 21
397.9688393905974
 31
0.0
  0
LINE
  5
350
330
1F
100
AcDbEntity
  8
Layer0000
  6
Continuous
 62
     3
370
    25
100
AcDbLine
 10
-601.8826977710986
 20
400.8555907365455
 30
0.0
 11
-604.3826977710986
 21
402.2989664095196
 31
0.0
  0
LINE
  5
351
330
1F
100
AcDbEntity
  8
Layer0000
  6
Continuous
 62
     3
370
    25
100
AcDbLine
 10
-606.8826977710986
 20
400.8555907365455
 30
0.0
 11
-604.3826977710987
 21
402.2989664095196
 31
0.0
  0
CIRCLE
  5
352
330
1F
100
AcDbEntity
  8
Layer0000
  6
Continuous
 62
     3
370
    25
100
AcDbCircle
 10
-604.3826977710986
 20
399.4122150635715
 30
0.0
 40
4.189999999999998
  0
CIRCLE
  5
353
330
1F
100
AcDbEntity
  8
Layer0000
  6
Continuous
 62
     3
370
    25
100
AcDbCircle
 10
-604.3826977710986
 20
399.4122150635715
 30
0.0
 40
5.0
  0
LINE
  5
354
330
1F
100
AcDbEntity
  8
Layer0000
  6
Continuous
 62
     3
370
    25
100
AcDbLine
 10
118.4173022289016
 20
397.9688393905974
 30
0.0
 11
115.9173022289016
 21
396.5254637176233
 31
0.0
  0
LINE
  5
355
330
1F
100
AcDbEntity
  8
Layer0000
  6
Continuous
 62
     3
370
    25
100
AcDbLine
 10
113.4173022289016
 20
397.9688393905974
 30
0.0
 11
115.9173022289015
 21
396.5254637176233
 31
0.0
  0
LINE
  5
356
330
1F
100
AcDbEntity
  8
Layer0000
  6
Continuous
 62
     3
370
    25
100
AcDbLine
 10
118.4173022289016
 20
400.8555907365455
 30
0.0
 11
118.4173022289016
 21
397.9688393905974
 31
0.0
  0
LINE
  5
357
330
1F
100
AcDbEntity
  8
Layer0000
  6
Continuous
 62
     3
370
    25
100
AcDbLine
 10
113.4173022289016
 20
400.8555907365455
 30
0.0
 11
113.4173022289016
 21
397.9688393905974
 31
0.0
  0
LINE
  5
358
330
1F
100
AcDbEntity
  8
Layer0000
  6
Continuous
 62
     3
370
    25
100
AcDbLine
 10
118.4173022289016
 20
400.8555907365455
 30
0.0
 11
115.9173022289016
 21
402.2989664095196
 31
0.0
  0
LINE
  5
359
330
1F
100
AcDbEntity
  8
Layer0000
  6
Continuous
 62
     3
370
    25
100
AcDbLine
 10
113.4173022289016
 20
400.8555907365455
 30
0.0
 11
115.9173022289015
 21
402.2989664095196
 31
0.0
  0
CIRCLE
  5
35A
330
1F
100
AcDbEntity
  8
Layer0000
  6
Continuous
 62
     3
370
    25
100
AcDbCircle
 10
115.9173022289016
 20
399.4122150635715
 30
0.0
 40
4.189999999999998
  0
CIRCLE
  5
35B
330
1F
100
AcDbEntity
  8
Layer0000
  6
Continuous
 62
     3
370
    25
100
AcDbCircle
 10
115.9173022289016
 20
399.4122150635715
 30
0.0
 40
5.0
  0
LINE
  5
35C
330
1F
100
AcDbEntity
  8
Layer0000
  6
Continuous
 62
     3
370
    25
100
AcDbLine
 10
20.41730222890158
 20
397.9688393905974
 30
0.0
 11
17.91730222890158
 21
396.5254637176233
 31
0.0
  0
LINE
  5
35D
330
1F
100
AcDbEntity
  8
Layer0000
  6
Continuous
 62
     3
370
    25
100
AcDbLine
 10
15.41730222890158
 20
397.9688393905974
 30
0.0
 11
17.91730222890146
 21
396.5254637176233
 31
0.0
  0
LINE
  5
35E
330
1F
100
AcDbEntity
  8
Layer0000
  6
Continuous
 62
     3
370
    25
100
AcDbLine
 10
20.41730222890158
 20
400.8555907365455
 30
0.0
 11
20.41730222890158
 21
397.9688393905974
 31
0.0
  0
LINE
  5
35F
330
1F
100
AcDbEntity
  8
Layer0000
  6
Continuous
 62
     3
370
    25
100
AcDbLine
 10
15.41730222890158
 20
400.8555907365455
 30
0.0
 11
15.41730222890158
 21
397.9688393905974
 31
0.0
  0
LINE
  5
360
330
1F
100
AcDbEntity
  8
Layer0000
  6
Continuous
 62
     3
370
    25
100
AcDbLine
 10
20.41730222890158
 20
400.8555907365455
 30
0.0
 11
17.91730222890158
 21
402.2989664095196
 31
0.0
  0
LINE
  5
361
330
1F
100
AcDbEntity
  8
Layer0000
  6
Continuous
 62
     3
370
    25
100
AcDbLine
 10
15.41730222890158
 20
400.8555907365455
 30
0.0
 11
17.91730222890146
 21
402.2989664095196
 31
0.0
  0
CIRCLE
  5
362
330
1F
100
AcDbEntity
  8
Layer0000
  6
Continuous
 62
     3
370
    25
100
AcDbCircle
 10
17.91730222890158
 20
399.4122150635715
 30
0.0
 40
4.189999999999998
  0
CIRCLE
  5
363
330
1F
100
AcDbEntity
  8
Layer0000
  6
Continuous
 62
     3
370
    25
100
AcDbCircle
 10
17.91730222890158
 20
399.4122150635715
 30
0.0
 40
5.0
  0
LINE
  5
364
330
1F
100
AcDbEntity
  8
Layer0000
  6
Continuous
 62
     3
370
    25
100
AcDbLine
 10
20.41730222890158
 20
262.9688393905974
 30
0.0
 11
17.91730222890158
 21
261.5254637176233
 31
0.0
  0
LINE
  5
365
330
1F
100
AcDbEntity
  8
Layer0000
  6
Continuous
 62
     3
370
    25
100
AcDbLine
 10
15.41730222890158
 20
262.9688393905974
 30
0.0
 11
17.91730222890146
 21
261.5254637176233
 31
0.0
  0
LINE
  5
366
330
1F
100
AcDbEntity
  8
Layer0000
  6
Continuous
 62
     3
370
    25
100
AcDbLine
 10
20.41730222890158
 20
265.8555907365455
 30
0.0
 11
20.41730222890158
 21
262.9688393905974
 31
0.0
  0
LINE
  5
367
330
1F
100
AcDbEntity
  8
Layer0000
  6
Continuous
 62
     3
370
    25
100
AcDbLine
 10
15.41730222890158
 20
265.8555907365455
 30
0.0
 11
15.41730222890158
 21
262.9688393905974
 31
0.0
  0
LINE
  5
368
330
1F
100
AcDbEntity
  8
Layer0000
  6
Continuous
 62
     3
370
    25
100
AcDbLine
 10
20.41730222890158
 20
265.8555907365455
 30
0.0
 11
17.91730222890158
 21
267.2989664095196
 31
0.0
  0
LINE
  5
369
330
1F
100
AcDbEntity
  8
Layer0000
  6
Continuous
 62
     3
370
    25
100
AcDbLine
 10
15.41730222890158
 20
265.8555907365455
 30
0.0
 11
17.91730222890146
 21
267.2989664095196
 31
0.0
  0
CIRCLE
  5
36A
330
1F
100
AcDbEntity
  8
Layer0000
  6
Continuous
 62
     3
370
    25
100
AcDbCircle
 10
17.91730222890158
 20
264.4122150635715
 30
0.0
 40
4.189999999999998
  0
CIRCLE
  5
36B
330
1F
100
AcDbEntity
  8
Layer0000
  6
Continuous
 62
     3
370
    25
100
AcDbCircle
 10
17.91730222890158
 20
264.4122150635715
 30
0.0
 40
5.0
  0
LINE
  5
36C
330
1F
100
AcDbEntity
  8
Layer0000
  6
Continuous
 62
     3
370
    25
100
AcDbLine
 10
118.4173022289016
 20
262.9688393905974
 30
0.0
 11
115.9173022289016
 21
261.5254637176233
 31
0.0
  0
LINE
  5
36D
330
1F
100
AcDbEntity
  8
Layer0000
  6
Continuous
 62
     3
370
    25
100
AcDbLine
 10
113.4173022289016
 20
262.9688393905974
 30
0.0
 11
115.9173022289015
 21
261.5254637176233
 31
0.0
  0
LINE
  5
36E
330
1F
100
AcDbEntity
  8
Layer0000
  6
Continuous
 62
     3
370
    25
100
AcDbLine
 10
118.4173022289016
 20
265.8555907365455
 30
0.0
 11
118.4173022289016
 21
262.9688393905974
 31
0.0
  0
LINE
  5
36F
330
1F
100
AcDbEntity
  8
Layer0000
  6
Continuous
 62
     3
370
    25
100
AcDbLine
 10
113.4173022289016
 20
265.8555907365455
 30
0.0
 11
113.4173022289016
 21
262.9688393905974
 31
0.0
  0
LINE
  5
370
330
1F
100
AcDbEntity
  8
Layer0000
  6
Continuous
 62
     3
370
    25
100
AcDbLine
 10
118.4173022289016
 20
265.8555907365455
 30
0.0
 11
115.9173022289016
 21
267.2989664095196
 31
0.0
  0
LINE
  5
371
330
1F
100
AcDbEntity
  8
Layer0000
  6
Continuous
 62
     3
370
    25
100
AcDbLine
 10
113.4173022289016
 20
265.8555907365455
 30
0.0
 11
115.9173022289015
 21
267.2989664095196
 31
0.0
  0
CIRCLE
  5
372
330
1F
100
AcDbEntity
  8
Layer0000
  6
Continuous
 62
     3
370
    25
100
AcDbCircle
 10
115.9173022289016
 20
264.4122150635715
 30
0.0
 40
4.189999999999998
  0
CIRCLE
  5
373
330
1F
100
AcDbEntity
  8
Layer0000
  6
Continuous
 62
     3
370
    25
100
AcDbCircle
 10
115.9173022289016
 20
264.4122150635715
 30
0.0
 40
5.0
  0
CIRCLE
  5
374
330
1F
100
AcDbEntity
  8
Layer0000
  6
Continuous
 62
     3
370
    25
100
AcDbCircle
 10
-658.3826977710984
 20
381.9122150635715
 30
0.0
 40
14.5
  0
CIRCLE
  5
375
330
1F
100
AcDbEntity
  8
Layer0000
  6
Continuous
 62
     3
370
    25
100
AcDbCircle
 10
-658.3826977710984
 20
281.9122150635715
 30
0.0
 40
14.5
  0
CIRCLE
  5
376
330
1F
100
AcDbEntity
  8
Layer0000
  6
Continuous
 62
     3
370
    25
100
AcDbCircle
 10
-591.3826977710984
 20
281.9122150635715
 30
0.0
 40
14.5
  0
CIRCLE
  5
377
330
1F
100
AcDbEntity
  8
Layer0000
  6
Continuous
 62
     3
370
    25
100
AcDbCircle
 10
-591.3826977710984
 20
381.9122150635715
 30
0.0
 40
14.5
  0
LINE
  5
378
330
1F
100
AcDbEntity
  8
Layer0000
  6
Continuous
 62
     3
370
    25
100
AcDbLine
 10
-612.3826977710986
 20
431.4122150635715
 30
0.0
 11
-612.3826977710986
 21
232.4122150635715
 31
0.0
  0
LINE
  5
379
330
1F
100
AcDbEntity
  8
Layer0000
  6
Continuous
 62
     3
370
    25
100
AcDbLine
 10
-628.3826977710985
 20
232.4122150635715
 30
0.0
 11
-628.3826977710985
 21
431.4122150635715
 31
0.0
  0
LINE
  5
37A
330
1F
100
AcDbEntity
  8
Layer0000
  6
Continuous
 62
     3
370
    25
100
AcDbLine
 10
139.9173022289016
 20
273.9122150635715
 30
0.0
 11
139.9173022289016
 21
232.4122150635715
 31
0.0
  0
LINE
  5
37B
330
1F
100
AcDbEntity
  8
Layer0000
  6
Continuous
 62
     3
370
    25
100
AcDbLine
 10
123.9173022289016
 20
232.4122150635715
 30
0.0
 11
123.9173022289016
 21
273.9122150635715
 31
0.0
  0
LINE
  5
37C
330
1F
100
AcDbEntity
  8
Layer0000
  6
Continuous
 62
     3
370
    25
100
AcDbLine
 10
139.9173022289016
 20
273.9122150635715
 30
0.0
 11
164.9173022289015
 21
273.9122150635715
 31
0.0
  0
LINE
  5
37D
330
1F
100
AcDbEntity
  8
Layer0000
  6
Continuous
 62
     3
370
    25
100
AcDbLine
 10
139.9173022289016
 20
389.9122150635715
 30
0.0
 11
139.9173022289016
 21
431.4122150635715
 31
0.0
  0
LINE
  5
37E
330
1F
100
AcDbEntity
  8
Layer0000
  6
Continuous
 62
     3
370
    25
100
AcDbLine
 10
123.9173022289016
 20
431.4122150635715
 30
0.0
 11
123.9173022289016
 21
389.9122150635715
 31
0.0
  0
LINE
  5
37F
330
1F
100
AcDbEntity
  8
Layer0000
  6
Continuous
 62
     3
370
    25
100
AcDbLine
 10
139.9173022289016
 20
389.9122150635715
 30
0.0
 11
164.9173022289015
 21
389.9122150635715
 31
0.0
  0
ARC
  5
380
330
1F
100
AcDbEntity
  8
Layer0000
  6
Continuous
 62
     3
370
    25
100
AcDbCircle
 10
391.1173022289012
 20
410.9122150635715
 30
0.0
 40
1.0
100
AcDbArc
 50
90.0
 51
180.0
  0
ARC
  5
381
330
1F
100
AcDbEntity
  8
Layer0000
  6
Continuous
 62
     3
370
    25
100
AcDbCircle
 10
391.1173022289012
 20
252.9122150635715
 30
0.0
 40
1.0
100
AcDbArc
 50
180.0
 51
270.0
  0
LINE
  5
382
330
1F
100
AcDbEntity
  8
Layer0000
  6
Continuous
 62
     3
370
    25
100
AcDbLine
 10
-403.3907135225201
 20
-391.4606548412452
 30
0.0
 11
-403.3907135225201
 21
-413.4606548412453
 31
0.0
  0
LINE
  5
383
330
1F
100
AcDbEntity
  8
Layer0000
  6
Continuous
 62
     3
370
    25
100
AcDbLine
 10
-402.5246881187351
 20
-391.9606548412453
 30
0.0
 11
-386.5246881187354
 21
-391.9606548412453
 31
0.0
  0
LINE
  5
384
330
1F
100
AcDbEntity
  8
Layer0000
  6
Continuous
 62
     3
370
    25
100
AcDbLine
 10
-402.5246881187352
 20
-412.9606548412453
 30
0.0
 11
-386.5246881187354
 21
-412.9606548412453
 31
0.0
  0
LINE
  5
385
330
1F
100
AcDbEntity
  8
Layer0000
  6
Continuous
 62
     3
370
    25
100
AcDbLine
 10
-385.5246881187354
 20
-392.9606548412453
 30
0.0
 11
-385.5246881187354
 21
-411.9606548412453
 31
0.0
  0
LINE
  5
386
330
1F
100
AcDbEntity
  8
Layer0000
  6
Continuous
 62
     3
370
    25
100
AcDbLine
 10
-386.5246881187354
 20
-412.9606548412453
 30
0.0
 11
-385.5246881187354
 21
-411.9606548412453
 31
0.0
  0
LINE
  5
387
330
1F
100
AcDbEntity
  8
Layer0000
  6
Continuous
 62
     3
370
    25
100
AcDbLine
 10
-386.5246881187354
 20
-391.9606548412453
 30
0.0
 11
-385.5246881187354
 21
-392.9606548412453
 31
0.0
  0
LINE
  5
388
330
1F
100
AcDbEntity
  8
Layer0000
  6
Continuous
 62
     3
370
    25
100
AcDbLine
 10
-402.5246881187352
 20
-397.9885188862457
 30
0.0
 11
-386.5246881187354
 21
-397.9885188862457
 31
0.0
  0
LINE
  5
389
330
1F
100
AcDbEntity
  8
Layer0000
  6
Continuous
 62
     3
370
    25
100
AcDbLine
 10
-402.5246881187352
 20
-396.4694814827927
 30
0.0
 11
-386.5246881187354
 21
-396.4694814827927
 31
0.0
  0
LINE
  5
38A
330
1F
100
AcDbEntity
  8
Layer0000
  6
Continuous
 62
     3
370
    25
100
AcDbLine
 10
-402.5246881187352
 20
-408.4518281996976
 30
0.0
 11
-386.5246881187354
 21
-408.4518281996976
 31
0.0
  0
LINE
  5
38B
330
1F
100
AcDbEntity
  8
Layer0000
  6
Continuous
 62
     3
370
    25
100
AcDbLine
 10
-386.5246881187354
 20
-406.9327907962446
 30
0.0
 11
-402.5246881187352
 21
-406.9327907962446
 31
0.0
  0
LINE
  5
38C
330
1F
100
AcDbEntity
  8
Layer0000
  6
Continuous
 62
     3
370
    25
100
AcDbLine
 10
-386.5246881187354
 20
-396.4694814827927
 30
0.0
 11
-386.5246881187354
 21
-397.9885188862457
 31
0.0
  0
LINE
  5
38D
330
1F
100
AcDbEntity
  8
Layer0000
  6
Continuous
 62
     3
370
    25
100
AcDbLine
 10
-386.5246881187354
 20
-406.9327907962446
 30
0.0
 11
-386.5246881187354
 21
-408.4518281996976
 31
0.0
  0
ARC
  5
38E
330
1F
100
AcDbEntity
  8
Layer0000
  6
Continuous
 62
     3
370
    25
100
AcDbCircle
 10
-396.0246881187349
 20
-402.4606548412452
 30
0.0
 40
10.49999999999956
100
AcDbArc
 50
334.7912347032412
 51
25.20876529675892
  0
ARC
  5
38F
330
1F
100
AcDbEntity
  8
Layer0000
  6
Continuous
 62
     3
370
    25
100
AcDbCircle
 10
-388.5658778291746
 20
-394.2150681620183
 30
0.0
 40
3.041189710439299
100
AcDbArc
 50
312.1583048916353
 51
42.1583048916778
  0
ARC
  5
390
330
1F
100
AcDbEntity
  8
Layer0000
  6
Continuous
 62
     3
370
    25
100
AcDbCircle
 10
-388.5658778291746
 20
-410.7062415204723
 30
0.0
 40
3.041189710439299
100
AcDbArc
 50
317.8416951083222
 51
47.84169510836464
  0
LINE
  5
391
330
1F
100
AcDbEntity
  8
Layer0000
  6
Continuous
 62
     3
370
    25
100
AcDbLine
 10
-625.5246881187353
 20
-388.4606548412452
 30
0.0
 11
-625.5246881187353
 21
-416.4606548412452
 31
0.0
  0
LINE
  5
392
330
1F
100
AcDbEntity
  8
Layer0000
  6
Continuous
 62
     3
370
    25
100
AcDbLine
 10
-624.5246881187353
 20
-387.4606548412452
 30
0.0
 11
-555.5246881187353
 21
-387.4606548412452
 31
0.0
  0
LINE
  5
393
330
1F
100
AcDbEntity
  8
Layer0000
  6
Continuous
 62
     3
370
    25
100
AcDbLine
 10
-624.5246881187353
 20
-417.4606548412452
 30
0.0
 11
-555.5246881187353
 21
-417.4606548412452
 31
0.0
  0
LINE
  5
394
330
1F
100
AcDbEntity
  8
Layer0000
  6
Continuous
 62
     3
370
    25
100
AcDbLine
 10
-624.5246881187353
 20
-387.4606548412452
 30
0.0
 11
-625.5246881187353
 21
-388.4606548412452
 31
0.0
  0
LINE
  5
395
330
1F
100
AcDbEntity
  8
Layer0000
  6
Continuous
 62
     3
370
    25
100
AcDbLine
 10
-624.5246881187353
 20
-417.4606548412452
 30
0.0
 11
-625.5246881187353
 21
-416.4606548412452
 31
0.0
  0
LINE
  5
396
330
1F
100
AcDbEntity
  8
Layer0000
  6
Continuous
 62
     3
370
    25
100
AcDbLine
 10
-555.5246881187353
 20
-417.4606548412452
 30
0.0
 11
-555.5246881187353
 21
-387.4606548412452
 31
0.0
  0
LINE
  5
397
330
1F
100
AcDbEntity
  8
Layer0000
  6
Continuous
 62
     3
370
    25
100
AcDbLine
 10
-555.5246881187353
 20
-387.4606548412449
 30
0.0
 11
-551.5246881187351
 21
-391.4606548412452
 31
0.0
  0
LINE
  5
398
330
1F
100
AcDbEntity
  8
Layer0000
  6
Continuous
 62
     3
370
    25
100
AcDbLine
 10
-551.5246881187328
 20
-413.4606548412453
 30
0.0
 11
-555.5246881187353
 21
-417.4606548412452
 31
0.0
  0
LINE
  5
399
330
1F
100
AcDbEntity
  8
Layer0000
  6
Continuous
 62
     3
370
    25
100
AcDbLine
 10
-402.5246881187352
 20
-391.9606548412452
 30
0.0
 11
-402.5246881187352
 21
-396.4694814827927
 31
0.0
  0
LINE
  5
39A
330
1F
100
AcDbEntity
  8
Layer0000
  6
Continuous
 62
     3
370
    25
100
AcDbLine
 10
-402.5246881187352
 20
-397.9885188862457
 30
0.0
 11
-402.5246881187352
 21
-406.9327907962446
 31
0.0
  0
LINE
  5
39B
330
1F
100
AcDbEntity
  8
Layer0000
  6
Continuous
 62
     3
370
    25
100
AcDbLine
 10
-402.5246881187352
 20
-408.4518281996976
 30
0.0
 11
-402.5246881187352
 21
-412.9606548412453
 31
0.0
  0
LINE
  5
39C
330
1F
100
AcDbEntity
  8
Layer0000
  6
Continuous
 62
     3
370
    25
100
AcDbLine
 10
-551.5246881187328
 20
-413.4606548412453
 30
0.0
 11
-551.5246881187328
 21
-391.4606548412452
 31
0.0
  0
LINE
  5
39D
330
1F
100
AcDbEntity
  8
Layer0000
  6
Continuous
 62
     3
370
    25
100
AcDbLine
 10
-403.3907135225201
 20
-391.4606548412452
 30
0.0
 11
-551.5246881187328
 21
-391.4606548412452
 31
0.0
  0
LINE
  5
39E
330
1F
100
AcDbEntity
  8
Layer0000
  6
Continuous
 62
     3
370
    25
100
AcDbLine
 10
-403.3907135225193
 20
-413.4606548412453
 30
0.0
 11
-551.5246881187328
 21
-413.4606548412453
 31
0.0
  0
LINE
  5
39F
330
1F
100
AcDbEntity
  8
Layer0000
  6
Continuous
 62
     3
370
    25
100
AcDbLine
 10
-435.5246881187352
 20
-413.4606548412453
 30
0.0
 11
-435.5246881187352
 21
-391.4606548412452
 31
0.0
  0
LINE
  5
3A0
330
1F
100
AcDbEntity
  8
Layer0000
  6
Continuous
 62
     3
370
    25
100
AcDbLine
 10
-402.5246881187352
 20
-412.9606548412453
 30
0.0
 11
-403.3907135225201
 21
-413.4606548412457
 31
0.0
  0
LINE
  5
3A1
330
1F
100
AcDbEntity
  8
Layer0000
  6
Continuous
 62
     3
370
    25
100
AcDbLine
 10
-402.5246881187359
 20
-391.9606548412451
 30
0.0
 11
-403.3907135225201
 21
-391.4606548412452
 31
0.0
  0
CIRCLE
  5
3A2
330
1F
100
AcDbEntity
  8
Layer0000
  6
Continuous
 62
     4
370
    25
100
AcDbCircle
 10
-621.3826977710987
 20
-92.07518785344422
 30
0.0
 40
8.0
  0
LINE
  5
3A3
330
1F
100
AcDbEntity
  8
Layer0000
  6
CENTER
 62
     2
370
    25
100
AcDbLine
 10
-612.3826977710987
 20
-92.07518785344422
 30
0.0
 11
-630.3826977710987
 21
-92.07518785344422
 31
0.0
  0
LINE
  5
3A4
330
1F
100
AcDbEntity
  8
Layer0000
  6
CENTER
 62
     2
370
    25
100
AcDbLine
 10
-621.3826977710987
 20
-83.07518785344422
 30
0.0
 11
-621.3826977710987
 21
-101.0751878534442
 31
0.0
  0
LINE
  5
3A5
330
1F
100
AcDbEntity
  8
Layer0000
  6
CENTER
 62
     2
370
    25
100
AcDbLine
 10
-604.3826977710986
 20
325.9122150635715
 30
0.0
 11
-604.3826977710986
 21
337.9122150635715
 31
0.0
  0
LINE
  5
3A6
330
1F
100
AcDbEntity
  8
Layer0000
  6
CENTER
 62
     2
370
    25
100
AcDbLine
 10
-472.3826977710985
 20
-250.0751878534442
 30
0.0
 11
-472.3826977710985
 21
-236.0751878534442
 31
0.0
  0
LINE
  5
3A7
330
1F
100
AcDbEntity
  8
Layer0000
  6
CENTER
 62
     2
370
    25
100
AcDbLine
 10
-480.3826977710985
 20
-179.0751878534444
 30
0.0
 11
-504.3826977710986
 21
-179.0751878534444
 31
0.0
  0
LINE
  5
3A8
330
1F
100
AcDbEntity
  8
Layer0000
  6
CENTER
 62
     2
370
    25
100
AcDbLine
 10
-492.3826977710986
 20
-167.0751878534444
 30
0.0
 11
-492.3826977710986
 21
-191.0751878534444
 31
0.0
  0
LINE
  5
3A9
330
1F
100
AcDbEntity
  8
Layer0000
  6
CENTER
 62
     2
370
    25
100
AcDbLine
 10
-390.3826977710985
 20
-179.0751878534444
 30
0.0
 11
-414.3826977710985
 21
-179.0751878534444
 31
0.0
  0
LINE
  5
3AA
330
1F
100
AcDbEntity
  8
Layer0000
  6
CENTER
 62
     2
370
    25
100
AcDbLine
 10
-402.3826977710985
 20
-167.0751878534444
 30
0.0
 11
-402.3826977710985
 21
-191.0751878534444
 31
0.0
  0
LINE
  5
3AB
330
1F
100
AcDbEntity
  8
Layer0000
  6
CENTER
 62
     2
370
    25
100
AcDbLine
 10
-300.3826977710985
 20
-179.0751878534444
 30
0.0
 11
-324.3826977710985
 21
-179.0751878534444
 31
0.0
  0
LINE
  5
3AC
330
1F
100
AcDbEntity
  8
Layer0000
  6
CENTER
 62
     2
370
    25
100
AcDbLine
 10
-312.3826977710985
 20
-167.0751878534444
 30
0.0
 11
-312.3826977710985
 21
-191.0751878534444
 31
0.0
  0
LINE
  5
3AD
330
1F
100
AcDbEntity
  8
Layer0000
  6
CENTER
 62
     2
370
    25
100
AcDbLine
 10
438.1173022289013
 20
245.4122150635715
 30
0.0
 11
438.1173022289013
 21
403.4122150635715
 31
0.0
  0
LINE
  5
3AE
330
1F
100
AcDbEntity
  8
Layer0000
  6
CENTER
 62
     2
370
    25
100
AcDbLine
 10
367.1173022289012
 20
364.6622150635715
 30
0.0
 11
367.1173022289012
 21
299.1622150635715
 31
0.0
  0
LINE
  5
3AF
330
1F
100
AcDbEntity
  8
Layer0000
  6
CENTER
 62
     2
370
    25
100
AcDbLine
 10
300.1173022289012
 20
331.9122150635715
 30
0.0
 11
502.1173022289013
 21
331.9122150635715
 31
0.0
  0
CIRCLE
  5
3B0
330
1F
100
AcDbEntity
  8
Layer0000
  6
CENTER
 62
     2
370
    25
100
AcDbCircle
 10
367.1173022289012
 20
331.9122150635715
 30
0.0
 40
26.99999999999997
  0
LINE
  5
3B1
330
1F
100
AcDbEntity
  8
Layer0000
  6
CENTER
 62
     2
370
    25
100
AcDbLine
 10
-679.3826977710987
 20
331.9122150635715
 30
0.0
 11
-474.8826977710985
 21
331.9122150635715
 31
0.0
  0
LINE
  5
3B2
330
1F
100
AcDbEntity
  8
Layer0000
  6
CENTER
 62
     2
370
    25
100
AcDbLine
 10
-427.3826977710985
 20
331.9122150635715
 30
0.0
 11
221.6173022288988
 21
331.9122150635715
 31
0.0
  0
LINE
  5
3B3
330
1F
100
AcDbEntity
  8
Layer0000
  6
CENTER
 62
     2
370
    25
100
AcDbLine
 10
-29.38269777109849
 20
-179.0751878534444
 30
0.0
 11
-55.38269777109849
 21
-179.0751878534444
 31
0.0
  0
LINE
  5
3B4
330
1F
100
AcDbEntity
  8
Layer0000
  6
CENTER
 62
     2
370
    25
100
AcDbLine
 10
-42.38269777109849
 20
-166.0751878534444
 30
0.0
 11
-42.38269777109849
 21
-192.0751878534444
 31
0.0
  0
LINE
  5
3B5
330
1F
100
AcDbEntity
  8
Layer0000
  6
CENTER
 62
     2
370
    25
100
AcDbLine
 10
221.617302228899
 20
-108.0751878534444
 30
0.0
 11
162.9173022289013
 21
-108.0751878534444
 31
0.0
  0
LINE
  5
3B6
330
1F
100
AcDbEntity
  8
Layer0000
  6
CENTER
 62
     2
370
    25
100
AcDbLine
 10
-210.3826977710985
 20
-179.0751878534444
 30
0.0
 11
-234.3826977710985
 21
-179.0751878534444
 31
0.0
  0
LINE
  5
3B7
330
1F
100
AcDbEntity
  8
Layer0000
  6
CENTER
 62
     2
370
    25
100
AcDbLine
 10
-222.3826977710985
 20
-167.0751878534444
 30
0.0
 11
-222.3826977710985
 21
-191.0751878534444
 31
0.0
  0
LINE
  5
3B8
330
1F
100
AcDbEntity
  8
Layer0000
  6
CENTER
 62
     2
370
    25
100
AcDbLine
 10
-120.3826977710985
 20
-179.0751878534444
 30
0.0
 11
-144.3826977710985
 21
-179.0751878534444
 31
0.0
  0
LINE
  5
3B9
330
1F
100
AcDbEntity
  8
Layer0000
  6
CENTER
 62
     2
370
    25
100
AcDbLine
 10
-132.3826977710985
 20
-167.0751878534444
 30
0.0
 11
-132.3826977710985
 21
-191.0751878534444
 31
0.0
  0
LINE
  5
3BA
330
1F
100
AcDbEntity
  8
Layer0000
  6
CENTER
 62
     2
370
    25
100
AcDbLine
 10
-604.3826977710986
 20
258.4122150635715
 30
0.0
 11
-604.3826977710986
 21
270.4122150635715
 31
0.0
  0
LINE
  5
3BB
330
1F
100
AcDbEntity
  8
Layer0000
  6
CENTER
 62
     2
370
    25
100
AcDbLine
 10
-604.3826977710986
 20
393.4122150635715
 30
0.0
 11
-604.3826977710986
 21
405.4122150635715
 31
0.0
  0
LINE
  5
3BC
330
1F
100
AcDbEntity
  8
Layer0000
  6
CENTER
 62
     2
370
    25
100
AcDbLine
 10
-598.3826977710986
 20
264.4122150635715
 30
0.0
 11
-610.3826977710986
 21
264.4122150635715
 31
0.0
  0
LINE
  5
3BD
330
1F
100
AcDbEntity
  8
Layer0000
  6
CENTER
 62
     2
370
    25
100
AcDbLine
 10
-598.3826977710986
 20
399.4122150635715
 30
0.0
 11
-610.3826977710986
 21
399.4122150635715
 31
0.0
  0
LINE
  5
3BE
330
1F
100
AcDbEntity
  8
Layer0000
  6
CENTER
 62
     2
370
    25
100
AcDbLine
 10
115.9173022289016
 20
393.4122150635715
 30
0.0
 11
115.9173022289016
 21
405.4122150635715
 31
0.0
  0
LINE
  5
3BF
330
1F
100
AcDbEntity
  8
Layer0000
  6
CENTER
 62
     2
370
    25
100
AcDbLine
 10
121.9173022289016
 20
399.4122150635715
 30
0.0
 11
109.9173022289016
 21
399.4122150635715
 31
0.0
  0
LINE
  5
3C0
330
1F
100
AcDbEntity
  8
Layer0000
  6
CENTER
 62
     2
370
    25
100
AcDbLine
 10
17.91730222890158
 20
393.4122150635715
 30
0.0
 11
17.91730222890158
 21
405.4122150635715
 31
0.0
  0
LINE
  5
3C1
330
1F
100
AcDbEntity
  8
Layer0000
  6
CENTER
 62
     2
370
    25
100
AcDbLine
 10
23.91730222890158
 20
399.4122150635715
 30
0.0
 11
11.91730222890158
 21
399.4122150635715
 31
0.0
  0
LINE
  5
3C2
330
1F
100
AcDbEntity
  8
Layer0000
  6
CENTER
 62
     2
370
    25
100
AcDbLine
 10
17.91730222890158
 20
258.4122150635715
 30
0.0
 11
17.91730222890158
 21
270.4122150635715
 31
0.0
  0
LINE
  5
3C3
330
1F
100
AcDbEntity
  8
Layer0000
  6
CENTER
 62
     2
370
    25
100
AcDbLine
 10
23.91730222890158
 20
264.4122150635715
 30
0.0
 11
11.91730222890158
 21
264.4122150635715
 31
0.0
  0
LINE
  5
3C4
330
1F
100
AcDbEntity
  8
Layer0000
  6
CENTER
 62
     2
370
    25
100
AcDbLine
 10
115.9173022289016
 20
258.4122150635715
 30
0.0
 11
115.9173022289016
 21
270.4122150635715
 31
0.0
  0
LINE
  5
3C5
330
1F
100
AcDbEntity
  8
Layer0000
  6
CENTER
 62
     2
370
    25
100
AcDbLine
 10
121.9173022289016
 20
264.4122150635715
 30
0.0
 11
109.9173022289016
 21
264.4122150635715
 31
0.0
  0
LINE
  5
3C6
330
1F
100
AcDbEntity
  8
Layer0000
  6
CENTER
 62
     2
370
    25
100
AcDbLine
 10
-575.8826977710984
 20
381.9122150635715
 30
0.0
 11
-606.8826977710984
 21
381.9122150635715
 31
0.0
  0
LINE
  5
3C7
330
1F
100
AcDbEntity
  8
Layer0000
  6
CENTER
 62
     2
370
    25
100
AcDbLine
 10
-591.3826977710984
 20
397.4122150635715
 30
0.0
 11
-591.3826977710984
 21
366.4122150635715
 31
0.0
  0
LINE
  5
3C8
330
1F
100
AcDbEntity
  8
Layer0000
  6
CENTER
 62
     2
370
    25
100
AcDbLine
 10
-575.8826977710984
 20
281.9122150635715
 30
0.0
 11
-606.8826977710984
 21
281.9122150635715
 31
0.0
  0
LINE
  5
3C9
330
1F
100
AcDbEntity
  8
Layer0000
  6
CENTER
 62
     2
370
    25
100
AcDbLine
 10
-591.3826977710984
 20
297.4122150635715
 30
0.0
 11
-591.3826977710984
 21
266.4122150635715
 31
0.0
  0
LINE
  5
3CA
330
1F
100
AcDbEntity
  8
Layer0000
  6
CENTER
 62
     2
370
    25
100
AcDbLine
 10
-642.8826977710984
 20
281.9122150635715
 30
0.0
 11
-673.8826977710984
 21
281.9122150635715
 31
0.0
  0
LINE
  5
3CB
330
1F
100
AcDbEntity
  8
Layer0000
  6
CENTER
 62
     2
370
    25
100
AcDbLine
 10
-658.3826977710984
 20
297.4122150635715
 30
0.0
 11
-658.3826977710984
 21
266.4122150635715
 31
0.0
  0
LINE
  5
3CC
330
1F
100
AcDbEntity
  8
Layer0000
  6
CENTER
 62
     2
370
    25
100
AcDbLine
 10
-642.8826977710984
 20
381.9122150635715
 30
0.0
 11
-673.8826977710984
 21
381.9122150635715
 31
0.0
  0
LINE
  5
3CD
330
1F
100
AcDbEntity
  8
Layer0000
  6
CENTER
 62
     2
370
    25
100
AcDbLine
 10
-658.3826977710984
 20
397.4122150635715
 30
0.0
 11
-658.3826977710984
 21
366.4122150635715
 31
0.0
  0
LINE
  5
3CE
330
1F
100
AcDbEntity
  8
Layer0000
  6
CENTER
 62
     2
370
    25
100
AcDbLine
 10
-627.5246881187353
 20
-402.4606548412452
 30
0.0
 11
-604.5246881186978
 21
-402.4606548412452
 31
0.0
  0
LINE
  5
3CF
330
1F
100
AcDbEntity
  8
Layer0000
  6
CENTER
 62
     2
370
    25
100
AcDbLine
 10
-413.5246881187352
 20
-402.4606548412452
 30
0.0
 11
-383.5246881187352
 21
-402.4606548412452
 31
0.0
  0
LINE
  5
3D0
330
1F
100
AcDbEntity
  8
Layer0000
  6
CENTER
 62
     2
370
    25
100
AcDbLine
 10
-453.5246881187352
 20
-402.4606548412452
 30
0.0
 11
-413.5246881187352
 21
-402.4606548412452
 31
0.0
  0
LINE
  5
3D1
330
1F
100
AcDbEntity
  8
Layer0000
  6
CENTER
 62
     2
370
    25
100
AcDbLine
 10
-604.5246881186978
 20
-402.4606548412452
 30
0.0
 11
-569.5246881187369
 21
-402.4606548412452
 31
0.0
  0
LINE
  5
3D2
330
1F
100
AcDbEntity
  8
Layer0000
  6
CENTER
 62
     2
370
    25
100
AcDbLine
 10
-569.5246881187369
 20
-402.4606548412452
 30
0.0
 11
-453.5246881187352
 21
-402.4606548412452
 31
0.0
  0
LINE
  5
3D3
330
1F
100
AcDbEntity
  8
Layer0000
  6
DIVIDE
 62
    56
370
    25
100
AcDbLine
 10
-582.3826977710986
 20
-48.27518785344425
 30
0.0
 11
-582.3826977710986
 21
-69.07518785344422
 31
0.0
  0
LINE
  5
3D4
330
1F
100
AcDbEntity
  8
Layer0000
  6
DIVIDE
 62
    56
370
    25
100
AcDbLine
 10
-616.8826977710985
 20
-48.07518785344421
 30
0.0
 11
-582.5826977710987
 21
-48.07518785344421
 31
0.0
  0
LINE
  5
3D5
330
1F
100
AcDbEntity
  8
Layer0000
  6
DIVIDE
 62
    56
370
    25
100
AcDbLine
 10
-617.3826977710985
 20
-47.57518785344421
 30
0.0
 11
-617.3826977710985
 21
-43.27518785344425
 31
0.0
  0
LINE
  5
3D6
330
1F
100
AcDbEntity
  8
Layer0000
  6
DIVIDE
 62
    56
370
    25
100
AcDbLine
 10
-617.5826977710985
 20
-43.07518785344421
 30
0.0
 11
-646.3826977710986
 21
-43.07518785344421
 31
0.0
  0
LINE
  5
3D7
330
1F
100
AcDbEntity
  8
Layer0000
  6
DIVIDE
 62
    56
370
    25
100
AcDbLine
 10
-647.3826977710987
 20
-44.07518785344421
 30
0.0
 11
-647.3826977710987
 21
-69.07518785344422
 31
0.0
  0
ARC
  5
3D8
330
1F
100
AcDbEntity
  8
Layer0000
  6
DIVIDE
 62
    56
370
    25
100
AcDbCircle
 10
-617.3826977710985
 20
-48.07518785344421
 30
0.0
 40
0.5
100
AcDbArc
 50
90.0
 51
0.0
  0
LINE
  5
3D9
330
1F
100
AcDbEntity
  8
Layer0000
  6
DIVIDE
 62
    56
370
    25
100
AcDbLine
 10
-582.5826977710987
 20
-48.07518785344421
 30
0.0
 11
-582.3826977710986
 21
-48.27518785344425
 31
0.0
  0
LINE
  5
3DA
330
1F
100
AcDbEntity
  8
Layer0000
  6
DIVIDE
 62
    56
370
    25
100
AcDbLine
 10
-617.5826977710985
 20
-43.07518785344421
 30
0.0
 11
-617.3826977710985
 21
-43.27518785344425
 31
0.0
  0
LINE
  5
3DB
330
1F
100
AcDbEntity
  8
Layer0000
  6
DIVIDE
 62
    56
370
    25
100
AcDbLine
 10
-647.3826977710987
 20
-44.07518785344421
 30
0.0
 11
-646.3826977710986
 21
-43.07518785344421
 31
0.0
  0
LINE
  5
3DC
330
1F
100
AcDbEntity
  8
Layer0000
  6
DIVIDE
 62
    56
370
    25
100
AcDbLine
 10
-646.3826977710986
 20
-70.07518785344422
 30
0.0
 11
-647.3826977710987
 21
-69.07518785344422
 31
0.0
  0
LINE
  5
3DD
330
1F
100
AcDbEntity
  8
Layer0000
  6
DIVIDE
 62
    56
370
    25
100
AcDbLine
 10
-583.3826977710986
 20
-70.07518785344422
 30
0.0
 11
-582.3826977710986
 21
-69.07518785344422
 31
0.0
  0
LINE
  5
3DE
330
1F
100
AcDbEntity
  8
Layer0000
  6
DIVIDE
 62
    56
370
    25
100
AcDbLine
 10
93.91730222890149
 20
-48.27518785344425
 30
0.0
 11
93.91730222890149
 21
-69.07518785344422
 31
0.0
  0
LINE
  5
3DF
330
1F
100
AcDbEntity
  8
Layer0000
  6
DIVIDE
 62
    56
370
    25
100
AcDbLine
 10
94.91730222890149
 20
-70.07518785344422
 30
0.0
 11
93.91730222890149
 21
-69.07518785344422
 31
0.0
  0
LINE
  5
3E0
330
1F
100
AcDbEntity
  8
Layer0000
  6
DIVIDE
 62
    56
370
    25
100
AcDbLine
 10
94.11730222890148
 20
-48.07518785344421
 30
0.0
 11
93.91730222890149
 21
-48.27518785344425
 31
0.0
  0
LINE
  5
3E1
330
1F
100
AcDbEntity
  8
Layer0000
  6
DIVIDE
 62
    56
370
    25
100
AcDbLine
 10
128.4173022289015
 20
-48.07518785344421
 30
0.0
 11
94.11730222890148
 21
-48.07518785344421
 31
0.0
  0
LINE
  5
3E2
330
1F
100
AcDbEntity
  8
Layer0000
  6
DIVIDE
 62
    56
370
    25
100
AcDbLine
 10
128.9173022289015
 20
-47.57518785344421
 30
0.0
 11
128.9173022289015
 21
-43.27518785344425
 31
0.0
  0
ARC
  5
3E3
330
1F
100
AcDbEntity
  8
Layer0000
  6
DIVIDE
 62
    56
370
    25
100
AcDbCircle
 10
128.9173022289015
 20
-48.07518785344421
 30
0.0
 40
0.5
100
AcDbArc
 50
180.0
 51
90.0
  0
LINE
  5
3E4
330
1F
100
AcDbEntity
  8
Layer0000
  6
DIVIDE
 62
    56
370
    25
100
AcDbLine
 10
129.1173022289015
 20
-43.07518785344421
 30
0.0
 11
128.9173022289015
 21
-43.27518785344425
 31
0.0
  0
LINE
  5
3E5
330
1F
100
AcDbEntity
  8
Layer0000
  6
DIVIDE
 62
    56
370
    25
100
AcDbLine
 10
129.1173022289015
 20
-43.07518785344421
 30
0.0
 11
157.9173022289015
 21
-43.07518785344421
 31
0.0
  0
LINE
  5
3E6
330
1F
100
AcDbEntity
  8
Layer0000
  6
DIVIDE
 62
    56
370
    25
100
AcDbLine
 10
158.9173022289015
 20
-44.07518785344421
 30
0.0
 11
157.9173022289015
 21
-43.07518785344421
 31
0.0
  0
LINE
  5
3E7
330
1F
100
AcDbEntity
  8
Layer0000
  6
DIVIDE
 62
    56
370
    25
100
AcDbLine
 10
158.9173022289015
 20
-44.07518785344421
 30
0.0
 11
158.9173022289015
 21
-69.07518785344422
 31
0.0
  0
LINE
  5
3E8
330
1F
100
AcDbEntity
  8
Layer0000
  6
DIVIDE
 62
    56
370
    25
100
AcDbLine
 10
157.9173022289015
 20
-70.07518785344422
 30
0.0
 11
158.9173022289015
 21
-69.07518785344422
 31
0.0
  0
LINE
  5
3E9
330
1F
100
AcDbEntity
  8
Layer0000
  6
DIVIDE
 62
    56
370
    25
100
AcDbLine
 10
-3.882697771098492
 20
-48.07518785344421
 30
0.0
 11
-4.082697771098509
 21
-48.27518785344425
 31
0.0
  0
LINE
  5
3EA
330
1F
100
AcDbEntity
  8
Layer0000
  6
DIVIDE
 62
    56
370
    25
100
AcDbLine
 10
30.41730222890149
 20
-48.07518785344421
 30
0.0
 11
-3.882697771098492
 21
-48.07518785344421
 31
0.0
  0
LINE
  5
3EB
330
1F
100
AcDbEntity
  8
Layer0000
  6
DIVIDE
 62
    56
370
    25
100
AcDbLine
 10
30.91730222890149
 20
-47.57518785344421
 30
0.0
 11
30.91730222890149
 21
-43.37518785344439
 31
0.0
  0
ARC
  5
3EC
330
1F
100
AcDbEntity
  8
Layer0000
  6
DIVIDE
 62
    56
370
    25
100
AcDbCircle
 10
30.91730222890149
 20
-48.07518785344421
 30
0.0
 40
0.5
100
AcDbArc
 50
180.0
 51
90.0
  0
LINE
  5
3ED
330
1F
100
AcDbEntity
  8
Layer0000
  6
DIVIDE
 62
    56
370
    25
100
AcDbLine
 10
31.11730222890148
 20
-43.07518785344421
 30
0.0
 11
30.91730222890149
 21
-43.27518785344425
 31
0.0
  0
LINE
  5
3EE
330
1F
100
AcDbEntity
  8
Layer0000
  6
DIVIDE
 62
    56
370
    25
100
AcDbLine
 10
31.11730222890148
 20
-43.07518785344421
 30
0.0
 11
59.91730222890149
 21
-43.07518785344421
 31
0.0
  0
LINE
  5
3EF
330
1F
100
AcDbEntity
  8
Layer0000
  6
DIVIDE
 62
    56
370
    25
100
AcDbLine
 10
60.91730222890149
 20
-44.07518785344421
 30
0.0
 11
59.91730222890149
 21
-43.07518785344421
 31
0.0
  0
LINE
  5
3F0
330
1F
100
AcDbEntity
  8
Layer0000
  6
DIVIDE
 62
    56
370
    25
100
AcDbLine
 10
60.91730222890149
 20
-44.07518785344421
 30
0.0
 11
60.91730222890149
 21
-69.07518785344422
 31
0.0
  0
LINE
  5
3F1
330
1F
100
AcDbEntity
  8
Layer0000
  6
DIVIDE
 62
    56
370
    25
100
AcDbLine
 10
59.91730222890149
 20
-70.07518785344422
 30
0.0
 11
60.91730222890149
 21
-69.07518785344422
 31
0.0
  0
LINE
  5
3F2
330
1F
100
AcDbEntity
  8
Layer0000
  6
DIVIDE
 62
    56
370
    25
100
AcDbLine
 10
-4.082697771098509
 20
-48.27518785344425
 30
0.0
 11
-4.082697771098509
 21
-69.07518785344422
 31
0.0
  0
LINE
  5
3F3
330
1F
100
AcDbEntity
  8
Layer0000
  6
DIVIDE
 62
    56
370
    25
100
AcDbLine
 10
-3.082697771098509
 20
-70.07518785344422
 30
0.0
 11
-4.082697771098509
 21
-69.07518785344422
 31
0.0
  0
LINE
  5
3F4
330
1F
100
AcDbEntity
  8
Layer0000
  6
DIVIDE
 62
    56
370
    25
100
AcDbLine
 10
302.1173022289012
 20
232.4122150635715
 30
0.0
 11
302.1173022289012
 21
431.4122150635715
 31
0.0
  0
LINE
  5
3F5
330
1F
100
AcDbEntity
  8
Layer0000
  6
DIVIDE
 62
    56
370
    25
100
AcDbLine
 10
302.1173022289012
 20
232.4122150635715
 30
0.0
 11
302.6173022289012
 21
231.9122150635715
 31
0.0
  0
LINE
  5
3F6
330
1F
100
AcDbEntity
  8
Layer0000
  6
DIVIDE
 62
    56
370
    25
100
AcDbLine
 10
302.1173022289012
 20
431.4122150635715
 30
0.0
 11
302.6173022289012
 21
431.9122150635715
 31
0.0
  0
LINE
  5
3F7
330
1F
100
AcDbEntity
  8
Layer0000
  6
DIVIDE
 62
    56
370
    25
100
AcDbLine
 10
302.6173022289012
 20
231.9122150635715
 30
0.0
 11
333.1173022289012
 21
231.9122150635715
 31
0.0
  0
LINE
  5
3F8
330
1F
100
AcDbEntity
  8
Layer0000
  6
DIVIDE
 62
    56
370
    25
100
AcDbLine
 10
333.1173022289012
 20
231.9122150635715
 30
0.0
 11
333.1173022289012
 21
232.4122150635715
 31
0.0
  0
LINE
  5
3F9
330
1F
100
AcDbEntity
  8
Layer0000
  6
DIVIDE
 62
    56
370
    25
100
AcDbLine
 10
333.1173022289012
 20
431.4122150635715
 30
0.0
 11
333.1173022289012
 21
431.9122150635715
 31
0.0
  0
LINE
  5
3FA
330
1F
100
AcDbEntity
  8
Layer0000
  6
DIVIDE
 62
    56
370
    25
100
AcDbLine
 10
302.6173022289012
 20
431.9122150635715
 30
0.0
 11
333.1173022289012
 21
431.9122150635715
 31
0.0
  0
LINE
  5
3FB
330
1F
100
AcDbEntity
  8
Layer0000
  6
Continuous
 62
    56
370
    25
100
AcDbLine
 10
-649.3826977710987
 20
170.9122150635715
 30
0.0
 11
-649.3826977710987
 21
190.9122150635715
 31
0.0
  0
LINE
  5
3FC
330
1F
100
AcDbEntity
  8
Layer0000
  6
Continuous
 62
    56
370
    25
100
AcDbLine
 10
-648.3826977710987
 20
169.9122150635715
 30
0.0
 11
-649.3826977710987
 21
170.9122150635715
 31
0.0
  0
LINE
  5
3FD
330
1F
100
AcDbEntity
  8
Layer0000
  6
Continuous
 62
    56
370
    25
100
AcDbLine
 10
-649.3826977710987
 20
190.9122150635715
 30
0.0
 11
-648.3826977710987
 21
191.9122150635715
 31
0.0
  0
CIRCLE
  5
3FE
330
1F
100
AcDbEntity
  8
Layer0000
  6
Continuous
 62
    56
370
    25
100
AcDbCircle
 10
-639.3826977710986
 20
180.9122150635715
 30
0.0
 40
6.267949192431104
  0
CIRCLE
  5
3FF
330
1F
100
AcDbEntity
  8
Layer0000
  6
Continuous
 62
    56
370
    25
100
AcDbCircle
 10
-639.3826977710986
 20
180.9122150635715
 30
0.0
 40
8.0
  0
LINE
  5
400
330
1F
100
AcDbEntity
  8
Layer0000
  6
Continuous
 62
    56
370
    25
100
AcDbLine
 10
-644.0014999246156
 20
180.9122150635715
 30
0.0
 11
-641.6920988478572
 21
176.9122150635715
 31
0.0
  0
LINE
  5
401
330
1F
100
AcDbEntity
  8
Layer0000
  6
Continuous
 62
    56
370
    25
100
AcDbLine
 10
-641.6920988478572
 20
176.9122150635715
 30
0.0
 11
-637.0732966943402
 21
176.9122150635715
 31
0.0
  0
LINE
  5
402
330
1F
100
AcDbEntity
  8
Layer0000
  6
Continuous
 62
    56
370
    25
100
AcDbLine
 10
-637.0732966943402
 20
176.9122150635715
 30
0.0
 11
-634.7638956175816
 21
180.9122150635715
 31
0.0
  0
LINE
  5
403
330
1F
100
AcDbEntity
  8
Layer0000
  6
Continuous
 62
    56
370
    25
100
AcDbLine
 10
-634.7638956175816
 20
180.9122150635715
 30
0.0
 11
-637.0732966943402
 21
184.9122150635715
 31
0.0
  0
LINE
  5
404
330
1F
100
AcDbEntity
  8
Layer0000
  6
Continuous
 62
    56
370
    25
100
AcDbLine
 10
-637.0732966943402
 20
184.9122150635715
 30
0.0
 11
-641.6920988478572
 21
184.9122150635715
 31
0.0
  0
LINE
  5
405
330
1F
100
AcDbEntity
  8
Layer0000
  6
Continuous
 62
    56
370
    25
100
AcDbLine
 10
-641.6920988478572
 20
184.9122150635715
 30
0.0
 11
-644.0014999246156
 21
180.9122150635715
 31
0.0
  0
LINE
  5
406
330
1F
100
AcDbEntity
  8
Layer0000
  6
Continuous
 62
    56
370
    25
100
AcDbLine
 10
-648.3826977710987
 20
169.9122150635715
 30
0.0
 11
-527.3826977710986
 21
169.9122150635715
 31
0.0
  0
LINE
  5
407
330
1F
100
AcDbEntity
  8
Layer0000
  6
Continuous
 62
    56
370
    25
100
AcDbLine
 10
-648.3826977710987
 20
191.9122150635715
 30
0.0
 11
-527.3826977710986
 21
191.9122150635715
 31
0.0
  0
LINE
  5
408
330
1F
100
AcDbEntity
  8
Layer0000
  6
Continuous
 62
    56
370
    25
100
AcDbLine
 10
-526.3826977710986
 20
190.9122150635715
 30
0.0
 11
-526.3826977710986
 21
170.9122150635715
 31
0.0
  0
LINE
  5
409
330
1F
100
AcDbEntity
  8
Layer0000
  6
Continuous
 62
    56
370
    25
100
AcDbLine
 10
-527.3826977710986
 20
191.9122150635715
 30
0.0
 11
-526.3826977710986
 21
190.9122150635715
 31
0.0
  0
LINE
  5
40A
330
1F
100
AcDbEntity
  8
Layer0000
  6
Continuous
 62
    56
370
    25
100
AcDbLine
 10
-527.3826977710986
 20
169.9122150635715
 30
0.0
 11
-526.3826977710986
 21
170.9122150635715
 31
0.0
  0
LINE
  5
40B
330
1F
100
AcDbEntity
  8
Layer0000
  6
Continuous
 62
    56
370
    25
100
AcDbLine
 10
-536.3826977710986
 20
161.4122150635715
 30
0.0
 11
-546.3826977710986
 21
161.4122150635715
 31
0.0
  0
LINE
  5
40C
330
1F
100
AcDbEntity
  8
Layer0000
  6
Continuous
 62
    56
370
    25
100
AcDbLine
 10
-537.8826977710986
 20
159.9122150635715
 30
0.0
 11
-544.8826977710986
 21
159.9122150635715
 31
0.0
  0
LINE
  5
40D
330
1F
100
AcDbEntity
  8
Layer0000
  6
Continuous
 62
    56
370
    25
100
AcDbLine
 10
-536.3826977710986
 20
161.4122150635715
 30
0.0
 11
-537.8826977710986
 21
159.9122150635715
 31
0.0
  0
LINE
  5
40E
330
1F
100
AcDbEntity
  8
Layer0000
  6
Continuous
 62
    56
370
    25
100
AcDbLine
 10
-546.3826977710986
 20
161.4122150635715
 30
0.0
 11
-544.8826977710986
 21
159.9122150635715
 31
0.0
  0
LINE
  5
40F
330
1F
100
AcDbEntity
  8
Layer0000
  6
Continuous
 62
    56
370
    25
100
AcDbLine
 10
-536.4901750592104
 20
219.9122150635715
 30
0.0
 11
-536.4901750592104
 21
226.0173221463275
 31
0.0
  0
LINE
  5
410
330
1F
100
AcDbEntity
  8
Layer0000
  6
Continuous
 62
    56
370
    25
100
AcDbLine
 10
-551.1826977710987
 20
219.9122150635715
 30
0.0
 11
-551.1826977710987
 21
226.0173221463275
 31
0.0
  0
LINE
  5
411
330
1F
100
AcDbEntity
  8
Layer0000
  6
Continuous
 62
    56
370
    25
100
AcDbLine
 10
-546.2752204829868
 20
219.9122150635715
 30
0.0
 11
-546.2752204829868
 21
226.0173221463275
 31
0.0
  0
ARC
  5
412
330
1F
100
AcDbEntity
  8
Layer0000
  6
Continuous
 62
    56
370
    25
100
AcDbCircle
 10
-548.7289591270428
 20
223.1007720768083
 30
0.0
 40
3.811442986763149
100
AcDbArc
 50
49.92557966161389
 51
130.0744203383849
  0
ARC
  5
413
330
1F
100
AcDbEntity
  8
Layer0000
  6
Continuous
 62
    56
370
    25
100
AcDbCircle
 10
-541.3826977710986
 20
213.090666505638
 30
0.0
 40
13.82154855793342
100
AcDbArc
 50
69.26918485858411
 51
110.7308151414159
  0
ARC
  5
414
330
1F
100
AcDbEntity
  8
Layer0000
  6
Continuous
 62
    56
370
    25
100
AcDbCircle
 10
-535.9826977710987
 20
219.5122150635714
 30
0.0
 40
0.4000000000000057
100
AcDbArc
 50
90.0
 51
180.0
  0
ARC
  5
415
330
1F
100
AcDbEntity
  8
Layer0000
  6
Continuous
 62
    56
370
    25
100
AcDbCircle
 10
-546.7826977710987
 20
219.5122150635714
 30
0.0
 40
0.3999999999999773
100
AcDbArc
 50
0.0
 51
90.0
  0
LINE
  5
416
330
1F
100
AcDbEntity
  8
Layer0000
  6
Continuous
 62
    56
370
    25
100
AcDbLine
 10
-551.1826977710987
 20
191.9122150635715
 30
0.0
 11
-551.1826977710987
 21
199.0173221463276
 31
0.0
  0
LINE
  5
417
330
1F
100
AcDbEntity
  8
Layer0000
  6
Continuous
 62
    56
370
    25
100
AcDbLine
 10
-546.2752204829868
 20
199.0173221463276
 30
0.0
 11
-546.2752204829868
 21
191.9122150635715
 31
0.0
  0
ARC
  5
418
330
1F
100
AcDbEntity
  8
Layer0000
  6
Continuous
 62
    56
370
    25
100
AcDbCircle
 10
-548.7289591270428
 20
196.1007720768084
 30
0.0
 40
3.811442986763149
100
AcDbArc
 50
49.92557966161387
 51
130.0744203383854
  0
ARC
  5
419
330
1F
100
AcDbEntity
  8
Layer0000
  6
Continuous
 62
    56
370
    25
100
AcDbCircle
 10
-541.3826977710986
 20
186.090666505638
 30
0.0
 40
13.82154855793342
100
AcDbArc
 50
69.26918485858411
 51
110.7308151414159
  0
LINE
  5
41A
330
1F
100
AcDbEntity
  8
Layer0000
  6
Continuous
 62
    56
370
    25
100
AcDbLine
 10
-536.4901750592104
 20
191.9122150635715
 30
0.0
 11
-536.4901750592104
 21
199.0173221463276
 31
0.0
  0
LINE
  5
41B
330
1F
100
AcDbEntity
  8
Layer0000
  6
Continuous
 62
    56
370
    25
100
AcDbLine
 10
-546.3826977710986
 20
215.4122150635715
 30
0.0
 11
-536.3826977710986
 21
215.4122150635715
 31
0.0
  0
LINE
  5
41C
330
1F
100
AcDbEntity
  8
Layer0000
  6
Continuous
 62
    56
370
    25
100
AcDbLine
 10
-537.1926977711016
 20
215.4122150635715
 30
0.0
 11
-536.3826977710986
 21
216.8151762177074
 31
0.0
  0
LINE
  5
41D
330
1F
100
AcDbEntity
  8
Layer0000
  6
Continuous
 62
    56
370
    25
100
AcDbLine
 10
-545.5726977710987
 20
215.4122150635715
 30
0.0
 11
-546.3826977710986
 21
216.8151762177065
 31
0.0
  0
LINE
  5
41E
330
1F
100
AcDbEntity
  8
Layer0000
  6
Continuous
 62
    56
370
    25
100
AcDbLine
 10
-545.5726977710987
 20
215.4122150635715
 30
0.0
 11
-545.5726977710987
 21
199.9122150635715
 31
0.0
  0
LINE
  5
41F
330
1F
100
AcDbEntity
  8
Layer0000
  6
Continuous
 62
    56
370
    25
100
AcDbLine
 10
-546.3826977710986
 20
219.5122150635714
 30
0.0
 11
-546.3826977710986
 21
199.9122150635715
 31
0.0
  0
LINE
  5
420
330
1F
100
AcDbEntity
  8
Layer0000
  6
Continuous
 62
    56
370
    25
100
AcDbLine
 10
-537.1926977710987
 20
215.4122150635715
 30
0.0
 11
-537.1926977710987
 21
199.9122150635715
 31
0.0
  0
LINE
  5
421
330
1F
100
AcDbEntity
  8
Layer0000
  6
Continuous
 62
    56
370
    25
100
AcDbLine
 10
-536.3826977710986
 20
219.5122150635714
 30
0.0
 11
-536.3826977710986
 21
199.9122150635715
 31
0.0
  0
LINE
  5
422
330
1F
100
AcDbEntity
  8
Layer0000
  6
Continuous
 62
    56
370
    25
100
AcDbLine
 10
-546.3826977710986
 20
169.9122150635715
 30
0.0
 11
-546.3826977710986
 21
161.4122150635715
 31
0.0
  0
LINE
  5
423
330
1F
100
AcDbEntity
  8
Layer0000
  6
Continuous
 62
    56
370
    25
100
AcDbLine
 10
-536.3826977710986
 20
169.9122150635715
 30
0.0
 11
-536.3826977710986
 21
161.4122150635715
 31
0.0
  0
LINE
  5
424
330
1F
100
AcDbEntity
  8
Layer0000
  6
Continuous
 62
    56
370
    25
100
AcDbLine
 10
-545.5726977710987
 20
169.9122150635715
 30
0.0
 11
-545.5726977710987
 21
160.6022150635715
 31
0.0
  0
LINE
  5
425
330
1F
100
AcDbEntity
  8
Layer0000
  6
Continuous
 62
    56
370
    25
100
AcDbLine
 10
-537.1926977710987
 20
169.9122150635715
 30
0.0
 11
-537.1926977710987
 21
160.6022150635715
 31
0.0
  0
LINE
  5
426
330
1F
100
AcDbEntity
  8
Layer0000
  6
Continuous
 62
    56
370
    25
100
AcDbLine
 10
-548.7289591270428
 20
199.9122150635715
 30
0.0
 11
-534.0364364151545
 21
199.9122150635715
 31
0.0
  0
ARC
  5
427
330
1F
100
AcDbEntity
  8
Layer0000
  6
Continuous
 62
    56
370
    25
100
AcDbCircle
 10
-534.0364364151545
 20
196.1007720768084
 30
0.0
 40
3.811442986763113
100
AcDbArc
 50
49.92557966161453
 51
130.0744203383861
  0
LINE
  5
428
330
1F
100
AcDbEntity
  8
Layer0000
  6
Continuous
 62
    56
370
    25
100
AcDbLine
 10
-531.5826977710987
 20
191.9122150635715
 30
0.0
 11
-531.5826977710987
 21
199.0173221463276
 31
0.0
  0
LINE
  5
429
330
1F
100
AcDbEntity
  8
Layer0000
  6
Continuous
 62
    56
370
    25
100
AcDbLine
 10
-531.5826977710987
 20
219.9122150635715
 30
0.0
 11
-551.1826977710987
 21
219.9122150635715
 31
0.0
  0
LINE
  5
42A
330
1F
100
AcDbEntity
  8
Layer0000
  6
Continuous
 62
    56
370
    25
100
AcDbLine
 10
-531.5826977710987
 20
219.9122150635715
 30
0.0
 11
-531.5826977710987
 21
226.0173221463275
 31
0.0
  0
ARC
  5
42B
330
1F
100
AcDbEntity
  8
Layer0000
  6
Continuous
 62
    56
370
    25
100
AcDbCircle
 10
-534.0364364151545
 20
223.1007720768083
 30
0.0
 40
3.811442986763113
100
AcDbArc
 50
49.92557966161454
 51
130.0744203383861
  0
LINE
  5
42C
330
1F
100
AcDbEntity
  8
Layer0000
  6
Continuous
 62
    56
370
    25
100
AcDbLine
 10
-610.3826977710987
 20
169.9122150635715
 30
0.0
 11
-610.3826977710987
 21
132.9122150635715
 31
0.0
  0
LINE
  5
42D
330
1F
100
AcDbEntity
  8
Layer0000
  6
Continuous
 62
    56
370
    25
100
AcDbLine
 10
-628.3826977710987
 20
169.9122150635715
 30
0.0
 11
-628.3826977710987
 21
132.9122150635715
 31
0.0
  0
LINE
  5
42E
330
1F
100
AcDbEntity
  8
Layer0000
  6
Continuous
 62
    56
370
    25
100
AcDbLine
 10
-608.9967993862365
 20
218.9122150635715
 30
0.0
 11
-629.768596155961
 21
218.9122150635715
 31
0.0
  0
ARC
  5
42F
330
1F
100
AcDbEntity
  8
Layer0000
  6
Continuous
 62
    56
370
    25
100
AcDbCircle
 10
-608.9967993862365
 20
224.0128590108961
 30
0.0
 40
5.100643947324726
100
AcDbArc
 50
227.2227543443626
 51
312.7772456556379
  0
ARC
  5
430
330
1F
100
AcDbEntity
  8
Layer0000
  6
Continuous
 62
    56
370
    25
100
AcDbCircle
 10
-629.768596155961
 20
224.0128590108961
 30
0.0
 40
5.100643947324764
100
AcDbArc
 50
227.2227543443621
 51
312.7772456556374
  0
ARC
  5
431
330
1F
100
AcDbEntity
  8
Layer0000
  6
Continuous
 62
    56
370
    25
100
AcDbCircle
 10
-619.3826977710987
 20
237.2469324379942
 30
0.0
 40
18.33471737442274
100
AcDbArc
 50
247.8195992645518
 51
292.1804007354482
  0
LINE
  5
432
330
1F
100
AcDbEntity
  8
Layer0000
  6
Continuous
 62
    56
370
    25
100
AcDbLine
 10
-627.3826977710987
 20
211.9122150635715
 30
0.0
 11
-611.3826977710987
 21
211.9122150635715
 31
0.0
  0
LINE
  5
433
330
1F
100
AcDbEntity
  8
Layer0000
  6
Continuous
 62
    56
370
    25
100
AcDbLine
 10
-627.3826977710987
 20
216.9122150635715
 30
0.0
 11
-611.3826977710987
 21
216.9122150635715
 31
0.0
  0
LINE
  5
434
330
1F
100
AcDbEntity
  8
Layer0000
  6
Continuous
 62
    56
370
    25
100
AcDbLine
 10
-627.3826977710987
 20
211.9122150635715
 30
0.0
 11
-627.3826977710987
 21
218.9122150635715
 31
0.0
  0
LINE
  5
435
330
1F
100
AcDbEntity
  8
Layer0000
  6
Continuous
 62
    56
370
    25
100
AcDbLine
 10
-626.2826977710986
 20
216.9122150635715
 30
0.0
 11
-626.2826977710986
 21
218.9122150635715
 31
0.0
  0
LINE
  5
436
330
1F
100
AcDbEntity
  8
Layer0000
  6
Continuous
 62
    56
370
    25
100
AcDbLine
 10
-611.3826977710987
 20
211.9122150635715
 30
0.0
 11
-611.3826977710987
 21
218.9122150635715
 31
0.0
  0
LINE
  5
437
330
1F
100
AcDbEntity
  8
Layer0000
  6
Continuous
 62
    56
370
    25
100
AcDbLine
 10
-612.4826977710986
 20
216.9122150635715
 30
0.0
 11
-612.4826977710986
 21
218.9122150635715
 31
0.0
  0
LINE
  5
438
330
1F
100
AcDbEntity
  8
Layer0000
  6
Continuous
 62
    56
370
    25
100
AcDbLine
 10
-611.3826977710987
 20
215.006959175249
 30
0.0
 11
-612.4826977710968
 21
216.9122150635715
 31
0.0
  0
LINE
  5
439
330
1F
100
AcDbEntity
  8
Layer0000
  6
Continuous
 62
    56
370
    25
100
AcDbLine
 10
-626.2826977710986
 20
216.9122150635765
 30
0.0
 11
-627.3826977710987
 21
215.0069591752506
 31
0.0
  0
LINE
  5
43A
330
1F
100
AcDbEntity
  8
Layer0000
  6
Continuous
 62
    56
370
    25
100
AcDbLine
 10
-610.3826977710987
 20
210.9122150635715
 30
0.0
 11
-610.3826977710987
 21
191.9122150635715
 31
0.0
  0
LINE
  5
43B
330
1F
100
AcDbEntity
  8
Layer0000
  6
Continuous
 62
    56
370
    25
100
AcDbLine
 10
-628.3826977710987
 20
210.9122150635715
 30
0.0
 11
-628.3826977710987
 21
191.9122150635715
 31
0.0
  0
LINE
  5
43C
330
1F
100
AcDbEntity
  8
Layer0000
  6
Continuous
 62
    56
370
    25
100
AcDbLine
 10
-627.3826977710987
 20
211.9122150635715
 30
0.0
 11
-628.3826977710987
 21
210.9122150635715
 31
0.0
  0
LINE
  5
43D
330
1F
100
AcDbEntity
  8
Layer0000
  6
Continuous
 62
    56
370
    25
100
AcDbLine
 10
-611.3826977710987
 20
211.9122150635715
 30
0.0
 11
-610.3826977710987
 21
210.9122150635715
 31
0.0
  0
LINE
  5
43E
330
1F
100
AcDbEntity
  8
Layer0000
  6
Continuous
 62
    56
370
    25
100
AcDbLine
 10
-610.3826977710987
 20
210.9122150635715
 30
0.0
 11
-628.3826977710987
 21
210.9122150635715
 31
0.0
  0
LINE
  5
43F
330
1F
100
AcDbEntity
  8
Layer0000
  6
Continuous
 62
    56
370
    25
100
AcDbLine
 10
-633.2326977710987
 20
231.9122150635715
 30
0.0
 11
-633.2326977710987
 21
220.2689881961671
 31
0.0
  0
LINE
  5
440
330
1F
100
AcDbEntity
  8
Layer0000
  6
Continuous
 62
    56
370
    25
100
AcDbLine
 10
-626.304494540823
 20
231.9122150635715
 30
0.0
 11
-626.304494540823
 21
220.2689881961671
 31
0.0
  0
LINE
  5
441
330
1F
100
AcDbEntity
  8
Layer0000
  6
Continuous
 62
    56
370
    25
100
AcDbLine
 10
-612.4609010013742
 20
220.2689881961671
 30
0.0
 11
-612.4609010013742
 21
231.9122150635715
 31
0.0
  0
LINE
  5
442
330
1F
100
AcDbEntity
  8
Layer0000
  6
Continuous
 62
    56
370
    25
100
AcDbLine
 10
-605.5326977710987
 20
231.9122150635715
 30
0.0
 11
-605.5326977710987
 21
220.2689881961671
 31
0.0
  0
LINE
  5
443
330
1F
100
AcDbEntity
  8
Layer0000
  6
Continuous
 62
    56
370
    25
100
AcDbLine
 10
478.1173022289013
 20
237.4122150635715
 30
0.0
 11
477.6173022289013
 21
237.9122150635715
 31
0.0
  0
LINE
  5
444
330
1F
100
AcDbEntity
  8
Layer0000
  6
Continuous
 62
    56
370
    25
100
AcDbLine
 10
196.6173022288986
 20
-92.07518785344308
 30
0.0
 11
208.6173022288982
 21
-92.0751878534424
 31
0.0
  0
LINE
  5
445
330
1F
100
AcDbEntity
  8
Layer0000
  6
Continuous
 62
    56
370
    25
100
AcDbLine
 10
208.6173022288982
 20
-91.0751878534424
 30
0.0
 11
212.6173022288982
 21
-91.0751878534424
 31
0.0
  0
LINE
  5
446
330
1F
100
AcDbEntity
  8
Layer0000
  6
Continuous
 62
    56
370
    25
100
AcDbLine
 10
214.6173022288981
 20
-89.07518785344217
 30
0.0
 11
218.6173022288981
 21
-89.07518785344195
 31
0.0
  0
LINE
  5
447
330
1F
100
AcDbEntity
  8
Layer0000
  6
Continuous
 62
    56
370
    25
100
AcDbLine
 10
196.6173022288992
 20
-124.0751878534431
 30
0.0
 11
208.6173022288997
 21
-124.0751878534424
 31
0.0
  0
LINE
  5
448
330
1F
100
AcDbEntity
  8
Layer0000
  6
Continuous
 62
    56
370
    25
100
AcDbLine
 10
208.6173022288997
 20
-125.0751878534424
 30
0.0
 11
210.6173022288997
 21
-125.0751878534424
 31
0.0
  0
ARC
  5
449
330
1F
100
AcDbEntity
  8
Layer0000
  6
Continuous
 62
    56
370
    25
100
AcDbCircle
 10
210.6173022288998
 20
-127.0751878534424
 30
0.0
 40
2.0
100
AcDbArc
 50
0.0000000000026055
 51
90.0000000000026
  0
LINE
  5
44A
330
1F
100
AcDbEntity
  8
Layer0000
  6
Continuous
 62
    56
370
    25
100
AcDbLine
 10
195.6173022288986
 20
-93.07518785344308
 30
0.0
 11
196.6173022288986
 21
-92.07518785344308
 31
0.0
  0
LINE
  5
44B
330
1F
100
AcDbEntity
  8
Layer0000
  6
Continuous
 62
    56
370
    25
100
AcDbLine
 10
195.6173022288992
 20
-123.0751878534431
 30
0.0
 11
196.6173022288992
 21
-124.0751878534431
 31
0.0
  0
ARC
  5
44C
330
1F
100
AcDbEntity
  8
Layer0000
  6
Continuous
 62
    56
370
    25
100
AcDbCircle
 10
218.6173022288982
 20
-91.07518785344195
 30
0.0
 40
2.0
100
AcDbArc
 50
0.0000000000026462
 51
90.00000000000244
  0
ARC
  5
44D
330
1F
100
AcDbEntity
  8
Layer0000
  6
Continuous
 62
    56
370
    25
100
AcDbCircle
 10
214.6173022288982
 20
-91.07518785344217
 30
0.0
 40
2.0
100
AcDbArc
 50
90.00000000000244
 51
180.0000000000024
  0
LINE
  5
44E
330
1F
100
AcDbEntity
  8
Layer0000
  6
Continuous
 62
    56
370
    25
100
AcDbLine
 10
208.6173022288982
 20
-91.0751878534424
 30
0.0
 11
208.6173022288982
 21
-92.0751878534424
 31
0.0
  0
LINE
  5
44F
330
1F
100
AcDbEntity
  8
Layer0000
  6
Continuous
 62
    56
370
    25
100
AcDbLine
 10
208.6173022288997
 20
-124.0751878534424
 30
0.0
 11
208.6173022288997
 21
-125.0751878534424
 31
0.0
  0
LINE
  5
450
330
1F
100
AcDbEntity
  8
Layer0000
  6
Continuous
 62
    56
370
    25
100
AcDbLine
 10
195.6173022288992
 20
-123.0751878534433
 30
0.0
 11
195.6173022288991
 21
-119.0751878534444
 31
0.0
  0
LINE
  5
451
330
1F
100
AcDbEntity
  8
Layer0000
  6
Continuous
 62
    56
370
    25
100
AcDbLine
 10
195.6173022288986
 20
-97.07518785344445
 30
0.0
 11
195.6173022288986
 21
-93.0751878534424
 31
0.0
  0
LINE
  5
452
330
1F
100
AcDbEntity
  8
Layer0000
  6
Continuous
 62
    56
370
    25
100
AcDbLine
 10
220.6173022288982
 20
-91.07518785344195
 30
0.0
 11
220.6173022289045
 21
-222.0751878534419
 31
0.0
  0
LINE
  5
453
330
1F
100
AcDbEntity
  8
Layer0000
  6
Continuous
 62
    56
370
    25
100
AcDbLine
 10
214.6173022289054
 20
-242.0751878534421
 30
0.0
 11
229.6173022289054
 21
-242.0751878534415
 31
0.0
  0
LINE
  5
454
330
1F
100
AcDbEntity
  8
Layer0000
  6
Continuous
 62
    56
370
    25
100
AcDbLine
 10
229.6173022289054
 20
-242.0751878534415
 30
0.0
 11
229.6173022289046
 21
-224.0751878534415
 31
0.0
  0
LINE
  5
455
330
1F
100
AcDbEntity
  8
Layer0000
  6
Continuous
 62
    56
370
    25
100
AcDbLine
 10
222.6173022289046
 20
-224.0751878534419
 30
0.0
 11
229.6173022289046
 21
-224.0751878534415
 31
0.0
  0
ARC
  5
456
330
1F
100
AcDbEntity
  8
Layer0000
  6
Continuous
 62
    56
370
    25
100
AcDbCircle
 10
222.6173022289045
 20
-222.0751878534419
 30
0.0
 40
2.0
100
AcDbArc
 50
180.0000000000026
 51
270.0000000000026
  0
ARC
  5
457
330
1F
100
AcDbEntity
  8
Layer0000
  6
Continuous
 62
    56
370
    25
100
AcDbCircle
 10
214.6173022289053
 20
-240.0751878534421
 30
0.0
 40
2.0
100
AcDbArc
 50
180.0000000000026
 51
270.0000000000026
  0
LINE
  5
458
330
1F
100
AcDbEntity
  8
Layer0000
  6
Continuous
 62
    56
370
    25
100
AcDbLine
 10
211.617302228905
 20
-236.5751878534444
 30
0.0
 11
211.617302228905
 21
-229.5751878534444
 31
0.0
  0
LINE
  5
459
330
1F
100
AcDbEntity
  8
Layer0000
  6
Continuous
 62
    56
370
    25
100
AcDbLine
 10
236.617302228905
 20
-225.0751878534444
 30
0.0
 11
236.617302228905
 21
-241.0751878534444
 31
0.0
  0
LINE
  5
45A
330
1F
100
AcDbEntity
  8
Layer0000
  6
Continuous
 62
    56
370
    25
100
AcDbLine
 10
236.617302228905
 20
-225.0751878534444
 30
0.0
 11
307.561031150275
 21
-221.0767723258658
 31
0.0
  0
LINE
  5
45B
330
1F
100
AcDbEntity
  8
Layer0000
  6
Continuous
 62
    56
370
    25
100
AcDbLine
 10
236.617302228905
 20
-241.0751878534444
 30
0.0
 11
307.561031150275
 21
-245.073603381023
 31
0.0
  0
LINE
  5
45C
330
1F
100
AcDbEntity
  8
Layer0000
  6
Continuous
 62
    56
370
    25
100
AcDbLine
 10
308.6173022289016
 20
-244.0751852416996
 30
0.0
 11
308.6173022289016
 21
-222.0751852526047
 31
0.0
  0
ARC
  5
45D
330
1F
100
AcDbEntity
  8
Layer0000
  6
Continuous
 62
    56
370
    25
100
AcDbCircle
 10
307.617302228905
 20
-244.0751878534444
 30
0.0
 40
1.0
100
AcDbArc
 50
266.7742007758423
 51
0.0001496419479451
  0
ARC
  5
45E
330
1F
100
AcDbEntity
  8
Layer0000
  6
Continuous
 62
    56
370
    25
100
AcDbCircle
 10
307.617302228905
 20
-222.0751878534444
 30
0.0
 40
1.0
100
AcDbArc
 50
359.9998503580529
 51
93.22579922415777
  0
LINE
  5
45F
330
1F
100
AcDbEntity
  8
Layer0000
  6
Continuous
 62
    56
370
    25
100
AcDbLine
 10
307.561031150275
 20
-245.0736033775719
 30
0.0
 11
307.561031150275
 21
-221.0767723293169
 31
0.0
  0
LINE
  5
460
330
1F
100
AcDbEntity
  8
Layer0000
  6
Continuous
 62
    56
370
    25
100
AcDbLine
 10
230.617302228905
 20
-225.0751878534444
 30
0.0
 11
236.617302228905
 21
-225.0751878534444
 31
0.0
  0
LINE
  5
461
330
1F
100
AcDbEntity
  8
Layer0000
  6
Continuous
 62
    56
370
    25
100
AcDbLine
 10
230.617302228905
 20
-241.0751878534444
 30
0.0
 11
236.617302228905
 21
-241.0751878534444
 31
0.0
  0
LINE
  5
462
330
1F
100
AcDbEntity
  8
Layer0000
  6
Continuous
 62
    56
370
    25
100
AcDbLine
 10
229.617302228905
 20
-226.0751878534444
 30
0.0
 11
230.617302228905
 21
-225.0751878534444
 31
0.0
  0
LINE
  5
463
330
1F
100
AcDbEntity
  8
Layer0000
  6
Continuous
 62
    56
370
    25
100
AcDbLine
 10
229.617302228905
 20
-240.0751878534444
 30
0.0
 11
230.617302228905
 21
-241.0751878534444
 31
0.0
  0
LINE
  5
464
330
1F
100
AcDbEntity
  8
Layer0000
  6
Continuous
 62
    56
370
    25
100
AcDbLine
 10
229.617302228905
 20
-226.0751878534444
 30
0.0
 11
229.617302228905
 21
-240.0751878534444
 31
0.0
  0
LINE
  5
465
330
1F
100
AcDbEntity
  8
Layer0000
  6
Continuous
 62
    56
370
    25
100
AcDbLine
 10
212.6173022289051
 20
-237.3251878534444
 30
0.0
 11
212.367302228905
 21
-237.3251878534444
 31
0.0
  0
LINE
  5
466
330
1F
100
AcDbEntity
  8
Layer0000
  6
Continuous
 62
    56
370
    25
100
AcDbLine
 10
212.6173022289047
 20
-228.8251878534444
 30
0.0
 11
212.367302228905
 21
-228.8251878534444
 31
0.0
  0
LINE
  5
467
330
1F
100
AcDbEntity
  8
Layer0000
  6
Continuous
 62
    56
370
    25
100
AcDbLine
 10
212.6173022289051
 20
-237.5751878534376
 30
0.0
 11
211.617302228905
 21
-236.5751878534444
 31
0.0
  0
LINE
  5
468
330
1F
100
AcDbEntity
  8
Layer0000
  6
Continuous
 62
    56
370
    25
100
AcDbLine
 10
212.6173022289047
 20
-228.5751878534512
 30
0.0
 11
211.617302228905
 21
-229.5751878534444
 31
0.0
  0
ARC
  5
469
330
1F
100
AcDbEntity
  8
Layer0000
  6
Continuous
 62
    56
370
    25
100
AcDbCircle
 10
233.6910104983051
 20
-235.786134089194
 30
0.0
 40
73.8769487080479
100
AcDbArc
 50
100.1930876363986
 51
100.60780910855
  0
ARC
  5
46A
330
1F
100
AcDbEntity
  8
Layer0000
  6
Continuous
 62
    56
370
    25
100
AcDbCircle
 10
224.5397609047446
 20
-186.9296103114654
 30
0.0
 40
24.17075914229993
100
AcDbArc
 50
100.6052288852463
 51
101.8649680213393
  0
ARC
  5
46B
330
1F
100
AcDbEntity
  8
Layer0000
  6
Continuous
 62
    56
370
    25
100
AcDbCircle
 10
222.4462498606468
 20
-176.9708295610202
 30
0.0
 40
13.9943108402983
100
AcDbArc
 50
101.8600581798881
 51
104.0101922266177
  0
ARC
  5
46C
330
1F
100
AcDbEntity
  8
Layer0000
  6
Continuous
 62
    56
370
    25
100
AcDbCircle
 10
221.3612404621128
 20
-172.6268659441513
 30
0.0
 40
9.516893775404194
100
AcDbArc
 50
104.0036685419864
 51
107.1141484611235
  0
ARC
  5
46D
330
1F
100
AcDbEntity
  8
Layer0000
  6
Continuous
 62
    56
370
    25
100
AcDbCircle
 10
220.6187270335625
 20
-170.2181094978816
 30
0.0
 40
6.996292071666406
100
AcDbArc
 50
107.1076362998408
 51
111.2601872179245
  0
ARC
  5
46E
330
1F
100
AcDbEntity
  8
Layer0000
  6
Continuous
 62
    56
370
    25
100
AcDbCircle
 10
220.0480121207889
 20
-168.7521732832096
 30
0.0
 40
5.423179117994887
100
AcDbArc
 50
111.2568059629005
 51
116.5186208556478
  0
ARC
  5
46F
330
1F
100
AcDbEntity
  8
Layer0000
  6
Continuous
 62
    56
370
    25
100
AcDbCircle
 10
219.5993831625383
 20
-167.852300016449
 30
0.0
 40
4.417674426867999
100
AcDbArc
 50
116.5232224636123
 51
122.9018415013053
  0
ARC
  5
470
330
1F
100
AcDbEntity
  8
Layer0000
  6
Continuous
 62
    56
370
    25
100
AcDbCircle
 10
219.2848738185986
 20
-167.3624963659312
 30
0.0
 40
3.835592697266236
100
AcDbArc
 50
122.9317060506247
 51
130.2673934040806
  0
ARC
  5
471
330
1F
100
AcDbEntity
  8
Layer0000
  6
Continuous
 62
    56
370
    25
100
AcDbCircle
 10
220.0551232376571
 20
-168.2468281083819
 30
0.0
 40
5.00825096185815
100
AcDbArc
 50
130.4519876753989
 51
136.1405232052715
  0
ARC
  5
472
330
1F
100
AcDbEntity
  8
Layer0000
  6
Continuous
 62
    56
370
    25
100
AcDbCircle
 10
222.6706620730222
 20
-170.762860804697
 30
0.0
 40
8.637501832789745
100
AcDbArc
 50
136.1280685000492
 51
139.4847681756951
  0
ARC
  5
473
330
1F
100
AcDbEntity
  8
Layer0000
  6
Continuous
 62
    56
370
    25
100
AcDbCircle
 10
235.0010788165611
 20
-181.3062621805874
 30
0.0
 40
24.86101812861373
100
AcDbArc
 50
139.4732743050425
 51
140.6551304410742
  0
ARC
  5
474
330
1F
100
AcDbEntity
  8
Layer0000
  6
Continuous
 62
    56
370
    25
100
AcDbCircle
 10
190.5242695706447
 20
-144.8421240670213
 30
0.0
 40
32.65263182555644
100
AcDbArc
 50
319.7481049007808
 51
320.6522950802608
  0
ARC
  5
475
330
1F
100
AcDbEntity
  8
Layer0000
  6
Continuous
 62
    56
370
    25
100
AcDbCircle
 10
207.9895382330254
 20
-159.6298663232418
 30
0.0
 40
9.767856817969225
100
AcDbArc
 50
316.742914541619
 51
319.7539660764004
  0
ARC
  5
476
330
1F
100
AcDbEntity
  8
Layer0000
  6
Continuous
 62
    56
370
    25
100
AcDbCircle
 10
210.8917113201718
 20
-162.3557221180132
 30
0.0
 40
5.786289685167703
100
AcDbArc
 50
311.6683280567353
 51
316.7074873571116
  0
ARC
  5
477
330
1F
100
AcDbEntity
  8
Layer0000
  6
Continuous
 62
    56
370
    25
100
AcDbCircle
 10
210.4387516527788
 20
-161.8293786822182
 30
0.0
 40
6.480617115286719
100
AcDbArc
 50
307.0898284329763
 51
311.5661351047938
  0
ARC
  5
478
330
1F
100
AcDbEntity
  8
Layer0000
  6
Continuous
 62
    56
370
    25
100
AcDbCircle
 10
209.305273921785
 20
-160.3293691381815
 30
0.0
 40
8.360723561358009
100
AcDbArc
 50
303.6133309811381
 51
307.0868107523308
  0
ARC
  5
479
330
1F
100
AcDbEntity
  8
Layer0000
  6
Continuous
 62
    56
370
    25
100
AcDbCircle
 10
207.3757047431517
 20
-157.4267916560376
 30
0.0
 40
11.84614939574278
100
AcDbArc
 50
301.1526274551331
 51
303.613845371082
  0
ARC
  5
47A
330
1F
100
AcDbEntity
  8
Layer0000
  6
Continuous
 62
    56
370
    25
100
AcDbCircle
 10
203.1624362086148
 20
-150.4579483530275
 30
0.0
 40
19.9896381160608
100
AcDbArc
 50
299.6896912556023
 51
301.1542421986603
  0
ARC
  5
47B
330
1F
100
AcDbEntity
  8
Layer0000
  6
Continuous
 62
    56
370
    25
100
AcDbCircle
 10
183.1364858754417
 20
-115.3365212304015
 30
0.0
 40
60.4192476785576
100
AcDbArc
 50
299.2051090119476
 51
299.6908578656776
  0
LINE
  5
47C
330
1F
100
AcDbEntity
  8
Layer0000
  6
Continuous
 62
    56
370
    25
100
AcDbLine
 10
212.6173022288998
 20
-127.0751878534424
 30
0.0
 11
212.6173022289053
 21
-240.0751878534424
 31
0.0
  0
LINE
  5
47D
330
1F
100
AcDbEntity
  8
Layer0000
  6
Continuous
 62
    56
370
    25
100
AcDbLine
 10
-548.7289591270428
 20
226.9122150635715
 30
0.0
 11
-534.0364364151545
 21
226.9122150635715
 31
0.0
  0
LINE
  5
47E
330
1F
100
AcDbEntity
  8
Layer0000
  6
Continuous
 62
    56
370
    25
100
AcDbLine
 10
-611.3826977710987
 20
131.9122150635715
 30
0.0
 11
-627.3826977710987
 21
131.9122150635715
 31
0.0
  0
LINE
  5
47F
330
1F
100
AcDbEntity
  8
Layer0000
  6
Continuous
 62
    56
370
    25
100
AcDbLine
 10
-628.3826977710987
 20
132.9122150635715
 30
0.0
 11
-627.3826977710987
 21
131.9122150635715
 31
0.0
  0
LINE
  5
480
330
1F
100
AcDbEntity
  8
Layer0000
  6
Continuous
 62
    56
370
    25
100
AcDbLine
 10
-610.3826977710987
 20
132.9122150635715
 30
0.0
 11
-611.3826977710987
 21
131.9122150635715
 31
0.0
  0
LINE
  5
481
330
1F
100
AcDbEntity
  8
Layer0000
  6
Continuous
 62
    56
370
    25
100
AcDbLine
 10
-610.3826977710987
 20
132.9122150635715
 30
0.0
 11
-628.3826977710987
 21
132.9122150635715
 31
0.0
  0
LINE
  5
482
330
1F
100
AcDbEntity
  8
Layer0000
  6
CENTER
 62
    56
370
    25
100
AcDbLine
 10
-630.3826977710985
 20
180.9122150635715
 30
0.0
 11
-648.3826977710987
 21
180.9122150635715
 31
0.0
  0
LINE
  5
483
330
1F
100
AcDbEntity
  8
Layer0000
  6
CENTER
 62
    56
370
    25
100
AcDbLine
 10
-639.3826977710986
 20
189.9122150635715
 30
0.0
 11
-639.3826977710986
 21
171.9122150635715
 31
0.0
  0
LINE
  5
484
330
1F
100
AcDbEntity
  8
Layer0000
  6
CENTER
 62
    56
370
    25
100
AcDbLine
 10
-541.3826977710986
 20
227.9122150635715
 30
0.0
 11
-541.3826977710986
 21
158.9122150635715
 31
0.0
  0
LINE
  5
485
330
1F
100
AcDbEntity
  8
Layer0000
  6
CENTER
 62
    56
370
    25
100
AcDbLine
 10
-619.3826977710987
 20
232.9122150635715
 30
0.0
 11
-619.3826977710987
 21
130.9122150635715
 31
0.0
  0
LINE
  5
486
330
1F
100
AcDbEntity
  8
Layer0000
  6
CENTER
 62
    56
370
    25
100
AcDbLine
 10
210.617302228905
 20
-233.0751878534444
 30
0.0
 11
309.6173022289016
 21
-233.0751878534444
 31
0.0
  0
LINE
  5
487
330
1F
100
AcDbEntity
  8
Layer0000
  6
DASHED2
 62
     5
370
    25
100
AcDbLine
 10
496.1173022289013
 20
340.9122150635715
 30
0.0
 11
496.1173022289013
 21
322.9122150635715
 31
0.0
  0
LINE
  5
488
330
1F
100
AcDbEntity
  8
Layer0000
  6
DASHED2
 62
     5
370
    25
100
AcDbLine
 10
496.1173022289013
 20
322.9122150635715
 30
0.0
 11
500.1173022289013
 21
322.9122150635715
 31
0.0
  0
LINE
  5
489
330
1F
100
AcDbEntity
  8
Layer0000
  6
DASHED2
 62
     5
370
    25
100
AcDbLine
 10
496.1173022289013
 20
340.9122150635715
 30
0.0
 11
500.1173022289013
 21
340.9122150635715
 31
0.0
  0
LINE
  5
48A
330
1F
100
AcDbEntity
  8
Layer0001
  6
Continuous
 62
    56
370
    25
100
AcDbLine
 10
499.1173022289013
 20
185.9122150635712
 30
0.0
 11
473.1173022289013
 21
185.9122150635712
 31
0.0
  0
LINE
  5
48B
330
1F
100
AcDbEntity
  8
Layer0001
  6
Continuous
 62
    56
370
    25
100
AcDbLine
 10
499.1173022289013
 20
194.9122150635712
 30
0.0
 11
498.1173022289013
 21
194.9122150635712
 31
0.0
  0
LINE
  5
48C
330
1F
100
AcDbEntity
  8
Layer0001
  6
Continuous
 62
    56
370
    25
100
AcDbLine
 10
500.1173022289013
 20
193.9122150635712
 30
0.0
 11
500.1173022289013
 21
186.9122150635712
 31
0.0
  0
LINE
  5
48D
330
1F
100
AcDbEntity
  8
Layer0001
  6
Continuous
 62
    56
370
    25
100
AcDbLine
 10
499.1173022289013
 20
194.9122150635712
 30
0.0
 11
500.1173022289013
 21
193.9122150635712
 31
0.0
  0
LINE
  5
48E
330
1F
100
AcDbEntity
  8
Layer0001
  6
Continuous
 62
    56
370
    25
100
AcDbLine
 10
499.1173022289013
 20
185.9122150635712
 30
0.0
 11
500.1173022289013
 21
186.9122150635712
 31
0.0
  0
LINE
  5
48F
330
1F
100
AcDbEntity
  8
Layer0001
  6
Continuous
 62
    56
370
    25
100
AcDbLine
 10
498.1173022289013
 20
194.9122150635712
 30
0.0
 11
498.1173022289013
 21
230.9122150635715
 31
0.0
  0
LINE
  5
490
330
1F
100
AcDbEntity
  8
Layer0001
  6
Continuous
 62
    56
370
    25
100
AcDbLine
 10
468.6173022289013
 20
237.9122150635715
 30
0.0
 11
477.6173022289013
 21
237.9122150635715
 31
0.0
  0
LINE
  5
491
330
1F
100
AcDbEntity
  8
Layer0001
  6
Continuous
 62
    56
370
    25
100
AcDbLine
 10
468.1173022289013
 20
237.4122150635715
 30
0.0
 11
468.6173022289013
 21
237.9122150635715
 31
0.0
  0
LINE
  5
492
330
1F
100
AcDbEntity
  8
Layer0001
  6
Continuous
 62
    56
370
    25
100
AcDbLine
 10
468.1173022289013
 20
237.4122150635715
 30
0.0
 11
468.1173022289013
 21
190.9122150635712
 31
0.0
  0
LINE
  5
493
330
1F
100
AcDbEntity
  8
Layer0001
  6
Continuous
 62
    56
370
    25
100
AcDbLine
 10
498.1173022289013
 20
230.9122150635715
 30
0.0
 11
497.1173022289013
 21
231.9122150635715
 31
0.0
  0
LINE
  5
494
330
1F
100
AcDbEntity
  8
Layer0001
  6
Continuous
 62
    56
370
    25
100
AcDbLine
 10
468.1173022289013
 20
426.4122150635715
 30
0.0
 11
468.6173022289013
 21
425.9122150635715
 31
0.0
  0
LINE
  5
495
330
1F
100
AcDbEntity
  8
Layer0001
  6
Continuous
 62
    56
370
    25
100
AcDbLine
 10
468.1173022289013
 20
426.4122150635715
 30
0.0
 11
468.1173022289013
 21
472.9122150635715
 31
0.0
  0
LINE
  5
496
330
1F
100
AcDbEntity
  8
Layer0001
  6
Continuous
 62
    56
370
    25
100
AcDbLine
 10
499.1173022289013
 20
477.9122150635715
 30
0.0
 11
473.1173022289013
 21
477.9122150635715
 31
0.0
  0
LINE
  5
497
330
1F
100
AcDbEntity
  8
Layer0001
  6
Continuous
 62
    56
370
    25
100
AcDbLine
 10
499.1173022289013
 20
468.9122150635715
 30
0.0
 11
498.1173022289013
 21
468.9122150635715
 31
0.0
  0
LINE
  5
498
330
1F
100
AcDbEntity
  8
Layer0001
  6
Continuous
 62
    56
370
    25
100
AcDbLine
 10
500.1173022289013
 20
469.9122150635715
 30
0.0
 11
500.1173022289013
 21
476.9122150635715
 31
0.0
  0
LINE
  5
499
330
1F
100
AcDbEntity
  8
Layer0001
  6
Continuous
 62
    56
370
    25
100
AcDbLine
 10
499.1173022289013
 20
468.9122150635715
 30
0.0
 11
500.1173022289013
 21
469.9122150635715
 31
0.0
  0
LINE
  5
49A
330
1F
100
AcDbEntity
  8
Layer0001
  6
Continuous
 62
    56
370
    25
100
AcDbLine
 10
499.1173022289013
 20
477.9122150635715
 30
0.0
 11
500.1173022289013
 21
476.9122150635715
 31
0.0
  0
LINE
  5
49B
330
1F
100
AcDbEntity
  8
Layer0001
  6
Continuous
 62
    56
370
    25
100
AcDbLine
 10
498.1173022289013
 20
468.9122150635715
 30
0.0
 11
498.1173022289013
 21
432.9122150635715
 31
0.0
  0
LINE
  5
49C
330
1F
100
AcDbEntity
  8
Layer0001
  6
Continuous
 62
    56
370
    25
100
AcDbLine
 10
498.1173022289013
 20
432.9122150635715
 30
0.0
 11
497.1173022289013
 21
431.9122150635715
 31
0.0
  0
LINE
  5
49D
330
1F
100
AcDbEntity
  8
Layer0001
  6
Continuous
 62
    56
370
    25
100
AcDbLine
 10
468.6173022289013
 20
425.9122150635715
 30
0.0
 11
477.6173022289013
 21
425.9122150635715
 31
0.0
  0
LINE
  5
49E
330
1F
100
AcDbEntity
  8
Layer0001
  6
Continuous
 62
    56
370
    25
100
AcDbLine
 10
478.1173022289013
 20
426.4122150635715
 30
0.0
 11
477.6173022289013
 21
425.9122150635715
 31
0.0
  0
LINE
  5
49F
330
1F
100
AcDbEntity
  8
Layer0001
  6
Continuous
 62
    56
370
    25
100
AcDbLine
 10
-447.3826977710986
 20
476.9122150635715
 30
0.0
 11
-448.3826977710986
 21
477.9122150635715
 31
0.0
  0
LINE
  5
4A0
330
1F
100
AcDbEntity
  8
Layer0001
  6
Continuous
 62
    56
370
    25
100
AcDbLine
 10
-497.3826977710986
 20
476.9122150635715
 30
0.0
 11
-496.3826977710986
 21
477.9122150635715
 31
0.0
  0
LINE
  5
4A1
330
1F
100
AcDbEntity
  8
Layer0001
  6
Continuous
 62
    56
370
    25
100
AcDbLine
 10
-447.3826977710986
 20
435.9122150635715
 30
0.0
 11
-447.3826977710986
 21
476.9122150635715
 31
0.0
  0
LINE
  5
4A2
330
1F
100
AcDbEntity
  8
Layer0001
  6
Continuous
 62
    56
370
    25
100
AcDbLine
 10
-496.3826977710986
 20
477.9122150635715
 30
0.0
 11
-448.3826977710986
 21
477.9122150635715
 31
0.0
  0
LINE
  5
4A3
330
1F
100
AcDbEntity
  8
Layer0001
  6
Continuous
 62
    56
370
    25
100
AcDbLine
 10
-497.3826977710986
 20
435.9122150635715
 30
0.0
 11
-497.3826977710986
 21
476.9122150635715
 31
0.0
  0
CIRCLE
  5
4A4
330
1F
100
AcDbEntity
  8
Layer0001
  6
Continuous
 62
    56
370
    25
100
AcDbCircle
 10
-472.3826977710985
 20
451.9122150635715
 30
0.0
 40
9.228718707889811
  0
CIRCLE
  5
4A5
330
1F
100
AcDbEntity
  8
Layer0001
  6
Continuous
 62
    56
370
    25
100
AcDbCircle
 10
-472.3826977710985
 20
451.9122150635715
 30
0.0
 40
12.0
  0
LINE
  5
4A6
330
1F
100
AcDbEntity
  8
Layer0001
  6
Continuous
 62
    56
370
    25
100
AcDbLine
 10
-480.4656015397533
 20
451.9122150635715
 30
0.0
 11
-476.4241496554258
 21
458.9122150635715
 31
0.0
  0
LINE
  5
4A7
330
1F
100
AcDbEntity
  8
Layer0001
  6
Continuous
 62
    56
370
    25
100
AcDbLine
 10
-476.4241496554258
 20
458.9122150635715
 30
0.0
 11
-468.341245886771
 21
458.9122150635715
 31
0.0
  0
LINE
  5
4A8
330
1F
100
AcDbEntity
  8
Layer0001
  6
Continuous
 62
    56
370
    25
100
AcDbLine
 10
-468.341245886771
 20
458.9122150635715
 30
0.0
 11
-464.2997940024437
 21
451.9122150635715
 31
0.0
  0
LINE
  5
4A9
330
1F
100
AcDbEntity
  8
Layer0001
  6
Continuous
 62
    56
370
    25
100
AcDbLine
 10
-464.2997940024437
 20
451.9122150635715
 30
0.0
 11
-468.341245886771
 21
444.9122150635715
 31
0.0
  0
LINE
  5
4AA
330
1F
100
AcDbEntity
  8
Layer0001
  6
Continuous
 62
    56
370
    25
100
AcDbLine
 10
-468.341245886771
 20
444.9122150635715
 30
0.0
 11
-476.4241496554258
 21
444.9122150635715
 31
0.0
  0
LINE
  5
4AB
330
1F
100
AcDbEntity
  8
Layer0001
  6
Continuous
 62
    56
370
    25
100
AcDbLine
 10
-476.4241496554258
 20
444.9122150635715
 30
0.0
 11
-480.4656015397533
 21
451.9122150635715
 31
0.0
  0
LINE
  5
4AC
330
1F
100
AcDbEntity
  8
Layer0001
  6
Continuous
 62
    56
370
    25
100
AcDbLine
 10
-493.3826977710986
 20
431.9122150635715
 30
0.0
 11
-497.3826977710986
 21
435.9122150635715
 31
0.0
  0
LINE
  5
4AD
330
1F
100
AcDbEntity
  8
Layer0001
  6
Continuous
 62
    56
370
    25
100
AcDbLine
 10
-451.3826977710986
 20
431.9122150635715
 30
0.0
 11
-447.3826977710986
 21
435.9122150635715
 31
0.0
  0
LINE
  5
4AE
330
1F
100
AcDbEntity
  8
Layer0001
  6
Continuous
 62
    56
370
    25
100
AcDbLine
 10
-247.3826977710986
 20
476.9122150635715
 30
0.0
 11
-248.3826977710986
 21
477.9122150635715
 31
0.0
  0
LINE
  5
4AF
330
1F
100
AcDbEntity
  8
Layer0001
  6
Continuous
 62
    56
370
    25
100
AcDbLine
 10
-297.3826977710986
 20
476.9122150635715
 30
0.0
 11
-296.3826977710986
 21
477.9122150635715
 31
0.0
  0
LINE
  5
4B0
330
1F
100
AcDbEntity
  8
Layer0001
  6
Continuous
 62
    56
370
    25
100
AcDbLine
 10
-247.3826977710986
 20
435.9122150635715
 30
0.0
 11
-247.3826977710986
 21
476.9122150635715
 31
0.0
  0
LINE
  5
4B1
330
1F
100
AcDbEntity
  8
Layer0001
  6
Continuous
 62
    56
370
    25
100
AcDbLine
 10
-296.3826977710986
 20
477.9122150635715
 30
0.0
 11
-248.3826977710986
 21
477.9122150635715
 31
0.0
  0
LINE
  5
4B2
330
1F
100
AcDbEntity
  8
Layer0001
  6
Continuous
 62
    56
370
    25
100
AcDbLine
 10
-297.3826977710986
 20
435.9122150635715
 30
0.0
 11
-297.3826977710986
 21
476.9122150635715
 31
0.0
  0
CIRCLE
  5
4B3
330
1F
100
AcDbEntity
  8
Layer0001
  6
Continuous
 62
    56
370
    25
100
AcDbCircle
 10
-272.3826977710985
 20
451.9122150635715
 30
0.0
 40
9.228718707889811
  0
CIRCLE
  5
4B4
330
1F
100
AcDbEntity
  8
Layer0001
  6
Continuous
 62
    56
370
    25
100
AcDbCircle
 10
-272.3826977710985
 20
451.9122150635715
 30
0.0
 40
12.0
  0
LINE
  5
4B5
330
1F
100
AcDbEntity
  8
Layer0001
  6
Continuous
 62
    56
370
    25
100
AcDbLine
 10
-280.4656015397533
 20
451.9122150635715
 30
0.0
 11
-276.4241496554258
 21
458.9122150635715
 31
0.0
  0
LINE
  5
4B6
330
1F
100
AcDbEntity
  8
Layer0001
  6
Continuous
 62
    56
370
    25
100
AcDbLine
 10
-276.4241496554258
 20
458.9122150635715
 30
0.0
 11
-268.341245886771
 21
458.9122150635715
 31
0.0
  0
LINE
  5
4B7
330
1F
100
AcDbEntity
  8
Layer0001
  6
Continuous
 62
    56
370
    25
100
AcDbLine
 10
-268.341245886771
 20
458.9122150635715
 30
0.0
 11
-264.2997940024437
 21
451.9122150635715
 31
0.0
  0
LINE
  5
4B8
330
1F
100
AcDbEntity
  8
Layer0001
  6
Continuous
 62
    56
370
    25
100
AcDbLine
 10
-264.2997940024437
 20
451.9122150635715
 30
0.0
 11
-268.341245886771
 21
444.9122150635715
 31
0.0
  0
LINE
  5
4B9
330
1F
100
AcDbEntity
  8
Layer0001
  6
Continuous
 62
    56
370
    25
100
AcDbLine
 10
-268.341245886771
 20
444.9122150635715
 30
0.0
 11
-276.4241496554258
 21
444.9122150635715
 31
0.0
  0
LINE
  5
4BA
330
1F
100
AcDbEntity
  8
Layer0001
  6
Continuous
 62
    56
370
    25
100
AcDbLine
 10
-276.4241496554258
 20
444.9122150635715
 30
0.0
 11
-280.4656015397533
 21
451.9122150635715
 31
0.0
  0
LINE
  5
4BB
330
1F
100
AcDbEntity
  8
Layer0001
  6
Continuous
 62
    56
370
    25
100
AcDbLine
 10
-293.3826977710986
 20
431.9122150635715
 30
0.0
 11
-297.3826977710986
 21
435.9122150635715
 31
0.0
  0
LINE
  5
4BC
330
1F
100
AcDbEntity
  8
Layer0001
  6
Continuous
 62
    56
370
    25
100
AcDbLine
 10
-251.3826977710986
 20
431.9122150635715
 30
0.0
 11
-247.3826977710986
 21
435.9122150635715
 31
0.0
  0
LINE
  5
4BD
330
1F
100
AcDbEntity
  8
Layer0001
  6
Continuous
 62
    56
370
    25
100
AcDbLine
 10
468.1173022289013
 20
472.9122150635715
 30
0.0
 11
473.1173022289013
 21
477.9122150635715
 31
0.0
  0
LINE
  5
4BE
330
1F
100
AcDbEntity
  8
Layer0001
  6
Continuous
 62
    56
370
    25
100
AcDbLine
 10
473.1173022289013
 20
185.9122150635712
 30
0.0
 11
468.1173022289013
 21
190.9122150635712
 31
0.0
  0
LINE
  5
4BF
330
1F
100
AcDbEntity
  8
Layer0001
  6
Continuous
 62
    56
370
    25
100
AcDbLine
 10
-47.38269777109861
 20
476.9122150635715
 30
0.0
 11
-48.38269777109861
 21
477.9122150635715
 31
0.0
  0
LINE
  5
4C0
330
1F
100
AcDbEntity
  8
Layer0001
  6
Continuous
 62
    56
370
    25
100
AcDbLine
 10
-97.3826977710986
 20
476.9122150635715
 30
0.0
 11
-96.3826977710986
 21
477.9122150635715
 31
0.0
  0
LINE
  5
4C1
330
1F
100
AcDbEntity
  8
Layer0001
  6
Continuous
 62
    56
370
    25
100
AcDbLine
 10
-47.38269777109861
 20
435.9122150635715
 30
0.0
 11
-47.38269777109861
 21
476.9122150635715
 31
0.0
  0
LINE
  5
4C2
330
1F
100
AcDbEntity
  8
Layer0001
  6
Continuous
 62
    56
370
    25
100
AcDbLine
 10
-96.3826977710986
 20
477.9122150635715
 30
0.0
 11
-48.38269777109861
 21
477.9122150635715
 31
0.0
  0
LINE
  5
4C3
330
1F
100
AcDbEntity
  8
Layer0001
  6
Continuous
 62
    56
370
    25
100
AcDbLine
 10
-97.3826977710986
 20
435.9122150635715
 30
0.0
 11
-97.3826977710986
 21
476.9122150635715
 31
0.0
  0
CIRCLE
  5
4C4
330
1F
100
AcDbEntity
  8
Layer0001
  6
Continuous
 62
    56
370
    25
100
AcDbCircle
 10
-72.38269777109849
 20
451.9122150635715
 30
0.0
 40
9.228718707889811
  0
CIRCLE
  5
4C5
330
1F
100
AcDbEntity
  8
Layer0001
  6
Continuous
 62
    56
370
    25
100
AcDbCircle
 10
-72.38269777109849
 20
451.9122150635715
 30
0.0
 40
12.0
  0
LINE
  5
4C6
330
1F
100
AcDbEntity
  8
Layer0001
  6
Continuous
 62
    56
370
    25
100
AcDbLine
 10
-80.46560153975327
 20
451.9122150635715
 30
0.0
 11
-76.42414965542582
 21
458.9122150635715
 31
0.0
  0
LINE
  5
4C7
330
1F
100
AcDbEntity
  8
Layer0001
  6
Continuous
 62
    56
370
    25
100
AcDbLine
 10
-76.42414965542582
 20
458.9122150635715
 30
0.0
 11
-68.34124588677105
 21
458.9122150635715
 31
0.0
  0
LINE
  5
4C8
330
1F
100
AcDbEntity
  8
Layer0001
  6
Continuous
 62
    56
370
    25
100
AcDbLine
 10
-68.34124588677105
 20
458.9122150635715
 30
0.0
 11
-64.29979400244372
 21
451.9122150635715
 31
0.0
  0
LINE
  5
4C9
330
1F
100
AcDbEntity
  8
Layer0001
  6
Continuous
 62
    56
370
    25
100
AcDbLine
 10
-64.29979400244372
 20
451.9122150635715
 30
0.0
 11
-68.34124588677105
 21
444.9122150635715
 31
0.0
  0
LINE
  5
4CA
330
1F
100
AcDbEntity
  8
Layer0001
  6
Continuous
 62
    56
370
    25
100
AcDbLine
 10
-68.34124588677105
 20
444.9122150635715
 30
0.0
 11
-76.42414965542582
 21
444.9122150635715
 31
0.0
  0
LINE
  5
4CB
330
1F
100
AcDbEntity
  8
Layer0001
  6
Continuous
 62
    56
370
    25
100
AcDbLine
 10
-76.42414965542582
 20
444.9122150635715
 30
0.0
 11
-80.46560153975327
 21
451.9122150635715
 31
0.0
  0
LINE
  5
4CC
330
1F
100
AcDbEntity
  8
Layer0001
  6
Continuous
 62
    56
370
    25
100
AcDbLine
 10
-93.3826977710986
 20
431.9122150635715
 30
0.0
 11
-97.3826977710986
 21
435.9122150635715
 31
0.0
  0
LINE
  5
4CD
330
1F
100
AcDbEntity
  8
Layer0001
  6
Continuous
 62
    56
370
    25
100
AcDbLine
 10
-51.38269777109861
 20
431.9122150635715
 30
0.0
 11
-47.38269777109861
 21
435.9122150635715
 31
0.0
  0
LINE
  5
4CE
330
1F
100
AcDbEntity
  8
Layer0001
  6
Continuous
 62
    56
370
    25
100
AcDbLine
 10
-447.3826977710986
 20
186.9122150635715
 30
0.0
 11
-448.3826977710986
 21
185.9122150635715
 31
0.0
  0
LINE
  5
4CF
330
1F
100
AcDbEntity
  8
Layer0001
  6
Continuous
 62
    56
370
    25
100
AcDbLine
 10
-497.3826977710986
 20
186.9122150635715
 30
0.0
 11
-496.3826977710986
 21
185.9122150635715
 31
0.0
  0
LINE
  5
4D0
330
1F
100
AcDbEntity
  8
Layer0001
  6
Continuous
 62
    56
370
    25
100
AcDbLine
 10
-447.3826977710986
 20
227.9122150635715
 30
0.0
 11
-447.3826977710986
 21
186.9122150635715
 31
0.0
  0
LINE
  5
4D1
330
1F
100
AcDbEntity
  8
Layer0001
  6
Continuous
 62
    56
370
    25
100
AcDbLine
 10
-496.3826977710986
 20
185.9122150635715
 30
0.0
 11
-448.3826977710986
 21
185.9122150635715
 31
0.0
  0
LINE
  5
4D2
330
1F
100
AcDbEntity
  8
Layer0001
  6
Continuous
 62
    56
370
    25
100
AcDbLine
 10
-497.3826977710986
 20
227.9122150635715
 30
0.0
 11
-497.3826977710986
 21
186.9122150635715
 31
0.0
  0
CIRCLE
  5
4D3
330
1F
100
AcDbEntity
  8
Layer0001
  6
Continuous
 62
    56
370
    25
100
AcDbCircle
 10
-472.3826977710985
 20
211.9122150635715
 30
0.0
 40
9.228718707889811
  0
CIRCLE
  5
4D4
330
1F
100
AcDbEntity
  8
Layer0001
  6
Continuous
 62
    56
370
    25
100
AcDbCircle
 10
-472.3826977710985
 20
211.9122150635715
 30
0.0
 40
12.0
  0
LINE
  5
4D5
330
1F
100
AcDbEntity
  8
Layer0001
  6
Continuous
 62
    56
370
    25
100
AcDbLine
 10
-480.4656015397533
 20
211.9122150635715
 30
0.0
 11
-476.4241496554258
 21
204.9122150635715
 31
0.0
  0
LINE
  5
4D6
330
1F
100
AcDbEntity
  8
Layer0001
  6
Continuous
 62
    56
370
    25
100
AcDbLine
 10
-476.4241496554258
 20
204.9122150635715
 30
0.0
 11
-468.341245886771
 21
204.9122150635715
 31
0.0
  0
LINE
  5
4D7
330
1F
100
AcDbEntity
  8
Layer0001
  6
Continuous
 62
    56
370
    25
100
AcDbLine
 10
-468.341245886771
 20
204.9122150635715
 30
0.0
 11
-464.2997940024437
 21
211.9122150635715
 31
0.0
  0
LINE
  5
4D8
330
1F
100
AcDbEntity
  8
Layer0001
  6
Continuous
 62
    56
370
    25
100
AcDbLine
 10
-464.2997940024437
 20
211.9122150635715
 30
0.0
 11
-468.341245886771
 21
218.9122150635715
 31
0.0
  0
LINE
  5
4D9
330
1F
100
AcDbEntity
  8
Layer0001
  6
Continuous
 62
    56
370
    25
100
AcDbLine
 10
-468.341245886771
 20
218.9122150635715
 30
0.0
 11
-476.4241496554258
 21
218.9122150635715
 31
0.0
  0
LINE
  5
4DA
330
1F
100
AcDbEntity
  8
Layer0001
  6
Continuous
 62
    56
370
    25
100
AcDbLine
 10
-476.4241496554258
 20
218.9122150635715
 30
0.0
 11
-480.4656015397533
 21
211.9122150635715
 31
0.0
  0
LINE
  5
4DB
330
1F
100
AcDbEntity
  8
Layer0001
  6
Continuous
 62
    56
370
    25
100
AcDbLine
 10
-487.3826977710986
 20
237.9122150635715
 30
0.0
 11
-497.3826977710986
 21
227.9122150635715
 31
0.0
  0
LINE
  5
4DC
330
1F
100
AcDbEntity
  8
Layer0001
  6
Continuous
 62
    56
370
    25
100
AcDbLine
 10
-457.3826977710986
 20
237.9122150635715
 30
0.0
 11
-447.3826977710986
 21
227.9122150635715
 31
0.0
  0
LINE
  5
4DD
330
1F
100
AcDbEntity
  8
Layer0001
  6
Continuous
 62
    56
370
    25
100
AcDbLine
 10
-457.3826977710986
 20
237.9122150635715
 30
0.0
 11
-487.3826977710986
 21
237.9122150635715
 31
0.0
  0
LINE
  5
4DE
330
1F
100
AcDbEntity
  8
Layer0001
  6
Continuous
 62
    56
370
    25
100
AcDbLine
 10
-457.3826977710986
 20
425.9122150635714
 30
0.0
 11
-447.3826977710986
 21
435.9122150635714
 31
0.0
  0
LINE
  5
4DF
330
1F
100
AcDbEntity
  8
Layer0001
  6
Continuous
 62
    56
370
    25
100
AcDbLine
 10
-487.3826977710986
 20
425.9122150635714
 30
0.0
 11
-497.3826977710986
 21
435.9122150635714
 31
0.0
  0
LINE
  5
4E0
330
1F
100
AcDbEntity
  8
Layer0001
  6
Continuous
 62
    56
370
    25
100
AcDbLine
 10
-487.3826977710986
 20
425.9122150635714
 30
0.0
 11
-457.3826977710986
 21
425.9122150635714
 31
0.0
  0
LINE
  5
4E1
330
1F
100
AcDbEntity
  8
Layer0001
  6
Continuous
 62
    56
370
    25
100
AcDbLine
 10
-257.3826977710986
 20
425.9122150635714
 30
0.0
 11
-247.3826977710986
 21
435.9122150635714
 31
0.0
  0
LINE
  5
4E2
330
1F
100
AcDbEntity
  8
Layer0001
  6
Continuous
 62
    56
370
    25
100
AcDbLine
 10
-287.3826977710986
 20
425.9122150635714
 30
0.0
 11
-297.3826977710986
 21
435.9122150635714
 31
0.0
  0
LINE
  5
4E3
330
1F
100
AcDbEntity
  8
Layer0001
  6
Continuous
 62
    56
370
    25
100
AcDbLine
 10
-287.3826977710986
 20
425.9122150635714
 30
0.0
 11
-257.3826977710986
 21
425.9122150635714
 31
0.0
  0
LINE
  5
4E4
330
1F
100
AcDbEntity
  8
Layer0001
  6
Continuous
 62
    56
370
    25
100
AcDbLine
 10
-57.38269777109861
 20
425.9122150635714
 30
0.0
 11
-47.38269777109861
 21
435.9122150635714
 31
0.0
  0
LINE
  5
4E5
330
1F
100
AcDbEntity
  8
Layer0001
  6
Continuous
 62
    56
370
    25
100
AcDbLine
 10
-87.3826977710986
 20
425.9122150635714
 30
0.0
 11
-97.3826977710986
 21
435.9122150635714
 31
0.0
  0
LINE
  5
4E6
330
1F
100
AcDbEntity
  8
Layer0001
  6
Continuous
 62
    56
370
    25
100
AcDbLine
 10
-87.3826977710986
 20
425.9122150635714
 30
0.0
 11
-57.38269777109861
 21
425.9122150635714
 31
0.0
  0
LINE
  5
4E7
330
1F
100
AcDbEntity
  8
Layer0001
  6
Continuous
 62
    56
370
    25
100
AcDbLine
 10
-247.3826977710986
 20
186.9122150635715
 30
0.0
 11
-248.3826977710986
 21
185.9122150635715
 31
0.0
  0
LINE
  5
4E8
330
1F
100
AcDbEntity
  8
Layer0001
  6
Continuous
 62
    56
370
    25
100
AcDbLine
 10
-297.3826977710986
 20
186.9122150635715
 30
0.0
 11
-296.3826977710986
 21
185.9122150635715
 31
0.0
  0
LINE
  5
4E9
330
1F
100
AcDbEntity
  8
Layer0001
  6
Continuous
 62
    56
370
    25
100
AcDbLine
 10
-247.3826977710986
 20
227.9122150635715
 30
0.0
 11
-247.3826977710986
 21
186.9122150635715
 31
0.0
  0
LINE
  5
4EA
330
1F
100
AcDbEntity
  8
Layer0001
  6
Continuous
 62
    56
370
    25
100
AcDbLine
 10
-296.3826977710986
 20
185.9122150635715
 30
0.0
 11
-248.3826977710986
 21
185.9122150635715
 31
0.0
  0
LINE
  5
4EB
330
1F
100
AcDbEntity
  8
Layer0001
  6
Continuous
 62
    56
370
    25
100
AcDbLine
 10
-297.3826977710986
 20
227.9122150635715
 30
0.0
 11
-297.3826977710986
 21
186.9122150635715
 31
0.0
  0
CIRCLE
  5
4EC
330
1F
100
AcDbEntity
  8
Layer0001
  6
Continuous
 62
    56
370
    25
100
AcDbCircle
 10
-272.3826977710985
 20
211.9122150635715
 30
0.0
 40
9.228718707889811
  0
CIRCLE
  5
4ED
330
1F
100
AcDbEntity
  8
Layer0001
  6
Continuous
 62
    56
370
    25
100
AcDbCircle
 10
-272.3826977710985
 20
211.9122150635715
 30
0.0
 40
12.0
  0
LINE
  5
4EE
330
1F
100
AcDbEntity
  8
Layer0001
  6
Continuous
 62
    56
370
    25
100
AcDbLine
 10
-280.4656015397533
 20
211.9122150635715
 30
0.0
 11
-276.4241496554258
 21
204.9122150635715
 31
0.0
  0
LINE
  5
4EF
330
1F
100
AcDbEntity
  8
Layer0001
  6
Continuous
 62
    56
370
    25
100
AcDbLine
 10
-276.4241496554258
 20
204.9122150635715
 30
0.0
 11
-268.341245886771
 21
204.9122150635715
 31
0.0
  0
LINE
  5
4F0
330
1F
100
AcDbEntity
  8
Layer0001
  6
Continuous
 62
    56
370
    25
100
AcDbLine
 10
-268.341245886771
 20
204.9122150635715
 30
0.0
 11
-264.2997940024437
 21
211.9122150635715
 31
0.0
  0
LINE
  5
4F1
330
1F
100
AcDbEntity
  8
Layer0001
  6
Continuous
 62
    56
370
    25
100
AcDbLine
 10
-264.2997940024437
 20
211.9122150635715
 30
0.0
 11
-268.341245886771
 21
218.9122150635715
 31
0.0
  0
LINE
  5
4F2
330
1F
100
AcDbEntity
  8
Layer0001
  6
Continuous
 62
    56
370
    25
100
AcDbLine
 10
-268.341245886771
 20
218.9122150635715
 30
0.0
 11
-276.4241496554258
 21
218.9122150635715
 31
0.0
  0
LINE
  5
4F3
330
1F
100
AcDbEntity
  8
Layer0001
  6
Continuous
 62
    56
370
    25
100
AcDbLine
 10
-276.4241496554258
 20
218.9122150635715
 30
0.0
 11
-280.4656015397533
 21
211.9122150635715
 31
0.0
  0
LINE
  5
4F4
330
1F
100
AcDbEntity
  8
Layer0001
  6
Continuous
 62
    56
370
    25
100
AcDbLine
 10
-293.3826977710986
 20
231.9122150635715
 30
0.0
 11
-297.3826977710986
 21
227.9122150635715
 31
0.0
  0
LINE
  5
4F5
330
1F
100
AcDbEntity
  8
Layer0001
  6
Continuous
 62
    56
370
    25
100
AcDbLine
 10
-251.3826977710986
 20
231.9122150635715
 30
0.0
 11
-247.3826977710986
 21
227.9122150635715
 31
0.0
  0
LINE
  5
4F6
330
1F
100
AcDbEntity
  8
Layer0001
  6
Continuous
 62
    56
370
    25
100
AcDbLine
 10
-257.3826977710986
 20
237.9122150635715
 30
0.0
 11
-247.3826977710986
 21
227.9122150635715
 31
0.0
  0
LINE
  5
4F7
330
1F
100
AcDbEntity
  8
Layer0001
  6
Continuous
 62
    56
370
    25
100
AcDbLine
 10
-287.3826977710986
 20
237.9122150635715
 30
0.0
 11
-297.3826977710986
 21
227.9122150635715
 31
0.0
  0
LINE
  5
4F8
330
1F
100
AcDbEntity
  8
Layer0001
  6
Continuous
 62
    56
370
    25
100
AcDbLine
 10
-287.3826977710986
 20
237.9122150635715
 30
0.0
 11
-257.3826977710986
 21
237.9122150635715
 31
0.0
  0
LINE
  5
4F9
330
1F
100
AcDbEntity
  8
Layer0001
  6
Continuous
 62
    56
370
    25
100
AcDbLine
 10
-47.38269777109861
 20
186.9122150635715
 30
0.0
 11
-48.38269777109861
 21
185.9122150635715
 31
0.0
  0
LINE
  5
4FA
330
1F
100
AcDbEntity
  8
Layer0001
  6
Continuous
 62
    56
370
    25
100
AcDbLine
 10
-97.3826977710986
 20
186.9122150635715
 30
0.0
 11
-96.3826977710986
 21
185.9122150635715
 31
0.0
  0
LINE
  5
4FB
330
1F
100
AcDbEntity
  8
Layer0001
  6
Continuous
 62
    56
370
    25
100
AcDbLine
 10
-47.38269777109861
 20
227.9122150635715
 30
0.0
 11
-47.38269777109861
 21
186.9122150635715
 31
0.0
  0
LINE
  5
4FC
330
1F
100
AcDbEntity
  8
Layer0001
  6
Continuous
 62
    56
370
    25
100
AcDbLine
 10
-96.3826977710986
 20
185.9122150635715
 30
0.0
 11
-48.38269777109861
 21
185.9122150635715
 31
0.0
  0
LINE
  5
4FD
330
1F
100
AcDbEntity
  8
Layer0001
  6
Continuous
 62
    56
370
    25
100
AcDbLine
 10
-97.3826977710986
 20
227.9122150635715
 30
0.0
 11
-97.3826977710986
 21
186.9122150635715
 31
0.0
  0
CIRCLE
  5
4FE
330
1F
100
AcDbEntity
  8
Layer0001
  6
Continuous
 62
    56
370
    25
100
AcDbCircle
 10
-72.38269777109849
 20
211.9122150635715
 30
0.0
 40
9.228718707889811
  0
CIRCLE
  5
4FF
330
1F
100
AcDbEntity
  8
Layer0001
  6
Continuous
 62
    56
370
    25
100
AcDbCircle
 10
-72.38269777109849
 20
211.9122150635715
 30
0.0
 40
12.0
  0
LINE
  5
500
330
1F
100
AcDbEntity
  8
Layer0001
  6
Continuous
 62
    56
370
    25
100
AcDbLine
 10
-80.46560153975327
 20
211.9122150635715
 30
0.0
 11
-76.42414965542582
 21
204.9122150635715
 31
0.0
  0
LINE
  5
501
330
1F
100
AcDbEntity
  8
Layer0001
  6
Continuous
 62
    56
370
    25
100
AcDbLine
 10
-76.42414965542582
 20
204.9122150635715
 30
0.0
 11
-68.34124588677105
 21
204.9122150635715
 31
0.0
  0
LINE
  5
502
330
1F
100
AcDbEntity
  8
Layer0001
  6
Continuous
 62
    56
370
    25
100
AcDbLine
 10
-68.34124588677105
 20
204.9122150635715
 30
0.0
 11
-64.29979400244372
 21
211.9122150635715
 31
0.0
  0
LINE
  5
503
330
1F
100
AcDbEntity
  8
Layer0001
  6
Continuous
 62
    56
370
    25
100
AcDbLine
 10
-64.29979400244372
 20
211.9122150635715
 30
0.0
 11
-68.34124588677105
 21
218.9122150635715
 31
0.0
  0
LINE
  5
504
330
1F
100
AcDbEntity
  8
Layer0001
  6
Continuous
 62
    56
370
    25
100
AcDbLine
 10
-68.34124588677105
 20
218.9122150635715
 30
0.0
 11
-76.42414965542582
 21
218.9122150635715
 31
0.0
  0
LINE
  5
505
330
1F
100
AcDbEntity
  8
Layer0001
  6
Continuous
 62
    56
370
    25
100
AcDbLine
 10
-76.42414965542582
 20
218.9122150635715
 30
0.0
 11
-80.46560153975327
 21
211.9122150635715
 31
0.0
  0
LINE
  5
506
330
1F
100
AcDbEntity
  8
Layer0001
  6
Continuous
 62
    56
370
    25
100
AcDbLine
 10
-93.3826977710986
 20
231.9122150635715
 30
0.0
 11
-97.3826977710986
 21
227.9122150635715
 31
0.0
  0
LINE
  5
507
330
1F
100
AcDbEntity
  8
Layer0001
  6
Continuous
 62
    56
370
    25
100
AcDbLine
 10
-51.38269777109861
 20
231.9122150635715
 30
0.0
 11
-47.38269777109861
 21
227.9122150635715
 31
0.0
  0
LINE
  5
508
330
1F
100
AcDbEntity
  8
Layer0001
  6
Continuous
 62
    56
370
    25
100
AcDbLine
 10
-57.38269777109861
 20
237.9122150635715
 30
0.0
 11
-47.38269777109861
 21
227.9122150635715
 31
0.0
  0
LINE
  5
509
330
1F
100
AcDbEntity
  8
Layer0001
  6
Continuous
 62
    56
370
    25
100
AcDbLine
 10
-87.3826977710986
 20
237.9122150635715
 30
0.0
 11
-97.3826977710986
 21
227.9122150635715
 31
0.0
  0
LINE
  5
50A
330
1F
100
AcDbEntity
  8
Layer0001
  6
Continuous
 62
    56
370
    25
100
AcDbLine
 10
-87.3826977710986
 20
237.9122150635715
 30
0.0
 11
-57.38269777109861
 21
237.9122150635715
 31
0.0
  0
LINE
  5
50B
330
1F
100
AcDbEntity
  8
Layer0001
  6
Continuous
 62
    56
370
    25
100
AcDbLine
 10
497.1173022289013
 20
431.9122150635715
 30
0.0
 11
478.1173022289013
 21
431.9122150635715
 31
0.0
  0
LINE
  5
50C
330
1F
100
AcDbEntity
  8
Layer0001
  6
Continuous
 62
    56
370
    25
100
AcDbLine
 10
478.1173022289013
 20
426.4122150635715
 30
0.0
 11
478.1173022289013
 21
431.9122150635715
 31
0.0
  0
LINE
  5
50D
330
1F
100
AcDbEntity
  8
Layer0001
  6
Continuous
 62
    56
370
    25
100
AcDbLine
 10
477.6173022289013
 20
237.9122150635715
 30
0.0
 11
477.6173022289013
 21
231.9122150635715
 31
0.0
  0
LINE
  5
50E
330
1F
100
AcDbEntity
  8
Layer0001
  6
Continuous
 62
    56
370
    25
100
AcDbLine
 10
497.1173022289013
 20
231.9122150635715
 30
0.0
 11
477.6173022289013
 21
231.9122150635715
 31
0.0
  0
LINE
  5
50F
330
1F
100
AcDbEntity
  8
Layer0001
  6
CENTER
 62
    56
370
    25
100
AcDbLine
 10
-458.3826977710985
 20
451.9122150635715
 30
0.0
 11
-486.3826977710985
 21
451.9122150635715
 31
0.0
  0
LINE
  5
510
330
1F
100
AcDbEntity
  8
Layer0001
  6
CENTER
 62
    56
370
    25
100
AcDbLine
 10
-472.3826977710985
 20
435.9122150635715
 30
0.0
 11
-472.3826977710985
 21
465.9122150635715
 31
0.0
  0
LINE
  5
511
330
1F
100
AcDbEntity
  8
Layer0001
  6
CENTER
 62
    56
370
    25
100
AcDbLine
 10
-258.3826977710985
 20
451.9122150635715
 30
0.0
 11
-288.8826977710985
 21
451.9122150635715
 31
0.0
  0
LINE
  5
512
330
1F
100
AcDbEntity
  8
Layer0001
  6
CENTER
 62
    56
370
    25
100
AcDbLine
 10
-272.3826977710985
 20
435.9122150635715
 30
0.0
 11
-272.3826977710985
 21
465.9122150635715
 31
0.0
  0
LINE
  5
513
330
1F
100
AcDbEntity
  8
Layer0001
  6
CENTER
 62
    56
370
    25
100
AcDbLine
 10
467.1173022289013
 20
451.9122150635715
 30
0.0
 11
499.1173022289013
 21
451.9122150635715
 31
0.0
  0
LINE
  5
514
330
1F
100
AcDbEntity
  8
Layer0001
  6
CENTER
 62
    56
370
    25
100
AcDbLine
 10
467.1173022289013
 20
211.9122150635715
 30
0.0
 11
499.1173022289013
 21
211.9122150635715
 31
0.0
  0
LINE
  5
515
330
1F
100
AcDbEntity
  8
Layer0001
  6
CENTER
 62
    56
370
    25
100
AcDbLine
 10
-58.38269777109849
 20
451.9122150635715
 30
0.0
 11
-86.38269777109849
 21
451.9122150635715
 31
0.0
  0
LINE
  5
516
330
1F
100
AcDbEntity
  8
Layer0001
  6
CENTER
 62
    56
370
    25
100
AcDbLine
 10
-72.38269777109849
 20
435.9122150635715
 30
0.0
 11
-72.38269777109849
 21
465.9122150635715
 31
0.0
  0
LINE
  5
517
330
1F
100
AcDbEntity
  8
Layer0001
  6
CENTER
 62
    56
370
    25
100
AcDbLine
 10
-458.3826977710985
 20
211.9122150635715
 30
0.0
 11
-486.3826977710985
 21
211.9122150635715
 31
0.0
  0
LINE
  5
518
330
1F
100
AcDbEntity
  8
Layer0001
  6
CENTER
 62
    56
370
    25
100
AcDbLine
 10
-472.3826977710985
 20
227.9122150635715
 30
0.0
 11
-472.3826977710985
 21
197.9122150635715
 31
0.0
  0
LINE
  5
519
330
1F
100
AcDbEntity
  8
Layer0001
  6
CENTER
 62
    56
370
    25
100
AcDbLine
 10
-258.3826977710985
 20
211.9122150635715
 30
0.0
 11
-288.8826977710985
 21
211.9122150635715
 31
0.0
  0
LINE
  5
51A
330
1F
100
AcDbEntity
  8
Layer0001
  6
CENTER
 62
    56
370
    25
100
AcDbLine
 10
-272.3826977710985
 20
227.9122150635715
 30
0.0
 11
-272.3826977710985
 21
197.9122150635715
 31
0.0
  0
LINE
  5
51B
330
1F
100
AcDbEntity
  8
Layer0001
  6
CENTER
 62
    56
370
    25
100
AcDbLine
 10
-58.38269777109849
 20
211.9122150635715
 30
0.0
 11
-86.38269777109849
 21
211.9122150635715
 31
0.0
  0
LINE
  5
51C
330
1F
100
AcDbEntity
  8
Layer0001
  6
CENTER
 62
    56
370
    25
100
AcDbLine
 10
-72.38269777109849
 20
227.9122150635715
 30
0.0
 11
-72.38269777109849
 21
197.9122150635715
 31
0.0
  0
LINE
  5
51D
330
1F
100
AcDbEntity
  8
Layer0000
  6
Continuous
 62
     3
370
    18
100
AcDbLine
 10
-677.3826977710987
 20
-150.5751888002075
 30
0.0
 11
-542.3826977710987
 21
-150.5751888002075
 31
0.0
  0
LINE
  5
51E
330
1F
100
AcDbEntity
  8
Layer0000
  6
Continuous
 62
     3
370
    18
100
AcDbLine
 10
-542.3826977710987
 20
-150.5751888002075
 30
0.0
 11
-542.3826977710987
 21
-151.0751888002075
 31
0.0
  0
LINE
  5
51F
330
1F
100
AcDbEntity
  8
Layer0000
  6
Continuous
 62
     3
370
    18
100
AcDbLine
 10
-263.0246881187353
 20
-380.4606548412452
 30
0.0
 11
-192.0246881187352
 21
-380.4606548412452
 31
0.0
  0
LINE
  5
520
330
1F
100
AcDbEntity
  8
Layer0000
  6
Continuous
 62
     3
370
    18
100
AcDbLine
 10
-263.0246881187353
 20
-424.4606548412452
 30
0.0
 11
-192.0246881187352
 21
-424.4606548412452
 31
0.0
  0
LINE
  5
521
330
1F
100
AcDbEntity
  8
Layer0000
  6
Continuous
 62
     3
370
    18
100
AcDbLine
 10
-181.5246881187352
 20
-391.9606548412452
 30
0.0
 11
-164.5246881187352
 21
-391.9606548412452
 31
0.0
  0
LINE
  5
522
330
1F
100
AcDbEntity
  8
Layer0000
  6
Continuous
 62
     3
370
    18
100
AcDbLine
 10
-181.5246881187352
 20
-412.9606548412452
 30
0.0
 11
-164.5246881187352
 21
-412.9606548412452
 31
0.0
  0
LINE
  5
523
330
1F
100
AcDbEntity
  8
Layer0000
  6
Continuous
 62
     3
370
    18
100
AcDbLine
 10
-163.5246881187352
 20
-393.6927056488141
 30
0.0
 11
-163.5246881187352
 21
-411.2286040336763
 31
0.0
  0
LINE
  5
524
330
1F
100
AcDbEntity
  8
Layer0000
  6
Continuous
 62
     3
370
    18
100
AcDbLine
 10
-191.5246881187352
 20
-423.9606548412452
 30
0.0
 11
-191.5246881187352
 21
-380.9606548412452
 31
0.0
  0
LINE
  5
525
330
1F
100
AcDbEntity
  8
Layer0000
  6
Continuous
 62
     3
370
    18
100
AcDbLine
 10
-263.5246881187353
 20
-380.9606548412452
 30
0.0
 11
-263.5246881187353
 21
-423.9606548412452
 31
0.0
  0
LINE
  5
526
330
1F
100
AcDbEntity
  8
Layer0000
  6
Continuous
 62
     3
370
    18
100
AcDbLine
 10
-192.0246881187352
 20
-380.4606548412452
 30
0.0
 11
-191.5246881187352
 21
-380.9606548412452
 31
0.0
  0
LINE
  5
527
330
1F
100
AcDbEntity
  8
Layer0000
  6
Continuous
 62
     3
370
    18
100
AcDbLine
 10
-263.0246881187353
 20
-380.4606548412452
 30
0.0
 11
-263.5246881187353
 21
-380.9606548412452
 31
0.0
  0
LINE
  5
528
330
1F
100
AcDbEntity
  8
Layer0000
  6
Continuous
 62
     3
370
    18
100
AcDbLine
 10
-263.5246881187353
 20
-423.9606548412452
 30
0.0
 11
-263.0246881187353
 21
-424.4606548412452
 31
0.0
  0
LINE
  5
529
330
1F
100
AcDbEntity
  8
Layer0000
  6
Continuous
 62
     3
370
    18
100
AcDbLine
 10
-191.5246881187352
 20
-423.9606548412452
 30
0.0
 11
-192.0246881187352
 21
-424.4606548412452
 31
0.0
  0
LINE
  5
52A
330
1F
100
AcDbEntity
  8
Layer0000
  6
Continuous
 62
     3
370
    18
100
AcDbLine
 10
-191.0246881187352
 20
-413.4606548412452
 30
0.0
 11
-191.0246881187352
 21
-391.4606548412452
 31
0.0
  0
LINE
  5
52B
330
1F
100
AcDbEntity
  8
Layer0000
  6
Continuous
 62
     3
370
    18
100
AcDbLine
 10
-192.0246881187352
 20
-424.4606548412452
 30
0.0
 11
-192.0246881187352
 21
-380.4606548412452
 31
0.0
  0
LINE
  5
52C
330
1F
100
AcDbEntity
  8
Layer0000
  6
Continuous
 62
     3
370
    18
100
AcDbLine
 10
-263.0246881187353
 20
-424.4606548412452
 30
0.0
 11
-263.0246881187353
 21
-380.4606548412452
 31
0.0
  0
LINE
  5
52D
330
1F
100
AcDbEntity
  8
Layer0000
  6
Continuous
 62
     3
370
    18
100
AcDbLine
 10
-164.5246881187352
 20
-397.9885188862456
 30
0.0
 11
-181.5246881187352
 21
-397.9885188862456
 31
0.0
  0
LINE
  5
52E
330
1F
100
AcDbEntity
  8
Layer0000
  6
Continuous
 62
     3
370
    18
100
AcDbLine
 10
-164.5246881187352
 20
-396.4694814827928
 30
0.0
 11
-181.5246881187352
 21
-396.4694814827928
 31
0.0
  0
LINE
  5
52F
330
1F
100
AcDbEntity
  8
Layer0000
  6
Continuous
 62
     3
370
    18
100
AcDbLine
 10
-164.5246881187352
 20
-406.9327907962447
 30
0.0
 11
-181.5246881187352
 21
-406.9327907962447
 31
0.0
  0
LINE
  5
530
330
1F
100
AcDbEntity
  8
Layer0000
  6
Continuous
 62
     3
370
    18
100
AcDbLine
 10
-164.5246881187352
 20
-408.4518281996975
 30
0.0
 11
-181.5246881187352
 21
-408.4518281996975
 31
0.0
  0
LINE
  5
531
330
1F
100
AcDbEntity
  8
Layer0000
  6
Continuous
 62
     3
370
    18
100
AcDbLine
 10
-164.5246881187352
 20
-396.4694814827928
 30
0.0
 11
-164.5246881187352
 21
-397.9885188862456
 31
0.0
  0
LINE
  5
532
330
1F
100
AcDbEntity
  8
Layer0000
  6
Continuous
 62
     3
370
    18
100
AcDbLine
 10
-164.5246881187352
 20
-408.4518281996975
 30
0.0
 11
-164.5246881187352
 21
-406.9327907962447
 31
0.0
  0
ARC
  5
533
330
1F
100
AcDbEntity
  8
Layer0000
  6
Continuous
 62
     3
370
    18
100
AcDbCircle
 10
-166.5658778291764
 20
-394.2150681620191
 30
0.0
 40
3.041189710441189
100
AcDbArc
 50
312.1583048916936
 51
12.15830489169361
  0
ARC
  5
534
330
1F
100
AcDbEntity
  8
Layer0000
  6
Continuous
 62
     3
370
    18
100
AcDbCircle
 10
-174.0246881187352
 20
-402.4606548412452
 30
0.0
 40
10.49999999999994
100
AcDbArc
 50
334.7912347032415
 51
25.20876529675846
  0
ARC
  5
535
330
1F
100
AcDbEntity
  8
Layer0000
  6
Continuous
 62
     3
370
    18
100
AcDbCircle
 10
-166.5658778291764
 20
-410.7062415204714
 30
0.0
 40
3.041189710441189
100
AcDbArc
 50
347.8416951083055
 51
47.84169510830637
  0
LINE
  5
536
330
1F
100
AcDbEntity
  8
Layer0000
  6
Continuous
 62
     3
370
    18
100
AcDbLine
 10
-164.5246881187353
 20
-391.9606548412452
 30
0.0
 11
-163.5246881187353
 21
-393.692705648814
 31
0.0
  0
LINE
  5
537
330
1F
100
AcDbEntity
  8
Layer0000
  6
Continuous
 62
     3
370
    18
100
AcDbLine
 10
-164.5246881187353
 20
-412.9606548412452
 30
0.0
 11
-163.5246881187353
 21
-411.2286040336763
 31
0.0
  0
LINE
  5
538
330
1F
100
AcDbEntity
  8
Layer0000
  6
Continuous
 62
     3
370
    18
100
AcDbLine
 10
-181.5246881187352
 20
-391.4606548412452
 30
0.0
 11
-181.5246881187352
 21
-413.4606548412452
 31
0.0
  0
LINE
  5
539
330
1F
100
AcDbEntity
  8
Layer0000
  6
Continuous
 62
     3
370
    18
100
AcDbLine
 10
-191.0246881187352
 20
-391.4606548412452
 30
0.0
 11
-181.5246881187352
 21
-391.4606548412452
 31
0.0
  0
LINE
  5
53A
330
1F
100
AcDbEntity
  8
Layer0000
  6
Continuous
 62
     3
370
    18
100
AcDbLine
 10
-191.0246881187352
 20
-413.4606548412452
 30
0.0
 11
-181.5246881187352
 21
-413.4606548412452
 31
0.0
  0
LINE
  5
53B
330
1F
100
AcDbEntity
  8
Layer0000
  6
Continuous
 62
     3
370
    18
100
AcDbLine
 10
-191.0246881187352
 20
-413.4606548412452
 30
0.0
 11
-191.5246881187352
 21
-413.9606548412452
 31
0.0
  0
LINE
  5
53C
330
1F
100
AcDbEntity
  8
Layer0000
  6
Continuous
 62
     3
370
    18
100
AcDbLine
 10
-191.0246881187352
 20
-391.4606548412452
 30
0.0
 11
-191.5246881187352
 21
-390.9606548412452
 31
0.0
  0
LINE
  5
53D
330
1F
100
AcDbEntity
  8
Layer0015
  6
Continuous
 62
     2
370
    25
100
AcDbLine
 10
-714.8826977710987
 20
231.9122150635715
 30
0.0
 11
-714.8826977710987
 21
431.9122150635715
 31
0.0
  0
INSERT
  5
53E
330
1F
100
AcDbEntity
  8
Layer0015
 62
     2
100
AcDbBlockReference
  2
_OPEN30
 10
-714.8826977710987
 20
231.9122150635715
 30
0.0
 41
9.175922197305043
 42
6.038325706448341
 50
270.0
  0
INSERT
  5
53F
330
1F
100
AcDbEntity
  8
Layer0015
 62
     2
100
AcDbBlockReference
  2
_OPEN30
 10
-714.8826977710987
 20
431.9122150635715
 30
0.0
 41
9.175922197305043
 42
6.038325706448341
 50
90.0
  0
LINE
  5
540
330
1F
100
AcDbEntity
  8
Layer0015
  6
Continuous
 62
     2
370
    25
100
AcDbLine
 10
-457.3826977710985
 20
296.9122150635715
 30
0.0
 11
-457.3826977710985
 21
366.9122150635715
 31
0.0
  0
INSERT
  5
541
330
1F
100
AcDbEntity
  8
Layer0015
 62
     2
100
AcDbBlockReference
  2
_OPEN30
 10
-457.3826977710985
 20
296.9122150635715
 30
0.0
 41
9.175922197305043
 42
6.038325706448341
 50
270.0
  0
INSERT
  5
542
330
1F
100
AcDbEntity
  8
Layer0015
 62
     2
100
AcDbBlockReference
  2
_OPEN30
 10
-457.3826977710985
 20
366.9122150635715
 30
0.0
 41
9.175922197305043
 42
6.038325706448341
 50
90.0
  0
LINE
  5
543
330
1F
100
AcDbEntity
  8
Layer0015
  6
Continuous
 62
     2
370
    25
100
AcDbLine
 10
-432.3826977710985
 20
251.9122150635715
 30
0.0
 11
-432.3826977710985
 21
411.9122150635715
 31
0.0
  0
INSERT
  5
544
330
1F
100
AcDbEntity
  8
Layer0015
 62
     2
100
AcDbBlockReference
  2
_OPEN30
 10
-432.3826977710985
 20
251.9122150635715
 30
0.0
 41
9.175922197305043
 42
6.038325706448341
 50
270.0
  0
INSERT
  5
545
330
1F
100
AcDbEntity
  8
Layer0015
 62
     2
100
AcDbBlockReference
  2
_OPEN30
 10
-432.3826977710985
 20
411.9122150635715
 30
0.0
 41
9.175922197305043
 42
6.038325706448341
 50
90.0
  0
LINE
  5
546
330
1F
100
AcDbEntity
  8
Layer0015
  6
Continuous
 62
     2
370
    25
100
AcDbLine
 10
537.6173022289012
 20
185.9122150635712
 30
0.0
 11
537.6173022289012
 21
231.9122150635715
 31
0.0
  0
INSERT
  5
547
330
1F
100
AcDbEntity
  8
Layer0015
 62
     2
100
AcDbBlockReference
  2
_OPEN30
 10
537.6173022289012
 20
185.9122150635712
 30
0.0
 41
9.175922197305043
 42
6.038325706448341
 50
270.0
  0
INSERT
  5
548
330
1F
100
AcDbEntity
  8
Layer0015
 62
     2
100
AcDbBlockReference
  2
_OPEN30
 10
537.6173022289012
 20
231.9122150635715
 30
0.0
 41
9.175922197305043
 42
6.038325706448341
 50
90.0
  0
LINE
  5
549
330
1F
100
AcDbEntity
  8
Layer0015
  6
Continuous
 62
     2
370
    25
100
AcDbLine
 10
537.6173022289012
 20
231.9122150635715
 30
0.0
 11
537.6173022289012
 21
431.912215063571
 31
0.0
  0
INSERT
  5
54A
330
1F
100
AcDbEntity
  8
Layer0015
 62
     2
100
AcDbBlockReference
  2
_OPEN30
 10
537.6173022289012
 20
231.9122150635715
 30
0.0
 41
9.175922197305043
 42
6.038325706448341
 50
270.0
  0
INSERT
  5
54B
330
1F
100
AcDbEntity
  8
Layer0015
 62
     2
100
AcDbBlockReference
  2
_OPEN30
 10
537.6173022289012
 20
431.912215063571
 30
0.0
 41
9.175922197305043
 42
6.038325706448341
 50
90.0
  0
LINE
  5
54C
330
1F
100
AcDbEntity
  8
Layer0015
  6
Continuous
 62
     2
370
    25
100
AcDbLine
 10
537.6173022289012
 20
431.912215063571
 30
0.0
 11
537.6173022289012
 21
477.9122150635715
 31
0.0
  0
INSERT
  5
54D
330
1F
100
AcDbEntity
  8
Layer0015
 62
     2
100
AcDbBlockReference
  2
_OPEN30
 10
537.6173022289012
 20
431.912215063571
 30
0.0
 41
9.175922197305043
 42
6.038325706448341
 50
270.0
  0
INSERT
  5
54E
330
1F
100
AcDbEntity
  8
Layer0015
 62
     2
100
AcDbBlockReference
  2
_OPEN30
 10
537.6173022289012
 20
477.9122150635715
 30
0.0
 41
9.175922197305043
 42
6.038325706448341
 50
90.0
  0
LINE
  5
54F
330
1F
100
AcDbEntity
  8
Layer0015
  6
Continuous
 62
     2
370
    25
100
AcDbLine
 10
562.6173022289012
 20
185.9122150635712
 30
0.0
 11
562.6173022289012
 21
477.9122150635715
 31
0.0
  0
INSERT
  5
550
330
1F
100
AcDbEntity
  8
Layer0015
 62
     2
100
AcDbBlockReference
  2
_OPEN30
 10
562.6173022289012
 20
185.9122150635712
 30
0.0
 41
9.175922197305043
 42
6.038325706448341
 50
270.0
  0
INSERT
  5
551
330
1F
100
AcDbEntity
  8
Layer0015
 62
     2
100
AcDbBlockReference
  2
_OPEN30
 10
562.6173022289012
 20
477.9122150635715
 30
0.0
 41
9.175922197305043
 42
6.038325706448341
 50
90.0
  0
LINE
  5
552
330
1F
100
AcDbEntity
  8
Layer0015
  6
Continuous
 62
     2
370
    25
100
AcDbLine
 10
-714.8826977710987
 20
-241.0751878534442
 30
0.0
 11
-714.8826977710987
 21
-70.07518785344422
 31
0.0
  0
INSERT
  5
553
330
1F
100
AcDbEntity
  8
Layer0015
 62
     2
100
AcDbBlockReference
  2
_OPEN30
 10
-714.8826977710987
 20
-241.0751878534442
 30
0.0
 41
9.175922197305043
 42
6.038325706448341
 50
270.0
  0
INSERT
  5
554
330
1F
100
AcDbEntity
  8
Layer0015
 62
     2
100
AcDbBlockReference
  2
_OPEN30
 10
-714.8826977710987
 20
-70.07518785344422
 30
0.0
 41
9.175922197305043
 42
6.038325706448341
 50
90.0
  0
LINE
  5
555
330
1F
100
AcDbEntity
  8
Layer0015
  6
Continuous
 62
     2
370
    25
100
AcDbLine
 10
-739.8826977710987
 20
-241.0751878534442
 30
0.0
 11
-739.8826977710987
 21
-43.07518785344421
 31
0.0
  0
INSERT
  5
556
330
1F
100
AcDbEntity
  8
Layer0015
 62
     2
100
AcDbBlockReference
  2
_OPEN30
 10
-739.8826977710987
 20
-241.0751878534442
 30
0.0
 41
9.175922197305043
 42
6.038325706448341
 50
270.0
  0
INSERT
  5
557
330
1F
100
AcDbEntity
  8
Layer0015
 62
     2
100
AcDbBlockReference
  2
_OPEN30
 10
-739.8826977710987
 20
-43.07518785344421
 30
0.0
 41
9.175922197305043
 42
6.038325706448341
 50
90.0
  0
LINE
  5
558
330
1F
100
AcDbEntity
  8
Layer0015
  6
Continuous
 62
     2
370
    25
100
AcDbLine
 10
-552.3826977710986
 20
-311.5751878534442
 30
0.0
 11
-472.3826977710985
 21
-311.5751878534442
 31
0.0
  0
INSERT
  5
559
330
1F
100
AcDbEntity
  8
Layer0015
 62
     2
100
AcDbBlockReference
  2
_OPEN30
 10
-552.3826977710986
 20
-311.5751878534442
 30
0.0
 41
9.175922197305043
 42
6.038325706448341
 50
180.0
  0
INSERT
  5
55A
330
1F
100
AcDbEntity
  8
Layer0015
 62
     2
100
AcDbBlockReference
  2
_OPEN30
 10
-472.3826977710985
 20
-311.5751878534442
 30
0.0
 41
9.175922197305043
 42
6.038325706448341
 50
360.0
  0
LINE
  5
55B
330
1F
100
AcDbEntity
  8
Layer0015
  6
Continuous
 62
     2
370
    25
100
AcDbLine
 10
-432.3826977710985
 20
-131.0751878534442
 30
0.0
 11
-432.3826977710985
 21
-69.07518785344422
 31
0.0
  0
INSERT
  5
55C
330
1F
100
AcDbEntity
  8
Layer0015
 62
     2
100
AcDbBlockReference
  2
_OPEN30
 10
-432.3826977710985
 20
-131.0751878534442
 30
0.0
 41
9.175922197305043
 42
6.038325706448341
 50
270.0
  0
INSERT
  5
55D
330
1F
100
AcDbEntity
  8
Layer0015
 62
     2
100
AcDbBlockReference
  2
_OPEN30
 10
-432.3826977710985
 20
-69.07518785344422
 30
0.0
 41
9.175922197305043
 42
6.038325706448341
 50
90.0
  0
LINE
  5
55E
330
1F
100
AcDbEntity
  8
Layer0015
  6
Continuous
 62
     2
370
    25
100
AcDbLine
 10
-432.3826977710985
 20
-241.0751878534442
 30
0.0
 11
-432.3826977710985
 21
-131.0751878534442
 31
0.0
  0
INSERT
  5
55F
330
1F
100
AcDbEntity
  8
Layer0015
 62
     2
100
AcDbBlockReference
  2
_OPEN30
 10
-432.3826977710985
 20
-241.0751878534442
 30
0.0
 41
9.175922197305043
 42
6.038325706448341
 50
270.0
  0
INSERT
  5
560
330
1F
100
AcDbEntity
  8
Layer0015
 62
     2
100
AcDbBlockReference
  2
_OPEN30
 10
-432.3826977710985
 20
-131.0751878534442
 30
0.0
 41
9.175922197305043
 42
6.038325706448341
 50
90.0
  0
LINE
  5
561
330
1F
100
AcDbEntity
  8
Layer0015
  6
Continuous
 62
     2
370
    25
100
AcDbLine
 10
-372.3826977710985
 20
-241.0751878534442
 30
0.0
 11
-372.3826977710985
 21
-48.07518785344421
 31
0.0
  0
INSERT
  5
562
330
1F
100
AcDbEntity
  8
Layer0015
 62
     2
100
AcDbBlockReference
  2
_OPEN30
 10
-372.3826977710985
 20
-241.0751878534442
 30
0.0
 41
9.175922197305043
 42
6.038325706448341
 50
270.0
  0
INSERT
  5
563
330
1F
100
AcDbEntity
  8
Layer0015
 62
     2
100
AcDbBlockReference
  2
_OPEN30
 10
-372.3826977710985
 20
-48.07518785344421
 30
0.0
 41
9.175922197305043
 42
6.038325706448341
 50
90.0
  0
LINE
  5
564
330
1F
100
AcDbEntity
  8
Layer0015
  6
Continuous
 62
     2
370
    25
100
AcDbLine
 10
501.6173022289013
 20
185.9122150635712
 30
0.0
 11
539.6173022289012
 21
185.9122150635712
 31
0.0
  0
LINE
  5
565
330
1F
100
AcDbEntity
  8
Layer0015
  6
Continuous
 62
     2
370
    25
100
AcDbLine
 10
501.6173022289013
 20
231.9122150635715
 30
0.0
 11
539.6173022289012
 21
231.9122150635715
 31
0.0
  0
LINE
  5
566
330
1F
100
AcDbEntity
  8
Layer0015
  6
Continuous
 62
     2
370
    25
100
AcDbLine
 10
501.6173022289013
 20
431.912215063571
 30
0.0
 11
539.6173022289012
 21
431.912215063571
 31
0.0
  0
LINE
  5
567
330
1F
100
AcDbEntity
  8
Layer0015
  6
Continuous
 62
     2
370
    25
100
AcDbLine
 10
501.6173022289013
 20
477.9122150635715
 30
0.0
 11
539.6173022289012
 21
477.9122150635715
 31
0.0
  0
LINE
  5
568
330
1F
100
AcDbEntity
  8
Layer0015
  6
Continuous
 62
     2
370
    25
100
AcDbLine
 10
-678.8826977710987
 20
231.9122150635715
 30
0.0
 11
-716.8826977710987
 21
231.9122150635715
 31
0.0
  0
LINE
  5
569
330
1F
100
AcDbEntity
  8
Layer0015
  6
Continuous
 62
     2
370
    25
100
AcDbLine
 10
-678.8826977710987
 20
431.9122150635715
 30
0.0
 11
-716.8826977710987
 21
431.9122150635715
 31
0.0
  0
LINE
  5
56A
330
1F
100
AcDbEntity
  8
Layer0015
  6
Continuous
 62
     2
370
    25
100
AcDbLine
 10
542.1173022289012
 20
185.9122150635712
 30
0.0
 11
564.6173022289012
 21
185.9122150635712
 31
0.0
  0
LINE
  5
56B
330
1F
100
AcDbEntity
  8
Layer0015
  6
Continuous
 62
     2
370
    25
100
AcDbLine
 10
542.1173022289012
 20
477.9122150635715
 30
0.0
 11
564.6173022289012
 21
477.9122150635715
 31
0.0
  0
LINE
  5
56C
330
1F
100
AcDbEntity
  8
Layer0015
  6
Continuous
 62
     2
370
    25
100
AcDbLine
 10
-719.3826977710987
 20
-241.0751878534442
 30
0.0
 11
-741.8826977710987
 21
-241.0751878534442
 31
0.0
  0
LINE
  5
56D
330
1F
100
AcDbEntity
  8
Layer0015
  6
Continuous
 62
     2
370
    25
100
AcDbLine
 10
-481.3826977710985
 20
-251.0751878534442
 30
0.0
 11
-481.3826977710985
 21
-288.5751878534442
 31
0.0
  0
LINE
  5
56E
330
1F
100
AcDbEntity
  8
Layer0015
  6
Continuous
 62
     2
370
    25
100
AcDbLine
 10
-463.3826977710985
 20
-251.0751878534442
 30
0.0
 11
-463.3826977710985
 21
-288.5751878534442
 31
0.0
  0
LINE
  5
56F
330
1F
100
AcDbEntity
  8
Layer0015
  6
Continuous
 62
     2
370
    25
100
AcDbLine
 10
-481.3826977710985
 20
-286.5751878534442
 30
0.0
 11
-463.3826977710985
 21
-286.5751878534442
 31
0.0
  0
LINE
  5
570
330
1F
100
AcDbEntity
  8
Layer0015
  6
Continuous
 62
     2
370
    25
100
AcDbLine
 10
-472.3826977710985
 20
-252.5751878534442
 30
0.0
 11
-472.3826977710985
 21
-313.5751878534442
 31
0.0
  0
LINE
  5
571
330
1F
100
AcDbEntity
  8
Layer0015
  6
Continuous
 62
     2
370
    25
100
AcDbLine
 10
-461.3826977710985
 20
-249.0751878534442
 30
0.0
 11
-430.3826977710985
 21
-249.0751878534442
 31
0.0
  0
LINE
  5
572
330
1F
100
AcDbEntity
  8
Layer0015
  6
Continuous
 62
     2
370
    25
100
AcDbLine
 10
-432.3826977710985
 20
-249.0751878534442
 30
0.0
 11
-432.3826977710985
 21
-241.0751878534442
 31
0.0
  0
LINE
  5
573
330
1F
100
AcDbEntity
  8
Layer0015
  6
Continuous
 62
     2
370
    25
100
AcDbLine
 10
-678.8826977710987
 20
-241.0751878534442
 30
0.0
 11
-716.8826977710987
 21
-241.0751878534442
 31
0.0
  0
LINE
  5
574
330
1F
100
AcDbEntity
  8
Layer0015
  6
Continuous
 62
     2
370
    25
100
AcDbLine
 10
-678.8826977710987
 20
-70.07518785344422
 30
0.0
 11
-716.8826977710987
 21
-70.07518785344422
 31
0.0
  0
LINE
  5
575
330
1F
100
AcDbEntity
  8
Layer0015
  6
Continuous
 62
     2
370
    25
100
AcDbLine
 10
-648.8826977710986
 20
-43.07518785344421
 30
0.0
 11
-741.8826977710987
 21
-43.07518785344421
 31
0.0
  0
LINE
  5
576
330
1F
100
AcDbEntity
  8
Layer0015
  6
Continuous
 62
     2
370
    25
100
AcDbLine
 10
-552.3826977710986
 20
-130.0751878534442
 30
0.0
 11
-552.3826977710986
 21
-313.5751878534442
 31
0.0
  0
LINE
  5
577
330
1F
100
AcDbEntity
  8
Layer0015
  6
Continuous
 62
     2
370
    25
100
AcDbLine
 10
-550.0826977710985
 20
-69.07518785344422
 30
0.0
 11
-430.3826977710985
 21
-69.07518785344422
 31
0.0
  0
LINE
  5
578
330
1F
100
AcDbEntity
  8
Layer0015
  6
Continuous
 62
     2
370
    25
100
AcDbLine
 10
-580.0826977710987
 20
-48.07518785344421
 30
0.0
 11
-370.3826977710985
 21
-48.07518785344421
 31
0.0
  0
LINE
  5
579
330
1F
100
AcDbEntity
  8
Layer0015
  6
Continuous
 62
     2
370
    25
100
AcDbLine
 10
-439.9966477710985
 20
-286.5751878534442
 30
0.0
 11
-463.3826977710985
 21
-286.5751878534442
 31
0.0
  0
INSERT
  5
57A
330
1F
100
AcDbEntity
  8
Layer0015
 62
     2
100
AcDbBlockReference
  2
_OPEN30
 10
-463.3826977710985
 20
-286.5751878534442
 30
0.0
 41
9.175922197305043
 42
6.038325706448341
 50
180.0
  0
LINE
  5
57B
330
1F
100
AcDbEntity
  8
Layer0015
  6
Continuous
 62
     2
370
    25
100
AcDbLine
 10
-491.3826977710985
 20
-286.5751878534442
 30
0.0
 11
-481.3826977710985
 21
-286.5751878534442
 31
0.0
  0
INSERT
  5
57C
330
1F
100
AcDbEntity
  8
Layer0015
 62
     2
100
AcDbBlockReference
  2
_OPEN30
 10
-481.3826977710985
 20
-286.5751878534442
 30
0.0
 41
9.175922197305043
 42
6.038325706448341
 50
360.0
  0
LINE
  5
57D
330
1F
100
AcDbEntity
  8
Layer0015
  6
Continuous
 62
     2
370
    25
100
AcDbLine
 10
-432.3826977710985
 20
-264.4612378534442
 30
0.0
 11
-432.3826977710985
 21
-249.0751878534442
 31
0.0
  0
INSERT
  5
57E
330
1F
100
AcDbEntity
  8
Layer0015
 62
     2
100
AcDbBlockReference
  2
_OPEN30
 10
-432.3826977710985
 20
-249.0751878534442
 30
0.0
 41
9.175922197305043
 42
6.038325706448341
 50
90.0
  0
TEXT
  5
57F
330
1F
100
AcDbEntity
  8
Layer0015
 62
     2
100
AcDbText
 10
-717.3826977710987
 20
317.5122150635715
 30
0.0
 40
12.0
  1
200
 50
90.0
 41
0.7999999999999987
  7
dcStyle0
 72
     5
 11
-717.3826977710987
 21
346.3122150635714
 31
0.0
100
AcDbText
  0
TEXT
  5
580
330
1F
100
AcDbEntity
  8
Layer0015
 62
     2
100
AcDbText
 10
-459.8826977710985
 20
322.3122150635714
 30
0.0
 40
12.0
  1
70
 50
90.0
 41
0.8000000000000019
  7
dcStyle0
 72
     5
 11
-459.8826977710985
 21
341.5122150635715
 31
0.0
100
AcDbText
  0
TEXT
  5
581
330
1F
100
AcDbEntity
  8
Layer0015
 62
     2
100
AcDbText
 10
-434.8826977710985
 20
317.5122150635715
 30
0.0
 40
12.0
  1
160
 50
90.0
 41
0.7999999999999987
  7
dcStyle0
 72
     5
 11
-434.8826977710985
 21
346.3122150635714
 31
0.0
100
AcDbText
  0
TEXT
  5
582
330
1F
100
AcDbEntity
  8
Layer0015
 62
     2
100
AcDbText
 10
535.1173022289012
 20
197.3122150635714
 30
0.0
 40
12.0
  1
46
 50
90.0
 41
0.8000000000000019
  7
dcStyle0
 72
     5
 11
535.1173022289012
 21
216.5122150635715
 31
0.0
100
AcDbText
  0
TEXT
  5
583
330
1F
100
AcDbEntity
  8
Layer0015
 62
     2
100
AcDbText
 10
535.1173022289012
 20
317.5122150635713
 30
0.0
 40
12.0
  1
200
 50
90.0
 41
0.7999999999999987
  7
dcStyle0
 72
     5
 11
535.1173022289012
 21
346.3122150635712
 31
0.0
100
AcDbText
  0
TEXT
  5
584
330
1F
100
AcDbEntity
  8
Layer0015
 62
     2
100
AcDbText
 10
535.1173022289012
 20
447.3122150635714
 30
0.0
 40
12.0
  1
46
 50
90.0
 41
0.8000000000000019
  7
dcStyle0
 72
     5
 11
535.1173022289012
 21
466.5122150635715
 31
0.0
100
AcDbText
  0
TEXT
  5
585
330
1F
100
AcDbEntity
  8
Layer0015
 62
     2
100
AcDbText
 10
560.1173022289012
 20
317.5122150635715
 30
0.0
 40
12.0
  1
292
 50
90.0
 41
0.7999999999999987
  7
dcStyle0
 72
     5
 11
560.1173022289012
 21
346.3122150635714
 31
0.0
100
AcDbText
  0
TEXT
  5
586
330
1F
100
AcDbEntity
  8
Layer0015
 62
     2
100
AcDbText
 10
-717.3826977710987
 20
-169.9751878534442
 30
0.0
 40
12.0
  1
171
 50
90.0
 41
0.7999999999999987
  7
dcStyle0
 72
     5
 11
-717.3826977710987
 21
-141.1751878534442
 31
0.0
100
AcDbText
  0
TEXT
  5
587
330
1F
100
AcDbEntity
  8
Layer0015
 62
     2
100
AcDbText
 10
-742.3826977710987
 20
-156.4751878534442
 30
0.0
 40
12.0
  1
198
 50
90.0
 41
0.7999999999999987
  7
dcStyle0
 72
     5
 11
-742.3826977710987
 21
-127.6751878534442
 31
0.0
100
AcDbText
  0
TEXT
  5
588
330
1F
100
AcDbEntity
  8
Layer0015
 62
     2
100
AcDbText
 10
-455.9966477710985
 20
-284.0751878534442
 30
0.0
 40
12.0
  1
18
 41
0.7999999999999995
  7
dcStyle0
 72
     5
 11
-436.7966477710985
 21
-284.0751878534442
 31
0.0
100
AcDbText
  0
TEXT
  5
589
330
1F
100
AcDbEntity
  8
Layer0015
 62
     2
100
AcDbText
 10
-521.9826977710986
 20
-309.0751878534442
 30
0.0
 40
12.0
  1
80
 41
0.8000000000000019
  7
dcStyle0
 72
     5
 11
-502.7826977710986
 21
-309.0751878534442
 31
0.0
100
AcDbText
  0
TEXT
  5
58A
330
1F
100
AcDbEntity
  8
Layer0015
 62
     2
100
AcDbText
 10
-434.8826977710985
 20
-266.0612378534443
 30
0.0
 40
12.0
  1
8
 50
90.0
 41
0.8000000000000019
  7
dcStyle0
 72
     5
 11
-434.8826977710985
 21
-256.4612378534442
 31
0.0
100
AcDbText
  0
TEXT
  5
58B
330
1F
100
AcDbEntity
  8
Layer0015
 62
     2
100
AcDbText
 10
-434.8826977710985
 20
-109.6751878534442
 30
0.0
 40
12.0
  1
62
 50
90.0
 41
0.8000000000000019
  7
dcStyle0
 72
     5
 11
-434.8826977710985
 21
-90.4751878534442
 31
0.0
100
AcDbText
  0
TEXT
  5
58C
330
1F
100
AcDbEntity
  8
Layer0015
 62
     2
100
AcDbText
 10
-374.8826977710985
 20
-163.9751878534442
 30
0.0
 40
12.0
  1
193
 50
90.0
 41
0.7999999999999987
  7
dcStyle0
 72
     5
 11
-374.8826977710985
 21
-135.1751878534442
 31
0.0
100
AcDbText
  0
TEXT
  5
58D
330
1F
100
AcDbEntity
  8
Layer0015
 62
     2
100
AcDbText
 10
-434.8826977710985
 20
-200.4751878534442
 30
0.0
 40
12.0
  1
110
 50
90.0
 41
0.7999999999999987
  7
dcStyle0
 72
     5
 11
-434.8826977710985
 21
-171.6751878534442
 31
0.0
100
AcDbText
  0
LINE
  5
58E
330
1F
100
AcDbEntity
  8
Layer0000
  6
DASHED2
 62
    30
370
    25
100
AcDbLine
 10
-624.5246881187353
 20
-391.4606548412452
 30
0.0
 11
-619.5246881187353
 21
-391.4606548412452
 31
0.0
  0
LINE
  5
58F
330
1F
100
AcDbEntity
  8
Layer0000
  6
DASHED2
 62
    30
370
    25
100
AcDbLine
 10
-624.5246881187353
 20
-413.4606548412452
 30
0.0
 11
-619.5246881187353
 21
-413.4606548412452
 31
0.0
  0
LINE
  5
590
330
1F
100
AcDbEntity
  8
Layer0000
  6
DASHED2
 62
    30
370
    25
100
AcDbLine
 10
-619.5246881187353
 20
-413.4303099558479
 30
0.0
 11
-601.5246881187353
 21
-413.4303099558479
 31
0.0
  0
LINE
  5
591
330
1F
100
AcDbEntity
  8
Layer0000
  6
DASHED2
 62
    30
370
    25
100
AcDbLine
 10
-619.5246881187353
 20
-413.4606548412452
 30
0.0
 11
-619.524688118653
 21
-391.4606548412452
 31
0.0
  0
LINE
  5
592
330
1F
100
AcDbEntity
  8
Layer0000
  6
DASHED2
 62
    30
370
    25
100
AcDbLine
 10
-619.5246881187353
 20
-391.4909997266424
 30
0.0
 11
-601.5246881187353
 21
-391.4909997266424
 31
0.0
  0
LINE
  5
593
330
1F
100
AcDbEntity
  8
Layer0000
  6
DASHED2
 62
    30
370
    25
100
AcDbLine
 10
-624.5246881187353
 20
-391.4606548412452
 30
0.0
 11
-625.5246881187353
 21
-390.4606548412452
 31
0.0
  0
LINE
  5
594
330
1F
100
AcDbEntity
  8
Layer0000
  6
DASHED2
 62
    30
370
    25
100
AcDbLine
 10
-624.5246881187353
 20
-413.4606548412452
 30
0.0
 11
-625.5246881187353
 21
-414.4606548412452
 31
0.0
  0
LINE
  5
595
330
1F
100
AcDbEntity
  8
Layer0000
  6
DASHED2
 62
    30
370
    25
100
AcDbLine
 10
-601.5246881187369
 20
-390.9606548412452
 30
0.0
 11
-591.5246881187369
 21
-390.9606548412452
 31
0.0
  0
LINE
  5
596
330
1F
100
AcDbEntity
  8
Layer0000
  6
DASHED2
 62
    30
370
    25
100
AcDbLine
 10
-601.5246881187369
 20
-413.9606548412452
 30
0.0
 11
-601.5246881186584
 21
-390.9606548412452
 31
0.0
  0
LINE
  5
597
330
1F
100
AcDbEntity
  8
Layer0000
  6
DASHED2
 62
    30
370
    25
100
AcDbLine
 10
-601.5246881187369
 20
-413.9606548412452
 30
0.0
 11
-591.5246881187369
 21
-413.9606548412452
 31
0.0
  0
LINE
  5
598
330
1F
100
AcDbEntity
  8
Layer0000
  6
DASHED2
 62
    30
370
    25
100
AcDbLine
 10
-591.5246881187369
 20
-413.9606548412452
 30
0.0
 11
-591.5246881187369
 21
-390.9606548412452
 31
0.0
  0
LINE
  5
599
330
1F
100
AcDbEntity
  8
Layer0000
  6
DASHED2
 62
    30
370
    25
100
AcDbLine
 10
-591.5246881187369
 20
-411.9606548412409
 30
0.0
 11
-586.0398605614381
 21
-402.4606548412452
 31
0.0
  0
LINE
  5
59A
330
1F
100
AcDbEntity
  8
Layer0000
  6
DASHED2
 62
    30
370
    25
100
AcDbLine
 10
-591.5246881187369
 20
-392.9606548412495
 30
0.0
 11
-586.0398605614381
 21
-402.4606548412452
 31
0.0
  0
LINE
  5
59B
330
1F
100
AcDbEntity
  8
Layer0000
  6
DASHED2
 62
    30
370
    25
100
AcDbLine
 10
-624.5246881187353
 20
-391.4606548412452
 30
0.0
 11
-624.5246881187353
 21
-413.4606548412452
 31
0.0
  0
LINE
  5
59C
330
1F
100
AcDbEntity
  8
Layer0000
  6
DASHED2
 62
    30
370
    25
100
AcDbLine
 10
-619.5246881186737
 20
-396.9758272839438
 30
0.0
 11
-601.5246881186791
 21
-396.9758272839438
 31
0.0
  0
LINE
  5
59D
330
1F
100
AcDbEntity
  8
Layer0000
  6
DASHED2
 62
    30
370
    25
100
AcDbLine
 10
-619.5246881186737
 20
-407.9454823985467
 30
0.0
 11
-601.5246881186791
 21
-407.9454823985467
 31
0.0
  0
ARC
  5
59E
330
1F
100
AcDbEntity
  8
Layer0000
  6
DASHED2
 62
    30
370
    25
100
AcDbCircle
 10
-622.7851047865437
 20
-394.2334135052246
 30
0.0
 40
4.26041666784944
100
AcDbArc
 50
319.9320129591628
 51
40.06798703485975
  0
ARC
  5
59F
330
1F
100
AcDbEntity
  8
Layer0000
  6
DASHED2
 62
    30
370
    25
100
AcDbCircle
 10
-634.0663547832272
 20
-402.4606548411401
 30
0.0
 40
15.54166666453311
100
AcDbArc
 50
339.3345218143253
 51
20.66547818643462
  0
ARC
  5
5A0
330
1F
100
AcDbEntity
  8
Layer0000
  6
DASHED2
 62
    30
370
    25
100
AcDbCircle
 10
-622.7851047857242
 20
-410.6878961770159
 30
0.0
 40
4.260416667030052
100
AcDbArc
 50
319.9320129514803
 51
40.06798705011659
  0
LINE
  5
5A1
330
1F
100
AcDbEntity
  8
Layer0000
  6
DASHED2
 62
    30
370
    18
100
AcDbLine
 10
-263.5246881187353
 20
-384.4606548412452
 30
0.0
 11
-238.5246881187353
 21
-384.4606548412452
 31
0.0
  0
LINE
  5
5A2
330
1F
100
AcDbEntity
  8
Layer0000
  6
DASHED2
 62
    30
370
    18
100
AcDbLine
 10
-263.5246881187353
 20
-392.7273540063118
 30
0.0
 11
-238.5246881187353
 21
-392.7273540063118
 31
0.0
  0
LINE
  5
5A3
330
1F
100
AcDbEntity
  8
Layer0000
  6
DASHED2
 62
    30
370
    18
100
AcDbLine
 10
-263.5246881187353
 20
-394.2144435900104
 30
0.0
 11
-238.5246881187353
 21
-394.2144435900104
 31
0.0
  0
LINE
  5
5A4
330
1F
100
AcDbEntity
  8
Layer0000
  6
DASHED2
 62
    30
370
    18
100
AcDbLine
 10
-238.5246881187353
 20
-384.4606548412452
 30
0.0
 11
-238.5246881187353
 21
-402.4606548412452
 31
0.0
  0
ARC
  5
5A5
330
1F
100
AcDbEntity
  8
Layer0000
  6
DASHED2
 62
    30
370
    18
100
AcDbCircle
 10
-266.7958328115924
 20
-388.5940044237785
 30
0.0
 40
5.271144692857096
100
AcDbArc
 50
308.3581926761688
 51
51.64180732383124
  0
ARC
  5
5A6
330
1F
100
AcDbEntity
  8
Layer0000
  6
DASHED2
 62
    30
370
    18
100
AcDbCircle
 10
-279.5246881187331
 20
-402.4606548412452
 30
0.0
 40
17.99999999999785
100
AcDbArc
 50
0.000000000000007
 51
27.26604445073447
  0
LINE
  5
5A7
330
1F
100
AcDbEntity
  8
Layer0000
  6
DASHED2
 62
    30
370
    18
100
AcDbLine
 10
-238.5246881187353
 20
-388.9606548412452
 30
0.0
 11
-199.5246881187353
 21
-388.9606548412452
 31
0.0
  0
LINE
  5
5A8
330
1F
100
AcDbEntity
  8
Layer0000
  6
DASHED2
 62
    30
370
    18
100
AcDbLine
 10
-198.5246881187353
 20
-389.9606548412452
 30
0.0
 11
-198.5246881187353
 21
-402.4606548412452
 31
0.0
  0
LINE
  5
5A9
330
1F
100
AcDbEntity
  8
Layer0000
  6
DASHED2
 62
    30
370
    18
100
AcDbLine
 10
-199.5246881187353
 20
-388.9606548412452
 30
0.0
 11
-198.5246881187353
 21
-389.9606548412452
 31
0.0
  0
LINE
  5
5AA
330
1F
100
AcDbEntity
  8
Layer0000
  6
DASHED2
 62
    30
370
    18
100
AcDbLine
 10
-263.5246881187353
 20
-420.4606548412453
 30
0.0
 11
-238.5246881187353
 21
-420.4606548412453
 31
0.0
  0
LINE
  5
5AB
330
1F
100
AcDbEntity
  8
Layer0000
  6
DASHED2
 62
    30
370
    18
100
AcDbLine
 10
-263.5246881187353
 20
-412.1939556761786
 30
0.0
 11
-238.5246881187353
 21
-412.1939556761786
 31
0.0
  0
LINE
  5
5AC
330
1F
100
AcDbEntity
  8
Layer0000
  6
DASHED2
 62
    30
370
    18
100
AcDbLine
 10
-263.5246881187353
 20
-410.70686609248
 30
0.0
 11
-238.5246881187353
 21
-410.70686609248
 31
0.0
  0
LINE
  5
5AD
330
1F
100
AcDbEntity
  8
Layer0000
  6
DASHED2
 62
    30
370
    18
100
AcDbLine
 10
-238.5246881187353
 20
-420.4606548412453
 30
0.0
 11
-238.5246881187353
 21
-402.4606548412452
 31
0.0
  0
ARC
  5
5AE
330
1F
100
AcDbEntity
  8
Layer0000
  6
DASHED2
 62
    30
370
    18
100
AcDbCircle
 10
-266.7958328115924
 20
-416.3273052587119
 30
0.0
 40
5.271144692857096
100
AcDbArc
 50
308.3581926761688
 51
51.64180732383124
  0
ARC
  5
5AF
330
1F
100
AcDbEntity
  8
Layer0000
  6
DASHED2
 62
    30
370
    18
100
AcDbCircle
 10
-279.5246881187331
 20
-402.4606548412452
 30
0.0
 40
17.99999999999785
100
AcDbArc
 50
332.7339555492655
 51
0.0
  0
LINE
  5
5B0
330
1F
100
AcDbEntity
  8
Layer0000
  6
DASHED2
 62
    30
370
    18
100
AcDbLine
 10
-238.5246881187353
 20
-415.9606548412452
 30
0.0
 11
-199.5246881187353
 21
-415.9606548412452
 31
0.0
  0
LINE
  5
5B1
330
1F
100
AcDbEntity
  8
Layer0000
  6
DASHED2
 62
    30
370
    18
100
AcDbLine
 10
-198.5246881187353
 20
-414.9606548412452
 30
0.0
 11
-198.5246881187353
 21
-402.4606548412452
 31
0.0
  0
LINE
  5
5B2
330
1F
100
AcDbEntity
  8
Layer0000
  6
DASHED2
 62
    30
370
    18
100
AcDbLine
 10
-199.5246881187353
 20
-415.9606548412452
 30
0.0
 11
-198.5246881187353
 21
-414.9606548412452
 31
0.0
  0
LINE
  5
5B3
330
1F
100
AcDbEntity
  8
Layer0000
  6
CENTER
 62
     2
370
    18
100
AcDbLine
 10
-265.5246881187353
 20
-402.4606548412452
 30
0.0
 11
-161.5246881187352
 21
-402.4606548412452
 31
0.0
  0
LINE
  5
5B4
330
1F
100
AcDbEntity
  8
Layer0014
  6
DIVIDE
 62
     4
370
    25
100
AcDbLine
 10
-49.08269777109854
 20
-69.57518785344419
 30
0.0
 11
-49.08269777109852
 21
-127.0751878534442
 31
0.0
  0
LINE
  5
5B5
330
1F
100
AcDbEntity
  8
Layer0014
  6
DIVIDE
 62
     4
370
    25
100
AcDbLine
 10
-23.88237655603012
 20
-127.0751878534442
 30
0.0
 11
-42.72771893753874
 21
-69.07518785344419
 31
0.0
  0
LINE
  5
5B6
330
1F
100
AcDbEntity
  8
Layer0014
  6
DIVIDE
 62
     4
370
    25
100
AcDbLine
 10
-14.08269777109854
 20
-69.07518785344419
 30
0.0
 11
-42.72771893753874
 21
-69.07518785344419
 31
0.0
  0
LINE
  5
5B7
330
1F
100
AcDbEntity
  8
Layer0014
  6
DIVIDE
 62
     4
370
    25
100
AcDbLine
 10
-49.08269777109854
 20
-69.57518785344419
 30
0.0
 11
-42.56525908942228
 21
-69.57518785344419
 31
0.0
  0
LINE
  5
5B8
330
1F
100
AcDbEntity
  8
Layer0014
  6
DIVIDE
 62
     4
370
    25
100
AcDbLine
 10
-23.88237655603012
 20
-127.0751878534442
 30
0.0
 11
-35.28269777109853
 21
-127.0751878534442
 31
0.0
  0
LINE
  5
5B9
330
1F
100
AcDbEntity
  8
Layer0014
  6
DIVIDE
 62
     4
370
    25
100
AcDbLine
 10
-25.28269777109851
 20
-131.0751878534442
 30
0.0
 11
-25.28269777109851
 21
-130.0751878534442
 31
0.0
  0
LINE
  5
5BA
330
1F
100
AcDbEntity
  8
Layer0014
  6
DIVIDE
 62
     4
370
    25
100
AcDbLine
 10
-25.28269777109851
 20
-130.0751878534442
 30
0.0
 11
-40.28269777109853
 21
-130.0751878534442
 31
0.0
  0
LINE
  5
5BB
330
1F
100
AcDbEntity
  8
Layer0014
  6
DIVIDE
 62
     4
370
    25
100
AcDbLine
 10
-40.28269777109853
 20
-127.0751878534442
 30
0.0
 11
-40.28269777109853
 21
-130.0751878534442
 31
0.0
  0
LINE
  5
5BC
330
1F
100
AcDbEntity
  8
Layer0014
  6
DIVIDE
 62
     4
370
    25
100
AcDbLine
 10
-35.28269777109853
 20
-127.0751878534442
 30
0.0
 11
-35.28269777109853
 21
-126.5751878534442
 31
0.0
  0
LINE
  5
5BD
330
1F
100
AcDbEntity
  8
Layer0014
  6
DIVIDE
 62
     4
370
    25
100
AcDbLine
 10
-35.28269777109853
 20
-126.5751878534442
 30
0.0
 11
-24.04483640414659
 21
-126.5751878534442
 31
0.0
  0
LINE
  5
5BE
330
1F
100
AcDbEntity
  8
Layer0014
  6
DIVIDE
 62
     4
370
    25
100
AcDbLine
 10
-14.08269777109852
 20
-127.0751878534442
 30
0.0
 11
-23.88237655603012
 21
-127.0751878534442
 31
0.0
  0
LINE
  5
5BF
330
1F
100
AcDbEntity
  8
Layer0014
  6
DIVIDE
 62
     4
370
    25
100
AcDbLine
 10
-35.28269777109853
 20
-127.0751878534442
 30
0.0
 11
-49.08269777109852
 21
-127.0751878534442
 31
0.0
  0
LINE
  5
5C0
330
1F
100
AcDbEntity
  8
Layer0014
  6
DIVIDE
 62
     4
370
    25
100
AcDbLine
 10
-14.28269777109853
 20
-127.0751878534442
 30
0.0
 11
-14.28269777109853
 21
-131.0751878534442
 31
0.0
  0
LINE
  5
5C1
330
1F
100
AcDbEntity
  8
Layer0014
  6
DIVIDE
 62
     4
370
    25
100
AcDbLine
 10
-14.08269777109854
 20
-69.07518785344419
 30
0.0
 11
-14.08269777109854
 21
-127.0751878534442
 31
0.0
  0
LINE
  5
5C2
330
1F
100
AcDbEntity
  8
Layer0014
  6
DIVIDE
 62
     4
370
    25
100
AcDbLine
 10
-14.28269777109853
 20
-131.0751878534442
 30
0.0
 11
-25.28269777109851
 21
-131.0751878534442
 31
0.0
  0
LINE
  5
5C3
330
1F
100
AcDbEntity
  8
Layer0014
  6
Continuous
 62
     3
370
    25
100
AcDbLine
 10
420.2483672885859
 20
-151.0751878534443
 30
0.0
 11
338.8879586729681
 21
-151.0751878534443
 31
0.0
  0
LINE
  5
5C4
330
1F
100
AcDbEntity
  8
Layer0014
  6
Continuous
 62
     3
370
    25
100
AcDbLine
 10
350.2483672885862
 20
-48.27518785344438
 30
0.0
 11
350.2483672885862
 21
-69.07518785344433
 31
0.0
  0
LINE
  5
5C5
330
1F
100
AcDbEntity
  8
Layer0014
  6
Continuous
 62
     3
370
    25
100
AcDbLine
 10
350.4483672885862
 20
-48.07518785344433
 30
0.0
 11
350.2483672885862
 21
-48.27518785344438
 31
0.0
  0
LINE
  5
5C6
330
1F
100
AcDbEntity
  8
Layer0014
  6
Continuous
 62
     3
370
    25
100
AcDbLine
 10
384.7483672885862
 20
-48.07518785344433
 30
0.0
 11
350.4483672885862
 21
-48.07518785344433
 31
0.0
  0
LINE
  5
5C7
330
1F
100
AcDbEntity
  8
Layer0014
  6
Continuous
 62
     3
370
    25
100
AcDbLine
 10
385.2483672885862
 20
-47.57518785344433
 30
0.0
 11
385.2483672885862
 21
-43.27518785344438
 31
0.0
  0
ARC
  5
5C8
330
1F
100
AcDbEntity
  8
Layer0014
  6
Continuous
 62
     3
370
    25
100
AcDbCircle
 10
385.2483672885862
 20
-48.07518785344433
 30
0.0
 40
0.5
100
AcDbArc
 50
180.0
 51
90.0
  0
LINE
  5
5C9
330
1F
100
AcDbEntity
  8
Layer0014
  6
Continuous
 62
     3
370
    25
100
AcDbLine
 10
385.4483672885862
 20
-43.07518785344433
 30
0.0
 11
385.2483672885862
 21
-43.27518785344438
 31
0.0
  0
LINE
  5
5CA
330
1F
100
AcDbEntity
  8
Layer0014
  6
Continuous
 62
     3
370
    25
100
AcDbLine
 10
385.4483672885862
 20
-43.07518785344433
 30
0.0
 11
414.2483672885862
 21
-43.07518785344433
 31
0.0
  0
LINE
  5
5CB
330
1F
100
AcDbEntity
  8
Layer0014
  6
Continuous
 62
     3
370
    25
100
AcDbLine
 10
415.2483672885862
 20
-44.07518785344433
 30
0.0
 11
414.2483672885862
 21
-43.07518785344433
 31
0.0
  0
LINE
  5
5CC
330
1F
100
AcDbEntity
  8
Layer0014
  6
Continuous
 62
     3
370
    25
100
AcDbLine
 10
415.2483672885862
 20
-44.07518785344433
 30
0.0
 11
415.2483672885862
 21
-69.07518785344433
 31
0.0
  0
LINE
  5
5CD
330
1F
100
AcDbEntity
  8
Layer0014
  6
Continuous
 62
     3
370
    25
100
AcDbLine
 10
420.2483672885863
 20
-70.07518785344433
 30
0.0
 11
421.2483672885863
 21
-71.07518785344433
 31
0.0
  0
LINE
  5
5CE
330
1F
100
AcDbEntity
  8
Layer0014
  6
Continuous
 62
     3
370
    25
100
AcDbLine
 10
414.2483672885862
 20
-70.07518785344433
 30
0.0
 11
415.2483672885862
 21
-69.07518785344433
 31
0.0
  0
LINE
  5
5CF
330
1F
100
AcDbEntity
  8
Layer0014
  6
Continuous
 62
     3
370
    25
100
AcDbLine
 10
338.8879586729681
 20
-70.07518785344433
 30
0.0
 11
420.2483672885863
 21
-70.07518785344433
 31
0.0
  0
LINE
  5
5D0
330
1F
100
AcDbEntity
  8
Layer0014
  6
Continuous
 62
     3
370
    25
100
AcDbLine
 10
351.2483672885862
 20
-70.07518785344433
 30
0.0
 11
350.2483672885862
 21
-69.07518785344433
 31
0.0
  0
LINE
  5
5D1
330
1F
100
AcDbEntity
  8
Layer0014
  6
Continuous
 62
     3
370
    25
100
AcDbLine
 10
421.2483672885859
 20
-150.0751878534443
 30
0.0
 11
421.2483672885863
 21
-71.07518785344433
 31
0.0
  0
LINE
  5
5D2
330
1F
100
AcDbEntity
  8
Layer0014
  6
Continuous
 62
     3
370
    25
100
AcDbLine
 10
464.4304366009636
 20
-70.07518785344433
 30
0.0
 11
496.7483672885853
 21
-88.73395383559435
 31
0.0
  0
LINE
  5
5D3
330
1F
100
AcDbEntity
  8
Layer0014
  6
Continuous
 62
     3
370
    25
100
AcDbLine
 10
464.4304366009636
 20
-70.07518785344433
 30
0.0
 11
425.2483672885859
 21
-70.07518785344428
 31
0.0
  0
LINE
  5
5D4
330
1F
100
AcDbEntity
  8
Layer0014
  6
Continuous
 62
     3
370
    25
100
AcDbLine
 10
496.7483672885853
 20
-88.73395383559435
 30
0.0
 11
496.7483672885853
 21
-142.0751878534443
 31
0.0
  0
LINE
  5
5D5
330
1F
100
AcDbEntity
  8
Layer0014
  6
Continuous
 62
     3
370
    25
100
AcDbLine
 10
496.7483672885853
 20
-142.0751878534443
 30
0.0
 11
421.2483672885859
 21
-142.0751878534443
 31
0.0
  0
LINE
  5
5D6
330
1F
100
AcDbEntity
  8
Layer0014
  6
Continuous
 62
     3
370
    25
100
AcDbLine
 10
421.2483672885859
 20
-74.07518785344428
 30
0.0
 11
425.2483672885859
 21
-70.07518785344428
 31
0.0
  0
LINE
  5
5D7
330
1F
100
AcDbEntity
  8
Layer0014
  6
Continuous
 62
     3
370
    25
100
AcDbLine
 10
420.2483672885859
 20
-151.0751878534443
 30
0.0
 11
421.2483672885859
 21
-150.0751878534443
 31
0.0
  0
LINE
  5
5D8
330
1F
100
AcDbEntity
  8
Layer0014
  6
Continuous
 62
     3
370
    25
100
AcDbLine
 10
484.6551005488462
 20
-48.26558741502762
 30
0.0
 11
502.8416340283193
 21
-58.76558741502762
 31
0.0
  0
LINE
  5
5D9
330
1F
100
AcDbEntity
  8
Layer0014
  6
Continuous
 62
     3
370
    25
100
AcDbLine
 10
475.4720878469548
 20
-63.17103198125389
 30
0.0
 11
476.155100548847
 21
-62.98801927936162
 31
0.0
  0
LINE
  5
5DA
330
1F
100
AcDbEntity
  8
Layer0014
  6
Continuous
 62
     3
370
    25
100
AcDbLine
 10
476.155100548847
 20
-62.98801927936162
 30
0.0
 11
485.6551005488473
 21
-46.53353660745663
 31
0.0
  0
LINE
  5
5DB
330
1F
100
AcDbEntity
  8
Layer0014
  6
Continuous
 62
     3
370
    25
100
AcDbLine
 10
494.5246467302124
 20
-74.17103198125389
 30
0.0
 11
494.3416340283202
 21
-73.48801927936162
 31
0.0
  0
LINE
  5
5DC
330
1F
100
AcDbEntity
  8
Layer0014
  6
Continuous
 62
     3
370
    25
100
AcDbLine
 10
494.3416340283202
 20
-73.48801927936162
 30
0.0
 11
503.8416340283201
 21
-57.03353660745759
 31
0.0
  0
LINE
  5
5DD
330
1F
100
AcDbEntity
  8
Layer0014
  6
Continuous
 62
     3
370
    25
100
AcDbLine
 10
494.5246467302124
 20
-74.17103198125389
 30
0.0
 11
475.4720878469548
 21
-63.17103198125389
 31
0.0
  0
LINE
  5
5DE
330
1F
100
AcDbEntity
  8
Layer0014
  6
Continuous
 62
     3
370
    25
100
AcDbLine
 10
476.155100548847
 20
-62.98801927936162
 30
0.0
 11
494.3416340283202
 21
-73.48801927936162
 31
0.0
  0
LINE
  5
5DF
330
1F
100
AcDbEntity
  8
Layer0014
  6
Continuous
 62
     3
370
    25
100
AcDbLine
 10
475.4720878469545
 20
-63.17103198125372
 30
0.0
 11
469.7220878469545
 21
-73.13032412477477
 31
0.0
  0
LINE
  5
5E0
330
1F
100
AcDbEntity
  8
Layer0014
  6
Continuous
 62
     3
370
    25
100
AcDbLine
 10
494.5246467302122
 20
-74.17103198125372
 30
0.0
 11
488.7746467302121
 21
-84.13032412477475
 31
0.0
  0
LINE
  5
5E1
330
1F
100
AcDbEntity
  8
Layer0014
  6
CENTER
 62
     2
370
    25
100
AcDbLine
 10
421.2483672885861
 20
-108.0751878534443
 30
0.0
 11
462.2483672885842
 21
-108.0751878534443
 31
0.0
  0
LINE
  5
5E2
330
1F
100
AcDbEntity
  8
Layer0014
  6
CENTER
 62
     2
370
    25
100
AcDbLine
 10
462.2483672885842
 20
-108.0751878534443
 30
0.0
 11
495.9747206639162
 21
-49.6594302533471
 31
0.0
  0
LINE
  5
5E3
330
1F
100
AcDbEntity
  8
Layer0014
  6
Continuous
 62
    56
370
    25
100
AcDbLine
 10
503.4707991529204
 20
-70.67584145287199
 30
0.0
 11
505.4707991529206
 21
-67.21173983773431
 31
0.0
  0
LINE
  5
5E4
330
1F
100
AcDbEntity
  8
Layer0014
  6
Continuous
 62
    56
370
    25
100
AcDbLine
 10
508.2028499604896
 20
-66.47968903016564
 30
0.0
 11
510.2028499604897
 21
-63.01558741502797
 31
0.0
  0
ARC
  5
5E5
330
1F
100
AcDbEntity
  8
Layer0014
  6
Continuous
 62
    56
370
    25
100
AcDbCircle
 10
508.4707991529208
 20
-62.01558741502785
 30
0.0
 40
2.0
100
AcDbArc
 50
329.9999999999976
 51
59.99999999999734
  0
ARC
  5
5E6
330
1F
100
AcDbEntity
  8
Layer0014
  6
Continuous
 62
    56
370
    25
100
AcDbCircle
 10
506.4707991529208
 20
-65.47968903016564
 30
0.0
 40
2.0
100
AcDbArc
 50
239.9999999999975
 51
329.9999999999976
  0
LINE
  5
5E7
330
1F
100
AcDbEntity
  8
Layer0014
  6
Continuous
 62
    56
370
    25
100
AcDbLine
 10
503.4707991529204
 20
-70.67584145287199
 30
0.0
 11
502.604773749136
 21
-70.17584145287194
 31
0.0
  0
LINE
  5
5E8
330
1F
100
AcDbEntity
  8
Layer0014
  6
Continuous
 62
    56
370
    25
100
AcDbLine
 10
496.6047737491357
 20
-80.56814629828469
 30
0.0
 11
502.604773749136
 21
-70.17584145287194
 31
0.0
  0
LINE
  5
5E9
330
1F
100
AcDbEntity
  8
Layer0014
  6
Continuous
 62
    56
370
    25
100
AcDbLine
 10
495.2387483453513
 20
-80.93417170206916
 30
0.0
 11
496.6047737491357
 21
-80.56814629828469
 31
0.0
  0
LINE
  5
5EA
330
1F
100
AcDbEntity
  8
Layer0014
  6
Continuous
 62
    56
370
    25
100
AcDbLine
 10
495.2387483453513
 20
-80.93417170206916
 30
0.0
 11
491.7746467302124
 21
-78.93417170206837
 31
0.0
  0
LINE
  5
5EB
330
1F
100
AcDbEntity
  8
Layer0014
  6
Continuous
 62
    56
370
    25
100
AcDbLine
 10
474.0259354242505
 20
-53.67584145287074
 30
0.0
 11
475.0259354242505
 21
-51.94379064530185
 31
0.0
  0
ARC
  5
5EC
330
1F
100
AcDbEntity
  8
Layer0014
  6
Continuous
 62
    56
370
    25
100
AcDbCircle
 10
473.2938846166816
 20
-50.94379064530185
 30
0.0
 40
2.0
100
AcDbArc
 50
329.9999999999974
 51
59.99999999999739
  0
LINE
  5
5ED
330
1F
100
AcDbEntity
  8
Layer0014
  6
Continuous
 62
    56
370
    25
100
AcDbLine
 10
474.8919608280349
 20
-54.1758414528708
 30
0.0
 11
474.0259354242505
 21
-53.67584145287074
 31
0.0
  0
LINE
  5
5EE
330
1F
100
AcDbEntity
  8
Layer0014
  6
Continuous
 62
    56
370
    25
100
AcDbLine
 10
469.2579862318185
 20
-65.93417170206854
 30
0.0
 11
468.891960828034
 21
-64.56814629828418
 31
0.0
  0
LINE
  5
5EF
330
1F
100
AcDbEntity
  8
Layer0014
  6
Continuous
 62
    56
370
    25
100
AcDbLine
 10
469.2579862318187
 20
-65.93417170206939
 30
0.0
 11
472.7220878469547
 21
-67.93417170206831
 31
0.0
  0
LINE
  5
5F0
330
1F
100
AcDbEntity
  8
Layer0014
  6
Continuous
 62
    56
370
    25
100
AcDbLine
 10
468.891960828034
 20
-64.56814629828418
 30
0.0
 11
474.8919608280349
 21
-54.1758414528708
 31
0.0
  0
LINE
  5
5F1
330
1F
100
AcDbEntity
  8
Layer0014
  6
Continuous
 62
    56
370
    25
100
AcDbLine
 10
509.470799152921
 20
-60.28353660745913
 30
0.0
 11
396.0214712571626
 21
5.216463392546508
 31
0.0
  0
LINE
  5
5F2
330
1F
100
AcDbEntity
  8
Layer0014
  6
Continuous
 62
    56
370
    25
100
AcDbLine
 10
474.2938846166816
 20
-49.21173983773295
 30
0.0
 11
376.4330139890428
 21
7.288260162271946
 31
0.0
  0
LINE
  5
5F3
330
1F
100
AcDbEntity
  8
Layer0014
  6
Continuous
 62
    56
370
    25
100
AcDbLine
 10
375.7009631814741
 20
10.02031096984079
 30
0.0
 11
383.2009631814747
 21
23.01069202660702
 31
0.0
  0
LINE
  5
5F4
330
1F
100
AcDbEntity
  8
Layer0014
  6
Continuous
 62
    56
370
    25
100
AcDbLine
 10
383.2009631814747
 20
23.01069202660702
 30
0.0
 11
398.7894204495942
 21
14.01069202660623
 31
0.0
  0
LINE
  5
5F5
330
1F
100
AcDbEntity
  8
Layer0014
  6
Continuous
 62
    56
370
    25
100
AcDbLine
 10
395.2894204495938
 20
7.948514200115461
 30
0.0
 11
398.7894204495942
 21
14.01069202660623
 31
0.0
  0
ARC
  5
5F6
330
1F
100
AcDbEntity
  8
Layer0014
  6
Continuous
 62
    56
370
    25
100
AcDbCircle
 10
397.0214712571626
 20
6.948514200115348
 30
0.0
 40
2.0
100
AcDbArc
 50
149.9999999999974
 51
239.9999999999974
  0
ARC
  5
5F7
330
1F
100
AcDbEntity
  8
Layer0014
  6
Continuous
 62
    56
370
    25
100
AcDbCircle
 10
377.4330139890429
 20
9.020310969840615
 30
0.0
 40
2.0
100
AcDbArc
 50
149.9999999999974
 51
239.9999999999974
  0
LINE
  5
5F8
330
1F
100
AcDbEntity
  8
Layer0014
  6
Continuous
 62
    56
370
    25
100
AcDbLine
 10
378.9641029022864
 20
4.672234758488266
 30
0.0
 11
385.0262807287774
 21
1.172234758488266
 31
0.0
  0
LINE
  5
5F9
330
1F
100
AcDbEntity
  8
Layer0014
  6
Continuous
 62
    56
370
    25
100
AcDbLine
 10
401.4233950458074
 20
20.57286985309921
 30
0.0
 11
387.5669885852564
 21
28.5728698530991
 31
0.0
  0
LINE
  5
5FA
330
1F
100
AcDbEntity
  8
Layer0014
  6
Continuous
 62
    56
370
    25
100
AcDbLine
 10
401.4233950458074
 20
20.57286985309921
 30
0.0
 11
440.3579889282616
 21
80.01273357441315
 31
0.0
  0
LINE
  5
5FB
330
1F
100
AcDbEntity
  8
Layer0014
  6
Continuous
 62
    56
370
    25
100
AcDbLine
 10
387.5669885852564
 20
28.5728698530991
 30
0.0
 11
419.5761236241722
 21
92.01114910199172
 31
0.0
  0
LINE
  5
5FC
330
1F
100
AcDbEntity
  8
Layer0014
  6
Continuous
 62
    56
370
    25
100
AcDbLine
 10
420.9689146357387
 20
92.42669761970356
 30
0.0
 11
440.0214735095523
 21
81.42669762515598
 31
0.0
  0
ARC
  5
5FD
330
1F
100
AcDbEntity
  8
Layer0014
  6
Continuous
 62
    56
370
    25
100
AcDbCircle
 10
420.4689123739032
 20
91.56067352179448
 30
0.0
 40
1.0
100
AcDbArc
 50
59.99985035805202
 51
153.2257992241577
  0
ARC
  5
5FE
330
1F
100
AcDbEntity
  8
Layer0014
  6
Continuous
 62
    56
370
    25
100
AcDbCircle
 10
439.5214712571608
 20
80.56067352179437
 30
0.0
 40
1.0
100
AcDbArc
 50
326.7742007758422
 51
60.00014964194711
  0
LINE
  5
5FF
330
1F
100
AcDbEntity
  8
Layer0014
  6
Continuous
 62
    56
370
    25
100
AcDbLine
 10
419.5761236271609
 20
92.01114910026618
 30
0.0
 11
440.3579889252729
 21
80.01273357613869
 31
0.0
  0
LINE
  5
600
330
1F
100
AcDbEntity
  8
Layer0014
  6
Continuous
 62
    56
370
    25
100
AcDbLine
 10
398.4233950458074
 20
15.37671743039258
 30
0.0
 11
401.4233950458074
 21
20.57286985309921
 31
0.0
  0
LINE
  5
601
330
1F
100
AcDbEntity
  8
Layer0014
  6
Continuous
 62
    56
370
    25
100
AcDbLine
 10
384.5669885852564
 20
23.37671743039247
 30
0.0
 11
387.5669885852564
 21
28.5728698530991
 31
0.0
  0
LINE
  5
602
330
1F
100
AcDbEntity
  8
Layer0014
  6
Continuous
 62
    56
370
    25
100
AcDbLine
 10
397.0573696420229
 20
15.01069202660816
 30
0.0
 11
398.4233950458074
 21
15.37671743039258
 31
0.0
  0
LINE
  5
603
330
1F
100
AcDbEntity
  8
Layer0014
  6
Continuous
 62
    56
370
    25
100
AcDbLine
 10
384.9330139890408
 20
22.01069202660816
 30
0.0
 11
384.5669885852564
 21
23.37671743039247
 31
0.0
  0
LINE
  5
604
330
1F
100
AcDbEntity
  8
Layer0014
  6
Continuous
 62
    56
370
    25
100
AcDbLine
 10
397.0573696420229
 20
15.01069202660816
 30
0.0
 11
384.9330139890408
 21
22.01069202660816
 31
0.0
  0
LINE
  5
605
330
1F
100
AcDbEntity
  8
Layer0014
  6
Continuous
 62
    56
370
    25
100
AcDbLine
 10
378.5980774985079
 20
6.038260162269388
 30
0.0
 11
378.9641029022864
 21
4.672234758488266
 31
0.0
  0
LINE
  5
606
330
1F
100
AcDbEntity
  8
Layer0014
  6
Continuous
 62
    56
370
    25
100
AcDbLine
 10
386.3923061325516
 20
1.538260162278313
 30
0.0
 11
385.0262807287774
 21
1.172234758488266
 31
0.0
  0
LINE
  5
607
330
1F
100
AcDbEntity
  8
Layer0014
  6
Continuous
 62
    56
370
    25
100
AcDbLine
 10
386.1757997816156
 20
1.663260162272344
 30
0.0
 11
386.0507997816182
 21
1.446753811330758
 31
0.0
  0
LINE
  5
608
330
1F
100
AcDbEntity
  8
Layer0014
  6
Continuous
 62
    56
370
    25
100
AcDbLine
 10
378.8145838494479
 20
5.913260162272458
 30
0.0
 11
378.6895838494505
 21
5.696753811330701
 31
0.0
  0
LINE
  5
609
330
1F
100
AcDbEntity
  8
Layer0014
  6
Continuous
 62
    56
370
    25
100
AcDbLine
 10
607.7957713956995
 20
-123.9796890301569
 30
0.0
 11
615.295771395699
 21
-110.98930797339
 31
0.0
  0
LINE
  5
60A
330
1F
100
AcDbEntity
  8
Layer0014
  6
Continuous
 62
    56
370
    25
100
AcDbLine
 10
615.295771395699
 20
-110.98930797339
 30
0.0
 11
599.7073141275786
 21
-101.9893079733907
 31
0.0
  0
LINE
  5
60B
330
1F
100
AcDbEntity
  8
Layer0014
  6
Continuous
 62
    56
370
    25
100
AcDbLine
 10
596.207314127579
 20
-108.051485799882
 30
0.0
 11
599.7073141275786
 21
-101.9893079733907
 31
0.0
  0
ARC
  5
60C
330
1F
100
AcDbEntity
  8
Layer0014
  6
Continuous
 62
    56
370
    25
100
AcDbCircle
 10
594.4752633200102
 20
-107.0514857998821
 30
0.0
 40
2.0
100
AcDbArc
 50
240.0000000000026
 51
330.0000000000026
  0
ARC
  5
60D
330
1F
100
AcDbEntity
  8
Layer0014
  6
Continuous
 62
    56
370
    25
100
AcDbCircle
 10
606.0637205881306
 20
-122.979689030157
 30
0.0
 40
2.0
100
AcDbArc
 50
240.0000000000026
 51
330.0000000000026
  0
LINE
  5
60E
330
1F
100
AcDbEntity
  8
Layer0014
  6
Continuous
 62
    56
370
    25
100
AcDbLine
 10
601.5326316748868
 20
-123.8277652415116
 30
0.0
 11
595.4704538483958
 21
-120.3277652415117
 31
0.0
  0
LINE
  5
60F
330
1F
100
AcDbEntity
  8
Layer0014
  6
Continuous
 62
    56
370
    25
100
AcDbLine
 10
604.0733395313658
 20
-96.42713014690074
 30
0.0
 11
617.9297459919168
 21
-104.4271301469007
 31
0.0
  0
LINE
  5
610
330
1F
100
AcDbEntity
  8
Layer0014
  6
Continuous
 62
    56
370
    25
100
AcDbLine
 10
604.0733395313658
 20
-96.42713014690074
 30
0.0
 11
636.0824745702818
 21
-32.98885089800817
 31
0.0
  0
LINE
  5
611
330
1F
100
AcDbEntity
  8
Layer0014
  6
Continuous
 62
    56
370
    25
100
AcDbLine
 10
617.9297459919168
 20
-104.4271301469007
 30
0.0
 11
656.864339874371
 21
-44.98726642558674
 31
0.0
  0
LINE
  5
612
330
1F
100
AcDbEntity
  8
Layer0014
  6
Continuous
 62
    56
370
    25
100
AcDbLine
 10
656.5278199414312
 20
-43.57329976855161
 30
0.0
 11
637.4752610676177
 21
-32.57329977400414
 31
0.0
  0
ARC
  5
613
330
1F
100
AcDbEntity
  8
Layer0014
  6
Continuous
 62
    56
370
    25
100
AcDbCircle
 10
656.0278222032704
 20
-44.4393264782054
 30
0.0
 40
1.0
100
AcDbArc
 50
326.7742007758423
 51
60.00014964194798
  0
ARC
  5
614
330
1F
100
AcDbEntity
  8
Layer0014
  6
Continuous
 62
    56
370
    25
100
AcDbCircle
 10
636.9752633200125
 20
-33.43932647820546
 30
0.0
 40
1.0
100
AcDbArc
 50
59.9998503580529
 51
153.2257992241578
  0
LINE
  5
615
330
1F
100
AcDbEntity
  8
Layer0014
  6
Continuous
 62
    56
370
    25
100
AcDbLine
 10
656.8643398713824
 20
-44.9872664238612
 30
0.0
 11
636.0824745732704
 21
-32.98885089973371
 31
0.0
  0
LINE
  5
616
330
1F
100
AcDbEntity
  8
Layer0014
  6
Continuous
 62
    56
370
    25
100
AcDbLine
 10
601.0733395313658
 20
-101.6232825696074
 30
0.0
 11
604.0733395313658
 21
-96.42713014690074
 31
0.0
  0
LINE
  5
617
330
1F
100
AcDbEntity
  8
Layer0014
  6
Continuous
 62
    56
370
    25
100
AcDbLine
 10
614.9297459919168
 20
-109.6232825696074
 30
0.0
 11
617.9297459919168
 21
-104.4271301469007
 31
0.0
  0
LINE
  5
618
330
1F
100
AcDbEntity
  8
Layer0014
  6
Continuous
 62
    56
370
    25
100
AcDbLine
 10
601.4393649351504
 20
-102.9893079733918
 30
0.0
 11
601.0733395313658
 21
-101.6232825696074
 31
0.0
  0
LINE
  5
619
330
1F
100
AcDbEntity
  8
Layer0014
  6
Continuous
 62
    56
370
    25
100
AcDbLine
 10
613.5637205881325
 20
-109.9893079733917
 30
0.0
 11
614.9297459919168
 21
-109.6232825696074
 31
0.0
  0
LINE
  5
61A
330
1F
100
AcDbEntity
  8
Layer0014
  6
Continuous
 62
    56
370
    25
100
AcDbLine
 10
601.4393649351504
 20
-102.9893079733918
 30
0.0
 11
613.5637205881325
 21
-109.9893079733917
 31
0.0
  0
LINE
  5
61B
330
1F
100
AcDbEntity
  8
Layer0014
  6
Continuous
 62
    56
370
    25
100
AcDbLine
 10
602.8986570786655
 20
-123.4617398377237
 30
0.0
 11
601.5326316748868
 21
-123.8277652415116
 31
0.0
  0
LINE
  5
61C
330
1F
100
AcDbEntity
  8
Layer0014
  6
Continuous
 62
    56
370
    25
100
AcDbLine
 10
595.1044284446215
 20
-118.9617398377333
 30
0.0
 11
595.4704538483958
 21
-120.3277652415117
 31
0.0
  0
LINE
  5
61D
330
1F
100
AcDbEntity
  8
Layer0014
  6
Continuous
 62
    56
370
    25
100
AcDbLine
 10
595.3209347955573
 20
-119.0867398377275
 30
0.0
 11
595.19593479556
 21
-119.3032461886691
 31
0.0
  0
LINE
  5
61E
330
1F
100
AcDbEntity
  8
Layer0014
  6
Continuous
 62
    56
370
    25
100
AcDbLine
 10
602.6821507277251
 20
-123.3367398377274
 30
0.0
 11
602.5571507277276
 21
-123.5532461886691
 31
0.0
  0
LINE
  5
61F
330
1F
100
AcDbEntity
  8
Layer0014
  6
Continuous
 62
    56
370
    25
100
AcDbLine
 10
566.5684970261242
 20
-93.24890784465529
 30
0.0
 11
593.4752633200102
 21
-108.7835366074509
 31
0.0
  0
LINE
  5
620
330
1F
100
AcDbEntity
  8
Layer0014
  6
Continuous
 62
    56
370
    25
100
AcDbLine
 10
561.9451433846135
 20
-99.81721768220442
 30
0.0
 11
605.0637205881309
 21
-124.711739837726
 31
0.0
  0
LINE
  5
621
330
1F
100
AcDbEntity
  8
Layer0014
  6
CENTER
 62
    56
370
    25
100
AcDbLine
 10
381.9951918155345
 20
2.922234758486674
 30
0.0
 11
430.4951918155328
 21
86.92669892557447
 31
0.0
  0
LINE
  5
622
330
1F
100
AcDbEntity
  8
Layer0014
  6
CENTER
 62
    56
370
    25
100
AcDbLine
 10
598.5015427616387
 20
-122.0777652415102
 30
0.0
 11
647.0015427616371
 21
-38.07330107442252
 31
0.0
  0
LINE
  5
623
330
1F
100
AcDbEntity
  8
Layer0015
  6
Continuous
 62
     2
370
    18
100
AcDbLine
 10
370.7223000182108
 20
-241.0751878534443
 30
0.0
 11
654.697284774434
 21
-241.0751878534443
 31
0.0
  0
DIMENSION
  5
624
330
1F
100
AcDbEntity
  8
Layer0015
  6
Continuous
370
    13
100
AcDbDimension
  2
*D1
 10
-552.3826977710986
 20
-34.67869236787021
 30
0.0
 11
-562.3826977710986
 21
-34.67869236787021
 31
0.0
 70
    32
 71
     8
 42
-1.0
  3
DaDimRotatedStyle
100
AcDbAlignedDimension
 13
-572.3826977710986
 23
-70.57518785344422
 33
0.0
 14
-552.3826977710986
 24
-69.77518785344427
 34
0.0
100
AcDbRotatedDimension
1001
ACAD
1000
DSTYLE
1002
{
1070
   274
1070
     4
1070
    41
1040
8.999990614707606
1070
   289
1070
     0
1070
    79
1070
     2
1070
   343
1005
D7
1070
   344
1005
D7
1070
   176
1070
     2
1070
   177
1070
     2
1070
   178
1070
     2
1070
   271
1070
     3
1070
    44
1040
2.0
1070
    42
1040
3.0
1070
   147
1040
2.5
1070
   173
1070
     1
1070
    77
1070
     3
1070
    73
1070
     0
1070
   172
1070
     1
1070
    74
1070
     0
1070
   283
1070
     0
1070
   340
1005
E1
1070
   140
1040
12.0
1070
   284
1070
     8
1070
   288
1070
     1
1070
    78
1070
     8
1002
}
  0
DIMENSION
  5
626
330
1F
100
AcDbEntity
  8
Layer0015
  6
Continuous
370
    13
100
AcDbDimension
  2
*D2
 10
-552.3826977710986
 20
9.812693865065512
 30
0.0
 11
-614.8826977710986
 21
9.812693865065512
 31
0.0
 70
    32
 71
     8
 42
-1.0
  3
DaDimRotatedStyle
100
AcDbAlignedDimension
 13
-677.3826977710987
 23
-71.57518785344422
 33
0.0
 14
-552.3826977710986
 24
-69.77518785344427
 34
0.0
100
AcDbRotatedDimension
1001
ACAD
1000
DSTYLE
1002
{
1070
   274
1070
     4
1070
    41
1040
8.999990614707606
1070
   289
1070
     0
1070
    79
1070
     2
1070
   343
1005
D7
1070
   344
1005
D7
1070
   176
1070
     2
1070
   177
1070
     2
1070
   178
1070
     2
1070
   271
1070
     3
1070
    44
1040
2.0
1070
    42
1040
3.0
1070
   147
1040
2.5
1070
   173
1070
     1
1070
    77
1070
     3
1070
    73
1070
     0
1070
   172
1070
     1
1070
    74
1070
     0
1070
   283
1070
     0
1070
   340
1005
E1
1070
   140
1040
12.0
1070
   284
1070
     8
1070
   288
1070
     1
1070
    78
1070
     8
1002
}
  0
DIMENSION
  5
627
330
1F
100
AcDbEntity
  8
Layer0015
  6
Continuous
370
    13
100
AcDbDimension
  2
*D3
 10
-34.08269777109874
 20
9.812693865065512
 30
0.0
 11
-293.2326977710986
 21
9.812693865065512
 31
0.0
 70
    32
  1
0～515
 71
     8
 42
-1.0
  3
DaDimRotatedStyle
100
AcDbAlignedDimension
 13
-552.3826977710986
 23
-69.77518785344427
 33
0.0
 14
-34.08269777109874
 24
-69.77518785344427
 34
0.0
100
AcDbRotatedDimension
1001
ACAD
1000
DSTYLE
1002
{
1070
   274
1070
     4
1070
    41
1040
8.999990614707606
1070
   289
1070
     0
1070
    79
1070
     2
1070
   343
1005
D7
1070
   344
1005
D7
1070
   176
1070
     2
1070
   177
1070
     2
1070
   178
1070
     2
1070
   271
1070
     3
1070
    44
1040
2.0
1070
    42
1040
3.0
1070
   147
1040
2.5
1070
   173
1070
     1
1070
    77
1070
     3
1070
    73
1070
     0
1070
   172
1070
     1
1070
    74
1070
     0
1070
   283
1070
     0
1070
   340
1005
E1
1070
   140
1040
12.0
1070
   284
1070
     8
1070
   288
1070
     1
1070
    78
1070
     8
1002
}
  0
DIMENSION
  5
628
330
1F
100
AcDbEntity
  8
Layer0015
  6
Continuous
370
    13
100
AcDbDimension
  2
*D4
 10
219.617302228903
 20
9.812693865065512
 30
0.0
 11
92.76730222890211
 21
9.812693865065512
 31
0.0
 70
    32
  1
254
 71
     8
 42
-1.0
  3
DaDimRotatedStyle
100
AcDbAlignedDimension
 13
-34.08269777109874
 23
-69.77518785344427
 33
0.0
 14
219.617302228903
 24
-99.07518785344445
 34
0.0
100
AcDbRotatedDimension
1001
ACAD
1000
DSTYLE
1002
{
1070
   274
1070
     4
1070
    41
1040
8.999990614707606
1070
   289
1070
     0
1070
    79
1070
     2
1070
   343
1005
D7
1070
   344
1005
D7
1070
   176
1070
     2
1070
   177
1070
     2
1070
   178
1070
     2
1070
   271
1070
     3
1070
    44
1040
2.0
1070
    42
1040
3.0
1070
   147
1040
2.5
1070
   173
1070
     1
1070
    77
1070
     3
1070
    73
1070
     0
1070
   172
1070
     1
1070
    74
1070
     0
1070
   283
1070
     0
1070
   340
1005
E1
1070
   140
1040
12.0
1070
   284
1070
     8
1070
   288
1070
     1
1070
    78
1070
     8
1002
}
  0
DIMENSION
  5
629
330
1F
100
AcDbEntity
  8
Layer0015
  6
Continuous
370
    13
100
AcDbDimension
  2
*D5
 10
219.6173022288988
 20
118.5514341438748
 30
0.0
 11
-228.8826977711
 21
118.5514341438748
 31
0.0
 70
    32
  1
894
 71
     8
 42
-1.0
  3
DaDimRotatedStyle
100
AcDbAlignedDimension
 13
-677.3826977710987
 23
233.4122150635701
 33
0.0
 14
219.6173022288988
 24
322.9122150635715
 34
0.0
100
AcDbRotatedDimension
1001
ACAD
1000
DSTYLE
1002
{
1070
   274
1070
     4
1070
    41
1040
8.999990614707606
1070
   289
1070
     0
1070
    79
1070
     2
1070
   343
1005
D7
1070
   344
1005
D7
1070
   176
1070
     2
1070
   177
1070
     2
1070
   178
1070
     2
1070
   271
1070
     3
1070
    44
1040
2.0
1070
    42
1040
3.0
1070
   147
1040
2.5
1070
   173
1070
     1
1070
    77
1070
     3
1070
    73
1070
     0
1070
   172
1070
     1
1070
    74
1070
     0
1070
   283
1070
     0
1070
   340
1005
E1
1070
   140
1040
12.0
1070
   284
1070
     8
1070
   288
1070
     1
1070
    78
1070
     8
1002
}
  0
DIMENSION
  5
62A
330
1F
100
AcDbEntity
  8
Layer0015
  6
Continuous
370
    13
100
AcDbDimension
  2
*D6
 10
92.61730222890122
 20
-332.2798192368007
 30
0.0
 11
-292.3826977710987
 21
-332.2798192368007
 31
0.0
 70
    32
 71
     8
 42
-1.0
  3
DaDimRotatedStyle
100
AcDbAlignedDimension
 13
-677.3826977710987
 23
-239.5751878534442
 33
0.0
 14
92.61730222890122
 24
-239.5751878534442
 34
0.0
100
AcDbRotatedDimension
1001
ACAD
1000
DSTYLE
1002
{
1070
   274
1070
     4
1070
    41
1040
8.999990614707606
1070
   289
1070
     0
1070
    79
1070
     2
1070
   343
1005
D7
1070
   344
1005
D7
1070
   176
1070
     2
1070
   177
1070
     2
1070
   178
1070
     2
1070
   271
1070
     3
1070
    44
1040
2.0
1070
    42
1040
3.0
1070
   147
1040
2.5
1070
   173
1070
     1
1070
    77
1070
     3
1070
    73
1070
     0
1070
   172
1070
     1
1070
    74
1070
     0
1070
   283
1070
     0
1070
   340
1005
E1
1070
   140
1040
12.0
1070
   284
1070
     8
1070
   288
1070
     1
1070
    78
1070
     8
1002
}
  0
DIMENSION
  5
62B
330
1F
100
AcDbEntity
  8
Layer0015
  6
Continuous
370
    13
100
AcDbDimension
  2
*D7
 10
219.617302228903
 20
-332.2798192368007
 30
0.0
 11
156.1173022289021
 21
-332.2798192368007
 31
0.0
 70
    32
  1
124
 71
     8
 42
-1.0
  3
DaDimRotatedStyle
100
AcDbAlignedDimension
 13
92.61730222890122
 23
-239.5751878534442
 33
0.0
 14
219.617302228903
 24
-117.0751878534444
 34
0.0
100
AcDbRotatedDimension
1001
ACAD
1000
DSTYLE
1002
{
1070
   274
1070
     4
1070
    41
1040
8.999990614707606
1070
   289
1070
     0
1070
    79
1070
     2
1070
   343
1005
D7
1070
   344
1005
D7
1070
   176
1070
     2
1070
   177
1070
     2
1070
   178
1070
     2
1070
   271
1070
     3
1070
    44
1040
2.0
1070
    42
1040
3.0
1070
   147
1040
2.5
1070
   173
1070
     1
1070
    77
1070
     3
1070
    73
1070
     0
1070
   172
1070
     1
1070
    74
1070
     0
1070
   283
1070
     0
1070
   340
1005
E1
1070
   140
1040
12.0
1070
   284
1070
     8
1070
   288
1070
     1
1070
    78
1070
     8
1002
}
  0
DIMENSION
  5
62C
330
1F
100
AcDbEntity
  8
Layer0015
  6
Continuous
370
    13
100
AcDbDimension
  2
*D8
 10
308.6173022289016
 20
-332.2798192368007
 30
0.0
 11
264.1173022289023
 21
-332.2798192368007
 31
0.0
 70
    32
 71
     8
 42
-1.0
  3
DaDimRotatedStyle
100
AcDbAlignedDimension
 13
219.617302228903
 23
-117.0751878534444
 33
0.0
 14
308.6173022289016
 24
-243.5751852416996
 34
0.0
100
AcDbRotatedDimension
1001
ACAD
1000
DSTYLE
1002
{
1070
   274
1070
     4
1070
    41
1040
8.999990614707606
1070
   289
1070
     0
1070
    79
1070
     2
1070
   343
1005
D7
1070
   344
1005
D7
1070
   176
1070
     2
1070
   177
1070
     2
1070
   178
1070
     2
1070
   271
1070
     3
1070
    44
1040
2.0
1070
    42
1040
3.0
1070
   147
1040
2.5
1070
   173
1070
     1
1070
    77
1070
     3
1070
    73
1070
     0
1070
   172
1070
     1
1070
    74
1070
     0
1070
   283
1070
     0
1070
   340
1005
E1
1070
   140
1040
12.0
1070
   284
1070
     8
1070
   288
1070
     1
1070
    78
1070
     8
1002
}
  0
INSERT
  5
62D
330
1F
100
AcDbEntity
  8
Layer0015
  6
Continuous
100
AcDbBlockReference
  2
DA_IMAGEDIMGROUP_1
 10
0.0
 20
0.0
 30
0.0
  0
INSERT
  5
62E
330
1F
100
AcDbEntity
  8
Layer0015
  6
Continuous
100
AcDbBlockReference
  2
DA_IMAGEDIMGROUP_2
 10
0.0
 20
0.0
 30
0.0
  0
DIMENSION
  5
62F
330
1F
100
AcDbEntity
  8
Layer0015
  6
Continuous
370
    13
100
AcDbDimension
  2
*D11
 10
-385.5246881187354
 20
-448.9625389562096
 30
0.0
 11
-505.5246881187354
 21
-448.9625389562096
 31
0.0
 70
    32
 71
     8
 42
-1.0
  3
DaDimRotatedStyle
100
AcDbAlignedDimension
 13
-625.5246881187353
 23
-415.4606548412452
 33
0.0
 14
-385.5246881187354
 24
-410.9606548412453
 34
0.0
100
AcDbRotatedDimension
1001
ACAD
1000
DSTYLE
1002
{
1070
   274
1070
     4
1070
    41
1040
8.999990614707606
1070
   289
1070
     0
1070
    79
1070
     2
1070
   343
1005
D7
1070
   344
1005
D7
1070
   176
1070
     2
1070
   177
1070
     2
1070
   178
1070
     2
1070
   271
1070
     3
1070
    44
1040
1.600000000000023
1070
    42
1040
3.0
1070
   147
1040
2.0
1070
   173
1070
     1
1070
    77
1070
     3
1070
    73
1070
     0
1070
   172
1070
     1
1070
    74
1070
     0
1070
   283
1070
     0
1070
   340
1005
E1
1070
   140
1040
15.0
1070
   284
1070
     8
1070
   288
1070
     1
1070
    78
1070
     8
1002
}
  0
DIMENSION
  5
630
330
1F
100
AcDbEntity
  8
Layer0015
  6
Continuous
370
    13
100
AcDbDimension
  2
*D12
 10
-163.5246881187352
 20
-459.3149926004407
 30
0.0
 11
-213.5246881187353
 21
-459.3149926004407
 31
0.0
 70
    32
 71
     8
 42
-1.0
  3
DaDimRotatedStyle
100
AcDbAlignedDimension
 13
-263.5246881187353
 23
-422.9606548412452
 33
0.0
 14
-163.5246881187352
 24
-409.7062415204714
 34
0.0
100
AcDbRotatedDimension
1001
ACAD
1000
DSTYLE
1002
{
1070
   274
1070
     4
1070
    41
1040
8.999990614707606
1070
   289
1070
     0
1070
    79
1070
     2
1070
   343
1005
D7
1070
   344
1005
D7
1070
   176
1070
     2
1070
   177
1070
     2
1070
   178
1070
     2
1070
   271
1070
     2
1070
    44
1040
1.600000000000023
1070
    42
1040
3.0
1070
   147
1040
2.0
1070
   173
1070
     1
1070
    77
1070
     3
1070
    73
1070
     0
1070
   172
1070
     1
1070
    74
1070
     0
1070
   283
1070
     0
1070
   340
1005
E1
1070
   140
1040
15.0
1070
   284
1070
     8
1070
   288
1070
     1
1070
    78
1070
     8
1002
}
  0
INSERT
  5
631
330
1F
100
AcDbEntity
  8
Layer0015
  6
Continuous
100
AcDbBlockReference
  2
DA_IMAGEDIMGROUP_3
 10
0.0
 20
0.0
 30
0.0
  0
DIMENSION
  5
632
330
1F
100
AcDbEntity
  8
Layer0015
  6
Continuous
370
    13
100
AcDbDimension
  2
*D14
 10
-49.08269777109854
 20
-11.77187312460961
 30
0.0
 11
-300.7326977710985
 21
-11.77187312460961
 31
0.0
 70
    32
  1
0～500
 71
     8
 42
-1.0
  3
DaDimRotatedStyle
100
AcDbAlignedDimension
 13
-552.3826977710986
 23
-69.77518785344427
 33
0.0
 14
-49.08269777109854
 24
-70.07518785344419
 34
0.0
100
AcDbRotatedDimension
1001
ACAD
1000
DSTYLE
1002
{
1070
   274
1070
     4
1070
    41
1040
8.999990614707606
1070
   289
1070
     0
1070
    79
1070
     2
1070
   343
1005
D7
1070
   344
1005
D7
1070
   176
1070
     2
1070
   177
1070
     2
1070
   178
1070
     2
1070
   271
1070
     2
1070
    44
1040
2.0
1070
    42
1040
3.0
1070
   147
1040
2.5
1070
   173
1070
     1
1070
    77
1070
     3
1070
    73
1070
     0
1070
   172
1070
     1
1070
    74
1070
     0
1070
   283
1070
     0
1070
   340
1005
E1
1070
   140
1040
12.0
1070
   284
1070
     8
1070
   288
1070
     1
1070
    78
1070
     8
1002
}
  0
INSERT
  5
633
330
1F
100
AcDbEntity
  8
Layer0015
  6
Continuous
100
AcDbBlockReference
  2
DC_GROUP_ACE200L_1
 10
0.0
 20
0.0
 30
0.0
  0
DIMENSION
  5
634
330
1F
100
AcDbEntity
  8
Layer0015
  6
Continuous
370
    13
100
AcDbDimension
  2
*D16
 10
683.6572238660079
 20
-32.43932647820546
 30
0.0
 11
683.6572238660079
 21
-136.7572571658249
 31
0.0
 70
    32
  1
209
 71
     8
 42
-1.0
  3
DaDimRotatedStyle
100
AcDbAlignedDimension
 13
654.197284774434
 23
-241.0751878534443
 33
0.0
 14
636.4752633200125
 24
-32.43932647820546
 34
0.0
 50
90.0
100
AcDbRotatedDimension
1001
ACAD
1000
DSTYLE
1002
{
1070
   274
1070
     4
1070
    41
1040
8.999990614707606
1070
   289
1070
     0
1070
    79
1070
     2
1070
   343
1005
D7
1070
   344
1005
D7
1070
   176
1070
     2
1070
   177
1070
     2
1070
   178
1070
     2
1070
   271
1070
     2
1070
    44
1040
2.0
1070
    42
1040
3.0
1070
   147
1040
2.5
1070
   173
1070
     1
1070
    77
1070
     3
1070
    73
1070
     0
1070
   172
1070
     1
1070
    74
1070
     0
1070
   283
1070
     0
1070
   340
1005
E1
1070
   140
1040
15.0
1070
   284
1070
     8
1070
   288
1070
     1
1070
    78
1070
     8
1002
}
  0
DIMENSION
  5
635
330
1F
100
AcDbEntity
  8
Layer0015
  6
Continuous
370
    13
100
AcDbDimension
  2
*D17
 10
558.1090513877042
 20
92.56067352179448
 30
0.0
 11
558.1090513877042
 21
-74.25725716582491
 31
0.0
 70
    32
  1
334
 71
     8
 42
-1.0
  3
DaDimRotatedStyle
100
AcDbAlignedDimension
 13
558.1090513877042
 23
-241.0751878534443
 33
0.0
 14
419.9689123739032
 24
92.56067352179448
 34
0.0
 50
90.0
100
AcDbRotatedDimension
1001
ACAD
1000
DSTYLE
1002
{
1070
   274
1070
     4
1070
    41
1040
8.999990614707606
1070
   289
1070
     0
1070
    79
1070
     2
1070
   343
1005
D7
1070
   344
1005
D7
1070
   176
1070
     2
1070
   177
1070
     2
1070
   178
1070
     2
1070
   271
1070
     2
1070
    44
1040
2.0
1070
    42
1040
3.0
1070
   147
1040
2.5
1070
   173
1070
     1
1070
    75
1070
     1
1070
    77
1070
     3
1070
    73
1070
     0
1070
   172
1070
     1
1070
    74
1070
     0
1070
   283
1070
     0
1070
   340
1005
E1
1070
   140
1040
15.0
1070
   284
1070
     8
1070
   288
1070
     1
1070
    78
1070
     8
1002
}
  0
DIMENSION
  5
636
330
1F
100
AcDbEntity
  8
Layer0015
  6
Continuous
370
    13
100
AcDbDimension
  2
*D18
 10
536.7204255213695
 20
-48.26558741502762
 30
0.0
 11
536.7204255213695
 21
-144.670387634236
 31
0.0
 70
    32
  1
193
 71
     8
 42
-1.0
  3
DaDimRotatedStyle
100
AcDbAlignedDimension
 13
536.7204255213695
 23
-241.0751878534443
 33
0.0
 14
484.1551005488462
 24
-48.26558741502762
 34
0.0
 50
90.0
100
AcDbRotatedDimension
1001
ACAD
1000
DSTYLE
1002
{
1070
   274
1070
     4
1070
    41
1040
8.999990614707606
1070
   289
1070
     0
1070
    79
1070
     2
1070
   343
1005
D7
1070
   344
1005
D7
1070
   176
1070
     2
1070
   177
1070
     2
1070
   178
1070
     2
1070
   271
1070
     2
1070
    44
1040
2.0
1070
    42
1040
3.0
1070
   147
1040
2.5
1070
   173
1070
     1
1070
    75
1070
     1
1070
    77
1070
     3
1070
    73
1070
     0
1070
   172
1070
     1
1070
    74
1070
     0
1070
   283
1070
     0
1070
   340
1005
E1
1070
   140
1040
15.0
1070
   284
1070
     8
1070
   288
1070
     1
1070
    78
1070
     8
1002
}
  0
INSERT
  5
637
330
1F
100
AcDbEntity
  8
Layer0015
  6
Continuous
100
AcDbBlockReference
  2
DC_GROUP_ACE200L_2
 10
0.0
 20
0.0
 30
0.0
  0
INSERT
  5
638
330
1F
100
AcDbEntity
  8
Layer0004
  6
Continuous
100
AcDbBlockReference
  2
DC_GROUP_ACE200L_3
 10
0.0
 20
0.0
 30
0.0
  0
INSERT
  5
639
330
1F
100
AcDbEntity
  8
Layer0004
  6
Continuous
100
AcDbBlockReference
  2
DC_GROUP_ACE200L_4
 10
0.0
 20
0.0
 30
0.0
  0
INSERT
  5
63A
330
1F
100
AcDbEntity
  8
Layer0004
  6
Continuous
100
AcDbBlockReference
  2
DC_GROUP_ACE200L_5
 10
0.0
 20
0.0
 30
0.0
  0
INSERT
  5
63B
330
1F
100
AcDbEntity
  8
Layer0004
  6
Continuous
100
AcDbBlockReference
  2
DC_GROUP_ACE200L_6
 10
0.0
 20
0.0
 30
0.0
  0
INSERT
  5
63C
330
1F
100
AcDbEntity
  8
Layer0004
  6
Continuous
100
AcDbBlockReference
  2
DC_GROUP_ACE200L_7
 10
0.0
 20
0.0
 30
0.0
  0
INSERT
  5
63D
330
1F
100
AcDbEntity
  8
Layer0004
  6
Continuous
100
AcDbBlockReference
  2
DC_GROUP_ACE200L_8
 10
0.0
 20
0.0
 30
0.0
  0
INSERT
  5
63E
330
1F
100
AcDbEntity
  8
Layer0004
  6
Continuous
100
AcDbBlockReference
  2
DC_GROUP_ACE200L_9
 10
0.0
 20
0.0
 30
0.0
  0
INSERT
  5
63F
330
1F
100
AcDbEntity
  8
Layer0004
  6
Continuous
100
AcDbBlockReference
  2
DC_GROUP_ACE200L_13
 10
0.0
 20
0.0
 30
0.0
  0
INSERT
  5
640
330
1F
100
AcDbEntity
  8
Layer0004
  6
Continuous
100
AcDbBlockReference
  2
DC_GROUP_ACE200L_14
 10
0.0
 20
0.0
 30
0.0
  0
INSERT
  5
641
330
1F
100
AcDbEntity
  8
Layer0004
  6
Continuous
100
AcDbBlockReference
  2
DC_GROUP_ACE200L_15
 10
0.0
 20
0.0
 30
0.0
  0
INSERT
  5
642
330
1F
100
AcDbEntity
  8
Layer0014
  6
Continuous
100
AcDbBlockReference
  2
DC_GROUP_ACE200L_10
 10
0.0
 20
0.0
 30
0.0
  0
INSERT
  5
643
330
1F
100
AcDbEntity
  8
Layer0014
  6
Continuous
100
AcDbBlockReference
  2
DC_GROUP_ACE200L_11
 10
0.0
 20
0.0
 30
0.0
  0
INSERT
  5
644
330
1F
100
AcDbEntity
  8
Layer0014
  6
Continuous
100
AcDbBlockReference
  2
DC_GROUP_ACE200L_12
 10
0.0
 20
0.0
 30
0.0
  0
VIEWPORT
  5
75
330
1B
100
AcDbEntity
 67
     1
  8
0
100
AcDbViewport
 10
-34.36273695254545
 20
42.24113112942541
 30
0.0
 40
4320.11976491132
 41
2800.210715824023
 68
     1
 69
     1
 12
-34.36273695254545
 22
42.24113112942541
 13
0.0
 23
0.0
 14
0.5
 24
0.5
 15
0.0
 25
0.0
 16
0.0
 26
0.0
 36
1.0
 17
0.0
 27
0.0
 37
0.0
 42
50.0
 43
0.0
 44
0.0
 45
2800.210715824023
 50
0.0
 51
0.0
 72
   100
 90
   557152
  1

281
     0
 71
     1
 74
     0
110
0.0
120
0.0
130
0.0
111
1.0
121
0.0
131
0.0
112
0.0
122
1.0
132
0.0
 79
     0
146
0.0
  0
ENDSEC
  0
SECTION
  2
OBJECTS
  0
DICTIONARY
  5
C
330
0
100
AcDbDictionary
281
     1
  3
ACAD_GROUP
350
D
  3
ACAD_LAYOUT
350
1A
  3
ACAD_MLEADERSTYLE
350
646
  3
ACAD_MLINESTYLE
350
17
  3
ACAD_PLOTSETTINGS
350
19
  3
ACAD_PLOTSTYLENAME
350
E
  3
ACAD_TABLESTYLE
350
645
  3
ACAD_VISUALSTYLE
350
2A
  0
DICTIONARY
  5
D
102
{ACAD_REACTORS
330
C
102
}
330
C
100
AcDbDictionary
281
     1
  0
DICTIONARY
  5
1A
102
{ACAD_REACTORS
330
C
102
}
330
C
100
AcDbDictionary
281
     1
  3
Layout1
350
1E
  3
Layout2
350
26
  3
Model
350
22
  0
DICTIONARY
  5
646
102
{ACAD_REACTORS
330
C
102
}
330
C
100
AcDbDictionary
281
     1
  0
DICTIONARY
  5
17
102
{ACAD_REACTORS
330
C
102
}
330
C
100
AcDbDictionary
281
     1
  3
Standard
350
18
  0
DICTIONARY
  5
19
102
{ACAD_REACTORS
330
C
102
}
330
C
100
AcDbDictionary
281
     1
  0
ACDBDICTIONARYWDFLT
  5
E
102
{ACAD_REACTORS
330
C
102
}
330
C
100
AcDbDictionary
281
     1
  3
Normal
350
F
100
AcDbDictionaryWithDefault
340
F
  0
DICTIONARY
  5
645
102
{ACAD_REACTORS
330
C
102
}
330
C
100
AcDbDictionary
281
     1
  0
DICTIONARY
  5
2A
102
{ACAD_REACTORS
330
C
102
}
330
C
100
AcDbDictionary
281
     1
  3
2dWireframe
350
2F
  3
3D Hidden
350
31
  3
3dWireframe
350
30
  3
Basic
350
32
  3
Brighten
350
36
  3
ColorChange
350
3A
  3
Conceptual
350
34
  3
Dim
350
35
  3
Facepattern
350
39
  3
Flat
350
2B
  3
FlatWithEdges
350
2C
  3
Gouraud
350
2D
  3
GouraudWithEdges
350
2E
  3
Linepattern
350
38
  3
Realistic
350
33
  3
Thicken
350
37
  0
LAYOUT
  5
1E
102
{ACAD_REACTORS
330
1A
102
}
330
1A
100
AcDbPlotSettings
  1

  2
none_device
  4

  6

 40
0.0
 41
0.0
 42
0.0
 43
0.0
 44
0.0
 45
0.0
 46
0.0
 47
0.0
 48
0.0
 49
0.0
140
0.0
141
0.0
142
1.0
143
1.0
 70
   688
 72
     0
 73
     0
 74
     5
  7

 75
    16
147
1.0
148
0.0
149
0.0
100
AcDbLayout
  1
Layout1
 70
     0
 71
     1
 10
0.0
 20
0.0
 11
12.0
 21
9.0
 12
0.0
 22
0.0
 32
0.0
 14
1.000000000000000E+20
 24
1.000000000000000E+20
 34
1.000000000000000E+20
 15
-1.000000000000000E+20
 25
-1.000000000000000E+20
 35
-1.000000000000000E+20
146
0.0
 13
0.0
 23
0.0
 33
0.0
 16
1.0
 26
0.0
 36
0.0
 17
0.0
 27
1.0
 37
0.0
 76
     0
330
1B
331
75
  0
LAYOUT
  5
26
102
{ACAD_REACTORS
330
1A
102
}
330
1A
100
AcDbPlotSettings
  1

  2
none_device
  4

  6

 40
0.0
 41
0.0
 42
0.0
 43
0.0
 44
0.0
 45
0.0
 46
0.0
 47
0.0
 48
0.0
 49
0.0
140
0.0
141
0.0
142
1.0
143
1.0
 70
   688
 72
     0
 73
     0
 74
     5
  7

 75
    16
147
1.0
148
0.0
149
0.0
100
AcDbLayout
  1
Layout2
 70
     1
 71
     2
 10
0.0
 20
0.0
 11
0.0
 21
0.0
 12
0.0
 22
0.0
 32
0.0
 14
0.0
 24
0.0
 34
0.0
 15
0.0
 25
0.0
 35
0.0
146
0.0
 13
0.0
 23
0.0
 33
0.0
 16
1.0
 26
0.0
 36
0.0
 17
0.0
 27
1.0
 37
0.0
 76
     0
330
23
  0
LAYOUT
  5
22
102
{ACAD_REACTORS
330
1A
102
}
330
1A
100
AcDbPlotSettings
  1

  2
none_device
  4

  6

 40
0.0
 41
0.0
 42
0.0
 43
0.0
 44
0.0
 45
0.0
 46
0.0
 47
0.0
 48
0.0
 49
0.0
140
0.0
141
0.0
142
1.0
143
1.0
 70
  1712
 72
     0
 73
     0
 74
     0
  7

 75
     0
147
1.0
148
0.0
149
0.0
100
AcDbLayout
  1
Model
 70
     1
 71
     0
 10
-835.5
 20
-610.5
 11
835.5
 21
610.5
 12
0.0
 22
0.0
 32
0.0
 14
-2194.422619408205
 24
-1357.864226782586
 34
0.0
 15
2125.697145503114
 25
1442.346489041437
 35
0.0
146
0.0
 13
0.0
 23
0.0
 33
0.0
 16
1.0
 26
0.0
 36
0.0
 17
0.0
 27
1.0
 37
0.0
 76
     0
330
1F
331
29
  0
MLINESTYLE
  5
18
102
{ACAD_REACTORS
330
17
102
}
330
17
100
AcDbMlineStyle
  2
Standard
 70
     0
  3

 62
   256
 51
90.0
 52
90.0
 71
     2
 49
0.5
 62
   256
  6
BYLAYER
 49
-0.5
 62
   256
  6
BYLAYER
  0
ACDBPLACEHOLDER
  5
F
102
{ACAD_REACTORS
330
E
102
}
330
E
  0
VISUALSTYLE
  5
2F
102
{ACAD_REACTORS
330
2A
102
}
330
2A
100
AcDbVisualStyle
  2
2dWireframe
 70
     4
 71
     0
 72
     2
 73
     0
 90
        0
 40
-0.6
 41
-30.0
 62
     5
 63
     7
 74
     1
 91
        4
 64
     7
 65
   257
 75
     1
175
     1
 42
1.0
 92
        0
 66
   257
 43
1.0
 76
     1
 77
     6
 78
     2
 67
     7
 79
     5
170
     0
171
     0
290
     0
174
     0
 93
        1
 44
0.0
173
     0
291
     0
 45
0.0
1001
ACAD
1000
AcDbSavedByObjectVersion
1070
     0
  0
VISUALSTYLE
  5
31
102
{ACAD_REACTORS
330
2A
102
}
330
2A
100
AcDbVisualStyle
  2
3D Hidden
 70
     6
 71
     1
 72
     2
 73
     2
 90
        0
 40
-0.6
 41
-30.0
 62
     5
 63
     7
 74
     2
 91
        2
 64
     7
 65
   257
 75
     2
175
     1
 42
40.0
 92
        0
 66
   257
 43
1.0
 76
     1
 77
     6
 78
     2
 67
     7
 79
     3
170
     0
171
     0
290
     0
174
     0
 93
        1
 44
0.0
173
     0
291
     0
 45
0.0
1001
ACAD
1000
AcDbSavedByObjectVersion
1070
     0
  0
VISUALSTYLE
  5
30
102
{ACAD_REACTORS
330
2A
102
}
330
2A
100
AcDbVisualStyle
  2
3dWireframe
 70
     5
 71
     0
 72
     2
 73
     0
 90
        0
 40
-0.6
 41
-30.0
 62
     5
 63
     7
 74
     1
 91
        4
 64
     7
 65
   257
 75
     1
175
     1
 42
1.0
 92
        0
 66
   257
 43
1.0
 76
     1
 77
     6
 78
     2
 67
     7
 79
     5
170
     0
171
     0
290
     0
174
     0
 93
        1
 44
0.0
173
     0
291
     0
 45
0.0
1001
ACAD
1000
AcDbSavedByObjectVersion
1070
     0
  0
VISUALSTYLE
  5
32
102
{ACAD_REACTORS
330
2A
102
}
330
2A
100
AcDbVisualStyle
  2
Basic
 70
     7
 71
     1
 72
     0
 73
     1
 90
        0
 40
-0.6
 41
-30.0
 62
     5
 63
     7
 74
     0
 91
        4
 64
     7
 65
   257
 75
     1
175
     1
 42
1.0
 92
        8
 66
     7
 43
1.0
 76
     1
 77
     6
 78
     2
 67
     7
 79
     5
170
     0
171
     0
290
     0
174
     0
 93
        1
 44
0.0
173
     0
291
     1
 45
0.0
1001
ACAD
1000
AcDbSavedByObjectVersion
1070
     0
  0
VISUALSTYLE
  5
36
102
{ACAD_REACTORS
330
2A
102
}
330
2A
100
AcDbVisualStyle
  2
Brighten
 70
    12
 71
     2
 72
     2
 73
     0
 90
        0
 40
-0.6
 41
-30.0
 62
     5
 63
     7
 74
     1
 91
        4
 64
     7
 65
   257
 75
     1
175
     1
 42
1.0
 92
        8
 66
     7
 43
1.0
 76
     1
 77
     6
 78
     2
 67
     7
 79
     5
170
     0
171
     0
290
     0
174
     0
 93
        1
 44
50.0
173
     0
291
     1
 45
0.0
1001
ACAD
1000
AcDbSavedByObjectVersion
1070
     0
  0
VISUALSTYLE
  5
3A
102
{ACAD_REACTORS
330
2A
102
}
330
2A
100
AcDbVisualStyle
  2
ColorChange
 70
    16
 71
     2
 72
     2
 73
     3
 90
        0
 40
-0.6
 41
-30.0
 62
     5
 63
     8
 74
     1
 91
        4
 64
     7
 65
   257
 75
     1
175
     1
 42
1.0
 92
        8
 66
     8
 43
1.0
 76
     1
 77
     6
 78
     2
 67
     7
 79
     5
170
     0
171
     0
290
     0
174
     0
 93
        1
 44
0.0
173
     0
291
     1
 45
0.0
1001
ACAD
1000
AcDbSavedByObjectVersion
1070
     0
  0
VISUALSTYLE
  5
34
102
{ACAD_REACTORS
330
2A
102
}
330
2A
100
AcDbVisualStyle
  2
Conceptual
 70
     9
 71
     3
 72
     2
 73
     0
 90
        0
 40
-0.6
 41
-30.0
 62
     5
 63
     7
 74
     2
 91
        2
 64
     7
 65
   257
 75
     1
175
     1
 42
40.0
 92
        8
 66
     7
 43
1.0
 76
     1
 77
     6
 78
     2
 67
     7
 79
     3
170
     0
171
     0
290
     0
174
     0
 93
        1
 44
0.0
173
     0
291
     0
 45
0.0
1001
ACAD
1000
AcDbSavedByObjectVersion
1070
     0
  0
VISUALSTYLE
  5
35
102
{ACAD_REACTORS
330
2A
102
}
330
2A
100
AcDbVisualStyle
  2
Dim
 70
    11
 71
     2
 72
     2
 73
     0
 90
        0
 40
-0.6
 41
-30.0
 62
     5
 63
     7
 74
     1
 91
        4
 64
     7
 65
   257
 75
     1
175
     1
 42
1.0
 92
        8
 66
     7
 43
1.0
 76
     1
 77
     6
 78
     2
 67
     7
 79
     5
170
     0
171
     0
290
     0
174
     0
 93
        1
 44
-50.0
173
     0
291
     1
 45
0.0
1001
ACAD
1000
AcDbSavedByObjectVersion
1070
     0
  0
VISUALSTYLE
  5
39
102
{ACAD_REACTORS
330
2A
102
}
330
2A
100
AcDbVisualStyle
  2
Facepattern
 70
    15
 71
     2
 72
     2
 73
     0
 90
        0
 40
-0.6
 41
-30.0
 62
     5
 63
     7
 74
     1
 91
        4
 64
     7
 65
   257
 75
     1
175
     1
 42
1.0
 92
        8
 66
     7
 43
1.0
 76
     1
 77
     6
 78
     2
 67
     7
 79
     5
170
     0
171
     0
290
     0
174
     0
 93
        1
 44
0.0
173
     0
291
     1
 45
0.0
1001
ACAD
1000
AcDbSavedByObjectVersion
1070
     0
  0
VISUALSTYLE
  5
2B
102
{ACAD_REACTORS
330
2A
102
}
330
2A
100
AcDbVisualStyle
  2
Flat
 70
     0
 71
     2
 72
     1
 73
     1
 90
        2
 40
-0.6
 41
30.0
 62
     5
 63
     7
 74
     0
 91
        4
 64
     7
 65
   257
 75
     1
175
     1
 42
1.0
 92
        8
 66
     7
 43
1.0
 76
     1
 77
     6
 78
     2
 67
     7
 79
     5
170
     0
171
     0
290
     0
174
     0
 93
       13
 44
0.0
173
     0
291
     1
 45
0.0
1001
ACAD
1000
AcDbSavedByObjectVersion
1070
     0
  0
VISUALSTYLE
  5
2C
102
{ACAD_REACTORS
330
2A
102
}
330
2A
100
AcDbVisualStyle
  2
FlatWithEdges
 70
     1
 71
     2
 72
     1
 73
     1
 90
        2
 40
-0.6
 41
30.0
 62
     5
 63
     7
 74
     1
 91
        4
 64
     7
 65
   257
 75
     1
175
     1
 42
1.0
 92
        0
 66
   257
 43
1.0
 76
     1
 77
     6
 78
     2
 67
     7
 79
     5
170
     0
171
     0
290
     0
174
     0
 93
       13
 44
0.0
173
     0
291
     1
 45
0.0
1001
ACAD
1000
AcDbSavedByObjectVersion
1070
     0
  0
VISUALSTYLE
  5
2D
102
{ACAD_REACTORS
330
2A
102
}
330
2A
100
AcDbVisualStyle
  2
Gouraud
 70
     2
 71
     2
 72
     2
 73
     1
 90
        2
 40
-0.6
 41
30.0
 62
     5
 63
     7
 74
     0
 91
        4
 64
     7
 65
   257
 75
     1
175
     1
 42
1.0
 92
        0
 66
     7
 43
1.0
 76
     1
 77
     6
 78
     2
 67
     7
 79
     5
170
     0
171
     0
290
     0
174
     0
 93
       13
 44
0.0
173
     0
291
     1
 45
0.0
1001
ACAD
1000
AcDbSavedByObjectVersion
1070
     0
  0
VISUALSTYLE
  5
2E
102
{ACAD_REACTORS
330
2A
102
}
330
2A
100
AcDbVisualStyle
  2
GouraudWithEdges
 70
     3
 71
     2
 72
     2
 73
     1
 90
        2
 40
-0.6
 41
30.0
 62
     5
 63
     7
 74
     1
 91
        4
 64
     7
 65
   257
 75
     1
175
     1
 42
1.0
 92
        0
 66
   257
 43
1.0
 76
     1
 77
     6
 78
     2
 67
     7
 79
     5
170
     0
171
     0
290
     0
174
     0
 93
       13
 44
0.0
173
     0
291
     1
 45
0.0
1001
ACAD
1000
AcDbSavedByObjectVersion
1070
     0
  0
VISUALSTYLE
  5
38
102
{ACAD_REACTORS
330
2A
102
}
330
2A
100
AcDbVisualStyle
  2
Linepattern
 70
    14
 71
     2
 72
     2
 73
     0
 90
        0
 40
-0.6
 41
-30.0
 62
     5
 63
     7
 74
     1
 91
        4
 64
     7
 65
   257
 75
     7
175
     7
 42
1.0
 92
        8
 66
     7
 43
1.0
 76
     1
 77
     6
 78
     2
 67
     7
 79
     5
170
     0
171
     0
290
     0
174
     0
 93
        1
 44
0.0
173
     0
291
     1
 45
0.0
1001
ACAD
1000
AcDbSavedByObjectVersion
1070
     0
  0
VISUALSTYLE
  5
33
102
{ACAD_REACTORS
330
2A
102
}
330
2A
100
AcDbVisualStyle
  2
Realistic
 70
     8
 71
     2
 72
     2
 73
     0
 90
        0
 40
-0.6
 41
-30.0
 62
     5
 63
     7
 74
     1
 91
        0
 64
     7
 65
   257
 75
     1
175
     1
 42
1.0
 92
        8
 66
     8
 43
1.0
 76
     1
 77
     6
 78
     2
 67
     7
 79
     5
170
     0
171
     0
290
     0
174
     0
 93
       13
 44
0.0
173
     0
291
     0
 45
0.0
1001
ACAD
1000
AcDbSavedByObjectVersion
1070
     0
  0
VISUALSTYLE
  5
37
102
{ACAD_REACTORS
330
2A
102
}
330
2A
100
AcDbVisualStyle
  2
Thicken
 70
    13
 71
     2
 72
     2
 73
     0
 90
        0
 40
-0.6
 41
-30.0
 62
     5
 63
     7
 74
     1
 91
        4
 64
     7
 65
   257
 75
     1
175
     1
 42
1.0
 92
       12
 66
     7
 43
1.0
 76
     1
 77
     6
 78
     2
 67
     7
 79
     5
170
     0
171
     0
290
     0
174
     0
 93
        1
 44
0.0
173
     0
291
     1
 45
0.0
1001
ACAD
1000
AcDbSavedByObjectVersion
1070
     0
  0
ENDSEC
  0
EOF
