  0
SECTION
  2
HEADER
  9
$ACADVER
  1
AC1015
  9
$ACADMAINTVER
 70
     6
  9
$DWGCODEPAGE
  3
ANSI_932
  9
$INSBASE
 10
0.0
 20
0.0
 30
0.0
  9
$EXTMIN
 10
-1372.09962953172
 20
-988.3627450980401
 30
0.0
  9
$EXTMAX
 10
1365.948803388213
 20
988.3627450980404
 30
0.0
  9
$LIMMIN
 10
-601.5
 20
-429.0
  9
$LIMMAX
 10
601.5
 20
429.0
  9
$ORTHOMODE
 70
     0
  9
$REGENMODE
 70
     1
  9
$FILLMODE
 70
     1
  9
$QTEXTMODE
 70
     0
  9
$MIRRTEXT
 70
     1
  9
$LTSCALE
 40
0.375
  9
$ATTMODE
 70
     1
  9
$TEXTSIZE
 40
0.2
  9
$TRACEWID
 40
0.05
  9
$TEXTSTYLE
  7
Standard
  9
$CLAYER
  8
0
  9
$CELTYPE
  6
ByLayer
  9
$CECOLOR
 62
   256
  9
$CELTSCALE
 40
1.0
  9
$DISPSILH
 70
     0
  9
$DIMSCALE
 40
1.0
  9
$DIMASZ
 40
3.75
  9
$DIMEXO
 40
0.0625
  9
$DIMDLI
 40
0.38
  9
$DIMRND
 40
0.0
  9
$DIMDLE
 40
0.0
  9
$DIMEXE
 40
0.18
  9
$DIMTP
 40
0.0
  9
$DIMTM
 40
0.0
  9
$DIMTXT
 40
0.18
  9
$DIMCEN
 40
0.09
  9
$DIMTSZ
 40
0.0
  9
$DIMTOL
 70
     0
  9
$DIMLIM
 70
     0
  9
$DIMTIH
 70
     1
  9
$DIMTOH
 70
     1
  9
$DIMSE1
 70
     0
  9
$DIMSE2
 70
     0
  9
$DIMTAD
 70
     3
  9
$DIMZIN
 70
     0
  9
$DIMBLK
  1

  9
$DIMASO
 70
     1
  9
$DIMSHO
 70
     1
  9
$DIMPOST
  1

  9
$DIMAPOST
  1

  9
$DIMALT
 70
     0
  9
$DIMALTD
 70
     2
  9
$DIMALTF
 40
25.4
  9
$DIMLFAC
 40
1.0
  9
$DIMTOFL
 70
     0
  9
$DIMTVP
 40
0.0
  9
$DIMTIX
 70
     0
  9
$DIMSOXD
 70
     0
  9
$DIMSAH
 70
     0
  9
$DIMBLK1
  1

  9
$DIMBLK2
  1

  9
$DIMSTYLE
  2
Standard
  9
$DIMCLRD
 70
     0
  9
$DIMCLRE
 70
     0
  9
$DIMCLRT
 70
     0
  9
$DIMTFAC
 40
1.0
  9
$DIMGAP
 40
0.09
  9
$DIMJUST
 70
     0
  9
$DIMSD1
 70
     0
  9
$DIMSD2
 70
     0
  9
$DIMTOLJ
 70
     1
  9
$DIMTZIN
 70
     0
  9
$DIMALTZ
 70
     0
  9
$DIMALTTZ
 70
     0
  9
$DIMUPT
 70
     0
  9
$DIMDEC
 70
     4
  9
$DIMTDEC
 70
     4
  9
$DIMALTU
 70
     2
  9
$DIMALTTD
 70
     2
  9
$DIMTXSTY
  7
Standard
  9
$DIMAUNIT
 70
     0
  9
$DIMADEC
 70
     0
  9
$DIMALTRND
 40
0.0
  9
$DIMAZIN
 70
     0
  9
$DIMDSEP
 70
    46
  9
$DIMATFIT
 70
     3
  9
$DIMFRAC
 70
     0
  9
$DIMLDRBLK
  1

  9
$DIMLUNIT
 70
     2
  9
$DIMLWD
 70
    -2
  9
$DIMLWE
 70
    -2
  9
$DIMTMOVE
 70
     0
  9
$LUNITS
 70
     2
  9
$LUPREC
 70
     4
  9
$SKETCHINC
 40
0.1
  9
$FILLETRAD
 40
0.5
  9
$AUNITS
 70
     0
  9
$AUPREC
 70
     0
  9
$MENU
  1
.
  9
$ELEVATION
 40
0.0
  9
$PELEVATION
 40
0.0
  9
$THICKNESS
 40
0.0
  9
$LIMCHECK
 70
     0
  9
$CHAMFERA
 40
0.5
  9
$CHAMFERB
 40
0.5
  9
$CHAMFERC
 40
1.0
  9
$CHAMFERD
 40
0.0
  9
$SKPOLY
 70
     0
  9
$TDCREATE
 40
2454973.737332176
  9
$TDUCREATE
 40
2454973.362332176
  9
$TDUPDATE
 40
2454973.737332188
  9
$TDUUPDATE
 40
2454973.362332188
  9
$TDINDWG
 40
0.0000000116
  9
$TDUSRTIMER
 40
0.0000000116
  9
$USRTIMER
 70
     1
  9
$ANGBASE
 50
0.0
  9
$ANGDIR
 70
     0
  9
$PDMODE
 70
     0
  9
$PDSIZE
 40
1.0
  9
$PLINEWID
 40
0.0
  9
$SPLFRAME
 70
     0
  9
$SPLINETYPE
 70
     6
  9
$SPLINESEGS
 70
     8
  9
$HANDSEED
  5
422
  9
$SURFTAB1
 70
     6
  9
$SURFTAB2
 70
     6
  9
$SURFTYPE
 70
     6
  9
$SURFU
 70
     6
  9
$SURFV
 70
     6
  9
$UCSBASE
  2

  9
$UCSNAME
  2

  9
$UCSORG
 10
0.0
 20
0.0
 30
0.0
  9
$UCSXDIR
 10
1.0
 20
0.0
 30
0.0
  9
$UCSYDIR
 10
0.0
 20
1.0
 30
0.0
  9
$UCSORTHOREF
  2

  9
$UCSORTHOVIEW
 70
     0
  9
$UCSORGTOP
 10
0.0
 20
0.0
 30
0.0
  9
$UCSORGBOTTOM
 10
0.0
 20
0.0
 30
0.0
  9
$UCSORGLEFT
 10
0.0
 20
0.0
 30
0.0
  9
$UCSORGRIGHT
 10
0.0
 20
0.0
 30
0.0
  9
$UCSORGFRONT
 10
0.0
 20
0.0
 30
0.0
  9
$UCSORGBACK
 10
0.0
 20
0.0
 30
0.0
  9
$PUCSBASE
  2

  9
$PUCSNAME
  2

  9
$PUCSORG
 10
0.0
 20
0.0
 30
0.0
  9
$PUCSXDIR
 10
1.0
 20
0.0
 30
0.0
  9
$PUCSYDIR
 10
0.0
 20
1.0
 30
0.0
  9
$PUCSORTHOREF
  2

  9
$PUCSORTHOVIEW
 70
     0
  9
$PUCSORGTOP
 10
0.0
 20
0.0
 30
0.0
  9
$PUCSORGBOTTOM
 10
0.0
 20
0.0
 30
0.0
  9
$PUCSORGLEFT
 10
0.0
 20
0.0
 30
0.0
  9
$PUCSORGRIGHT
 10
0.0
 20
0.0
 30
0.0
  9
$PUCSORGFRONT
 10
0.0
 20
0.0
 30
0.0
  9
$PUCSORGBACK
 10
0.0
 20
0.0
 30
0.0
  9
$USERI1
 70
     0
  9
$USERI2
 70
     0
  9
$USERI3
 70
     0
  9
$USERI4
 70
     0
  9
$USERI5
 70
     0
  9
$USERR1
 40
0.0
  9
$USERR2
 40
0.0
  9
$USERR3
 40
0.0
  9
$USERR4
 40
0.0
  9
$USERR5
 40
0.0
  9
$WORLDVIEW
 70
     1
  9
$SHADEDGE
 70
     3
  9
$SHADEDIF
 70
    70
  9
$TILEMODE
 70
     1
  9
$MAXACTVP
 70
    64
  9
$PINSBASE
 10
0.0
 20
0.0
 30
0.0
  9
$PLIMCHECK
 70
     0
  9
$PEXTMIN
 10
1.000000000000000E+20
 20
1.000000000000000E+20
 30
1.000000000000000E+20
  9
$PEXTMAX
 10
-1.000000000000000E+20
 20
-1.000000000000000E+20
 30
-1.000000000000000E+20
  9
$PLIMMIN
 10
0.0
 20
0.0
  9
$PLIMMAX
 10
12.0
 20
9.0
  9
$UNITMODE
 70
     0
  9
$VISRETAIN
 70
     0
  9
$PLINEGEN
 70
     1
  9
$PSLTSCALE
 70
     0
  9
$TREEDEPTH
 70
  3020
  9
$CMLSTYLE
  2
Standard
  9
$CMLJUST
 70
     0
  9
$CMLSCALE
 40
1.0
  9
$PROXYGRAPHICS
 70
     0
  9
$MEASUREMENT
 70
     1
  9
$CELWEIGHT
370
    -1
  9
$ENDCAPS
280
     0
  9
$JOINSTYLE
280
     0
  9
$LWDISPLAY
290
     1
  9
$INSUNITS
 70
     4
  9
$HYPERLINKBASE
  1

  9
$STYLESHEET
  1

  9
$XEDIT
290
     1
  9
$CEPSNTYPE
380
     0
  9
$PSTYLEMODE
290
     1
  9
$FINGERPRINTGUID
  2
{01D91D3F-7148-4947-8E93-5F4295964CCF}
  9
$VERSIONGUID
  2
{FAEB1C32-E019-11D5-929B-00C0DF256EC4}
  9
$EXTNAMES
290
     1
  9
$PSVPSCALE
 40
0.0
  9
$OLESTARTUP
290
     0
  0
ENDSEC
  0
SECTION
  2
CLASSES
  0
CLASS
  1
ACDBDICTIONARYWDFLT
  2
AcDbDictionaryWithDefault
  3
ObjectDBX Classes
 90
        0
280
     0
281
     0
  0
CLASS
  1
VISUALSTYLE
  2
AcDbVisualStyle
  3
ObjectDBX Classes
 90
     4095
280
     0
281
     0
  0
CLASS
  1
ACDBPLACEHOLDER
  2
AcDbPlaceHolder
  3
ObjectDBX Classes
 90
        0
280
     0
281
     0
  0
CLASS
  1
LAYOUT
  2
AcDbLayout
  3
ObjectDBX Classes
 90
        0
280
     0
281
     0
  0
ENDSEC
  0
SECTION
  2
TABLES
  0
TABLE
  2
VPORT
  5
8
330
0
100
AcDbSymbolTable
 70
     1
  0
VPORT
  5
29
330
8
100
AcDbSymbolTableRecord
100
AcDbViewportTableRecord
  2
*Active
 70
     0
 10
0.0
 20
0.0
 11
1.0
 21
1.0
 12
0.0
 22
0.0
 13
0.0
 23
0.0
 14
0.5
 24
0.5
 15
0.5
 25
0.5
 16
0.0
 26
0.0
 36
1.0
 17
-3.075413071753818
 27
17.91469989916993
 37
0.0
 40
635.5406788723609
 41
1.464794462636974
 42
50.0
 43
0.0
 44
0.0
 50
0.0
 51
0.0
 71
     0
 72
  1000
 73
     1
 74
     1
 75
     0
 76
     0
 77
     0
 78
     0
281
     0
 65
     1
110
0.0
120
0.0
130
0.0
111
1.0
121
0.0
131
0.0
112
0.0
122
1.0
132
0.0
 79
     0
146
0.0
  0
ENDTAB
  0
TABLE
  2
LTYPE
  5
5
330
0
100
AcDbSymbolTable
 70
    53
  0
LTYPE
  5
14
330
5
100
AcDbSymbolTableRecord
100
AcDbLinetypeTableRecord
  2
ByBlock
 70
     0
  3

 72
    65
 73
     0
 40
0.0
  0
LTYPE
  5
15
330
5
100
AcDbSymbolTableRecord
100
AcDbLinetypeTableRecord
  2
ByLayer
 70
     0
  3

 72
    65
 73
     0
 40
0.0
  0
LTYPE
  5
16
330
5
100
AcDbSymbolTableRecord
100
AcDbLinetypeTableRecord
  2
Continuous
 70
     0
  3
Solid line
 72
    65
 73
     0
 40
0.0
  0
LTYPE
  5
3C
330
5
100
AcDbSymbolTableRecord
100
AcDbLinetypeTableRecord
  2
HIDDENX2
 70
     0
  3
Hidden (2x) ____ ____ ____ ____ ____ ____ ____ 
 72
    65
 73
     2
 40
19.05
 49
12.7
 74
     0
 49
-6.35
 74
     0
  0
LTYPE
  5
3D
330
5
100
AcDbSymbolTableRecord
100
AcDbLinetypeTableRecord
  2
HIDDEN
 70
     0
  3
Hidden __ __ __ __ __ __ __ __ __ __ __ __ __ __
 72
    65
 73
     2
 40
9.524999999999999
 49
6.35
 74
     0
 49
-3.175
 74
     0
  0
LTYPE
  5
3E
330
5
100
AcDbSymbolTableRecord
100
AcDbLinetypeTableRecord
  2
HIDDEN2
 70
     0
  3
Hidden (.5x) _ _ _ _ _ _ _ _ _ _ _ _ _ _ _ _ _ 
 72
    65
 73
     2
 40
4.762499999999999
 49
3.175
 74
     0
 49
-1.5875
 74
     0
  0
LTYPE
  5
3F
330
5
100
AcDbSymbolTableRecord
100
AcDbLinetypeTableRecord
  2
DASHED
 70
     0
  3
Dashed __ __ __ __ __ __ __ __ __ __ __ __ __ _
 72
    65
 73
     2
 40
19.05
 49
12.7
 74
     0
 49
-6.35
 74
     0
  0
LTYPE
  5
40
330
5
100
AcDbSymbolTableRecord
100
AcDbLinetypeTableRecord
  2
DASHED2
 70
     0
  3
Dashed (.5x) _ _ _ _ _ _ _ _ _ _ _ _ _ _ _ _ _ 
 72
    65
 73
     2
 40
9.524999999999999
 49
6.35
 74
     0
 49
-3.175
 74
     0
  0
LTYPE
  5
41
330
5
100
AcDbSymbolTableRecord
100
AcDbLinetypeTableRecord
  2
DASHEDX2
 70
     0
  3
Dashed (2x) ____  ____  ____  ____  ____  ___
 72
    65
 73
     2
 40
38.09999999999999
 49
25.4
 74
     0
 49
-12.7
 74
     0
  0
LTYPE
  5
42
330
5
100
AcDbSymbolTableRecord
100
AcDbLinetypeTableRecord
  2
DOTX2
 70
     0
  3
Dot (2x) .  .  .  .  .  .  .  .  .  .  .  .  .  .
 72
    65
 73
     2
 40
12.7
 49
0.0
 74
     0
 49
-12.7
 74
     0
  0
LTYPE
  5
43
330
5
100
AcDbSymbolTableRecord
100
AcDbLinetypeTableRecord
  2
DOT
 70
     0
  3
Dot . . . . . . . . . . . . . . . . . . . . . . . .
 72
    65
 73
     2
 40
6.35
 49
0.0
 74
     0
 49
-6.35
 74
     0
  0
LTYPE
  5
44
330
5
100
AcDbSymbolTableRecord
100
AcDbLinetypeTableRecord
  2
DOT2
 70
     0
  3
Dot (.5x) ........................................
 72
    65
 73
     2
 40
3.175
 49
0.0
 74
     0
 49
-3.175
 74
     0
  0
LTYPE
  5
45
330
5
100
AcDbSymbolTableRecord
100
AcDbLinetypeTableRecord
  2
CENTERX2
 70
     0
  3
Center (2x) ________  __  ________  __  _____
 72
    65
 73
     4
 40
101.6
 49
63.5
 74
     0
 49
-12.7
 74
     0
 49
12.7
 74
     0
 49
-12.7
 74
     0
  0
LTYPE
  5
46
330
5
100
AcDbSymbolTableRecord
100
AcDbLinetypeTableRecord
  2
CENTER
 70
     0
  3
Center ____ _ ____ _ ____ _ ____ _ ____ _ ____
 72
    65
 73
     4
 40
50.8
 49
31.75
 74
     0
 49
-6.35
 74
     0
 49
6.35
 74
     0
 49
-6.35
 74
     0
  0
LTYPE
  5
47
330
5
100
AcDbSymbolTableRecord
100
AcDbLinetypeTableRecord
  2
CENTER2
 70
     0
  3
Center (.5x) ___ _ ___ _ ___ _ ___ _ ___ _ ___
 72
    65
 73
     4
 40
28.575
 49
19.05
 74
     0
 49
-3.175
 74
     0
 49
3.175
 74
     0
 49
-3.175
 74
     0
  0
LTYPE
  5
48
330
5
100
AcDbSymbolTableRecord
100
AcDbLinetypeTableRecord
  2
DASHDOTX2
 70
     0
  3
Dash dot (2x) ____  .  ____  .  ____  .  ___
 72
    65
 73
     4
 40
50.8
 49
25.4
 74
     0
 49
-12.7
 74
     0
 49
0.0
 74
     0
 49
-12.7
 74
     0
  0
LTYPE
  5
49
330
5
100
AcDbSymbolTableRecord
100
AcDbLinetypeTableRecord
  2
DASHDOT
 70
     0
  3
Dash dot __ . __ . __ . __ . __ . __ . __ . __
 72
    65
 73
     4
 40
25.4
 49
12.7
 74
     0
 49
-6.35
 74
     0
 49
0.0
 74
     0
 49
-6.35
 74
     0
  0
LTYPE
  5
4A
330
5
100
AcDbSymbolTableRecord
100
AcDbLinetypeTableRecord
  2
DASHDOT2
 70
     0
  3
Dash dot (.5x) _._._._._._._._._._._._._._._.
 72
    65
 73
     4
 40
12.7
 49
6.35
 74
     0
 49
-3.175
 74
     0
 49
0.0
 74
     0
 49
-3.175
 74
     0
  0
LTYPE
  5
4B
330
5
100
AcDbSymbolTableRecord
100
AcDbLinetypeTableRecord
  2
DIVIDEX2
 70
     0
  3
Divide (2x) ________  .  .  ________  .  .  _
 72
    65
 73
     6
 40
63.5
 49
25.4
 74
     0
 49
-12.7
 74
     0
 49
0.0
 74
     0
 49
-12.7
 74
     0
 49
0.0
 74
     0
 49
-12.7
 74
     0
  0
LTYPE
  5
4C
330
5
100
AcDbSymbolTableRecord
100
AcDbLinetypeTableRecord
  2
DIVIDE
 70
     0
  3
Divide ____ . . ____ . . ____ . . ____ . . ____
 72
    65
 73
     6
 40
31.75
 49
12.7
 74
     0
 49
-6.35
 74
     0
 49
0.0
 74
     0
 49
-6.35
 74
     0
 49
0.0
 74
     0
 49
-6.35
 74
     0
  0
LTYPE
  5
4D
330
5
100
AcDbSymbolTableRecord
100
AcDbLinetypeTableRecord
  2
DIVIDE2
 70
     0
  3
Divide (.5x) __..__..__..__..__..__..__..__.._
 72
    65
 73
     6
 40
15.875
 49
6.35
 74
     0
 49
-3.175
 74
     0
 49
0.0
 74
     0
 49
-3.175
 74
     0
 49
0.0
 74
     0
 49
-3.175
 74
     0
  0
LTYPE
  5
4E
330
5
100
AcDbSymbolTableRecord
100
AcDbLinetypeTableRecord
  2
BORDERX2
 70
     0
  3
Border (2x) ____  ____  .  ____  ____  .  ___
 72
    65
 73
     6
 40
88.89999999999999
 49
25.4
 74
     0
 49
-12.7
 74
     0
 49
25.4
 74
     0
 49
-12.7
 74
     0
 49
0.0
 74
     0
 49
-12.7
 74
     0
  0
LTYPE
  5
4F
330
5
100
AcDbSymbolTableRecord
100
AcDbLinetypeTableRecord
  2
BORDER
 70
     0
  3
Border __ __ . __ __ . __ __ . __ __ . __ __ .
 72
    65
 73
     6
 40
44.45
 49
12.7
 74
     0
 49
-6.35
 74
     0
 49
12.7
 74
     0
 49
-6.35
 74
     0
 49
0.0
 74
     0
 49
-6.35
 74
     0
  0
LTYPE
  5
50
330
5
100
AcDbSymbolTableRecord
100
AcDbLinetypeTableRecord
  2
BORDER2
 70
     0
  3
Border (.5x) __.__.__.__.__.__.__.__.__.__.__.
 72
    65
 73
     6
 40
22.225
 49
6.35
 74
     0
 49
-3.175
 74
     0
 49
6.35
 74
     0
 49
-3.175
 74
     0
 49
0.0
 74
     0
 49
-3.175
 74
     0
  0
LTYPE
  5
51
330
5
100
AcDbSymbolTableRecord
100
AcDbLinetypeTableRecord
  2
PHANTOMX2
 70
     0
  3
Phantom (2x) ____________    ____    ____   _
 72
    65
 73
     6
 40
127.0
 49
63.5
 74
     0
 49
-12.7
 74
     0
 49
12.7
 74
     0
 49
-12.7
 74
     0
 49
12.7
 74
     0
 49
-12.7
 74
     0
  0
LTYPE
  5
52
330
5
100
AcDbSymbolTableRecord
100
AcDbLinetypeTableRecord
  2
PHANTOM
 70
     0
  3
Phantom ______  __  __  ______  __  __  ______ 
 72
    65
 73
     6
 40
63.5
 49
31.75
 74
     0
 49
-6.35
 74
     0
 49
6.35
 74
     0
 49
-6.35
 74
     0
 49
6.35
 74
     0
 49
-6.35
 74
     0
  0
LTYPE
  5
53
330
5
100
AcDbSymbolTableRecord
100
AcDbLinetypeTableRecord
  2
PHANTOM2
 70
     0
  3
Phantom (.5x) ___ _ _ ___ _ _ ___ _ _ ___ _ _
 72
    65
 73
     6
 40
31.75
 49
15.875
 74
     0
 49
-3.175
 74
     0
 49
3.175
 74
     0
 49
-3.175
 74
     0
 49
3.175
 74
     0
 49
-3.175
 74
     0
  0
LTYPE
  5
54
330
5
100
AcDbSymbolTableRecord
100
AcDbLinetypeTableRecord
  2
ACAD_ISO06W100
 70
     0
  3
ISO long-dash triple-dot ____ ... ____ ... ____
 72
    65
 73
     8
 40
36.0
 49
24.0
 74
     0
 49
-3.0
 74
     0
 49
0.0
 74
     0
 49
-3.0
 74
     0
 49
0.0
 74
     0
 49
-3.0
 74
     0
 49
0.0
 74
     0
 49
-3.0
 74
     0
  0
LTYPE
  5
55
330
5
100
AcDbSymbolTableRecord
100
AcDbLinetypeTableRecord
  2
ACAD_ISO13W100
 70
     0
  3
ISO double-dash double-dot __ __ . . __ __ . . _
 72
    65
 73
     8
 40
36.0
 49
12.0
 74
     0
 49
-3.0
 74
     0
 49
12.0
 74
     0
 49
-3.0
 74
     0
 49
0.0
 74
     0
 49
-3.0
 74
     0
 49
0.0
 74
     0
 49
-3.0
 74
     0
  0
LTYPE
  5
56
330
5
100
AcDbSymbolTableRecord
100
AcDbLinetypeTableRecord
  2
ACAD_ISO14W100
 70
     0
  3
ISO dash triple-dot __ . . . __ . . . __ . . . _
 72
    65
 73
     8
 40
24.0
 49
12.0
 74
     0
 49
-3.0
 74
     0
 49
0.0
 74
     0
 49
-3.0
 74
     0
 49
0.0
 74
     0
 49
-3.0
 74
     0
 49
0.0
 74
     0
 49
-3.0
 74
     0
  0
LTYPE
  5
57
330
5
100
AcDbSymbolTableRecord
100
AcDbLinetypeTableRecord
  2
ACAD_ISO02W100
 70
     0
  3
ISO dash __ __ __ __ __ __ __ __ __ __ __ __ __
 72
    65
 73
     2
 40
15.0
 49
12.0
 74
     0
 49
-3.0
 74
     0
  0
LTYPE
  5
58
330
5
100
AcDbSymbolTableRecord
100
AcDbLinetypeTableRecord
  2
ACAD_ISO03W100
 70
     0
  3
ISO dash space __    __    __    __    __    __
 72
    65
 73
     2
 40
30.0
 49
12.0
 74
     0
 49
-18.0
 74
     0
  0
LTYPE
  5
59
330
5
100
AcDbSymbolTableRecord
100
AcDbLinetypeTableRecord
  2
ACAD_ISO04W100
 70
     0
  3
ISO long-dash dot ____ . ____ . ____ . ____ . _
 72
    65
 73
     4
 40
30.0
 49
24.0
 74
     0
 49
-3.0
 74
     0
 49
0.0
 74
     0
 49
-3.0
 74
     0
  0
LTYPE
  5
5A
330
5
100
AcDbSymbolTableRecord
100
AcDbLinetypeTableRecord
  2
ACAD_ISO05W100
 70
     0
  3
ISO long-dash double-dot ____ .. ____ .. ____ . 
 72
    65
 73
     6
 40
33.0
 49
24.0
 74
     0
 49
-3.0
 74
     0
 49
0.0
 74
     0
 49
-3.0
 74
     0
 49
0.0
 74
     0
 49
-3.0
 74
     0
  0
LTYPE
  5
5B
330
5
100
AcDbSymbolTableRecord
100
AcDbLinetypeTableRecord
  2
ACAD_ISO07W100
 70
     0
  3
ISO dot . . . . . . . . . . . . . . . . . . . . 
 72
    65
 73
     2
 40
3.0
 49
0.0
 74
     0
 49
-3.0
 74
     0
  0
LTYPE
  5
5C
330
5
100
AcDbSymbolTableRecord
100
AcDbLinetypeTableRecord
  2
ACAD_ISO08W100
 70
     0
  3
ISO long-dash short-dash ____ __ ____ __ ____ _
 72
    65
 73
     4
 40
36.0
 49
24.0
 74
     0
 49
-3.0
 74
     0
 49
6.0
 74
     0
 49
-3.0
 74
     0
  0
LTYPE
  5
5D
330
5
100
AcDbSymbolTableRecord
100
AcDbLinetypeTableRecord
  2
ACAD_ISO09W100
 70
     0
  3
ISO long-dash double-short-dash ____ __ __ ____
 72
    65
 73
     6
 40
45.0
 49
24.0
 74
     0
 49
-3.0
 74
     0
 49
6.0
 74
     0
 49
-3.0
 74
     0
 49
6.0
 74
     0
 49
-3.0
 74
     0
  0
LTYPE
  5
5E
330
5
100
AcDbSymbolTableRecord
100
AcDbLinetypeTableRecord
  2
ACAD_ISO10W100
 70
     0
  3
ISO dash dot __ . __ . __ . __ . __ . __ . __ . 
 72
    65
 73
     4
 40
18.0
 49
12.0
 74
     0
 49
-3.0
 74
     0
 49
0.0
 74
     0
 49
-3.0
 74
     0
  0
LTYPE
  5
5F
330
5
100
AcDbSymbolTableRecord
100
AcDbLinetypeTableRecord
  2
ACAD_ISO11W100
 70
     0
  3
ISO double-dash dot __ __ . __ __ . __ __ . __ _
 72
    65
 73
     6
 40
33.0
 49
12.0
 74
     0
 49
-3.0
 74
     0
 49
12.0
 74
     0
 49
-3.0
 74
     0
 49
0.0
 74
     0
 49
-3.0
 74
     0
  0
LTYPE
  5
60
330
5
100
AcDbSymbolTableRecord
100
AcDbLinetypeTableRecord
  2
ACAD_ISO12W100
 70
     0
  3
ISO dash double-dot __ . . __ . . __ . . __ . . 
 72
    65
 73
     6
 40
21.0
 49
12.0
 74
     0
 49
-3.0
 74
     0
 49
0.0
 74
     0
 49
-3.0
 74
     0
 49
0.0
 74
     0
 49
-3.0
 74
     0
  0
LTYPE
  5
61
330
5
100
AcDbSymbolTableRecord
100
AcDbLinetypeTableRecord
  2
ACAD_ISO15W100
 70
     0
  3
ISO double-dash triple-dot __ __ . . . __ __ . .
 72
    65
 73
    10
 40
39.0
 49
12.0
 74
     0
 49
-3.0
 74
     0
 49
12.0
 74
     0
 49
-3.0
 74
     0
 49
0.0
 74
     0
 49
-3.0
 74
     0
 49
0.0
 74
     0
 49
-3.0
 74
     0
 49
0.0
 74
     0
 49
-3.0
 74
     0
  0
LTYPE
  5
62
330
5
100
AcDbSymbolTableRecord
100
AcDbLinetypeTableRecord
  2
JIS_02_0.7
 70
     0
  3
HIDDEN0.75 _ _ _ _ _ _ _ _ _ _ _ _ _ _ _ _ _ 
 72
    65
 73
     2
 40
1.35
 49
0.75
 74
     0
 49
-0.6
 74
     0
  0
LTYPE
  5
63
330
5
100
AcDbSymbolTableRecord
100
AcDbLinetypeTableRecord
  2
JIS_02_1.0
 70
     0
  3
HIDDEN01 _ _ _ _ _ _ _ _ _ _ _ _ _ _ _ _ _ 
 72
    65
 73
     2
 40
2.0
 49
1.0
 74
     0
 49
-1.0
 74
     0
  0
LTYPE
  5
64
330
5
100
AcDbSymbolTableRecord
100
AcDbLinetypeTableRecord
  2
JIS_02_1.2
 70
     0
  3
HIDDEN01.25  _ _ _ _ _ _ _ _ _ _ _ _ _ _ _ _ _ 
 72
    65
 73
     2
 40
2.5
 49
1.25
 74
     0
 49
-1.25
 74
     0
  0
LTYPE
  5
65
330
5
100
AcDbSymbolTableRecord
100
AcDbLinetypeTableRecord
  2
JIS_02_2.0
 70
     0
  3
HIDDEN02 __ __ __ __ __ __ __ __ __ __ __ 
 72
    65
 73
     2
 40
3.0
 49
2.0
 74
     0
 49
-1.0
 74
     0
  0
LTYPE
  5
66
330
5
100
AcDbSymbolTableRecord
100
AcDbLinetypeTableRecord
  2
JIS_02_4.0
 70
     0
  3
HIDDEN04 ____ ____ ____ ____ ____ ____ ____ 
 72
    65
 73
     2
 40
5.5
 49
4.0
 74
     0
 49
-1.5
 74
     0
  0
LTYPE
  5
67
330
5
100
AcDbSymbolTableRecord
100
AcDbLinetypeTableRecord
  2
JIS_08_11
 70
     0
  3
1SASEN11 ___ _ ___ _ ___ _ ___ _ ___ _ ___
 72
    65
 73
     4
 40
12.8
 49
11.0
 74
     0
 49
-0.6
 74
     0
 49
0.6
 74
     0
 49
-0.6
 74
     0
  0
LTYPE
  5
68
330
5
100
AcDbSymbolTableRecord
100
AcDbLinetypeTableRecord
  2
JIS_08_15
 70
     0
  3
1SASEN15 ____ _ ____ _ ____ _ ____ _ ____ 
 72
    65
 73
     4
 40
17.25
 49
15.0
 74
     0
 49
-0.75
 74
     0
 49
0.75
 74
     0
 49
-0.75
 74
     0
  0
LTYPE
  5
69
330
5
100
AcDbSymbolTableRecord
100
AcDbLinetypeTableRecord
  2
JIS_08_25
 70
     0
  3
1SASEN25 ________  __  ________  __  _____
 72
    65
 73
     4
 40
28.0
 49
25.0
 74
     0
 49
-1.125
 74
     0
 49
0.75
 74
     0
 49
-1.125
 74
     0
  0
LTYPE
  5
6A
330
5
100
AcDbSymbolTableRecord
100
AcDbLinetypeTableRecord
  2
JIS_08_37
 70
     0
  3
1SASEN37 ________  __  ________  __  _____
 72
    65
 73
     4
 40
40.5
 49
37.5
 74
     0
 49
-1.125
 74
     0
 49
0.75
 74
     0
 49
-1.125
 74
     0
  0
LTYPE
  5
6B
330
5
100
AcDbSymbolTableRecord
100
AcDbLinetypeTableRecord
  2
JIS_08_50
 70
     0
  3
1SASEN50 _______________  __  ____________
 72
    65
 73
     4
 40
53.0
 49
50.0
 74
     0
 49
-1.125
 74
     0
 49
0.75
 74
     0
 49
-1.125
 74
     0
  0
LTYPE
  5
6C
330
5
100
AcDbSymbolTableRecord
100
AcDbLinetypeTableRecord
  2
JIS_09_08
 70
     0
  3
2SASEN8 __ _ _ __ _ _ __ _ _ __ _ _ __ _ _ 
 72
    65
 73
     6
 40
10.75
 49
8.0
 74
     0
 49
-0.55
 74
     0
 49
0.55
 74
     0
 49
-0.55
 74
     0
 49
0.55
 74
     0
 49
-0.55
 74
     0
  0
LTYPE
  5
6D
330
5
100
AcDbSymbolTableRecord
100
AcDbLinetypeTableRecord
  2
JIS_09_15
 70
     0
  3
2SASEN15 ___ _ _ ___ _ _ ___ _ _ ___ _ _ ___ 
 72
    65
 73
     6
 40
18.9
 49
15.0
 74
     0
 49
-0.9
 74
     0
 49
0.6
 74
     0
 49
-0.9
 74
     0
 49
0.6
 74
     0
 49
-0.9
 74
     0
  0
LTYPE
  5
6E
330
5
100
AcDbSymbolTableRecord
100
AcDbLinetypeTableRecord
  2
JIS_09_29
 70
     0
  3
2SASEN29 ______　__  __  ______　__  __  ___
 72
    65
 73
     6
 40
34.0
 49
29.0
 74
     0
 49
-1.2
 74
     0
 49
0.7
 74
     0
 49
-1.2
 74
     0
 49
0.7
 74
     0
 49
-1.2
 74
     0
  0
LTYPE
  5
6F
330
5
100
AcDbSymbolTableRecord
100
AcDbLinetypeTableRecord
  2
JIS_09_50
 70
     0
  3
2SASEN50 ____________　__  __  _____________
 72
    65
 73
     6
 40
55.0
 49
50.0
 74
     0
 49
-1.2
 74
     0
 49
0.7
 74
     0
 49
-1.2
 74
     0
 49
0.7
 74
     0
 49
-1.2
 74
     0
  0
ENDTAB
  0
TABLE
  2
LAYER
  5
2
330
0
100
AcDbSymbolTable
 70
     6
  0
LAYER
  5
10
330
2
100
AcDbSymbolTableRecord
100
AcDbLayerTableRecord
  2
0
 70
     0
 62
     7
  6
Continuous
370
    -3
390
F
  0
LAYER
  5
70
330
2
100
AcDbSymbolTableRecord
100
AcDbLayerTableRecord
  2
Layer0000
 70
     0
 62
     7
  6
Continuous
370
    -3
390
F
  0
LAYER
  5
71
330
2
100
AcDbSymbolTableRecord
100
AcDbLayerTableRecord
  2
Layer0001
 70
     0
 62
     7
  6
Continuous
370
    -3
390
F
  0
LAYER
  5
72
330
2
100
AcDbSymbolTableRecord
100
AcDbLayerTableRecord
  2
Layer0004
 70
     0
 62
     7
  6
Continuous
370
    -3
390
F
  0
LAYER
  5
73
330
2
100
AcDbSymbolTableRecord
100
AcDbLayerTableRecord
  2
Layer0014
 70
     0
 62
     7
  6
Continuous
370
    -3
390
F
  0
LAYER
  5
74
330
2
100
AcDbSymbolTableRecord
100
AcDbLayerTableRecord
  2
Layer0015
 70
     0
 62
     7
  6
Continuous
370
    -3
390
F
  0
ENDTAB
  0
TABLE
  2
STYLE
  5
3
330
0
100
AcDbSymbolTable
 70
     2
  0
STYLE
  5
11
330
3
100
AcDbSymbolTableRecord
100
AcDbTextStyleTableRecord
  2
Standard
 70
     0
 40
0.0
 41
1.0
 50
0.0
 71
     0
 42
0.2
  3
txt
  4

  0
STYLE
  5
F3
330
3
100
AcDbSymbolTableRecord
100
AcDbTextStyleTableRecord
  2
dcStyle0
 70
     0
 40
0.0
 41
0.8000000000000008
 50
0.0
 71
     0
 42
0.2
  3
txt.shx
  4
bigfont
  0
ENDTAB
  0
TABLE
  2
VIEW
  5
6
330
0
100
AcDbSymbolTable
 70
     0
  0
ENDTAB
  0
TABLE
  2
UCS
  5
7
330
0
100
AcDbSymbolTable
 70
     0
  0
ENDTAB
  0
TABLE
  2
APPID
  5
9
330
0
100
AcDbSymbolTable
 70
     2
  0
APPID
  5
12
330
9
100
AcDbSymbolTableRecord
100
AcDbRegAppTableRecord
  2
ACAD
 70
     0
  0
APPID
  5
3B
330
9
100
AcDbSymbolTableRecord
100
AcDbRegAppTableRecord
  2
DaFusionOut
 70
     0
  0
ENDTAB
  0
TABLE
  2
DIMSTYLE
  5
A
330
0
100
AcDbSymbolTable
 70
     2
100
AcDbDimStyleTable
  0
DIMSTYLE
105
27
330
A
100
AcDbSymbolTableRecord
100
AcDbDimStyleTableRecord
  2
Standard
 70
     0
340
11
  0
DIMSTYLE
105
3FA
102
{ACAD_REACTORS
330
3F9
330
3FB
330
3FC
330
3FD
330
3FE
330
3FF
330
400
330
401
330
402
330
403
330
404
330
405
330
406
330
407
330
40A
330
40B
330
40C
330
40D
330
40E
330
40F
330
410
330
411
330
412
330
413
330
415
102
}
330
A
100
AcDbSymbolTableRecord
100
AcDbDimStyleTableRecord
  2
DaDimRotatedStyle
 70
     0
 41
4.499995307353803
 42
1.5
 44
1.2
 73
     0
 74
     0
 77
     3
 78
     8
 79
     2
140
9.0
147
1.5
172
     1
173
     1
176
     2
177
     2
178
     2
271
     3
274
     4
283
     0
284
     8
288
     1
289
     0
340
F3
343
E9
344
E9
  0
ENDTAB
  0
TABLE
  2
BLOCK_RECORD
  5
1
330
0
100
AcDbSymbolTable
 70
    40
  0
BLOCK_RECORD
  5
1F
330
1
100
AcDbSymbolTableRecord
100
AcDbBlockTableRecord
  2
*Model_Space
340
22
  0
BLOCK_RECORD
  5
1B
330
1
100
AcDbSymbolTableRecord
100
AcDbBlockTableRecord
  2
*Paper_Space
340
1E
  0
BLOCK_RECORD
  5
23
330
1
100
AcDbSymbolTableRecord
100
AcDbBlockTableRecord
  2
*Paper_Space0
340
26
  0
BLOCK_RECORD
  5
76
330
1
100
AcDbSymbolTableRecord
100
AcDbBlockTableRecord
  2
*D1
340
0
  0
BLOCK_RECORD
  5
79
330
1
100
AcDbSymbolTableRecord
100
AcDbBlockTableRecord
  2
*D2
340
0
  0
BLOCK_RECORD
  5
7C
330
1
100
AcDbSymbolTableRecord
100
AcDbBlockTableRecord
  2
*D3
340
0
  0
BLOCK_RECORD
  5
7F
330
1
100
AcDbSymbolTableRecord
100
AcDbBlockTableRecord
  2
*D4
340
0
  0
BLOCK_RECORD
  5
82
330
1
100
AcDbSymbolTableRecord
100
AcDbBlockTableRecord
  2
*D5
340
0
  0
BLOCK_RECORD
  5
85
330
1
100
AcDbSymbolTableRecord
100
AcDbBlockTableRecord
  2
*D6
340
0
  0
BLOCK_RECORD
  5
88
330
1
100
AcDbSymbolTableRecord
100
AcDbBlockTableRecord
  2
*D7
340
0
  0
BLOCK_RECORD
  5
8B
330
1
100
AcDbSymbolTableRecord
100
AcDbBlockTableRecord
  2
*D8
340
0
  0
BLOCK_RECORD
  5
8E
330
1
100
AcDbSymbolTableRecord
100
AcDbBlockTableRecord
  2
*D9
340
0
  0
BLOCK_RECORD
  5
91
330
1
100
AcDbSymbolTableRecord
100
AcDbBlockTableRecord
  2
*D10
340
0
  0
BLOCK_RECORD
  5
94
330
1
100
AcDbSymbolTableRecord
100
AcDbBlockTableRecord
  2
*D11
340
0
  0
BLOCK_RECORD
  5
97
330
1
100
AcDbSymbolTableRecord
100
AcDbBlockTableRecord
  2
*D12
340
0
  0
BLOCK_RECORD
  5
9A
330
1
100
AcDbSymbolTableRecord
100
AcDbBlockTableRecord
  2
*D13
340
0
  0
BLOCK_RECORD
  5
9D
330
1
100
AcDbSymbolTableRecord
100
AcDbBlockTableRecord
  2
*D14
340
0
  0
BLOCK_RECORD
  5
A0
330
1
100
AcDbSymbolTableRecord
100
AcDbBlockTableRecord
  2
DA_IMAGEDIMGROUP_1
340
0
102
{BLKREFS
331
408
102
}
  0
BLOCK_RECORD
  5
A3
330
1
100
AcDbSymbolTableRecord
100
AcDbBlockTableRecord
  2
DA_IMAGEDIMGROUP_2
340
0
102
{BLKREFS
331
409
102
}
  0
BLOCK_RECORD
  5
A6
330
1
100
AcDbSymbolTableRecord
100
AcDbBlockTableRecord
  2
*D17
340
0
  0
BLOCK_RECORD
  5
A9
330
1
100
AcDbSymbolTableRecord
100
AcDbBlockTableRecord
  2
*D18
340
0
  0
BLOCK_RECORD
  5
AC
330
1
100
AcDbSymbolTableRecord
100
AcDbBlockTableRecord
  2
*D19
340
0
  0
BLOCK_RECORD
  5
AF
330
1
100
AcDbSymbolTableRecord
100
AcDbBlockTableRecord
  2
*D20
340
0
  0
BLOCK_RECORD
  5
B2
330
1
100
AcDbSymbolTableRecord
100
AcDbBlockTableRecord
  2
*D21
340
0
  0
BLOCK_RECORD
  5
B5
330
1
100
AcDbSymbolTableRecord
100
AcDbBlockTableRecord
  2
*D22
340
0
  0
BLOCK_RECORD
  5
B8
330
1
100
AcDbSymbolTableRecord
100
AcDbBlockTableRecord
  2
*D23
340
0
  0
BLOCK_RECORD
  5
BB
330
1
100
AcDbSymbolTableRecord
100
AcDbBlockTableRecord
  2
*D24
340
0
  0
BLOCK_RECORD
  5
BE
330
1
100
AcDbSymbolTableRecord
100
AcDbBlockTableRecord
  2
*D25
340
0
  0
BLOCK_RECORD
  5
C1
330
1
100
AcDbSymbolTableRecord
100
AcDbBlockTableRecord
  2
*D26
340
0
  0
BLOCK_RECORD
  5
C4
330
1
100
AcDbSymbolTableRecord
100
AcDbBlockTableRecord
  2
DA_IMAGEDIMGROUP_3
340
0
102
{BLKREFS
331
414
102
}
  0
BLOCK_RECORD
  5
C7
330
1
100
AcDbSymbolTableRecord
100
AcDbBlockTableRecord
  2
*D28
340
0
  0
BLOCK_RECORD
  5
CA
330
1
100
AcDbSymbolTableRecord
100
AcDbBlockTableRecord
  2
DC_GROUP_HCN125_1
340
0
102
{BLKREFS
331
417
102
}
  0
BLOCK_RECORD
  5
CD
330
1
100
AcDbSymbolTableRecord
100
AcDbBlockTableRecord
  2
DC_GROUP_HCN125_2
340
0
102
{BLKREFS
331
418
102
}
  0
BLOCK_RECORD
  5
D0
330
1
100
AcDbSymbolTableRecord
100
AcDbBlockTableRecord
  2
DC_GROUP_HCN125_3
340
0
102
{BLKREFS
331
419
102
}
  0
BLOCK_RECORD
  5
D3
330
1
100
AcDbSymbolTableRecord
100
AcDbBlockTableRecord
  2
DC_GROUP_HCN125_4
340
0
102
{BLKREFS
331
41A
102
}
  0
BLOCK_RECORD
  5
D6
330
1
100
AcDbSymbolTableRecord
100
AcDbBlockTableRecord
  2
DC_GROUP_HCN125_5
340
0
102
{BLKREFS
331
41B
102
}
  0
BLOCK_RECORD
  5
D9
330
1
100
AcDbSymbolTableRecord
100
AcDbBlockTableRecord
  2
DC_GROUP_HCN125_6
340
0
102
{BLKREFS
331
416
102
}
  0
BLOCK_RECORD
  5
DC
330
1
100
AcDbSymbolTableRecord
100
AcDbBlockTableRecord
  2
DC_GROUP_HCN125_7
340
0
102
{BLKREFS
331
41C
102
}
  0
BLOCK_RECORD
  5
DF
330
1
100
AcDbSymbolTableRecord
100
AcDbBlockTableRecord
  2
DC_GROUP_HCN125_8
340
0
102
{BLKREFS
331
41D
102
}
  0
BLOCK_RECORD
  5
E2
330
1
100
AcDbSymbolTableRecord
100
AcDbBlockTableRecord
  2
DC_GROUP_HCN125_9
340
0
102
{BLKREFS
331
41E
102
}
  0
BLOCK_RECORD
  5
E5
330
1
100
AcDbSymbolTableRecord
100
AcDbBlockTableRecord
  2
DC_GROUP_HCN125_10
340
0
102
{BLKREFS
331
41F
102
}
  0
BLOCK_RECORD
  5
E9
330
1
100
AcDbSymbolTableRecord
100
AcDbBlockTableRecord
  2
_OPEN30
340
0
102
{BLKREFS
331
EF
331
F0
331
F6
331
F7
331
FC
331
FD
331
100
331
101
331
106
331
107
331
10C
331
10D
331
112
331
113
331
118
331
119
331
11E
331
11F
331
124
331
125
331
12C
331
12F
331
130
331
133
331
134
331
138
331
139
331
140
331
142
331
148
331
14A
331
14D
331
14E
331
153
331
154
331
159
331
15A
331
15F
331
160
331
165
331
166
331
16B
331
16C
331
171
331
172
331
177
331
178
331
17D
331
17E
331
183
331
184
331
18C
331
18E
331
191
331
192
331
197
331
19B
331
19F
102
}
  0
ENDTAB
  0
ENDSEC
  0
SECTION
  2
BLOCKS
  0
BLOCK
  5
20
330
1F
100
AcDbEntity
  8
0
100
AcDbBlockBegin
  2
*Model_Space
 70
     0
 10
0.0
 20
0.0
 30
0.0
  3
*Model_Space
  1

  0
ENDBLK
  5
21
330
1F
100
AcDbEntity
  8
0
100
AcDbBlockEnd
  0
BLOCK
  5
1C
330
1B
100
AcDbEntity
 67
     1
  8
0
100
AcDbBlockBegin
  2
*Paper_Space
 70
     0
 10
0.0
 20
0.0
 30
0.0
  3
*Paper_Space
  1

  0
ENDBLK
  5
1D
330
1B
100
AcDbEntity
 67
     1
  8
0
100
AcDbBlockEnd
  0
BLOCK
  5
24
330
23
100
AcDbEntity
  8
0
100
AcDbBlockBegin
  2
*Paper_Space0
 70
     0
 10
0.0
 20
0.0
 30
0.0
  3
*Paper_Space0
  1

  0
ENDBLK
  5
25
330
23
100
AcDbEntity
  8
0
100
AcDbBlockEnd
  0
BLOCK
  5
77
330
76
100
AcDbEntity
  8
0
100
AcDbBlockBegin
  2
*D1
 70
     1
 10
0.0
 20
0.0
 30
0.0
  3
*D1
  1

  0
LINE
  5
E8
330
76
100
AcDbEntity
  8
Layer0015
  6
Continuous
 62
     2
370
    25
100
AcDbLine
 10
-433.9601767467551
 20
153.4542483660131
 30
0.0
 11
-433.9601767467551
 21
283.4542483660132
 31
0.0
  0
INSERT
  5
EF
330
76
100
AcDbEntity
  8
Layer0015
 62
     2
100
AcDbBlockReference
  2
_OPEN30
 10
-433.9601767467551
 20
153.4542483660131
 30
0.0
 41
4.587961098652522
 42
3.019162853224171
 50
270.0
  0
INSERT
  5
F0
330
76
100
AcDbEntity
  8
Layer0015
 62
     2
100
AcDbBlockReference
  2
_OPEN30
 10
-433.9601767467551
 20
283.4542483660132
 30
0.0
 41
4.587961098652522
 42
3.019162853224171
 50
90.0
  0
LINE
  5
F1
330
76
100
AcDbEntity
  8
Layer0015
  6
Continuous
 62
     2
370
    25
100
AcDbLine
 10
-403.729411764706
 20
153.4542483660131
 30
0.0
 11
-435.160176746755
 21
153.4542483660131
 31
0.0
  0
LINE
  5
F2
330
76
100
AcDbEntity
  8
Layer0015
  6
Continuous
 62
     2
370
    25
100
AcDbLine
 10
-403.729411764706
 20
283.4542483660132
 30
0.0
 11
-435.160176746755
 21
283.4542483660132
 31
0.0
  0
MTEXT
  5
F4
330
76
100
AcDbEntity
  8
Layer0015
 62
     2
100
AcDbMText
 10
-435.4601767467551
 20
218.4542483660132
 30
0.0
 40
9.0
 41
38.25000000000003
 71
     8
 72
     1
  1
\T1.00;130
  7
dcStyle0
 11
6.123031769111886E-17
 21
1.0
 31
0.0
 73
     1
 44
1.0
  0
ENDBLK
  5
78
330
76
100
AcDbEntity
  8
0
100
AcDbBlockEnd
  0
BLOCK
  5
7A
330
79
100
AcDbEntity
  8
0
100
AcDbBlockBegin
  2
*D2
 70
     1
 10
0.0
 20
0.0
 30
0.0
  3
*D2
  1

  0
LINE
  5
F5
330
79
100
AcDbEntity
  8
Layer0015
  6
Continuous
 62
     2
370
    25
100
AcDbLine
 10
-284.9969069317868
 20
153.9542483660131
 30
0.0
 11
-284.9969069317868
 21
282.9542483660132
 31
0.0
  0
INSERT
  5
F6
330
79
100
AcDbEntity
  8
Layer0015
 62
     2
100
AcDbBlockReference
  2
_OPEN30
 10
-284.9969069317868
 20
153.9542483660131
 30
0.0
 41
4.587961098652522
 42
3.019162853224171
 50
270.0
  0
INSERT
  5
F7
330
79
100
AcDbEntity
  8
Layer0015
 62
     2
100
AcDbBlockReference
  2
_OPEN30
 10
-284.9969069317868
 20
282.9542483660132
 30
0.0
 41
4.587961098652522
 42
3.019162853224171
 50
90.0
  0
LINE
  5
F8
330
79
100
AcDbEntity
  8
Layer0015
  6
Continuous
 62
     2
370
    25
100
AcDbLine
 10
-305.7294117647059
 20
153.9542483660131
 30
0.0
 11
-283.7969069317868
 21
153.9542483660131
 31
0.0
  0
LINE
  5
F9
330
79
100
AcDbEntity
  8
Layer0015
  6
Continuous
 62
     2
370
    25
100
AcDbLine
 10
-305.7294117647059
 20
282.9542483660132
 30
0.0
 11
-283.7969069317868
 21
282.9542483660132
 31
0.0
  0
MTEXT
  5
FA
330
79
100
AcDbEntity
  8
Layer0015
 62
     2
100
AcDbMText
 10
-286.4969069317868
 20
218.4542483660132
 30
0.0
 40
9.0
 41
38.25000000000003
 71
     8
 72
     1
  1
\T1.00;129
  7
dcStyle0
 11
6.123031769111886E-17
 21
1.0
 31
0.0
 73
     1
 44
1.0
  0
ENDBLK
  5
7B
330
79
100
AcDbEntity
  8
0
100
AcDbBlockEnd
  0
BLOCK
  5
7D
330
7C
100
AcDbEntity
  8
0
100
AcDbBlockBegin
  2
*D3
 70
     1
 10
0.0
 20
0.0
 30
0.0
  3
*D3
  1

  0
LINE
  5
FB
330
7C
100
AcDbEntity
  8
Layer0015
  6
Continuous
 62
     2
370
    25
100
AcDbLine
 10
-229.7714995857498
 20
182.9542483660131
 30
0.0
 11
-229.7714995857498
 21
253.9542483660132
 31
0.0
  0
INSERT
  5
FC
330
7C
100
AcDbEntity
  8
Layer0015
 62
     2
100
AcDbBlockReference
  2
_OPEN30
 10
-229.7714995857498
 20
182.9542483660131
 30
0.0
 41
4.587961098652522
 42
3.019162853224171
 50
270.0
  0
INSERT
  5
FD
330
7C
100
AcDbEntity
  8
Layer0015
 62
     2
100
AcDbBlockReference
  2
_OPEN30
 10
-229.7714995857498
 20
253.9542483660132
 30
0.0
 41
4.587961098652522
 42
3.019162853224171
 50
90.0
  0
MTEXT
  5
FE
330
7C
100
AcDbEntity
  8
Layer0015
 62
     2
100
AcDbMText
 10
-231.2714995857498
 20
218.4542483660131
 30
0.0
 40
9.0
 41
29.24999999999997
 71
     8
 72
     1
  1
\T1.00;71
  7
dcStyle0
 11
6.123031769111886E-17
 21
1.0
 31
0.0
 73
     1
 44
1.0
  0
ENDBLK
  5
7E
330
7C
100
AcDbEntity
  8
0
100
AcDbBlockEnd
  0
BLOCK
  5
80
330
7F
100
AcDbEntity
  8
0
100
AcDbBlockBegin
  2
*D4
 70
     1
 10
0.0
 20
0.0
 30
0.0
  3
*D4
  1

  0
LINE
  5
FF
330
7F
100
AcDbEntity
  8
Layer0015
  6
Continuous
 62
     2
370
    25
100
AcDbLine
 10
423.3684617508976
 20
107.454248366013
 30
0.0
 11
423.3684617508976
 21
153.4542483660131
 31
0.0
  0
INSERT
  5
100
330
7F
100
AcDbEntity
  8
Layer0015
 62
     2
100
AcDbBlockReference
  2
_OPEN30
 10
423.3684617508976
 20
107.454248366013
 30
0.0
 41
4.587961098652522
 42
3.019162853224171
 50
270.0
  0
INSERT
  5
101
330
7F
100
AcDbEntity
  8
Layer0015
 62
     2
100
AcDbBlockReference
  2
_OPEN30
 10
423.3684617508976
 20
153.4542483660131
 30
0.0
 41
4.587961098652522
 42
3.019162853224171
 50
90.0
  0
LINE
  5
102
330
7F
100
AcDbEntity
  8
Layer0015
  6
Continuous
 62
     2
370
    25
100
AcDbLine
 10
390.2705882352941
 20
107.454248366013
 30
0.0
 11
424.5684617508976
 21
107.454248366013
 31
0.0
  0
LINE
  5
103
330
7F
100
AcDbEntity
  8
Layer0015
  6
Continuous
 62
     2
370
    25
100
AcDbLine
 10
391.2705882352941
 20
153.4542483660131
 30
0.0
 11
424.5684617508976
 21
153.4542483660131
 31
0.0
  0
MTEXT
  5
104
330
7F
100
AcDbEntity
  8
Layer0015
 62
     2
100
AcDbMText
 10
421.8684617508976
 20
130.454248366013
 30
0.0
 40
9.0
 41
29.24999999999997
 71
     8
 72
     1
  1
\T1.00;46
  7
dcStyle0
 11
6.123031769111886E-17
 21
1.0
 31
0.0
 73
     1
 44
1.0
  0
ENDBLK
  5
81
330
7F
100
AcDbEntity
  8
0
100
AcDbBlockEnd
  0
BLOCK
  5
83
330
82
100
AcDbEntity
  8
0
100
AcDbBlockBegin
  2
*D5
 70
     1
 10
0.0
 20
0.0
 30
0.0
  3
*D5
  1

  0
LINE
  5
105
330
82
100
AcDbEntity
  8
Layer0015
  6
Continuous
 62
     2
370
    25
100
AcDbLine
 10
423.3684617508976
 20
153.4542483660131
 30
0.0
 11
423.3684617508976
 21
283.4542483660131
 31
0.0
  0
INSERT
  5
106
330
82
100
AcDbEntity
  8
Layer0015
 62
     2
100
AcDbBlockReference
  2
_OPEN30
 10
423.3684617508976
 20
153.4542483660131
 30
0.0
 41
4.587961098652522
 42
3.019162853224171
 50
270.0
  0
INSERT
  5
107
330
82
100
AcDbEntity
  8
Layer0015
 62
     2
100
AcDbBlockReference
  2
_OPEN30
 10
423.3684617508976
 20
283.4542483660131
 30
0.0
 41
4.587961098652522
 42
3.019162853224171
 50
90.0
  0
LINE
  5
108
330
82
100
AcDbEntity
  8
Layer0015
  6
Continuous
 62
     2
370
    25
100
AcDbLine
 10
391.2705882352941
 20
153.4542483660131
 30
0.0
 11
424.5684617508976
 21
153.4542483660131
 31
0.0
  0
LINE
  5
109
330
82
100
AcDbEntity
  8
Layer0015
  6
Continuous
 62
     2
370
    25
100
AcDbLine
 10
391.2705882352941
 20
283.4542483660131
 30
0.0
 11
424.5684617508976
 21
283.4542483660131
 31
0.0
  0
MTEXT
  5
10A
330
82
100
AcDbEntity
  8
Layer0015
 62
     2
100
AcDbMText
 10
421.8684617508976
 20
218.4542483660131
 30
0.0
 40
9.0
 41
38.25000000000003
 71
     8
 72
     1
  1
\T1.00;130
  7
dcStyle0
 11
6.123031769111886E-17
 21
1.0
 31
0.0
 73
     1
 44
1.0
  0
ENDBLK
  5
84
330
82
100
AcDbEntity
  8
0
100
AcDbBlockEnd
  0
BLOCK
  5
86
330
85
100
AcDbEntity
  8
0
100
AcDbBlockBegin
  2
*D6
 70
     1
 10
0.0
 20
0.0
 30
0.0
  3
*D6
  1

  0
LINE
  5
10B
330
85
100
AcDbEntity
  8
Layer0015
  6
Continuous
 62
     2
370
    25
100
AcDbLine
 10
423.3684617508976
 20
283.4542483660131
 30
0.0
 11
423.3684617508976
 21
329.4542483660133
 31
0.0
  0
INSERT
  5
10C
330
85
100
AcDbEntity
  8
Layer0015
 62
     2
100
AcDbBlockReference
  2
_OPEN30
 10
423.3684617508976
 20
283.4542483660131
 30
0.0
 41
4.587961098652522
 42
3.019162853224171
 50
270.0
  0
INSERT
  5
10D
330
85
100
AcDbEntity
  8
Layer0015
 62
     2
100
AcDbBlockReference
  2
_OPEN30
 10
423.3684617508976
 20
329.4542483660133
 30
0.0
 41
4.587961098652522
 42
3.019162853224171
 50
90.0
  0
LINE
  5
10E
330
85
100
AcDbEntity
  8
Layer0015
  6
Continuous
 62
     2
370
    25
100
AcDbLine
 10
391.2705882352941
 20
283.4542483660131
 30
0.0
 11
424.5684617508976
 21
283.4542483660131
 31
0.0
  0
LINE
  5
10F
330
85
100
AcDbEntity
  8
Layer0015
  6
Continuous
 62
     2
370
    25
100
AcDbLine
 10
390.2705882352941
 20
329.4542483660133
 30
0.0
 11
424.5684617508976
 21
329.4542483660133
 31
0.0
  0
MTEXT
  5
110
330
85
100
AcDbEntity
  8
Layer0015
 62
     2
100
AcDbMText
 10
421.8684617508976
 20
306.4542483660132
 30
0.0
 40
9.0
 41
29.24999999999997
 71
     8
 72
     1
  1
\T1.00;46
  7
dcStyle0
 11
6.123031769111886E-17
 21
1.0
 31
0.0
 73
     1
 44
1.0
  0
ENDBLK
  5
87
330
85
100
AcDbEntity
  8
0
100
AcDbBlockEnd
  0
BLOCK
  5
89
330
88
100
AcDbEntity
  8
0
100
AcDbBlockBegin
  2
*D7
 70
     1
 10
0.0
 20
0.0
 30
0.0
  3
*D7
  1

  0
LINE
  5
111
330
88
100
AcDbEntity
  8
Layer0015
  6
Continuous
 62
     2
370
    25
100
AcDbLine
 10
439.354763877382
 20
107.454248366013
 30
0.0
 11
439.354763877382
 21
329.4542483660133
 31
0.0
  0
INSERT
  5
112
330
88
100
AcDbEntity
  8
Layer0015
 62
     2
100
AcDbBlockReference
  2
_OPEN30
 10
439.354763877382
 20
107.454248366013
 30
0.0
 41
4.587961098652522
 42
3.019162853224171
 50
270.0
  0
INSERT
  5
113
330
88
100
AcDbEntity
  8
Layer0015
 62
     2
100
AcDbBlockReference
  2
_OPEN30
 10
439.354763877382
 20
329.4542483660133
 30
0.0
 41
4.587961098652522
 42
3.019162853224171
 50
90.0
  0
LINE
  5
114
330
88
100
AcDbEntity
  8
Layer0015
  6
Continuous
 62
     2
370
    25
100
AcDbLine
 10
390.2705882352941
 20
107.454248366013
 30
0.0
 11
440.554763877382
 21
107.454248366013
 31
0.0
  0
LINE
  5
115
330
88
100
AcDbEntity
  8
Layer0015
  6
Continuous
 62
     2
370
    25
100
AcDbLine
 10
390.2705882352941
 20
329.4542483660133
 30
0.0
 11
440.554763877382
 21
329.4542483660133
 31
0.0
  0
MTEXT
  5
116
330
88
100
AcDbEntity
  8
Layer0015
 62
     2
100
AcDbMText
 10
437.854763877382
 20
218.4542483660131
 30
0.0
 40
9.0
 41
38.25000000000003
 71
     8
 72
     1
  1
\T1.00;222
  7
dcStyle0
 11
6.123031769111886E-17
 21
1.0
 31
0.0
 73
     1
 44
1.0
  0
ENDBLK
  5
8A
330
88
100
AcDbEntity
  8
0
100
AcDbBlockEnd
  0
BLOCK
  5
8C
330
8B
100
AcDbEntity
  8
0
100
AcDbBlockBegin
  2
*D8
 70
     1
 10
0.0
 20
0.0
 30
0.0
  3
*D8
  1

  0
LINE
  5
117
330
8B
100
AcDbEntity
  8
Layer0015
  6
Continuous
 62
     2
370
    25
100
AcDbLine
 10
-432.4975421154378
 20
-227.1608179128768
 30
0.0
 11
-432.4975421154378
 21
-77.16081791287675
 31
0.0
  0
INSERT
  5
118
330
8B
100
AcDbEntity
  8
Layer0015
 62
     2
100
AcDbBlockReference
  2
_OPEN30
 10
-432.4975421154378
 20
-227.1608179128768
 30
0.0
 41
4.587961098652522
 42
3.019162853224171
 50
270.0
  0
INSERT
  5
119
330
8B
100
AcDbEntity
  8
Layer0015
 62
     2
100
AcDbBlockReference
  2
_OPEN30
 10
-432.4975421154378
 20
-77.16081791287675
 30
0.0
 41
4.587961098652522
 42
3.019162853224171
 50
90.0
  0
LINE
  5
11A
330
8B
100
AcDbEntity
  8
Layer0015
  6
Continuous
 62
     2
370
    25
100
AcDbLine
 10
-403.729411764706
 20
-227.1608179128768
 30
0.0
 11
-433.6975421154378
 21
-227.1608179128768
 31
0.0
  0
LINE
  5
11B
330
8B
100
AcDbEntity
  8
Layer0015
  6
Continuous
 62
     2
370
    25
100
AcDbLine
 10
-403.729411764706
 20
-77.16081791287675
 30
0.0
 11
-433.6975421154378
 21
-77.16081791287675
 31
0.0
  0
MTEXT
  5
11C
330
8B
100
AcDbEntity
  8
Layer0015
 62
     2
100
AcDbMText
 10
-433.9975421154378
 20
-152.1608179128768
 30
0.0
 40
9.0
 41
38.25000000000003
 71
     8
 72
     1
  1
\T1.00;150
  7
dcStyle0
 11
6.123031769111886E-17
 21
1.0
 31
0.0
 73
     1
 44
1.0
  0
ENDBLK
  5
8D
330
8B
100
AcDbEntity
  8
0
100
AcDbBlockEnd
  0
BLOCK
  5
8F
330
8E
100
AcDbEntity
  8
0
100
AcDbBlockBegin
  2
*D9
 70
     1
 10
0.0
 20
0.0
 30
0.0
  3
*D9
  1

  0
LINE
  5
11D
330
8E
100
AcDbEntity
  8
Layer0015
  6
Continuous
 62
     2
370
    25
100
AcDbLine
 10
-448.9168185584093
 20
-227.1608179128768
 30
0.0
 11
-448.9168185584093
 21
-53.66081791287677
 31
0.0
  0
INSERT
  5
11E
330
8E
100
AcDbEntity
  8
Layer0015
 62
     2
100
AcDbBlockReference
  2
_OPEN30
 10
-448.9168185584093
 20
-227.1608179128768
 30
0.0
 41
4.587961098652522
 42
3.019162853224171
 50
270.0
  0
INSERT
  5
11F
330
8E
100
AcDbEntity
  8
Layer0015
 62
     2
100
AcDbBlockReference
  2
_OPEN30
 10
-448.9168185584093
 20
-53.66081791287677
 30
0.0
 41
4.587961098652522
 42
3.019162853224171
 50
90.0
  0
LINE
  5
120
330
8E
100
AcDbEntity
  8
Layer0015
  6
Continuous
 62
     2
370
    25
100
AcDbLine
 10
-403.729411764706
 20
-227.1608179128768
 30
0.0
 11
-450.1168185584092
 21
-227.1608179128768
 31
0.0
  0
LINE
  5
121
330
8E
100
AcDbEntity
  8
Layer0015
  6
Continuous
 62
     2
370
    25
100
AcDbLine
 10
-388.729411764706
 20
-53.66081791287677
 30
0.0
 11
-450.1168185584092
 21
-53.66081791287677
 31
0.0
  0
MTEXT
  5
122
330
8E
100
AcDbEntity
  8
Layer0015
 62
     2
100
AcDbMText
 10
-450.4168185584093
 20
-140.4108179128768
 30
0.0
 40
9.0
 41
56.25
 71
     8
 72
     1
  1
\T1.00;173.5
  7
dcStyle0
 11
6.123031769111886E-17
 21
1.0
 31
0.0
 73
     1
 44
1.0
  0
ENDBLK
  5
90
330
8E
100
AcDbEntity
  8
0
100
AcDbBlockEnd
  0
BLOCK
  5
92
330
91
100
AcDbEntity
  8
0
100
AcDbBlockBegin
  2
*D10
 70
     1
 10
0.0
 20
0.0
 30
0.0
  3
*D10
  1

  0
LINE
  5
123
330
91
100
AcDbEntity
  8
Layer0015
  6
Continuous
 62
     2
370
    13
100
AcDbLine
 10
-402.229411764706
 20
44.74639344446642
 30
0.0
 11
145.2705882352943
 21
44.74639344446642
 31
0.0
  0
INSERT
  5
124
330
91
100
AcDbEntity
  8
Layer0015
 62
     2
100
AcDbBlockReference
  2
_OPEN30
 10
-402.229411764706
 20
44.74639344446642
 30
0.0
 41
4.587961098652522
 42
3.019162853224171
 50
180.0
  0
INSERT
  5
125
330
91
100
AcDbEntity
  8
Layer0015
 62
     2
100
AcDbBlockReference
  2
_OPEN30
 10
145.2705882352943
 20
44.74639344446642
 30
0.0
 41
4.587961098652522
 42
3.019162853224171
 50
360.0
  0
LINE
  5
126
330
91
100
AcDbEntity
  8
Layer0015
  6
Continuous
 62
     2
370
    13
100
AcDbLine
 10
-402.229411764706
 20
151.9542483660131
 30
0.0
 11
-402.229411764706
 21
43.54639344446642
 31
0.0
  0
LINE
  5
127
330
91
100
AcDbEntity
  8
Layer0015
  6
Continuous
 62
     2
370
    13
100
AcDbLine
 10
145.2705882352943
 20
210.2042483660131
 30
0.0
 11
145.2705882352943
 21
43.54639344446642
 31
0.0
  0
MTEXT
  5
128
330
91
100
AcDbEntity
  8
Layer0015
 62
     2
100
AcDbMText
 10
-128.4794117647058
 20
46.24639344446642
 30
0.0
 40
9.0
 41
38.25000000000001
 71
     8
 72
     1
  1
\T1.00;548
  7
dcStyle0
 73
     1
 44
1.0
  0
ENDBLK
  5
93
330
91
100
AcDbEntity
  8
0
100
AcDbBlockEnd
  0
BLOCK
  5
95
330
94
100
AcDbEntity
  8
0
100
AcDbBlockBegin
  2
*D11
 70
     1
 10
0.0
 20
0.0
 30
0.0
  3
*D11
  1

  0
LINE
  5
129
330
94
100
AcDbEntity
  8
Layer0015
  6
Continuous
 62
     2
370
    13
100
AcDbLine
 10
-252.5206313041554
 20
-235.1608179128768
 30
0.0
 11
-252.5206313041554
 21
-227.1608179128768
 31
0.0
  0
LINE
  5
12A
330
94
100
AcDbEntity
  8
Layer0015
  6
Continuous
 62
     2
370
    13
100
AcDbLine
 10
-250.7294117647059
 20
-235.1608179128768
 30
0.0
 11
-253.7206313041554
 21
-235.1608179128768
 31
0.0
  0
LINE
  5
12B
330
94
100
AcDbEntity
  8
Layer0015
  6
Continuous
 62
     2
370
    13
100
AcDbLine
 10
-252.5206313041554
 20
-246.7924479128768
 30
0.0
 11
-252.5206313041554
 21
-235.1608179128768
 31
0.0
  0
INSERT
  5
12C
330
94
100
AcDbEntity
  8
Layer0015
 62
     2
100
AcDbBlockReference
  2
_OPEN30
 10
-252.5206313041554
 20
-235.1608179128768
 30
0.0
 41
4.587961098652522
 42
3.019162853224171
 50
90.0
  0
MTEXT
  5
12D
330
94
100
AcDbEntity
  8
Layer0015
 62
     2
100
AcDbMText
 10
-254.0206313041554
 20
-239.5924479128768
 30
0.0
 40
9.0
 41
20.25000000000002
 71
     9
 72
     1
  1
\T1.00;8
  7
dcStyle0
 11
6.123031769111886E-17
 21
1.0
 31
0.0
 73
     1
 44
1.0
  0
ENDBLK
  5
96
330
94
100
AcDbEntity
  8
0
100
AcDbBlockEnd
  0
BLOCK
  5
98
330
97
100
AcDbEntity
  8
0
100
AcDbBlockBegin
  2
*D12
 70
     1
 10
0.0
 20
0.0
 30
0.0
  3
*D12
  1

  0
LINE
  5
12E
330
97
100
AcDbEntity
  8
Layer0015
  6
Continuous
 62
     2
370
    13
100
AcDbLine
 10
-252.5206313041554
 20
-227.1608179128768
 30
0.0
 11
-252.5206313041554
 21
-122.1608179128768
 31
0.0
  0
INSERT
  5
12F
330
97
100
AcDbEntity
  8
Layer0015
 62
     2
100
AcDbBlockReference
  2
_OPEN30
 10
-252.5206313041554
 20
-227.1608179128768
 30
0.0
 41
4.587961098652522
 42
3.019162853224171
 50
270.0
  0
INSERT
  5
130
330
97
100
AcDbEntity
  8
Layer0015
 62
     2
100
AcDbBlockReference
  2
_OPEN30
 10
-252.5206313041554
 20
-122.1608179128768
 30
0.0
 41
4.587961098652522
 42
3.019162853224171
 50
90.0
  0
MTEXT
  5
131
330
97
100
AcDbEntity
  8
Layer0015
 62
     2
100
AcDbMText
 10
-254.0206313041554
 20
-174.6608179128767
 30
0.0
 40
9.0
 41
38.24999999999999
 71
     8
 72
     1
  1
\T1.00;105
  7
dcStyle0
 11
6.123031769111886E-17
 21
1.0
 31
0.0
 73
     1
 44
1.0
  0
ENDBLK
  5
99
330
97
100
AcDbEntity
  8
0
100
AcDbBlockEnd
  0
BLOCK
  5
9B
330
9A
100
AcDbEntity
  8
0
100
AcDbBlockBegin
  2
*D13
 70
     1
 10
0.0
 20
0.0
 30
0.0
  3
*D13
  1

  0
LINE
  5
132
330
9A
100
AcDbEntity
  8
Layer0015
  6
Continuous
 62
     2
370
    13
100
AcDbLine
 10
-252.5206313041554
 20
-122.1608179128768
 30
0.0
 11
-252.5206313041554
 21
-76.16081791287675
 31
0.0
  0
INSERT
  5
133
330
9A
100
AcDbEntity
  8
Layer0015
 62
     2
100
AcDbBlockReference
  2
_OPEN30
 10
-252.5206313041554
 20
-122.1608179128768
 30
0.0
 41
4.587961098652522
 42
3.019162853224171
 50
270.0
  0
INSERT
  5
134
330
9A
100
AcDbEntity
  8
Layer0015
 62
     2
100
AcDbBlockReference
  2
_OPEN30
 10
-252.5206313041554
 20
-76.16081791287675
 30
0.0
 41
4.587961098652522
 42
3.019162853224171
 50
90.0
  0
LINE
  5
135
330
9A
100
AcDbEntity
  8
Layer0015
  6
Continuous
 62
     2
370
    13
100
AcDbLine
 10
-305.7294117647059
 20
-76.16081791287675
 30
0.0
 11
-251.3206313041555
 21
-76.16081791287675
 31
0.0
  0
MTEXT
  5
136
330
9A
100
AcDbEntity
  8
Layer0015
 62
     2
100
AcDbMText
 10
-254.0206313041554
 20
-99.16081791287677
 30
0.0
 40
9.0
 41
29.25000000000001
 71
     8
 72
     1
  1
\T1.00;46
  7
dcStyle0
 11
6.123031769111886E-17
 21
1.0
 31
0.0
 73
     1
 44
1.0
  0
ENDBLK
  5
9C
330
9A
100
AcDbEntity
  8
0
100
AcDbBlockEnd
  0
BLOCK
  5
9E
330
9D
100
AcDbEntity
  8
0
100
AcDbBlockBegin
  2
*D14
 70
     1
 10
0.0
 20
0.0
 30
0.0
  3
*D14
  1

  0
LINE
  5
137
330
9D
100
AcDbEntity
  8
Layer0015
  6
Continuous
 62
     2
370
    13
100
AcDbLine
 10
-220.6189511014499
 20
-227.1608179128768
 30
0.0
 11
-220.6189511014499
 21
-58.66081791287677
 31
0.0
  0
INSERT
  5
138
330
9D
100
AcDbEntity
  8
Layer0015
 62
     2
100
AcDbBlockReference
  2
_OPEN30
 10
-220.6189511014499
 20
-227.1608179128768
 30
0.0
 41
4.587961098652522
 42
3.019162853224171
 50
270.0
  0
INSERT
  5
139
330
9D
100
AcDbEntity
  8
Layer0015
 62
     2
100
AcDbBlockReference
  2
_OPEN30
 10
-220.6189511014499
 20
-58.66081791287677
 30
0.0
 41
4.587961098652522
 42
3.019162853224171
 50
90.0
  0
LINE
  5
13A
330
9D
100
AcDbEntity
  8
Layer0015
  6
Continuous
 62
     2
370
    13
100
AcDbLine
 10
-330.7294117647059
 20
-58.66081791287677
 30
0.0
 11
-219.4189511014499
 21
-58.66081791287677
 31
0.0
  0
MTEXT
  5
13B
330
9D
100
AcDbEntity
  8
Layer0015
 62
     2
100
AcDbMText
 10
-222.1189511014499
 20
-142.9108179128768
 30
0.0
 40
9.0
 41
56.25
 71
     8
 72
     1
  1
\T1.00;168.5
  7
dcStyle0
 11
6.123031769111886E-17
 21
1.0
 31
0.0
 73
     1
 44
1.0
  0
ENDBLK
  5
9F
330
9D
100
AcDbEntity
  8
0
100
AcDbBlockEnd
  0
BLOCK
  5
A1
330
A0
100
AcDbEntity
  8
0
100
AcDbBlockBegin
  2
DA_IMAGEDIMGROUP_1
 70
     0
 10
0.0
 20
0.0
 30
0.0
  3
DA_IMAGEDIMGROUP_1
  1

  0
LINE
  5
13C
330
A0
100
AcDbEntity
  8
Layer0015
  6
Continuous
 62
     2
370
    13
100
AcDbLine
 10
-322.2294117647059
 20
-74.66081791287675
 30
0.0
 11
-322.2294117647059
 21
-69.14900916621227
 31
0.0
  0
LINE
  5
13D
330
A0
100
AcDbEntity
  8
Layer0015
  6
Continuous
 62
     2
370
    13
100
AcDbLine
 10
-307.2294117647059
 20
-74.66081791287675
 30
0.0
 11
-307.2294117647059
 21
-69.14900916621227
 31
0.0
  0
LINE
  5
13E
330
A0
100
AcDbEntity
  8
Layer0015
  6
Continuous
 62
     2
370
    13
100
AcDbLine
 10
-322.2294117647059
 20
-70.34900916621227
 30
0.0
 11
-307.2294117647059
 21
-70.34900916621227
 31
0.0
  0
LINE
  5
13F
330
A0
100
AcDbEntity
  8
Layer0015
  6
Continuous
 62
     2
370
    13
100
AcDbLine
 10
-287.4825542767367
 20
-70.34900916621227
 30
0.0
 11
-307.2294117647059
 21
-70.34900916621227
 31
0.0
  0
INSERT
  5
140
330
A0
100
AcDbEntity
  8
Layer0015
 62
     2
100
AcDbBlockReference
  2
_OPEN30
 10
-307.2294117647059
 20
-70.34900916621227
 30
0.0
 41
4.587961098652522
 42
3.019162853224171
 50
180.0
  0
LINE
  5
141
330
A0
100
AcDbEntity
  8
Layer0015
  6
Continuous
 62
     2
370
    13
100
AcDbLine
 10
-328.2294117647059
 20
-70.34900916621227
 30
0.0
 11
-322.2294117647059
 21
-70.34900916621227
 31
0.0
  0
INSERT
  5
142
330
A0
100
AcDbEntity
  8
Layer0015
 62
     2
100
AcDbBlockReference
  2
_OPEN30
 10
-322.2294117647059
 20
-70.34900916621227
 30
0.0
 41
4.587961098652522
 42
3.019162853224171
 50
360.0
  0
MTEXT
  5
143
330
A0
100
AcDbEntity
  8
Layer0015
 62
     2
100
AcDbMText
 10
-301.8825542767367
 20
-68.84900916621227
 30
0.0
 40
9.0
 41
29.24999999999997
 71
     7
 72
     1
  1
\T1.00;15
  7
dcStyle0
 73
     1
 44
1.0
  0
ENDBLK
  5
A2
330
A0
100
AcDbEntity
  8
0
100
AcDbBlockEnd
  0
BLOCK
  5
A4
330
A3
100
AcDbEntity
  8
0
100
AcDbBlockBegin
  2
DA_IMAGEDIMGROUP_2
 70
     0
 10
0.0
 20
0.0
 30
0.0
  3
DA_IMAGEDIMGROUP_2
  1

  0
LINE
  5
144
330
A3
100
AcDbEntity
  8
Layer0015
  6
Continuous
 62
     2
370
    13
100
AcDbLine
 10
-249.2294117647059
 20
-236.6608179128768
 30
0.0
 11
-249.2294117647059
 21
-254.8520214209726
 31
0.0
  0
LINE
  5
145
330
A3
100
AcDbEntity
  8
Layer0015
  6
Continuous
 62
     2
370
    13
100
AcDbLine
 10
-231.2294117647059
 20
-236.6608179128768
 30
0.0
 11
-231.2294117647059
 21
-254.8520214209726
 31
0.0
  0
LINE
  5
146
330
A3
100
AcDbEntity
  8
Layer0015
  6
Continuous
 62
     2
370
    13
100
AcDbLine
 10
-249.2294117647059
 20
-253.6520214209726
 30
0.0
 11
-231.2294117647059
 21
-253.6520214209726
 31
0.0
  0
LINE
  5
147
330
A3
100
AcDbEntity
  8
Layer0015
  6
Continuous
 62
     2
370
    13
100
AcDbLine
 10
-212.3977817647059
 20
-253.6520214209726
 30
0.0
 11
-231.2294117647059
 21
-253.6520214209726
 31
0.0
  0
INSERT
  5
148
330
A3
100
AcDbEntity
  8
Layer0015
 62
     2
100
AcDbBlockReference
  2
_OPEN30
 10
-231.2294117647059
 20
-253.6520214209726
 30
0.0
 41
4.587961098652522
 42
3.019162853224171
 50
180.0
  0
LINE
  5
149
330
A3
100
AcDbEntity
  8
Layer0015
  6
Continuous
 62
     2
370
    13
100
AcDbLine
 10
-255.2294117647059
 20
-253.6520214209726
 30
0.0
 11
-249.2294117647059
 21
-253.6520214209726
 31
0.0
  0
INSERT
  5
14A
330
A3
100
AcDbEntity
  8
Layer0015
 62
     2
100
AcDbBlockReference
  2
_OPEN30
 10
-249.2294117647059
 20
-253.6520214209726
 30
0.0
 41
4.587961098652522
 42
3.019162853224171
 50
360.0
  0
MTEXT
  5
14B
330
A3
100
AcDbEntity
  8
Layer0015
 62
     2
100
AcDbMText
 10
-226.7977817647059
 20
-252.1520214209726
 30
0.0
 40
9.0
 41
29.25000000000001
 71
     7
 72
     1
  1
\T1.00;18
  7
dcStyle0
 73
     1
 44
1.0
  0
ENDBLK
  5
A5
330
A3
100
AcDbEntity
  8
0
100
AcDbBlockEnd
  0
BLOCK
  5
A7
330
A6
100
AcDbEntity
  8
0
100
AcDbBlockBegin
  2
*D17
 70
     1
 10
0.0
 20
0.0
 30
0.0
  3
*D17
  1

  0
LINE
  5
14C
330
A6
100
AcDbEntity
  8
Layer0015
  6
Continuous
 62
     2
370
    13
100
AcDbLine
 10
-307.2294117647059
 20
-266.427920794288
 30
0.0
 11
-240.2294117647059
 21
-266.427920794288
 31
0.0
  0
INSERT
  5
14D
330
A6
100
AcDbEntity
  8
Layer0015
 62
     2
100
AcDbBlockReference
  2
_OPEN30
 10
-307.2294117647059
 20
-266.427920794288
 30
0.0
 41
4.587961098652522
 42
3.019162853224171
 50
180.0
  0
INSERT
  5
14E
330
A6
100
AcDbEntity
  8
Layer0015
 62
     2
100
AcDbBlockReference
  2
_OPEN30
 10
-240.2294117647059
 20
-266.427920794288
 30
0.0
 41
4.587961098652522
 42
3.019162853224171
 50
360.0
  0
LINE
  5
14F
330
A6
100
AcDbEntity
  8
Layer0015
  6
Continuous
 62
     2
370
    13
100
AcDbLine
 10
-307.2294117647059
 20
-123.6608179128768
 30
0.0
 11
-307.2294117647059
 21
-267.627920794288
 31
0.0
  0
LINE
  5
150
330
A6
100
AcDbEntity
  8
Layer0015
  6
Continuous
 62
     2
370
    13
100
AcDbLine
 10
-240.2294117647059
 20
-238.5667219000277
 30
0.0
 11
-240.2294117647059
 21
-267.627920794288
 31
0.0
  0
MTEXT
  5
151
330
A6
100
AcDbEntity
  8
Layer0015
 62
     2
100
AcDbMText
 10
-273.7294117647059
 20
-264.927920794288
 30
0.0
 40
9.0
 41
29.24999999999997
 71
     8
 72
     1
  1
\T1.00;67
  7
dcStyle0
 73
     1
 44
1.0
  0
ENDBLK
  5
A8
330
A6
100
AcDbEntity
  8
0
100
AcDbBlockEnd
  0
BLOCK
  5
AA
330
A9
100
AcDbEntity
  8
0
100
AcDbBlockBegin
  2
*D18
 70
     1
 10
0.0
 20
0.0
 30
0.0
  3
*D18
  1

  0
LINE
  5
152
330
A9
100
AcDbEntity
  8
Layer0015
  6
Continuous
 62
     2
370
    13
100
AcDbLine
 10
-240.2294117647059
 20
-266.427920794288
 30
0.0
 11
-190.2294117647059
 21
-266.427920794288
 31
0.0
  0
INSERT
  5
153
330
A9
100
AcDbEntity
  8
Layer0015
 62
     2
100
AcDbBlockReference
  2
_OPEN30
 10
-240.2294117647059
 20
-266.427920794288
 30
0.0
 41
4.587961098652522
 42
3.019162853224171
 50
180.0
  0
INSERT
  5
154
330
A9
100
AcDbEntity
  8
Layer0015
 62
     2
100
AcDbBlockReference
  2
_OPEN30
 10
-190.2294117647059
 20
-266.427920794288
 30
0.0
 41
4.587961098652522
 42
3.019162853224171
 50
360.0
  0
LINE
  5
155
330
A9
100
AcDbEntity
  8
Layer0015
  6
Continuous
 62
     2
370
    13
100
AcDbLine
 10
-240.2294117647059
 20
-238.5667219000277
 30
0.0
 11
-240.2294117647059
 21
-267.627920794288
 31
0.0
  0
LINE
  5
156
330
A9
100
AcDbEntity
  8
Layer0015
  6
Continuous
 62
     2
370
    13
100
AcDbLine
 10
-190.2294117647059
 20
-232.6002278255832
 30
0.0
 11
-190.2294117647059
 21
-267.627920794288
 31
0.0
  0
MTEXT
  5
157
330
A9
100
AcDbEntity
  8
Layer0015
 62
     2
100
AcDbMText
 10
-215.2294117647059
 20
-264.927920794288
 30
0.0
 40
9.0
 41
29.24999999999997
 71
     8
 72
     1
  1
\T1.00;50
  7
dcStyle0
 73
     1
 44
1.0
  0
ENDBLK
  5
AB
330
A9
100
AcDbEntity
  8
0
100
AcDbBlockEnd
  0
BLOCK
  5
AD
330
AC
100
AcDbEntity
  8
0
100
AcDbBlockBegin
  2
*D19
 70
     1
 10
0.0
 20
0.0
 30
0.0
  3
*D19
  1

  0
LINE
  5
158
330
AC
100
AcDbEntity
  8
Layer0015
  6
Continuous
 62
     2
370
    13
100
AcDbLine
 10
-190.2294117647059
 20
-266.427920794288
 30
0.0
 11
-140.2294117647059
 21
-266.427920794288
 31
0.0
  0
INSERT
  5
159
330
AC
100
AcDbEntity
  8
Layer0015
 62
     2
100
AcDbBlockReference
  2
_OPEN30
 10
-190.2294117647059
 20
-266.427920794288
 30
0.0
 41
4.587961098652522
 42
3.019162853224171
 50
180.0
  0
INSERT
  5
15A
330
AC
100
AcDbEntity
  8
Layer0015
 62
     2
100
AcDbBlockReference
  2
_OPEN30
 10
-140.2294117647059
 20
-266.427920794288
 30
0.0
 41
4.587961098652522
 42
3.019162853224171
 50
360.0
  0
LINE
  5
15B
330
AC
100
AcDbEntity
  8
Layer0015
  6
Continuous
 62
     2
370
    13
100
AcDbLine
 10
-190.2294117647059
 20
-232.6002278255832
 30
0.0
 11
-190.2294117647059
 21
-267.627920794288
 31
0.0
  0
LINE
  5
15C
330
AC
100
AcDbEntity
  8
Layer0015
  6
Continuous
 62
     2
370
    13
100
AcDbLine
 10
-140.2294117647059
 20
-232.6002278255832
 30
0.0
 11
-140.2294117647059
 21
-267.627920794288
 31
0.0
  0
MTEXT
  5
15D
330
AC
100
AcDbEntity
  8
Layer0015
 62
     2
100
AcDbMText
 10
-165.2294117647059
 20
-264.927920794288
 30
0.0
 40
9.0
 41
29.24999999999997
 71
     8
 72
     1
  1
\T1.00;50
  7
dcStyle0
 73
     1
 44
1.0
  0
ENDBLK
  5
AE
330
AC
100
AcDbEntity
  8
0
100
AcDbBlockEnd
  0
BLOCK
  5
B0
330
AF
100
AcDbEntity
  8
0
100
AcDbBlockBegin
  2
*D20
 70
     1
 10
0.0
 20
0.0
 30
0.0
  3
*D20
  1

  0
LINE
  5
15E
330
AF
100
AcDbEntity
  8
Layer0015
  6
Continuous
 62
     2
370
    13
100
AcDbLine
 10
-402.229411764706
 20
-292.4248485676737
 30
0.0
 11
72.77058823529404
 21
-292.4248485676737
 31
0.0
  0
INSERT
  5
15F
330
AF
100
AcDbEntity
  8
Layer0015
 62
     2
100
AcDbBlockReference
  2
_OPEN30
 10
-402.229411764706
 20
-292.4248485676737
 30
0.0
 41
4.587961098652522
 42
3.019162853224171
 50
180.0
  0
INSERT
  5
160
330
AF
100
AcDbEntity
  8
Layer0015
 62
     2
100
AcDbBlockReference
  2
_OPEN30
 10
72.77058823529404
 20
-292.4248485676737
 30
0.0
 41
4.587961098652522
 42
3.019162853224171
 50
360.0
  0
LINE
  5
161
330
AF
100
AcDbEntity
  8
Layer0015
  6
Continuous
 62
     2
370
    13
100
AcDbLine
 10
-402.229411764706
 20
-228.6608179128768
 30
0.0
 11
-402.229411764706
 21
-293.6248485676737
 31
0.0
  0
LINE
  5
162
330
AF
100
AcDbEntity
  8
Layer0015
  6
Continuous
 62
     2
370
    13
100
AcDbLine
 10
72.77058823529404
 20
-228.6608179128768
 30
0.0
 11
72.77058823529404
 21
-293.6248485676737
 31
0.0
  0
MTEXT
  5
163
330
AF
100
AcDbEntity
  8
Layer0015
 62
     2
100
AcDbMText
 10
-164.729411764706
 20
-290.9248485676737
 30
0.0
 40
9.0
 41
38.25000000000003
 71
     8
 72
     1
  1
\T1.00;475
  7
dcStyle0
 73
     1
 44
1.0
  0
ENDBLK
  5
B1
330
AF
100
AcDbEntity
  8
0
100
AcDbBlockEnd
  0
BLOCK
  5
B3
330
B2
100
AcDbEntity
  8
0
100
AcDbBlockBegin
  2
*D21
 70
     1
 10
0.0
 20
0.0
 30
0.0
  3
*D21
  1

  0
LINE
  5
164
330
B2
100
AcDbEntity
  8
Layer0015
  6
Continuous
 62
     2
370
    13
100
AcDbLine
 10
72.77058823529404
 20
-292.4248485676737
 30
0.0
 11
145.2705882352943
 21
-292.4248485676737
 31
0.0
  0
INSERT
  5
165
330
B2
100
AcDbEntity
  8
Layer0015
 62
     2
100
AcDbBlockReference
  2
_OPEN30
 10
72.77058823529404
 20
-292.4248485676737
 30
0.0
 41
4.587961098652522
 42
3.019162853224171
 50
180.0
  0
INSERT
  5
166
330
B2
100
AcDbEntity
  8
Layer0015
 62
     2
100
AcDbBlockReference
  2
_OPEN30
 10
145.2705882352943
 20
-292.4248485676737
 30
0.0
 41
4.587961098652522
 42
3.019162853224171
 50
360.0
  0
LINE
  5
167
330
B2
100
AcDbEntity
  8
Layer0015
  6
Continuous
 62
     2
370
    13
100
AcDbLine
 10
72.77058823529404
 20
-228.6608179128768
 30
0.0
 11
72.77058823529404
 21
-293.6248485676737
 31
0.0
  0
LINE
  5
168
330
B2
100
AcDbEntity
  8
Layer0015
  6
Continuous
 62
     2
370
    13
100
AcDbLine
 10
145.2705882352943
 20
-168.4108179128768
 30
0.0
 11
145.2705882352943
 21
-293.6248485676737
 31
0.0
  0
MTEXT
  5
169
330
B2
100
AcDbEntity
  8
Layer0015
 62
     2
100
AcDbMText
 10
109.0205882352942
 20
-290.9248485676737
 30
0.0
 40
9.0
 41
29.25000000000001
 71
     8
 72
     1
  1
\T1.00;73
  7
dcStyle0
 73
     1
 44
1.0
  0
ENDBLK
  5
B4
330
B2
100
AcDbEntity
  8
0
100
AcDbBlockEnd
  0
BLOCK
  5
B6
330
B5
100
AcDbEntity
  8
0
100
AcDbBlockBegin
  2
*D22
 70
     1
 10
0.0
 20
0.0
 30
0.0
  3
*D22
  1

  0
LINE
  5
16A
330
B5
100
AcDbEntity
  8
Layer0015
  6
Continuous
 62
     2
370
    13
100
AcDbLine
 10
145.2705882352943
 20
-292.4248485676737
 30
0.0
 11
224.2705882352944
 21
-292.4248485676737
 31
0.0
  0
INSERT
  5
16B
330
B5
100
AcDbEntity
  8
Layer0015
 62
     2
100
AcDbBlockReference
  2
_OPEN30
 10
145.2705882352943
 20
-292.4248485676737
 30
0.0
 41
4.587961098652522
 42
3.019162853224171
 50
180.0
  0
INSERT
  5
16C
330
B5
100
AcDbEntity
  8
Layer0015
 62
     2
100
AcDbBlockReference
  2
_OPEN30
 10
224.2705882352944
 20
-292.4248485676737
 30
0.0
 41
4.587961098652522
 42
3.019162853224171
 50
360.0
  0
LINE
  5
16D
330
B5
100
AcDbEntity
  8
Layer0015
  6
Continuous
 62
     2
370
    13
100
AcDbLine
 10
145.2705882352943
 20
-168.4108179128768
 30
0.0
 11
145.2705882352943
 21
-293.6248485676737
 31
0.0
  0
LINE
  5
16E
330
B5
100
AcDbEntity
  8
Layer0015
  6
Continuous
 62
     2
370
    13
100
AcDbLine
 10
224.2705882352944
 20
-272.1608179128754
 30
0.0
 11
224.2705882352944
 21
-293.6248485676737
 31
0.0
  0
MTEXT
  5
16F
330
B5
100
AcDbEntity
  8
Layer0015
 62
     2
100
AcDbMText
 10
184.7705882352944
 20
-290.9248485676737
 30
0.0
 40
9.0
 41
29.24999999999997
 71
     8
 72
     1
  1
\T1.00;79
  7
dcStyle0
 73
     1
 44
1.0
  0
ENDBLK
  5
B7
330
B5
100
AcDbEntity
  8
0
100
AcDbBlockEnd
  0
BLOCK
  5
B9
330
B8
100
AcDbEntity
  8
0
100
AcDbBlockBegin
  2
*D23
 70
     1
 10
0.0
 20
0.0
 30
0.0
  3
*D23
  1

  0
LINE
  5
170
330
B8
100
AcDbEntity
  8
Layer0015
  6
Continuous
 62
     2
370
    13
100
AcDbLine
 10
-402.229411764706
 20
-24.04032749949175
 30
0.0
 11
-307.2294117647059
 21
-24.04032749949175
 31
0.0
  0
INSERT
  5
171
330
B8
100
AcDbEntity
  8
Layer0015
 62
     2
100
AcDbBlockReference
  2
_OPEN30
 10
-402.229411764706
 20
-24.04032749949175
 30
0.0
 41
4.587961098652522
 42
3.019162853224171
 50
180.0
  0
INSERT
  5
172
330
B8
100
AcDbEntity
  8
Layer0015
 62
     2
100
AcDbBlockReference
  2
_OPEN30
 10
-307.2294117647059
 20
-24.04032749949175
 30
0.0
 41
4.587961098652522
 42
3.019162853224171
 50
360.0
  0
LINE
  5
173
330
B8
100
AcDbEntity
  8
Layer0015
  6
Continuous
 62
     2
370
    13
100
AcDbLine
 10
-402.229411764706
 20
-75.66081791287675
 30
0.0
 11
-402.229411764706
 21
-22.84032749949175
 31
0.0
  0
LINE
  5
174
330
B8
100
AcDbEntity
  8
Layer0015
  6
Continuous
 62
     2
370
    13
100
AcDbLine
 10
-307.2294117647059
 20
-74.66081791287675
 30
0.0
 11
-307.2294117647059
 21
-22.84032749949175
 31
0.0
  0
MTEXT
  5
175
330
B8
100
AcDbEntity
  8
Layer0015
 62
     2
100
AcDbMText
 10
-354.729411764706
 20
-22.54032749949175
 30
0.0
 40
9.0
 41
29.24999999999997
 71
     8
 72
     1
  1
\T1.00;95
  7
dcStyle0
 73
     1
 44
1.0
  0
ENDBLK
  5
BA
330
B8
100
AcDbEntity
  8
0
100
AcDbBlockEnd
  0
BLOCK
  5
BC
330
BB
100
AcDbEntity
  8
0
100
AcDbBlockBegin
  2
*D24
 70
     1
 10
0.0
 20
0.0
 30
0.0
  3
*D24
  1

  0
LINE
  5
176
330
BB
100
AcDbEntity
  8
Layer0015
  6
Continuous
 62
     2
370
    13
100
AcDbLine
 10
-307.2294117647059
 20
-24.04032749949175
 30
0.0
 11
-52.22941176470593
 21
-24.04032749949175
 31
0.0
  0
INSERT
  5
177
330
BB
100
AcDbEntity
  8
Layer0015
 62
     2
100
AcDbBlockReference
  2
_OPEN30
 10
-307.2294117647059
 20
-24.04032749949175
 30
0.0
 41
4.587961098652522
 42
3.019162853224171
 50
180.0
  0
INSERT
  5
178
330
BB
100
AcDbEntity
  8
Layer0015
 62
     2
100
AcDbBlockReference
  2
_OPEN30
 10
-52.22941176470593
 20
-24.04032749949175
 30
0.0
 41
4.587961098652522
 42
3.019162853224171
 50
360.0
  0
LINE
  5
179
330
BB
100
AcDbEntity
  8
Layer0015
  6
Continuous
 62
     2
370
    13
100
AcDbLine
 10
-307.2294117647059
 20
-74.66081791287675
 30
0.0
 11
-307.2294117647059
 21
-22.84032749949175
 31
0.0
  0
LINE
  5
17A
330
BB
100
AcDbEntity
  8
Layer0015
  6
Continuous
 62
     2
370
    13
100
AcDbLine
 10
-52.22941176470593
 20
-74.66081791287675
 30
0.0
 11
-52.22941176470593
 21
-22.84032749949175
 31
0.0
  0
MTEXT
  5
17B
330
BB
100
AcDbEntity
  8
Layer0015
 62
     2
100
AcDbMText
 10
-179.7294117647059
 20
-22.54032749949175
 30
0.0
 40
9.0
 41
56.25
 71
     8
 72
     1
  1
\T1.00;0～250
  7
dcStyle0
 73
     1
 44
1.0
  0
ENDBLK
  5
BD
330
BB
100
AcDbEntity
  8
0
100
AcDbBlockEnd
  0
BLOCK
  5
BF
330
BE
100
AcDbEntity
  8
0
100
AcDbBlockBegin
  2
*D25
 70
     1
 10
0.0
 20
0.0
 30
0.0
  3
*D25
  1

  0
LINE
  5
17C
330
BE
100
AcDbEntity
  8
Layer0015
  6
Continuous
 62
     2
370
    13
100
AcDbLine
 10
-52.22941176470593
 20
-24.04032749949175
 30
0.0
 11
145.2705882352943
 21
-24.04032749949175
 31
0.0
  0
INSERT
  5
17D
330
BE
100
AcDbEntity
  8
Layer0015
 62
     2
100
AcDbBlockReference
  2
_OPEN30
 10
-52.22941176470593
 20
-24.04032749949175
 30
0.0
 41
4.587961098652522
 42
3.019162853224171
 50
180.0
  0
INSERT
  5
17E
330
BE
100
AcDbEntity
  8
Layer0015
 62
     2
100
AcDbBlockReference
  2
_OPEN30
 10
145.2705882352943
 20
-24.04032749949175
 30
0.0
 41
4.587961098652522
 42
3.019162853224171
 50
360.0
  0
LINE
  5
17F
330
BE
100
AcDbEntity
  8
Layer0015
  6
Continuous
 62
     2
370
    13
100
AcDbLine
 10
-52.22941176470593
 20
-74.66081791287675
 30
0.0
 11
-52.22941176470593
 21
-22.84032749949175
 31
0.0
  0
LINE
  5
180
330
BE
100
AcDbEntity
  8
Layer0015
  6
Continuous
 62
     2
370
    13
100
AcDbLine
 10
145.2705882352943
 20
-151.9108179128767
 30
0.0
 11
145.2705882352943
 21
-22.84032749949175
 31
0.0
  0
MTEXT
  5
181
330
BE
100
AcDbEntity
  8
Layer0015
 62
     2
100
AcDbMText
 10
46.5205882352942
 20
-22.54032749949175
 30
0.0
 40
9.0
 41
38.24999999999999
 71
     8
 72
     1
  1
\T1.00;203
  7
dcStyle0
 73
     1
 44
1.0
  0
ENDBLK
  5
C0
330
BE
100
AcDbEntity
  8
0
100
AcDbBlockEnd
  0
BLOCK
  5
C2
330
C1
100
AcDbEntity
  8
0
100
AcDbBlockBegin
  2
*D26
 70
     1
 10
0.0
 20
0.0
 30
0.0
  3
*D26
  1

  0
LINE
  5
182
330
C1
100
AcDbEntity
  8
Layer0015
  6
Continuous
 62
     2
370
    13
100
AcDbLine
 10
331.3571524149017
 20
-66.6321372985247
 30
0.0
 11
431.3571524149017
 21
-66.6321372985247
 31
0.0
  0
INSERT
  5
183
330
C1
100
AcDbEntity
  8
Layer0015
 62
     2
100
AcDbBlockReference
  2
_OPEN30
 10
331.3571524149017
 20
-66.6321372985247
 30
0.0
 41
4.587961098652522
 42
3.019162853224171
 50
180.0
  0
INSERT
  5
184
330
C1
100
AcDbEntity
  8
Layer0015
 62
     2
100
AcDbBlockReference
  2
_OPEN30
 10
431.3571524149017
 20
-66.6321372985247
 30
0.0
 41
4.587961098652522
 42
3.019162853224171
 50
360.0
  0
LINE
  5
185
330
C1
100
AcDbEntity
  8
Layer0015
  6
Continuous
 62
     2
370
    13
100
AcDbLine
 10
331.3571524149017
 20
-33.27779953932918
 30
0.0
 11
331.3571524149017
 21
-68.23213729852472
 31
0.0
  0
LINE
  5
186
330
C1
100
AcDbEntity
  8
Layer0015
  6
Continuous
 62
     2
370
    13
100
AcDbLine
 10
431.3571524149017
 20
-20.02338621855534
 30
0.0
 11
431.3571524149017
 21
-68.23213729852472
 31
0.0
  0
MTEXT
  5
187
330
C1
100
AcDbEntity
  8
Layer0015
 62
     2
100
AcDbMText
 10
381.3571524149017
 20
-64.6321372985247
 30
0.0
 40
9.0
 41
38.25000000000003
 71
     8
 72
     1
  1
\T1.00;100
  7
dcStyle0
 73
     1
 44
1.0
  0
ENDBLK
  5
C3
330
C1
100
AcDbEntity
  8
0
100
AcDbBlockEnd
  0
BLOCK
  5
C5
330
C4
100
AcDbEntity
  8
0
100
AcDbBlockBegin
  2
DA_IMAGEDIMGROUP_3
 70
     0
 10
0.0
 20
0.0
 30
0.0
  3
DA_IMAGEDIMGROUP_3
  1

  0
LINE
  5
188
330
C4
100
AcDbEntity
  8
Layer0015
  6
Continuous
 62
     2
370
    13
100
AcDbLine
 10
413.3571524149017
 20
-22.77779953932918
 30
0.0
 11
413.3571524149017
 21
-50.36923926496797
 31
0.0
  0
LINE
  5
189
330
C4
100
AcDbEntity
  8
Layer0015
  6
Continuous
 62
     2
370
    13
100
AcDbLine
 10
431.3571524149017
 20
-20.02338621855534
 30
0.0
 11
431.3571524149017
 21
-50.36923926496797
 31
0.0
  0
LINE
  5
18A
330
C4
100
AcDbEntity
  8
Layer0015
  6
Continuous
 62
     2
370
    13
100
AcDbLine
 10
413.3571524149017
 20
-48.76923926496795
 30
0.0
 11
431.3571524149017
 21
-48.76923926496795
 31
0.0
  0
LINE
  5
18B
330
C4
100
AcDbEntity
  8
Layer0015
  6
Continuous
 62
     2
370
    13
100
AcDbLine
 10
453.2659924149017
 20
-48.76923926496795
 30
0.0
 11
431.3571524149017
 21
-48.76923926496795
 31
0.0
  0
INSERT
  5
18C
330
C4
100
AcDbEntity
  8
Layer0015
 62
     2
100
AcDbBlockReference
  2
_OPEN30
 10
431.3571524149017
 20
-48.76923926496795
 30
0.0
 41
4.587961098652522
 42
3.019162853224171
 50
180.0
  0
LINE
  5
18D
330
C4
100
AcDbEntity
  8
Layer0015
  6
Continuous
 62
     2
370
    13
100
AcDbLine
 10
405.3571524149017
 20
-48.76923926496795
 30
0.0
 11
413.3571524149017
 21
-48.76923926496795
 31
0.0
  0
INSERT
  5
18E
330
C4
100
AcDbEntity
  8
Layer0015
 62
     2
100
AcDbBlockReference
  2
_OPEN30
 10
413.3571524149017
 20
-48.76923926496795
 30
0.0
 41
4.587961098652522
 42
3.019162853224171
 50
360.0
  0
MTEXT
  5
18F
330
C4
100
AcDbEntity
  8
Layer0015
 62
     2
100
AcDbMText
 10
437.2659924149017
 20
-46.76923926496795
 30
0.0
 40
9.0
 41
29.24999999999997
 71
     7
 72
     1
  1
\T1.00;18
  7
dcStyle0
 73
     1
 44
1.0
  0
ENDBLK
  5
C6
330
C4
100
AcDbEntity
  8
0
100
AcDbBlockEnd
  0
BLOCK
  5
C8
330
C7
100
AcDbEntity
  8
0
100
AcDbBlockBegin
  2
*D28
 70
     1
 10
0.0
 20
0.0
 30
0.0
  3
*D28
  1

  0
LINE
  5
190
330
C7
100
AcDbEntity
  8
Layer0015
  6
Continuous
 62
     2
370
    13
100
AcDbLine
 10
-307.2294117647059
 20
-41.01831162332372
 30
0.0
 11
-69.22941176470577
 21
-41.01831162332372
 31
0.0
  0
INSERT
  5
191
330
C7
100
AcDbEntity
  8
Layer0015
 62
     2
100
AcDbBlockReference
  2
_OPEN30
 10
-307.2294117647059
 20
-41.01831162332372
 30
0.0
 41
4.587961098652522
 42
3.019162853224171
 50
180.0
  0
INSERT
  5
192
330
C7
100
AcDbEntity
  8
Layer0015
 62
     2
100
AcDbBlockReference
  2
_OPEN30
 10
-69.22941176470577
 20
-41.01831162332372
 30
0.0
 41
4.587961098652522
 42
3.019162853224171
 50
360.0
  0
LINE
  5
193
330
C7
100
AcDbEntity
  8
Layer0015
  6
Continuous
 62
     2
370
    13
100
AcDbLine
 10
-307.2294117647059
 20
-74.66081791287675
 30
0.0
 11
-307.2294117647059
 21
-39.81831162332372
 31
0.0
  0
LINE
  5
194
330
C7
100
AcDbEntity
  8
Layer0015
  6
Continuous
 62
     2
370
    13
100
AcDbLine
 10
-69.22941176470577
 20
-75.16081791287681
 30
0.0
 11
-69.22941176470577
 21
-39.81831162332372
 31
0.0
  0
MTEXT
  5
195
330
C7
100
AcDbEntity
  8
Layer0015
 62
     2
100
AcDbMText
 10
-188.2294117647058
 20
-39.51831162332372
 30
0.0
 40
9.0
 41
56.25
 71
     8
 72
     1
  1
\T1.00;0～233
  7
dcStyle0
 73
     1
 44
1.0
  0
ENDBLK
  5
C9
330
C7
100
AcDbEntity
  8
0
100
AcDbBlockEnd
  0
BLOCK
  5
CB
330
CA
100
AcDbEntity
  8
0
100
AcDbBlockBegin
  2
DC_GROUP_HCN125_1
 70
     0
 10
0.0
 20
0.0
 30
0.0
  3
DC_GROUP_HCN125_1
  1

  0
LINE
  5
196
330
CA
100
AcDbEntity
  8
Layer0014
  6
Continuous
 62
     2
370
    18
100
AcDbLine
 10
-30.85765507094411
 20
119.2965831774919
 30
0.0
 11
-14.87027980736269
 21
91.60563694129903
 31
0.0
  0
INSERT
  5
197
330
CA
100
AcDbEntity
  8
Layer0014
 62
     2
100
AcDbBlockReference
  2
_OPEN30
 10
-30.85765507094411
 20
119.2965831774919
 30
0.0
 41
4.587961098652522
 42
3.019162853224171
 50
120.0
  0
LINE
  5
198
330
CA
100
AcDbEntity
  8
Layer0014
  6
Continuous
 62
     2
370
    18
100
AcDbLine
 10
-14.87027980736269
 20
91.60563694129903
 30
0.0
 11
88.32972019263732
 21
91.60563694129903
 31
0.0
  0
TEXT
  5
199
330
CA
100
AcDbEntity
  8
Layer0014
 62
     2
100
AcDbText
 10
-13.37027980736269
 20
91.90563694129902
 30
0.0
 40
9.0
  1
クランピングブロック
 41
0.6666666666666666
  7
dcStyle0
 72
     5
 11
58.62972019263731
 21
91.90563694129902
 31
0.0
100
AcDbText
  0
ENDBLK
  5
CC
330
CA
100
AcDbEntity
  8
0
100
AcDbBlockEnd
  0
BLOCK
  5
CE
330
CD
100
AcDbEntity
  8
0
100
AcDbBlockBegin
  2
DC_GROUP_HCN125_2
 70
     0
 10
0.0
 20
0.0
 30
0.0
  3
DC_GROUP_HCN125_2
  1

  0
LINE
  5
19A
330
CD
100
AcDbEntity
  8
Layer0014
  6
Continuous
 62
     2
370
    18
100
AcDbLine
 10
11.07724715572886
 20
-66.98886082083716
 30
0.0
 11
27.67310951372076
 21
-38.24398402137537
 31
0.0
  0
INSERT
  5
19B
330
CD
100
AcDbEntity
  8
Layer0014
 62
     2
100
AcDbBlockReference
  2
_OPEN30
 10
11.07724715572886
 20
-66.98886082083716
 30
0.0
 41
4.587961098652522
 42
3.019162853224171
 50
240.0
  0
LINE
  5
19C
330
CD
100
AcDbEntity
  8
Layer0014
  6
Continuous
 62
     2
370
    18
100
AcDbLine
 10
27.67310951372076
 20
-38.24398402137537
 30
0.0
 11
94.87310951372076
 21
-38.24398402137537
 31
0.0
  0
TEXT
  5
19D
330
CD
100
AcDbEntity
  8
Layer0014
 62
     2
100
AcDbText
 10
29.17310951372076
 20
-37.94398402137537
 30
0.0
 40
9.0
  1
上口金
 41
0.6666666666666666
  7
dcStyle0
 72
     5
 11
50.77310951372075
 21
-37.94398402137537
 31
0.0
100
AcDbText
  0
ENDBLK
  5
CF
330
CD
100
AcDbEntity
  8
0
100
AcDbBlockEnd
  0
BLOCK
  5
D1
330
D0
100
AcDbEntity
  8
0
100
AcDbBlockBegin
  2
DC_GROUP_HCN125_3
 70
     0
 10
0.0
 20
0.0
 30
0.0
  3
DC_GROUP_HCN125_3
  1

  0
LINE
  5
19E
330
D0
100
AcDbEntity
  8
Layer0014
  6
Continuous
 62
     2
370
    18
100
AcDbLine
 10
-67.09379504528643
 20
-96.13591333969998
 30
0.0
 11
-84.87910094489614
 21
-65.33085989342145
 31
0.0
  0
INSERT
  5
19F
330
D0
100
AcDbEntity
  8
Layer0014
 62
     2
100
AcDbBlockReference
  2
_OPEN30
 10
-67.09379504528643
 20
-96.13591333969998
 30
0.0
 41
4.587961098652522
 42
3.019162853224171
 50
299.9999999999999
  0
LINE
  5
1A0
330
D0
100
AcDbEntity
  8
Layer0014
  6
Continuous
 62
     2
370
    18
100
AcDbLine
 10
-84.87910094489614
 20
-65.33085989342145
 30
0.0
 11
-180.8791009448962
 21
-65.33085989342145
 31
0.0
  0
TEXT
  5
1A1
330
D0
100
AcDbEntity
  8
Layer0014
 62
     2
100
AcDbText
 10
-143.9791009448961
 20
-65.03085989342145
 30
0.0
 40
9.0
  1
アンチリフト口金
 41
0.6666666666666666
  7
dcStyle0
 72
     5
 11
-86.37910094489615
 21
-65.03085989342145
 31
0.0
100
AcDbText
  0
ENDBLK
  5
D2
330
D0
100
AcDbEntity
  8
0
100
AcDbBlockEnd
  0
BLOCK
  5
D4
330
D3
100
AcDbEntity
  8
0
100
AcDbBlockBegin
  2
DC_GROUP_HCN125_4
 70
     0
 10
0.0
 20
0.0
 30
0.0
  3
DC_GROUP_HCN125_4
  1

  0
TEXT
  5
1A2
330
D3
100
AcDbEntity
  8
Layer0004
 62
     2
100
AcDbText
 10
-326.5977408547409
 20
68.38206476561132
 30
0.0
 40
9.0
  1
ワークストッパー
 41
0.666666666666667
  7
dcStyle0
 72
     5
 11
-268.9977408547409
 21
68.38206476561132
 31
0.0
100
AcDbText
  0
LINE
  5
1A3
330
D3
100
AcDbEntity
  8
Layer0004
  6
Continuous
 62
     2
370
    18
100
AcDbLine
 10
-341.8977408547408
 20
67.48206476561131
 30
0.0
 11
-253.6977408547409
 21
67.48206476561131
 31
0.0
  0
ENDBLK
  5
D5
330
D3
100
AcDbEntity
  8
0
100
AcDbBlockEnd
  0
BLOCK
  5
D7
330
D6
100
AcDbEntity
  8
0
100
AcDbBlockBegin
  2
DC_GROUP_HCN125_5
 70
     0
 10
0.0
 20
0.0
 30
0.0
  3
DC_GROUP_HCN125_5
  1

  0
TEXT
  5
1A4
330
D6
100
AcDbEntity
  8
Layer0004
 62
     2
100
AcDbText
 10
-340.9977408547409
 20
57.31165695565694
 30
0.0
 40
9.0
  1
WORK STOPPER
 41
0.7999999999999998
  7
dcStyle0
 72
     5
 11
-254.5977408547409
 21
57.31165695565694
 31
0.0
100
AcDbText
  0
ENDBLK
  5
D8
330
D6
100
AcDbEntity
  8
0
100
AcDbBlockEnd
  0
BLOCK
  5
DA
330
D9
100
AcDbEntity
  8
0
100
AcDbBlockBegin
  2
DC_GROUP_HCN125_6
 70
     0
 10
0.0
 20
0.0
 30
0.0
  3
DC_GROUP_HCN125_6
  1

  0
TEXT
  5
1A5
330
D9
100
AcDbEntity
  8
Layer0015
 62
     2
100
AcDbText
 10
351.0642581946618
 20
-85.43623464486109
 30
0.0
 40
9.0
  1
ハンドルソケット
 41
0.666666666666667
  7
dcStyle0
 72
     5
 11
408.6642581946618
 21
-85.43623464486109
 31
0.0
100
AcDbText
  0
LINE
  5
1A6
330
D9
100
AcDbEntity
  8
Layer0015
  6
Continuous
 62
     2
370
    18
100
AcDbLine
 10
332.1642581946618
 20
-86.3362346448611
 30
0.0
 11
427.5642581946618
 21
-86.3362346448611
 31
0.0
  0
ENDBLK
  5
DB
330
D9
100
AcDbEntity
  8
0
100
AcDbBlockEnd
  0
BLOCK
  5
DD
330
DC
100
AcDbEntity
  8
0
100
AcDbBlockBegin
  2
DC_GROUP_HCN125_7
 70
     0
 10
0.0
 20
0.0
 30
0.0
  3
DC_GROUP_HCN125_7
  1

  0
TEXT
  5
1A7
330
DC
100
AcDbEntity
  8
Layer0004
 62
     2
100
AcDbText
 10
333.0642581946618
 20
-96.50664245481546
 30
0.0
 40
9.0
  1
HANDLE SOCKET
 41
0.8000000000000002
  7
dcStyle0
 72
     5
 11
426.6642581946618
 21
-96.50664245481546
 31
0.0
100
AcDbText
  0
ENDBLK
  5
DE
330
DC
100
AcDbEntity
  8
0
100
AcDbBlockEnd
  0
BLOCK
  5
E0
330
DF
100
AcDbEntity
  8
0
100
AcDbBlockBegin
  2
DC_GROUP_HCN125_8
 70
     0
 10
0.0
 20
0.0
 30
0.0
  3
DC_GROUP_HCN125_8
  1

  0
TEXT
  5
1A8
330
DF
100
AcDbEntity
  8
Layer0004
 62
     2
100
AcDbText
 10
-13.37027980736269
 20
81.90563694129902
 30
0.0
 40
9.0
  1
CLAMPING BLOCK
 41
0.8
  7
dcStyle0
 72
     5
 11
87.42972019263732
 21
81.90563694129902
 31
0.0
100
AcDbText
  0
ENDBLK
  5
E1
330
DF
100
AcDbEntity
  8
0
100
AcDbBlockEnd
  0
BLOCK
  5
E3
330
E2
100
AcDbEntity
  8
0
100
AcDbBlockBegin
  2
DC_GROUP_HCN125_9
 70
     0
 10
0.0
 20
0.0
 30
0.0
  3
DC_GROUP_HCN125_9
  1

  0
TEXT
  5
1A9
330
E2
100
AcDbEntity
  8
Layer0004
 62
     2
100
AcDbText
 10
29.17310951372076
 20
-47.94398402137537
 30
0.0
 40
9.0
  1
UPPER JAW
 41
0.7999999999999999
  7
dcStyle0
 72
     5
 11
93.97310951372076
 21
-47.94398402137537
 31
0.0
100
AcDbText
  0
ENDBLK
  5
E4
330
E2
100
AcDbEntity
  8
0
100
AcDbBlockEnd
  0
BLOCK
  5
E6
330
E5
100
AcDbEntity
  8
0
100
AcDbBlockBegin
  2
DC_GROUP_HCN125_10
 70
     0
 10
0.0
 20
0.0
 30
0.0
  3
DC_GROUP_HCN125_10
  1

  0
TEXT
  5
1AA
330
E5
100
AcDbEntity
  8
Layer0004
 62
     2
100
AcDbText
 10
-179.9791009448962
 20
-75.03085989342145
 30
0.0
 40
9.0
  1
ANTI-LIFT JAW
 41
0.8000000000000002
  7
dcStyle0
 72
     5
 11
-86.37910094489615
 21
-75.03085989342145
 31
0.0
100
AcDbText
  0
ENDBLK
  5
E7
330
E5
100
AcDbEntity
  8
0
100
AcDbBlockEnd
  0
BLOCK
  5
EA
330
E9
100
AcDbEntity
  8
0
100
AcDbBlockBegin
  2
_OPEN30
 70
     0
 10
0.0
 20
0.0
 30
0.0
  3
_OPEN30
  1

  0
LINE
  5
EC
330
E9
100
AcDbEntity
  8
0
  6
ByBlock
 62
     0
370
    -2
100
AcDbLine
 10
-1.0
 20
0.267949
 30
0.0
 11
0.0
 21
0.0
 31
0.0
  0
LINE
  5
ED
330
E9
100
AcDbEntity
  8
0
  6
ByBlock
 62
     0
370
    -2
100
AcDbLine
 10
0.0
 20
0.0
 30
0.0
 11
-1.0
 21
-0.267949
 31
0.0
  0
LINE
  5
EE
330
E9
100
AcDbEntity
  8
0
  6
ByBlock
 62
     0
370
    -2
100
AcDbLine
 10
0.0
 20
0.0
 30
0.0
 11
-1.0
 21
0.0
 31
0.0
  0
ENDBLK
  5
EB
330
E9
100
AcDbEntity
  8
0
100
AcDbBlockEnd
  0
ENDSEC
  0
SECTION
  2
ENTITIES
  0
LINE
  5
1AB
330
1F
100
AcDbEntity
  8
Layer0000
  6
Continuous
 62
     3
370
    25
100
AcDbLine
 10
72.77058823529404
 20
-122.1608179128768
 30
0.0
 11
72.77058823529404
 21
-144.1608179128767
 31
0.0
  0
LINE
  5
1AC
330
1F
100
AcDbEntity
  8
Layer0000
  6
Continuous
 62
     3
370
    25
100
AcDbLine
 10
72.77058823529404
 20
-122.1608179128768
 30
0.0
 11
72.77058823529404
 21
-227.1608179128768
 31
0.0
  0
LINE
  5
1AD
330
1F
100
AcDbEntity
  8
Layer0000
  6
Continuous
 62
     3
370
    25
100
AcDbLine
 10
-402.229411764706
 20
-122.1608179128768
 30
0.0
 11
-402.229411764706
 21
-227.1608179128768
 31
0.0
  0
LINE
  5
1AE
330
1F
100
AcDbEntity
  8
Layer0000
  6
Continuous
 62
     3
370
    25
100
AcDbLine
 10
-402.229411764706
 20
-122.1608179128768
 30
0.0
 11
-402.229411764706
 21
-77.16081791287675
 31
0.0
  0
LINE
  5
1AF
330
1F
100
AcDbEntity
  8
Layer0000
  6
Continuous
 62
     3
370
    25
100
AcDbLine
 10
-369.229411764706
 20
-122.1608179128768
 30
0.0
 11
-402.229411764706
 21
-122.1608179128768
 31
0.0
  0
LINE
  5
1B0
330
1F
100
AcDbEntity
  8
Layer0000
  6
Continuous
 62
     3
370
    25
100
AcDbLine
 10
-349.229411764706
 20
-129.6608179128768
 30
0.0
 11
-349.229411764706
 21
-122.1608179128768
 31
0.0
  0
LINE
  5
1B1
330
1F
100
AcDbEntity
  8
Layer0000
  6
Continuous
 62
     3
370
    25
100
AcDbLine
 10
-369.229411764706
 20
-129.6608179128768
 30
0.0
 11
-369.229411764706
 21
-122.1608179128768
 31
0.0
  0
LINE
  5
1B2
330
1F
100
AcDbEntity
  8
Layer0000
  6
Continuous
 62
     3
370
    25
100
AcDbLine
 10
-369.229411764706
 20
-129.6608179128768
 30
0.0
 11
-349.229411764706
 21
-129.6608179128768
 31
0.0
  0
LINE
  5
1B3
330
1F
100
AcDbEntity
  8
Layer0000
  6
Continuous
 62
     3
370
    25
100
AcDbLine
 10
-322.2294117647059
 20
-77.16081791287675
 30
0.0
 11
-362.229411764706
 21
-77.16081791287675
 31
0.0
  0
LINE
  5
1B4
330
1F
100
AcDbEntity
  8
Layer0000
  6
Continuous
 62
     3
370
    25
100
AcDbLine
 10
-362.229411764706
 20
-81.66081791287675
 30
0.0
 11
-374.229411764706
 21
-81.66081791287675
 31
0.0
  0
LINE
  5
1B5
330
1F
100
AcDbEntity
  8
Layer0000
  6
Continuous
 62
     3
370
    25
100
AcDbLine
 10
-374.229411764706
 20
-81.66081791287675
 30
0.0
 11
-374.229411764706
 21
-77.16081791287675
 31
0.0
  0
LINE
  5
1B6
330
1F
100
AcDbEntity
  8
Layer0000
  6
Continuous
 62
     3
370
    25
100
AcDbLine
 10
-362.229411764706
 20
-81.66081791287675
 30
0.0
 11
-362.2294117647062
 21
-77.16081791287675
 31
0.0
  0
LINE
  5
1B7
330
1F
100
AcDbEntity
  8
Layer0000
  6
Continuous
 62
     3
370
    25
100
AcDbLine
 10
-374.229411764706
 20
-77.16081791287675
 30
0.0
 11
-402.229411764706
 21
-77.16081791287675
 31
0.0
  0
LINE
  5
1B8
330
1F
100
AcDbEntity
  8
Layer0000
  6
Continuous
 62
     3
370
    25
100
AcDbLine
 10
-322.2294117647059
 20
-122.1608179128768
 30
0.0
 11
-322.2294117647059
 21
-77.16081791287675
 31
0.0
  0
LINE
  5
1B9
330
1F
100
AcDbEntity
  8
Layer0000
  6
Continuous
 62
     3
370
    25
100
AcDbLine
 10
-349.229411764706
 20
-122.1608179128768
 30
0.0
 11
-322.2294117647059
 21
-122.1608179128768
 31
0.0
  0
LINE
  5
1BA
330
1F
100
AcDbEntity
  8
Layer0000
  6
Continuous
 62
     3
370
    25
100
AcDbLine
 10
-322.2294117647059
 20
-122.1608179128768
 30
0.0
 11
-322.2294117647059
 21
-76.16081791287675
 31
0.0
  0
LINE
  5
1BB
330
1F
100
AcDbEntity
  8
Layer0000
  6
Continuous
 62
     3
370
    25
100
AcDbLine
 10
-307.2294117647059
 20
-76.16081791287675
 30
0.0
 11
-307.2294117647059
 21
-122.1608179128768
 31
0.0
  0
LINE
  5
1BC
330
1F
100
AcDbEntity
  8
Layer0000
  6
Continuous
 62
     3
370
    25
100
AcDbLine
 10
-322.2294117647059
 20
-76.16081791287675
 30
0.0
 11
-307.2294117647059
 21
-76.16081791287675
 31
0.0
  0
LINE
  5
1BD
330
1F
100
AcDbEntity
  8
Layer0000
  6
Continuous
 62
     3
370
    25
100
AcDbLine
 10
-322.2294117647059
 20
-122.1608179128768
 30
0.0
 11
-307.2294117647059
 21
-122.1608179128768
 31
0.0
  0
LINE
  5
1BE
330
1F
100
AcDbEntity
  8
Layer0000
  6
Continuous
 62
     3
370
    25
100
AcDbLine
 10
-369.229411764706
 20
-122.1608179128768
 30
0.0
 11
-369.229411764706
 21
-130.1608179128768
 31
0.0
  0
LINE
  5
1BF
330
1F
100
AcDbEntity
  8
Layer0000
  6
Continuous
 62
     3
370
    25
100
AcDbLine
 10
-369.229411764706
 20
-130.1608179128768
 30
0.0
 11
-349.229411764706
 21
-130.1608179128768
 31
0.0
  0
LINE
  5
1C0
330
1F
100
AcDbEntity
  8
Layer0000
  6
Continuous
 62
     3
370
    25
100
AcDbLine
 10
-349.229411764706
 20
-130.1608179128768
 30
0.0
 11
-349.229411764706
 21
-122.1608179128768
 31
0.0
  0
LINE
  5
1C1
330
1F
100
AcDbEntity
  8
Layer0000
  6
Continuous
 62
     3
370
    25
100
AcDbLine
 10
72.77058823529404
 20
-122.1608179128768
 30
0.0
 11
-349.229411764706
 21
-122.1608179128768
 31
0.0
  0
LINE
  5
1C2
330
1F
100
AcDbEntity
  8
Layer0000
  6
Continuous
 62
     3
370
    25
100
AcDbLine
 10
-369.229411764706
 20
-122.1608179128768
 30
0.0
 11
-402.229411764706
 21
-122.1608179128768
 31
0.0
  0
LINE
  5
1C3
330
1F
100
AcDbEntity
  8
Layer0000
  6
Continuous
 62
     3
370
    25
100
AcDbLine
 10
-37.22941176470593
 20
-122.1608179128768
 30
0.0
 11
-37.22941176470593
 21
-77.16081791287675
 31
0.0
  0
LINE
  5
1C4
330
1F
100
AcDbEntity
  8
Layer0000
  6
Continuous
 62
     3
370
    25
100
AcDbLine
 10
-37.22941176470593
 20
-77.16081791287675
 30
0.0
 11
2.770588235294127
 21
-77.16081791287675
 31
0.0
  0
LINE
  5
1C5
330
1F
100
AcDbEntity
  8
Layer0000
  6
Continuous
 62
     3
370
    25
100
AcDbLine
 10
2.770588235294127
 20
-77.16081791287675
 30
0.0
 11
2.770588235294127
 21
-81.66081791287675
 31
0.0
  0
LINE
  5
1C6
330
1F
100
AcDbEntity
  8
Layer0000
  6
Continuous
 62
     3
370
    25
100
AcDbLine
 10
2.770588235294127
 20
-81.66081791287675
 30
0.0
 11
14.77058823529413
 21
-81.66081791287675
 31
0.0
  0
LINE
  5
1C7
330
1F
100
AcDbEntity
  8
Layer0000
  6
Continuous
 62
     3
370
    25
100
AcDbLine
 10
14.77058823529413
 20
-81.66081791287675
 30
0.0
 11
14.77058823529413
 21
-77.16081791287675
 31
0.0
  0
LINE
  5
1C8
330
1F
100
AcDbEntity
  8
Layer0000
  6
Continuous
 62
     3
370
    25
100
AcDbLine
 10
14.77058823529413
 20
-77.16081791287675
 30
0.0
 11
47.77058823529407
 21
-77.16081791287675
 31
0.0
  0
LINE
  5
1C9
330
1F
100
AcDbEntity
  8
Layer0000
  6
Continuous
 62
     3
370
    25
100
AcDbLine
 10
47.77058823529407
 20
-122.1608179128768
 30
0.0
 11
47.77058823529407
 21
-77.16081791287675
 31
0.0
  0
LINE
  5
1CA
330
1F
100
AcDbEntity
  8
Layer0000
  6
Continuous
 62
     3
370
    25
100
AcDbLine
 10
-37.22941176470593
 20
-122.1608179128768
 30
0.0
 11
-37.22941176470593
 21
-76.16081791287675
 31
0.0
  0
LINE
  5
1CB
330
1F
100
AcDbEntity
  8
Layer0000
  6
Continuous
 62
     3
370
    25
100
AcDbLine
 10
-52.22941176470593
 20
-76.16081791287675
 30
0.0
 11
-52.22941176470593
 21
-122.1608179128768
 31
0.0
  0
LINE
  5
1CC
330
1F
100
AcDbEntity
  8
Layer0000
  6
Continuous
 62
     3
370
    25
100
AcDbLine
 10
-37.22941176470593
 20
-76.16081791287675
 30
0.0
 11
-52.22941176470593
 21
-76.16081791287675
 31
0.0
  0
LINE
  5
1CD
330
1F
100
AcDbEntity
  8
Layer0000
  6
Continuous
 62
     3
370
    25
100
AcDbLine
 10
-52.22941176470593
 20
-122.1608179128768
 30
0.0
 11
-37.22941176470593
 21
-122.1608179128768
 31
0.0
  0
LINE
  5
1CE
330
1F
100
AcDbEntity
  8
Layer0000
  6
Continuous
 62
     3
370
    25
100
AcDbLine
 10
-52.22941176470594
 20
-202.1608179128768
 30
0.0
 11
-202.2294117647059
 21
-202.1608179128768
 31
0.0
  0
LINE
  5
1CF
330
1F
100
AcDbEntity
  8
Layer0000
  6
Continuous
 62
     3
370
    25
100
AcDbLine
 10
72.77058823529404
 20
-124.1608179528262
 30
0.0
 11
92.77058817406481
 21
-124.1608179528262
 31
0.0
  0
LINE
  5
1D0
330
1F
100
AcDbEntity
  8
Layer0000
  6
Continuous
 62
     3
370
    25
100
AcDbLine
 10
72.77058823529407
 20
283.4542483660132
 30
0.0
 11
72.77058823529407
 21
153.4542483660131
 31
0.0
  0
LINE
  5
1D1
330
1F
100
AcDbEntity
  8
Layer0000
  6
Continuous
 62
     3
370
    25
100
AcDbLine
 10
-402.229411764706
 20
283.4542483660132
 30
0.0
 11
-402.229411764706
 21
153.4542483660131
 31
0.0
  0
LINE
  5
1D2
330
1F
100
AcDbEntity
  8
Layer0000
  6
Continuous
 62
     3
370
    25
100
AcDbLine
 10
72.77058823529404
 20
-196.1608179528262
 30
0.0
 11
92.77058817406481
 21
-196.1608179528262
 31
0.0
  0
LINE
  5
1D3
330
1F
100
AcDbEntity
  8
Layer0000
  6
Continuous
 62
     3
370
    25
100
AcDbLine
 10
92.77058817406481
 20
-190.1608179528262
 30
0.0
 11
72.77058823529404
 21
-190.1608179528262
 31
0.0
  0
LINE
  5
1D4
330
1F
100
AcDbEntity
  8
Layer0000
  6
Continuous
 62
     3
370
    25
100
AcDbLine
 10
-249.2294117647059
 20
-235.1608179128768
 30
0.0
 11
-249.2294117647059
 21
-223.1608179128768
 31
0.0
  0
LINE
  5
1D5
330
1F
100
AcDbEntity
  8
Layer0000
  6
Continuous
 62
     3
370
    25
100
AcDbLine
 10
-249.2294117647059
 20
-223.1608179128768
 30
0.0
 11
-231.2294117647059
 21
-223.1608179128768
 31
0.0
  0
LINE
  5
1D6
330
1F
100
AcDbEntity
  8
Layer0000
  6
Continuous
 62
     3
370
    25
100
AcDbLine
 10
-231.2294117647059
 20
-223.1608179128768
 30
0.0
 11
-231.2294117647059
 21
-235.1608179128768
 31
0.0
  0
LINE
  5
1D7
330
1F
100
AcDbEntity
  8
Layer0000
  6
Continuous
 62
     3
370
    25
100
AcDbLine
 10
-322.2294117647058
 20
281.9542483660132
 30
0.0
 11
-322.2294117647058
 21
154.9542483660131
 31
0.0
  0
LINE
  5
1D8
330
1F
100
AcDbEntity
  8
Layer0000
  6
Continuous
 62
     3
370
    25
100
AcDbLine
 10
-402.229411764706
 20
281.9542483660132
 30
0.0
 11
-402.229411764706
 21
154.9542483660131
 31
0.0
  0
LINE
  5
1D9
330
1F
100
AcDbEntity
  8
Layer0000
  6
Continuous
 62
     3
370
    25
100
AcDbLine
 10
-362.229411764706
 20
154.9542483660131
 30
0.0
 11
-362.229411764706
 21
281.4542483660132
 31
0.0
  0
LINE
  5
1DA
330
1F
100
AcDbEntity
  8
Layer0000
  6
Continuous
 62
     3
370
    25
100
AcDbLine
 10
-374.2294117647059
 20
154.9542483660131
 30
0.0
 11
-374.2294117647059
 21
281.4542483660132
 31
0.0
  0
LINE
  5
1DB
330
1F
100
AcDbEntity
  8
Layer0000
  6
Continuous
 62
     3
370
    25
100
AcDbLine
 10
-322.2294117647058
 20
153.9542483660131
 30
0.0
 11
-322.2294117647058
 21
282.9542483660132
 31
0.0
  0
LINE
  5
1DC
330
1F
100
AcDbEntity
  8
Layer0000
  6
Continuous
 62
     3
370
    25
100
AcDbLine
 10
-307.2294117647059
 20
153.9542483660131
 30
0.0
 11
-307.2294117647059
 21
282.9542483660132
 31
0.0
  0
LINE
  5
1DD
330
1F
100
AcDbEntity
  8
Layer0000
  6
Continuous
 62
     3
370
    25
100
AcDbLine
 10
-37.22941176470593
 20
281.9542483660132
 30
0.0
 11
-37.22941176470593
 21
154.9542483660131
 31
0.0
  0
LINE
  5
1DE
330
1F
100
AcDbEntity
  8
Layer0000
  6
Continuous
 62
     3
370
    25
100
AcDbLine
 10
47.77058823529407
 20
154.9542483660131
 30
0.0
 11
47.77058823529407
 21
281.9542483660132
 31
0.0
  0
LINE
  5
1DF
330
1F
100
AcDbEntity
  8
Layer0000
  6
Continuous
 62
     3
370
    25
100
AcDbLine
 10
-37.22941176470593
 20
281.9542483660132
 30
0.0
 11
47.77058823529407
 21
281.9542483660132
 31
0.0
  0
LINE
  5
1E0
330
1F
100
AcDbEntity
  8
Layer0000
  6
Continuous
 62
     3
370
    25
100
AcDbLine
 10
-37.22941176470593
 20
154.9542483660131
 30
0.0
 11
47.77058823529407
 21
154.9542483660131
 31
0.0
  0
LINE
  5
1E1
330
1F
100
AcDbEntity
  8
Layer0000
  6
Continuous
 62
     3
370
    25
100
AcDbLine
 10
2.770588235294014
 20
154.9542483660131
 30
0.0
 11
2.770588235294014
 21
281.9542483660132
 31
0.0
  0
LINE
  5
1E2
330
1F
100
AcDbEntity
  8
Layer0000
  6
Continuous
 62
     3
370
    25
100
AcDbLine
 10
14.77058823529401
 20
154.9542483660131
 30
0.0
 11
14.77058823529401
 21
281.9542483660132
 31
0.0
  0
CIRCLE
  5
1E3
330
1F
100
AcDbEntity
  8
Layer0000
  6
Continuous
 62
     3
370
    25
100
AcDbCircle
 10
-7.229411764706043
 20
256.4542483660132
 30
0.0
 40
4.458500000000015
  0
CIRCLE
  5
1E4
330
1F
100
AcDbEntity
  8
Layer0000
  6
Continuous
 62
     3
370
    25
100
AcDbCircle
 10
-7.229411764706043
 20
256.4542483660132
 30
0.0
 40
5.0
  0
CIRCLE
  5
1E5
330
1F
100
AcDbEntity
  8
Layer0000
  6
Continuous
 62
     3
370
    25
100
AcDbCircle
 10
-7.229411764706043
 20
180.4542483660131
 30
0.0
 40
4.458500000000015
  0
CIRCLE
  5
1E6
330
1F
100
AcDbEntity
  8
Layer0000
  6
Continuous
 62
     3
370
    25
100
AcDbCircle
 10
-7.229411764706043
 20
180.4542483660131
 30
0.0
 40
5.0
  0
CIRCLE
  5
1E7
330
1F
100
AcDbEntity
  8
Layer0000
  6
Continuous
 62
     3
370
    25
100
AcDbCircle
 10
-7.229411764706043
 20
218.4542483660131
 30
0.0
 40
4.458500000000015
  0
CIRCLE
  5
1E8
330
1F
100
AcDbEntity
  8
Layer0000
  6
Continuous
 62
     3
370
    25
100
AcDbCircle
 10
-7.229411764706043
 20
218.4542483660131
 30
0.0
 40
5.0
  0
LINE
  5
1E9
330
1F
100
AcDbEntity
  8
Layer0000
  6
Continuous
 62
     3
370
    25
100
AcDbLine
 10
72.77058823529404
 20
-124.1608179528262
 30
0.0
 11
72.77058823529407
 21
-145.1608179128767
 31
0.0
  0
LINE
  5
1EA
330
1F
100
AcDbEntity
  8
Layer0000
  6
Continuous
 62
     3
370
    25
100
AcDbLine
 10
72.77058823529407
 20
-175.1608179128767
 30
0.0
 11
72.77058823529404
 21
-196.1608179528262
 31
0.0
  0
LINE
  5
1EB
330
1F
100
AcDbEntity
  8
Layer0000
  6
Continuous
 62
     3
370
    25
100
AcDbLine
 10
72.7705882352941
 20
203.454248366013
 30
0.0
 11
72.77058823529404
 21
233.4542483660133
 31
0.0
  0
LINE
  5
1EC
330
1F
100
AcDbEntity
  8
Layer0000
  6
Continuous
 62
     3
370
    25
100
AcDbLine
 10
-127.2294117647058
 20
182.9542483660131
 30
0.0
 11
-127.2294117647058
 21
253.9542483660132
 31
0.0
  0
LINE
  5
1ED
330
1F
100
AcDbEntity
  8
Layer0000
  6
Continuous
 62
     3
370
    25
100
AcDbLine
 10
-127.2294117647058
 20
233.4542483660133
 30
0.0
 11
-127.2294117647058
 21
253.9542483660132
 31
0.0
  0
LINE
  5
1EE
330
1F
100
AcDbEntity
  8
Layer0000
  6
Continuous
 62
     3
370
    25
100
AcDbLine
 10
-132.2294117647058
 20
253.9542483660132
 30
0.0
 11
-132.2294117647058
 21
233.4542483660133
 31
0.0
  0
LINE
  5
1EF
330
1F
100
AcDbEntity
  8
Layer0000
  6
Continuous
 62
     3
370
    25
100
AcDbLine
 10
-127.2294117647058
 20
233.4542483660133
 30
0.0
 11
-132.2294117647058
 21
233.4542483660133
 31
0.0
  0
LINE
  5
1F0
330
1F
100
AcDbEntity
  8
Layer0000
  6
Continuous
 62
     3
370
    25
100
AcDbLine
 10
-127.2294117647058
 20
203.454248366013
 30
0.0
 11
-127.2294117647058
 21
182.9542483660131
 31
0.0
  0
LINE
  5
1F1
330
1F
100
AcDbEntity
  8
Layer0000
  6
Continuous
 62
     3
370
    25
100
AcDbLine
 10
-132.2294117647058
 20
182.9542483660131
 30
0.0
 11
-132.2294117647058
 21
203.454248366013
 31
0.0
  0
LINE
  5
1F2
330
1F
100
AcDbEntity
  8
Layer0000
  6
Continuous
 62
     3
370
    25
100
AcDbLine
 10
-127.2294117647058
 20
203.454248366013
 30
0.0
 11
-132.2294117647058
 21
203.454248366013
 31
0.0
  0
LINE
  5
1F3
330
1F
100
AcDbEntity
  8
Layer0000
  6
Continuous
 62
     3
370
    25
100
AcDbLine
 10
67.77058823529407
 20
233.4542483660133
 30
0.0
 11
67.77058823529413
 21
253.9542483660132
 31
0.0
  0
LINE
  5
1F4
330
1F
100
AcDbEntity
  8
Layer0000
  6
Continuous
 62
     3
370
    25
100
AcDbLine
 10
72.7705882352941
 20
261.4542483660133
 30
0.0
 11
72.7705882352941
 21
233.4542483660133
 31
0.0
  0
LINE
  5
1F5
330
1F
100
AcDbEntity
  8
Layer0000
  6
Continuous
 62
     3
370
    25
100
AcDbLine
 10
67.77058823529407
 20
233.4542483660133
 30
0.0
 11
72.7705882352941
 21
233.4542483660133
 31
0.0
  0
LINE
  5
1F6
330
1F
100
AcDbEntity
  8
Layer0000
  6
Continuous
 62
     3
370
    25
100
AcDbLine
 10
67.77058823529407
 20
203.454248366013
 30
0.0
 11
67.7705882352941
 21
182.9542483660131
 31
0.0
  0
LINE
  5
1F7
330
1F
100
AcDbEntity
  8
Layer0000
  6
Continuous
 62
     3
370
    25
100
AcDbLine
 10
72.7705882352941
 20
175.454248366013
 30
0.0
 11
72.7705882352941
 21
203.454248366013
 31
0.0
  0
LINE
  5
1F8
330
1F
100
AcDbEntity
  8
Layer0000
  6
Continuous
 62
     3
370
    25
100
AcDbLine
 10
67.77058823529407
 20
203.454248366013
 30
0.0
 11
72.7705882352941
 21
203.454248366013
 31
0.0
  0
LINE
  5
1F9
330
1F
100
AcDbEntity
  8
Layer0000
  6
Continuous
 62
     3
370
    25
100
AcDbLine
 10
67.77058823529413
 20
253.9542483660132
 30
0.0
 11
67.77058823529413
 21
233.4542483660133
 31
0.0
  0
LINE
  5
1FA
330
1F
100
AcDbEntity
  8
Layer0000
  6
Continuous
 62
     3
370
    25
100
AcDbLine
 10
67.77058823529407
 20
233.4542483660133
 30
0.0
 11
72.7705882352941
 21
233.4542483660133
 31
0.0
  0
LINE
  5
1FB
330
1F
100
AcDbEntity
  8
Layer0000
  6
Continuous
 62
     3
370
    25
100
AcDbLine
 10
72.77058823529404
 20
161.454248366013
 30
0.0
 11
72.77058823529404
 21
275.4542483660133
 31
0.0
  0
LINE
  5
1FC
330
1F
100
AcDbEntity
  8
Layer0000
  6
Continuous
 62
     3
370
    25
100
AcDbLine
 10
72.77058823529404
 20
275.4542483660133
 30
0.0
 11
92.77058817406478
 21
275.4542483660133
 31
0.0
  0
LINE
  5
1FD
330
1F
100
AcDbEntity
  8
Layer0000
  6
Continuous
 62
     3
370
    25
100
AcDbLine
 10
-37.22941176470596
 20
153.9542483660131
 30
0.0
 11
-37.22941176470596
 21
282.9542483660132
 31
0.0
  0
LINE
  5
1FE
330
1F
100
AcDbEntity
  8
Layer0000
  6
Continuous
 62
     3
370
    25
100
AcDbLine
 10
-52.22941176470593
 20
153.9542483660131
 30
0.0
 11
-52.22941176470593
 21
282.9542483660132
 31
0.0
  0
LINE
  5
1FF
330
1F
100
AcDbEntity
  8
Layer0000
  6
Continuous
 62
     3
370
    25
100
AcDbLine
 10
-37.22941176470596
 20
282.9542483660132
 30
0.0
 11
-52.22941176470593
 21
282.9542483660132
 31
0.0
  0
LINE
  5
200
330
1F
100
AcDbEntity
  8
Layer0000
  6
Continuous
 62
     3
370
    25
100
AcDbLine
 10
67.7705882352941
 20
182.9542483660131
 30
0.0
 11
67.77058823529413
 21
203.454248366013
 31
0.0
  0
LINE
  5
201
330
1F
100
AcDbEntity
  8
Layer0000
  6
Continuous
 62
     3
370
    25
100
AcDbLine
 10
67.77058823529407
 20
203.454248366013
 30
0.0
 11
72.7705882352941
 21
203.454248366013
 31
0.0
  0
LINE
  5
202
330
1F
100
AcDbEntity
  8
Layer0000
  6
Continuous
 62
     3
370
    25
100
AcDbLine
 10
72.77058823529407
 20
153.4542483660131
 30
0.0
 11
-402.229411764706
 21
153.4542483660131
 31
0.0
  0
LINE
  5
203
330
1F
100
AcDbEntity
  8
Layer0000
  6
Continuous
 62
     3
370
    25
100
AcDbLine
 10
-199.2294117647059
 20
-227.1608179128768
 30
0.0
 11
-199.2294117647059
 21
-223.1608179128768
 31
0.0
  0
LINE
  5
204
330
1F
100
AcDbEntity
  8
Layer0000
  6
Continuous
 62
     3
370
    25
100
AcDbLine
 10
-199.2294117647059
 20
-223.1608179128768
 30
0.0
 11
-181.2294117647059
 21
-223.1608179128768
 31
0.0
  0
LINE
  5
205
330
1F
100
AcDbEntity
  8
Layer0000
  6
Continuous
 62
     3
370
    25
100
AcDbLine
 10
-181.2294117647059
 20
-223.1608179128768
 30
0.0
 11
-181.2294117647059
 21
-227.1608179128768
 31
0.0
  0
LINE
  5
206
330
1F
100
AcDbEntity
  8
Layer0000
  6
Continuous
 62
     3
370
    25
100
AcDbLine
 10
-149.2294117647059
 20
-227.1608179128768
 30
0.0
 11
-149.2294117647059
 21
-223.1608179128768
 31
0.0
  0
LINE
  5
207
330
1F
100
AcDbEntity
  8
Layer0000
  6
Continuous
 62
     3
370
    25
100
AcDbLine
 10
-149.2294117647059
 20
-223.1608179128768
 30
0.0
 11
-131.2294117647059
 21
-223.1608179128768
 31
0.0
  0
LINE
  5
208
330
1F
100
AcDbEntity
  8
Layer0000
  6
Continuous
 62
     3
370
    25
100
AcDbLine
 10
-131.2294117647059
 20
-223.1608179128768
 30
0.0
 11
-131.2294117647059
 21
-227.1608179128768
 31
0.0
  0
LINE
  5
209
330
1F
100
AcDbEntity
  8
Layer0000
  6
Continuous
 62
     3
370
    25
100
AcDbLine
 10
-322.2294117647058
 20
154.9542483660131
 30
0.0
 11
-402.229411764706
 21
154.9542483660131
 31
0.0
  0
CIRCLE
  5
20A
330
1F
100
AcDbEntity
  8
Layer0000
  6
Continuous
 62
     3
370
    25
100
AcDbCircle
 10
-387.2294117647059
 20
168.4542483660131
 30
0.0
 40
11.5
  0
CIRCLE
  5
20B
330
1F
100
AcDbEntity
  8
Layer0000
  6
Continuous
 62
     3
370
    25
100
AcDbCircle
 10
-337.2294117647059
 20
168.4542483660131
 30
0.0
 40
11.5
  0
LINE
  5
20C
330
1F
100
AcDbEntity
  8
Layer0000
  6
Continuous
 62
     3
370
    25
100
AcDbLine
 10
-322.2294117647058
 20
153.9542483660131
 30
0.0
 11
-307.2294117647059
 21
153.9542483660131
 31
0.0
  0
LINE
  5
20D
330
1F
100
AcDbEntity
  8
Layer0000
  6
Continuous
 62
     3
370
    25
100
AcDbLine
 10
-37.22941176470596
 20
153.9542483660131
 30
0.0
 11
-52.22941176470593
 21
153.9542483660131
 31
0.0
  0
LINE
  5
20E
330
1F
100
AcDbEntity
  8
Layer0000
  6
Continuous
 62
     3
370
    25
100
AcDbLine
 10
-322.2294117647058
 20
281.9542483660132
 30
0.0
 11
-402.229411764706
 21
281.9542483660132
 31
0.0
  0
CIRCLE
  5
20F
330
1F
100
AcDbEntity
  8
Layer0000
  6
Continuous
 62
     3
370
    25
100
AcDbCircle
 10
-387.2294117647059
 20
268.4542483660132
 30
0.0
 40
11.5
  0
CIRCLE
  5
210
330
1F
100
AcDbEntity
  8
Layer0000
  6
Continuous
 62
     3
370
    25
100
AcDbCircle
 10
-337.2294117647059
 20
268.4542483660132
 30
0.0
 40
11.5
  0
LINE
  5
211
330
1F
100
AcDbEntity
  8
Layer0000
  6
Continuous
 62
     3
370
    25
100
AcDbLine
 10
-322.2294117647058
 20
282.9542483660132
 30
0.0
 11
-307.2294117647059
 21
282.9542483660132
 31
0.0
  0
LINE
  5
212
330
1F
100
AcDbEntity
  8
Layer0000
  6
Continuous
 62
     3
370
    25
100
AcDbLine
 10
-37.22941176470593
 20
182.9542483660131
 30
0.0
 11
-37.22941176470593
 21
253.9542483660132
 31
0.0
  0
LINE
  5
213
330
1F
100
AcDbEntity
  8
Layer0000
  6
Continuous
 62
     3
370
    25
100
AcDbLine
 10
92.77058817406478
 20
161.454248366013
 30
0.0
 11
92.77058817406478
 21
275.4542483660133
 31
0.0
  0
LINE
  5
214
330
1F
100
AcDbEntity
  8
Layer0000
  6
Continuous
 62
     3
370
    25
100
AcDbLine
 10
72.77058823529404
 20
161.454248366013
 30
0.0
 11
92.77058817406478
 21
161.454248366013
 31
0.0
  0
LINE
  5
215
330
1F
100
AcDbEntity
  8
Layer0000
  6
Continuous
 62
     3
370
    25
100
AcDbLine
 10
92.77058817406481
 20
-196.1608179528262
 30
0.0
 11
92.77058817406481
 21
-124.1608179528262
 31
0.0
  0
CIRCLE
  5
216
330
1F
100
AcDbEntity
  8
Layer0000
  6
Continuous
 62
     3
370
    25
100
AcDbCircle
 10
32.77058823529407
 20
244.4542483660132
 30
0.0
 40
11.5
  0
CIRCLE
  5
217
330
1F
100
AcDbEntity
  8
Layer0000
  6
Continuous
 62
     3
370
    25
100
AcDbCircle
 10
-22.22941176470593
 20
244.4542483660132
 30
0.0
 40
11.5
  0
CIRCLE
  5
218
330
1F
100
AcDbEntity
  8
Layer0000
  6
Continuous
 62
     3
370
    25
100
AcDbCircle
 10
-22.22941176470593
 20
192.4542483660131
 30
0.0
 40
11.5
  0
CIRCLE
  5
219
330
1F
100
AcDbEntity
  8
Layer0000
  6
Continuous
 62
     3
370
    25
100
AcDbCircle
 10
32.77058823529407
 20
192.4542483660131
 30
0.0
 40
11.5
  0
LINE
  5
21A
330
1F
100
AcDbEntity
  8
Layer0000
  6
Continuous
 62
     3
370
    25
100
AcDbLine
 10
-52.22941176470594
 20
-172.1608179128768
 30
0.0
 11
-202.2294117647059
 21
-172.1608179128768
 31
0.0
  0
ARC
  5
21B
330
1F
100
AcDbEntity
  8
Layer0000
  6
Continuous
 62
     3
370
    25
100
AcDbCircle
 10
-52.22941176470594
 20
-187.1608179128768
 30
0.0
 40
15.0
100
AcDbArc
 50
270.0
 51
90.0
  0
ARC
  5
21C
330
1F
100
AcDbEntity
  8
Layer0000
  6
Continuous
 62
     3
370
    25
100
AcDbCircle
 10
-202.2294117647059
 20
-187.1608179128768
 30
0.0
 40
15.0
100
AcDbArc
 50
90.0
 51
270.0
  0
LINE
  5
21D
330
1F
100
AcDbEntity
  8
Layer0000
  6
Continuous
 62
     3
370
    25
100
AcDbLine
 10
72.77058823529404
 20
-205.1608179128768
 30
0.0
 11
-402.229411764706
 21
-205.1608179128768
 31
0.0
  0
LINE
  5
21E
330
1F
100
AcDbEntity
  8
Layer0000
  6
Continuous
 62
     3
370
    25
100
AcDbLine
 10
72.77058823529404
 20
-157.1608179128768
 30
0.0
 11
-402.229411764706
 21
-157.1608179128768
 31
0.0
  0
LINE
  5
21F
330
1F
100
AcDbEntity
  8
Layer0000
  6
Continuous
 62
     3
370
    25
100
AcDbLine
 10
106.2705882352919
 20
-152.6608179128767
 30
0.0
 11
92.77058823529188
 21
-152.6608179128767
 31
0.0
  0
LINE
  5
220
330
1F
100
AcDbEntity
  8
Layer0000
  6
Continuous
 62
     3
370
    25
100
AcDbLine
 10
106.2705882352919
 20
-167.6608179128768
 30
0.0
 11
92.77058823529188
 21
-167.6608179128768
 31
0.0
  0
ARC
  5
221
330
1F
100
AcDbEntity
  8
Layer0000
  6
Continuous
 62
     3
370
    25
100
AcDbCircle
 10
88.27058823529188
 20
-160.1608179128767
 30
0.0
 40
19.5
100
AcDbArc
 50
337.3801350519595
 51
22.61986494804044
  0
ARC
  5
222
330
1F
100
AcDbEntity
  8
Layer0000
  6
Continuous
 62
     3
370
    25
100
AcDbCircle
 10
102.3330882352919
 20
-171.4108179128768
 30
0.0
 40
5.4375
100
AcDbArc
 50
316.3971810272964
 51
43.60281897270362
  0
ARC
  5
223
330
1F
100
AcDbEntity
  8
Layer0000
  6
Continuous
 62
     3
370
    25
100
AcDbCircle
 10
102.3330882352919
 20
-148.9108179128767
 30
0.0
 40
5.4375
100
AcDbArc
 50
316.3971810272964
 51
43.60281897270362
  0
LINE
  5
224
330
1F
100
AcDbEntity
  8
Layer0000
  6
Continuous
 62
     3
370
    25
100
AcDbLine
 10
106.270588235292
 20
-145.1608179128767
 30
0.0
 11
92.77058817406481
 21
-145.1608179128767
 31
0.0
  0
LINE
  5
225
330
1F
100
AcDbEntity
  8
Layer0000
  6
Continuous
 62
     3
370
    25
100
AcDbLine
 10
106.2705882352919
 20
-175.1608179128768
 30
0.0
 11
92.77058817406481
 21
-175.1608179128768
 31
0.0
  0
LINE
  5
226
330
1F
100
AcDbEntity
  8
Layer0000
  6
Continuous
 62
     3
370
    25
100
AcDbLine
 10
107.7705882352919
 20
-148.9108179128766
 30
0.0
 11
107.7705882352919
 21
-172.3414894596336
 31
0.0
  0
CIRCLE
  5
227
330
1F
100
AcDbEntity
  8
Layer0000
  6
Continuous
 62
     3
370
    25
100
AcDbCircle
 10
-352.2294117647059
 20
256.4542483660132
 30
0.0
 40
4.458500000000015
  0
CIRCLE
  5
228
330
1F
100
AcDbEntity
  8
Layer0000
  6
Continuous
 62
     3
370
    25
100
AcDbCircle
 10
-352.2294117647059
 20
256.4542483660132
 30
0.0
 40
5.0
  0
CIRCLE
  5
229
330
1F
100
AcDbEntity
  8
Layer0000
  6
Continuous
 62
     3
370
    25
100
AcDbCircle
 10
-352.2294117647059
 20
218.4542483660131
 30
0.0
 40
4.458500000000015
  0
CIRCLE
  5
22A
330
1F
100
AcDbEntity
  8
Layer0000
  6
Continuous
 62
     3
370
    25
100
AcDbCircle
 10
-352.2294117647059
 20
218.4542483660131
 30
0.0
 40
5.0
  0
CIRCLE
  5
22B
330
1F
100
AcDbEntity
  8
Layer0000
  6
Continuous
 62
     3
370
    25
100
AcDbCircle
 10
-352.2294117647059
 20
180.4542483660131
 30
0.0
 40
4.458500000000015
  0
CIRCLE
  5
22C
330
1F
100
AcDbEntity
  8
Layer0000
  6
Continuous
 62
     3
370
    25
100
AcDbCircle
 10
-352.2294117647059
 20
180.4542483660131
 30
0.0
 40
5.0
  0
LINE
  5
22D
330
1F
100
AcDbEntity
  8
Layer0000
  6
Continuous
 62
     3
370
    25
100
AcDbLine
 10
72.77058823529407
 20
253.9542483660132
 30
0.0
 11
47.77058823529407
 21
253.9542483660132
 31
0.0
  0
LINE
  5
22E
330
1F
100
AcDbEntity
  8
Layer0000
  6
Continuous
 62
     3
370
    25
100
AcDbLine
 10
72.77058823529407
 20
182.9542483660131
 30
0.0
 11
47.77058823529407
 21
182.9542483660131
 31
0.0
  0
LINE
  5
22F
330
1F
100
AcDbEntity
  8
Layer0000
  6
Continuous
 62
     3
370
    25
100
AcDbLine
 10
-52.22941176470593
 20
182.9542483660131
 30
0.0
 11
-307.2294117647059
 21
182.9542483660131
 31
0.0
  0
LINE
  5
230
330
1F
100
AcDbEntity
  8
Layer0000
  6
Continuous
 62
     3
370
    25
100
AcDbLine
 10
111.7705882352919
 20
-151.3608179128767
 30
0.0
 11
112.2705882352919
 21
-151.3608179128767
 31
0.0
  0
LINE
  5
231
330
1F
100
AcDbEntity
  8
Layer0000
  6
Continuous
 62
     3
370
    25
100
AcDbLine
 10
107.7705882352919
 20
-151.1608179128767
 30
0.0
 11
111.7705882352919
 21
-151.1608179128767
 31
0.0
  0
LINE
  5
232
330
1F
100
AcDbEntity
  8
Layer0000
  6
Continuous
 62
     3
370
    25
100
AcDbLine
 10
114.7705882352919
 20
-151.3608179128767
 30
0.0
 11
115.2705882352919
 21
-151.3608179128767
 31
0.0
  0
LINE
  5
233
330
1F
100
AcDbEntity
  8
Layer0000
  6
Continuous
 62
     3
370
    25
100
AcDbLine
 10
112.2705882352919
 20
-151.1608179128767
 30
0.0
 11
114.7705882352919
 21
-151.1608179128767
 31
0.0
  0
LINE
  5
234
330
1F
100
AcDbEntity
  8
Layer0000
  6
Continuous
 62
     3
370
    25
100
AcDbLine
 10
115.2705882352919
 20
-151.1608179128767
 30
0.0
 11
117.7705882352918
 21
-151.1608179128767
 31
0.0
  0
LINE
  5
235
330
1F
100
AcDbEntity
  8
Layer0000
  6
Continuous
 62
     3
370
    25
100
AcDbLine
 10
107.7705882352919
 20
-169.1608179128768
 30
0.0
 11
111.7705882352919
 21
-169.1608179128768
 31
0.0
  0
LINE
  5
236
330
1F
100
AcDbEntity
  8
Layer0000
  6
Continuous
 62
     3
370
    25
100
AcDbLine
 10
111.7705882352919
 20
-169.1608179128768
 30
0.0
 11
111.7705882352919
 21
-151.1608179128767
 31
0.0
  0
LINE
  5
237
330
1F
100
AcDbEntity
  8
Layer0000
  6
Continuous
 62
     3
370
    25
100
AcDbLine
 10
111.7705882352919
 20
-168.9608179128768
 30
0.0
 11
112.2705882352919
 21
-168.9608179128768
 31
0.0
  0
LINE
  5
238
330
1F
100
AcDbEntity
  8
Layer0000
  6
Continuous
 62
     3
370
    25
100
AcDbLine
 10
112.2705882352919
 20
-151.1608179128767
 30
0.0
 11
112.2705882352919
 21
-169.1608179128768
 31
0.0
  0
LINE
  5
239
330
1F
100
AcDbEntity
  8
Layer0000
  6
Continuous
 62
     3
370
    25
100
AcDbLine
 10
114.7705882352919
 20
-169.1608179128768
 30
0.0
 11
114.7705882352919
 21
-151.1608179128767
 31
0.0
  0
LINE
  5
23A
330
1F
100
AcDbEntity
  8
Layer0000
  6
Continuous
 62
     3
370
    25
100
AcDbLine
 10
114.7705882352919
 20
-168.9608179128768
 30
0.0
 11
115.2705882352919
 21
-168.9608179128768
 31
0.0
  0
LINE
  5
23B
330
1F
100
AcDbEntity
  8
Layer0000
  6
Continuous
 62
     3
370
    25
100
AcDbLine
 10
115.2705882352919
 20
-151.1608179128767
 30
0.0
 11
115.2705882352919
 21
-169.1608179128768
 31
0.0
  0
LINE
  5
23C
330
1F
100
AcDbEntity
  8
Layer0000
  6
Continuous
 62
     3
370
    25
100
AcDbLine
 10
117.7705882352918
 20
-169.1608179128768
 30
0.0
 11
117.7705882352918
 21
-151.1608179128767
 31
0.0
  0
LINE
  5
23D
330
1F
100
AcDbEntity
  8
Layer0000
  6
Continuous
 62
     3
370
    25
100
AcDbLine
 10
112.2705882352919
 20
-169.1608179128768
 30
0.0
 11
114.7705882352919
 21
-169.1608179128768
 31
0.0
  0
LINE
  5
23E
330
1F
100
AcDbEntity
  8
Layer0000
  6
Continuous
 62
     3
370
    25
100
AcDbLine
 10
115.2705882352919
 20
-169.1608179128768
 30
0.0
 11
117.7705882352918
 21
-169.1608179128768
 31
0.0
  0
LINE
  5
23F
330
1F
100
AcDbEntity
  8
Layer0000
  6
Continuous
 62
     3
370
    25
100
AcDbLine
 10
117.7705882352918
 20
-151.3608179128767
 30
0.0
 11
118.2705882352918
 21
-151.3608179128767
 31
0.0
  0
LINE
  5
240
330
1F
100
AcDbEntity
  8
Layer0000
  6
Continuous
 62
     3
370
    25
100
AcDbLine
 10
118.2705882352918
 20
-151.3608179128767
 30
0.0
 11
118.2705882352918
 21
-151.1608179128767
 31
0.0
  0
LINE
  5
241
330
1F
100
AcDbEntity
  8
Layer0000
  6
Continuous
 62
     3
370
    25
100
AcDbLine
 10
117.7705882352918
 20
-168.9608179128768
 30
0.0
 11
118.2705882352918
 21
-168.9608179128768
 31
0.0
  0
LINE
  5
242
330
1F
100
AcDbEntity
  8
Layer0000
  6
Continuous
 62
     3
370
    25
100
AcDbLine
 10
118.2705882352918
 20
-151.1608179128767
 30
0.0
 11
118.2705882352918
 21
-169.1608179128768
 31
0.0
  0
LINE
  5
243
330
1F
100
AcDbEntity
  8
Layer0000
  6
Continuous
 62
     3
370
    25
100
AcDbLine
 10
128.2705882352943
 20
-169.1608179128768
 30
0.0
 11
128.2705882352943
 21
-151.1608179128767
 31
0.0
  0
LINE
  5
244
330
1F
100
AcDbEntity
  8
Layer0000
  6
Continuous
 62
     3
370
    25
100
AcDbLine
 10
144.2705882352943
 20
-155.6608179128767
 30
0.0
 11
128.2705882352943
 21
-155.6608179128767
 31
0.0
  0
LINE
  5
245
330
1F
100
AcDbEntity
  8
Layer0000
  6
Continuous
 62
     3
370
    25
100
AcDbLine
 10
145.2705882352943
 20
-153.4108179128767
 30
0.0
 11
145.2705882352943
 21
-166.9108179128768
 31
0.0
  0
ARC
  5
246
330
1F
100
AcDbEntity
  8
Layer0000
  6
Continuous
 62
     3
370
    25
100
AcDbCircle
 10
142.2393382352943
 20
-153.4108179128767
 30
0.0
 40
3.03125
100
AcDbArc
 50
312.0750220508436
 51
47.92497794915638
  0
ARC
  5
247
330
1F
100
AcDbEntity
  8
Layer0000
  6
Continuous
 62
     3
370
    25
100
AcDbCircle
 10
134.6455882352943
 20
-160.1608179128767
 30
0.0
 40
10.625
100
AcDbArc
 50
334.942384581697
 51
25.05761541830302
  0
ARC
  5
248
330
1F
100
AcDbEntity
  8
Layer0000
  6
Continuous
 62
     3
370
    25
100
AcDbCircle
 10
142.2393382352943
 20
-166.9108179128768
 30
0.0
 40
3.03125
100
AcDbArc
 50
312.0750220508436
 51
47.92497794915638
  0
LINE
  5
249
330
1F
100
AcDbEntity
  8
Layer0000
  6
Continuous
 62
     3
370
    25
100
AcDbLine
 10
144.2705882352943
 20
-164.6608179128768
 30
0.0
 11
128.2705882352943
 21
-164.6608179128768
 31
0.0
  0
LINE
  5
24A
330
1F
100
AcDbEntity
  8
Layer0000
  6
Continuous
 62
     3
370
    25
100
AcDbLine
 10
118.2705882352918
 20
-151.1608179128767
 30
0.0
 11
144.2705882352943
 21
-151.1608179128767
 31
0.0
  0
LINE
  5
24B
330
1F
100
AcDbEntity
  8
Layer0000
  6
Continuous
 62
     3
370
    25
100
AcDbLine
 10
118.2705882352918
 20
-169.1608179128768
 30
0.0
 11
144.2705882352943
 21
-169.1608179128768
 31
0.0
  0
LINE
  5
24C
330
1F
100
AcDbEntity
  8
Layer0000
  6
Continuous
 62
     3
370
    25
100
AcDbLine
 10
106.2705882352919
 20
225.9542483660132
 30
0.0
 11
92.77058823529185
 21
225.9542483660132
 31
0.0
  0
LINE
  5
24D
330
1F
100
AcDbEntity
  8
Layer0000
  6
Continuous
 62
     3
370
    25
100
AcDbLine
 10
106.2705882352919
 20
210.9542483660131
 30
0.0
 11
92.77058823529185
 21
210.9542483660131
 31
0.0
  0
ARC
  5
24E
330
1F
100
AcDbEntity
  8
Layer0000
  6
Continuous
 62
     3
370
    25
100
AcDbCircle
 10
88.27058823529185
 20
218.4542483660131
 30
0.0
 40
19.5
100
AcDbArc
 50
337.3801350519595
 51
22.61986494804044
  0
ARC
  5
24F
330
1F
100
AcDbEntity
  8
Layer0000
  6
Continuous
 62
     3
370
    25
100
AcDbCircle
 10
102.3330882352919
 20
207.2042483660131
 30
0.0
 40
5.4375
100
AcDbArc
 50
316.3971810272964
 51
43.60281897270362
  0
ARC
  5
250
330
1F
100
AcDbEntity
  8
Layer0000
  6
Continuous
 62
     3
370
    25
100
AcDbCircle
 10
102.3330882352919
 20
229.7042483660132
 30
0.0
 40
5.4375
100
AcDbArc
 50
316.3971810272964
 51
43.60281897270362
  0
LINE
  5
251
330
1F
100
AcDbEntity
  8
Layer0000
  6
Continuous
 62
     3
370
    25
100
AcDbLine
 10
106.270588235292
 20
233.4542483660132
 30
0.0
 11
92.77058817406478
 21
233.4542483660132
 31
0.0
  0
LINE
  5
252
330
1F
100
AcDbEntity
  8
Layer0000
  6
Continuous
 62
     3
370
    25
100
AcDbLine
 10
106.2705882352919
 20
203.4542483660131
 30
0.0
 11
92.77058817406478
 21
203.4542483660131
 31
0.0
  0
LINE
  5
253
330
1F
100
AcDbEntity
  8
Layer0000
  6
Continuous
 62
     3
370
    25
100
AcDbLine
 10
107.7705882352919
 20
229.7042483660133
 30
0.0
 11
107.7705882352919
 21
206.2735768192562
 31
0.0
  0
LINE
  5
254
330
1F
100
AcDbEntity
  8
Layer0000
  6
Continuous
 62
     3
370
    25
100
AcDbLine
 10
111.7705882352919
 20
227.2542483660132
 30
0.0
 11
112.2705882352919
 21
227.2542483660132
 31
0.0
  0
LINE
  5
255
330
1F
100
AcDbEntity
  8
Layer0000
  6
Continuous
 62
     3
370
    25
100
AcDbLine
 10
107.7705882352919
 20
227.4542483660132
 30
0.0
 11
111.7705882352919
 21
227.4542483660132
 31
0.0
  0
LINE
  5
256
330
1F
100
AcDbEntity
  8
Layer0000
  6
Continuous
 62
     3
370
    25
100
AcDbLine
 10
114.7705882352919
 20
227.2542483660132
 30
0.0
 11
115.2705882352919
 21
227.2542483660132
 31
0.0
  0
LINE
  5
257
330
1F
100
AcDbEntity
  8
Layer0000
  6
Continuous
 62
     3
370
    25
100
AcDbLine
 10
112.2705882352919
 20
227.4542483660132
 30
0.0
 11
114.7705882352919
 21
227.4542483660132
 31
0.0
  0
LINE
  5
258
330
1F
100
AcDbEntity
  8
Layer0000
  6
Continuous
 62
     3
370
    25
100
AcDbLine
 10
115.2705882352919
 20
227.4542483660132
 30
0.0
 11
117.7705882352918
 21
227.4542483660132
 31
0.0
  0
LINE
  5
259
330
1F
100
AcDbEntity
  8
Layer0000
  6
Continuous
 62
     3
370
    25
100
AcDbLine
 10
107.7705882352919
 20
209.4542483660131
 30
0.0
 11
111.7705882352919
 21
209.4542483660131
 31
0.0
  0
LINE
  5
25A
330
1F
100
AcDbEntity
  8
Layer0000
  6
Continuous
 62
     3
370
    25
100
AcDbLine
 10
111.7705882352919
 20
209.4542483660131
 30
0.0
 11
111.7705882352919
 21
227.4542483660132
 31
0.0
  0
LINE
  5
25B
330
1F
100
AcDbEntity
  8
Layer0000
  6
Continuous
 62
     3
370
    25
100
AcDbLine
 10
111.7705882352919
 20
209.6542483660131
 30
0.0
 11
112.2705882352919
 21
209.6542483660131
 31
0.0
  0
LINE
  5
25C
330
1F
100
AcDbEntity
  8
Layer0000
  6
Continuous
 62
     3
370
    25
100
AcDbLine
 10
112.2705882352919
 20
227.4542483660132
 30
0.0
 11
112.2705882352919
 21
209.4542483660131
 31
0.0
  0
LINE
  5
25D
330
1F
100
AcDbEntity
  8
Layer0000
  6
Continuous
 62
     3
370
    25
100
AcDbLine
 10
114.7705882352919
 20
209.4542483660131
 30
0.0
 11
114.7705882352919
 21
227.4542483660132
 31
0.0
  0
LINE
  5
25E
330
1F
100
AcDbEntity
  8
Layer0000
  6
Continuous
 62
     3
370
    25
100
AcDbLine
 10
114.7705882352919
 20
209.6542483660131
 30
0.0
 11
115.2705882352919
 21
209.6542483660131
 31
0.0
  0
LINE
  5
25F
330
1F
100
AcDbEntity
  8
Layer0000
  6
Continuous
 62
     3
370
    25
100
AcDbLine
 10
115.2705882352919
 20
227.4542483660132
 30
0.0
 11
115.2705882352919
 21
209.4542483660131
 31
0.0
  0
LINE
  5
260
330
1F
100
AcDbEntity
  8
Layer0000
  6
Continuous
 62
     3
370
    25
100
AcDbLine
 10
117.7705882352918
 20
209.4542483660131
 30
0.0
 11
117.7705882352918
 21
227.4542483660132
 31
0.0
  0
LINE
  5
261
330
1F
100
AcDbEntity
  8
Layer0000
  6
Continuous
 62
     3
370
    25
100
AcDbLine
 10
112.2705882352919
 20
209.4542483660131
 30
0.0
 11
114.7705882352919
 21
209.4542483660131
 31
0.0
  0
LINE
  5
262
330
1F
100
AcDbEntity
  8
Layer0000
  6
Continuous
 62
     3
370
    25
100
AcDbLine
 10
115.2705882352919
 20
209.4542483660131
 30
0.0
 11
117.7705882352918
 21
209.4542483660131
 31
0.0
  0
LINE
  5
263
330
1F
100
AcDbEntity
  8
Layer0000
  6
Continuous
 62
     3
370
    25
100
AcDbLine
 10
117.7705882352918
 20
227.2542483660132
 30
0.0
 11
118.2705882352918
 21
227.2542483660132
 31
0.0
  0
LINE
  5
264
330
1F
100
AcDbEntity
  8
Layer0000
  6
Continuous
 62
     3
370
    25
100
AcDbLine
 10
118.2705882352918
 20
227.2542483660132
 30
0.0
 11
118.2705882352918
 21
227.4542483660132
 31
0.0
  0
LINE
  5
265
330
1F
100
AcDbEntity
  8
Layer0000
  6
Continuous
 62
     3
370
    25
100
AcDbLine
 10
117.7705882352918
 20
209.6542483660131
 30
0.0
 11
118.2705882352918
 21
209.6542483660131
 31
0.0
  0
LINE
  5
266
330
1F
100
AcDbEntity
  8
Layer0000
  6
Continuous
 62
     3
370
    25
100
AcDbLine
 10
118.2705882352918
 20
227.4542483660132
 30
0.0
 11
118.2705882352918
 21
209.4542483660131
 31
0.0
  0
LINE
  5
267
330
1F
100
AcDbEntity
  8
Layer0000
  6
Continuous
 62
     3
370
    25
100
AcDbLine
 10
128.2705882352943
 20
209.4542483660131
 30
0.0
 11
128.2705882352943
 21
227.4542483660132
 31
0.0
  0
LINE
  5
268
330
1F
100
AcDbEntity
  8
Layer0000
  6
Continuous
 62
     3
370
    25
100
AcDbLine
 10
144.2705882352943
 20
222.9542483660132
 30
0.0
 11
128.2705882352943
 21
222.9542483660132
 31
0.0
  0
LINE
  5
269
330
1F
100
AcDbEntity
  8
Layer0000
  6
Continuous
 62
     3
370
    25
100
AcDbLine
 10
145.2705882352943
 20
225.2042483660132
 30
0.0
 11
145.2705882352943
 21
211.7042483660131
 31
0.0
  0
ARC
  5
26A
330
1F
100
AcDbEntity
  8
Layer0000
  6
Continuous
 62
     3
370
    25
100
AcDbCircle
 10
142.2393382352943
 20
225.2042483660132
 30
0.0
 40
3.03125
100
AcDbArc
 50
312.0750220508436
 51
47.92497794915638
  0
ARC
  5
26B
330
1F
100
AcDbEntity
  8
Layer0000
  6
Continuous
 62
     3
370
    25
100
AcDbCircle
 10
134.6455882352943
 20
218.4542483660131
 30
0.0
 40
10.625
100
AcDbArc
 50
334.942384581697
 51
25.05761541830302
  0
ARC
  5
26C
330
1F
100
AcDbEntity
  8
Layer0000
  6
Continuous
 62
     3
370
    25
100
AcDbCircle
 10
142.2393382352943
 20
211.7042483660131
 30
0.0
 40
3.03125
100
AcDbArc
 50
312.0750220508436
 51
47.92497794915638
  0
LINE
  5
26D
330
1F
100
AcDbEntity
  8
Layer0000
  6
Continuous
 62
     3
370
    25
100
AcDbLine
 10
144.2705882352943
 20
213.9542483660131
 30
0.0
 11
128.2705882352943
 21
213.9542483660131
 31
0.0
  0
LINE
  5
26E
330
1F
100
AcDbEntity
  8
Layer0000
  6
Continuous
 62
     3
370
    25
100
AcDbLine
 10
118.2705882352918
 20
227.4542483660132
 30
0.0
 11
144.2705882352943
 21
227.4542483660132
 31
0.0
  0
LINE
  5
26F
330
1F
100
AcDbEntity
  8
Layer0000
  6
Continuous
 62
     3
370
    25
100
AcDbLine
 10
118.2705882352918
 20
209.4542483660131
 30
0.0
 11
144.2705882352943
 21
209.4542483660131
 31
0.0
  0
LINE
  5
270
330
1F
100
AcDbEntity
  8
Layer0000
  6
Continuous
 62
     3
370
    25
100
AcDbLine
 10
284.7705882352941
 20
253.9542483660131
 30
0.0
 11
284.7705882352941
 21
283.4542483660131
 31
0.0
  0
LINE
  5
271
330
1F
100
AcDbEntity
  8
Layer0000
  6
Continuous
 62
     3
370
    25
100
AcDbLine
 10
389.7705882352941
 20
153.4542483660131
 30
0.0
 11
389.7705882352941
 21
283.4542483660131
 31
0.0
  0
LINE
  5
272
330
1F
100
AcDbEntity
  8
Layer0000
  6
Continuous
 62
     3
370
    25
100
AcDbLine
 10
364.770588235294
 20
245.4542483660131
 30
0.0
 11
364.770588235294
 21
191.4542483660131
 31
0.0
  0
LINE
  5
273
330
1F
100
AcDbEntity
  8
Layer0000
  6
Continuous
 62
     3
370
    25
100
AcDbLine
 10
286.7705882352941
 20
253.9542483660131
 30
0.0
 11
284.7705882352941
 21
253.9542483660131
 31
0.0
  0
LINE
  5
274
330
1F
100
AcDbEntity
  8
Layer0000
  6
Continuous
 62
     3
370
    25
100
AcDbLine
 10
285.7705882352941
 20
253.9542483660132
 30
0.0
 11
286.7705882352941
 21
253.9542483660132
 31
0.0
  0
LINE
  5
275
330
1F
100
AcDbEntity
  8
Layer0000
  6
Continuous
 62
     3
370
    25
100
AcDbLine
 10
285.7705882352941
 20
252.4542483660132
 30
0.0
 11
286.7705882352941
 21
252.4542483660132
 31
0.0
  0
LINE
  5
276
330
1F
100
AcDbEntity
  8
Layer0000
  6
Continuous
 62
     3
370
    25
100
AcDbLine
 10
285.7705882352941
 20
250.4542483660132
 30
0.0
 11
286.7705882352941
 21
250.4542483660132
 31
0.0
  0
LINE
  5
277
330
1F
100
AcDbEntity
  8
Layer0000
  6
Continuous
 62
     3
370
    25
100
AcDbLine
 10
285.7705882352941
 20
249.9542483660132
 30
0.0
 11
286.7705882352941
 21
249.9542483660132
 31
0.0
  0
LINE
  5
278
330
1F
100
AcDbEntity
  8
Layer0000
  6
Continuous
 62
     3
370
    25
100
AcDbLine
 10
285.7705882352941
 20
253.9542483660132
 30
0.0
 11
285.7705882352941
 21
235.9542483660132
 31
0.0
  0
LINE
  5
279
330
1F
100
AcDbEntity
  8
Layer0000
  6
Continuous
 62
     3
370
    25
100
AcDbLine
 10
367.7705882352941
 20
283.4542483660131
 30
0.0
 11
367.7705882352941
 21
276.4542483660131
 31
0.0
  0
LINE
  5
27A
330
1F
100
AcDbEntity
  8
Layer0000
  6
Continuous
 62
     3
370
    25
100
AcDbLine
 10
367.7705882352941
 20
276.4542483660131
 30
0.0
 11
319.7705882352941
 21
276.4542483660131
 31
0.0
  0
LINE
  5
27B
330
1F
100
AcDbEntity
  8
Layer0000
  6
Continuous
 62
     3
370
    25
100
AcDbLine
 10
319.7705882352941
 20
276.4542483660131
 30
0.0
 11
319.7705882352941
 21
283.4542483660131
 31
0.0
  0
LINE
  5
27C
330
1F
100
AcDbEntity
  8
Layer0000
  6
Continuous
 62
     3
370
    25
100
AcDbLine
 10
389.7705882352941
 20
283.4542483660131
 30
0.0
 11
367.7705882352941
 21
283.4542483660131
 31
0.0
  0
LINE
  5
27D
330
1F
100
AcDbEntity
  8
Layer0000
  6
Continuous
 62
     3
370
    25
100
AcDbLine
 10
319.7705882352941
 20
283.4542483660131
 30
0.0
 11
284.7705882352941
 21
283.4542483660131
 31
0.0
  0
LINE
  5
27E
330
1F
100
AcDbEntity
  8
Layer0000
  6
Continuous
 62
     3
370
    25
100
AcDbLine
 10
239.7705882352941
 20
281.9542483660131
 30
0.0
 11
239.7705882352941
 21
154.9542483660131
 31
0.0
  0
LINE
  5
27F
330
1F
100
AcDbEntity
  8
Layer0000
  6
Continuous
 62
     3
370
    25
100
AcDbLine
 10
239.7705882352941
 20
154.9542483660131
 30
0.0
 11
284.7705882352941
 21
154.9542483660131
 31
0.0
  0
LINE
  5
280
330
1F
100
AcDbEntity
  8
Layer0000
  6
Continuous
 62
     3
370
    25
100
AcDbLine
 10
238.7705882352941
 20
153.9542483660131
 30
0.0
 11
238.7705882352941
 21
282.9542483660131
 31
0.0
  0
LINE
  5
281
330
1F
100
AcDbEntity
  8
Layer0000
  6
Continuous
 62
     3
370
    25
100
AcDbLine
 10
239.7705882352941
 20
281.9542483660131
 30
0.0
 11
284.7705882352941
 21
281.9542483660131
 31
0.0
  0
LINE
  5
282
330
1F
100
AcDbEntity
  8
Layer0000
  6
Continuous
 62
     3
370
    25
100
AcDbLine
 10
285.7705882352941
 20
235.9542483660132
 30
0.0
 11
286.7705882352941
 21
235.9542483660132
 31
0.0
  0
ARC
  5
283
330
1F
100
AcDbEntity
  8
Layer0000
  6
Continuous
 62
     3
370
    25
100
AcDbCircle
 10
358.770588235294
 20
245.4542483660131
 30
0.0
 40
6.0
100
AcDbArc
 50
0.0
 51
90.0
  0
LINE
  5
284
330
1F
100
AcDbEntity
  8
Layer0000
  6
Continuous
 62
     3
370
    25
100
AcDbLine
 10
286.7705882352941
 20
275.4542483660132
 30
0.0
 11
286.7705882352941
 21
161.454248366013
 31
0.0
  0
LINE
  5
285
330
1F
100
AcDbEntity
  8
Layer0000
  6
Continuous
 62
     3
370
    25
100
AcDbLine
 10
286.7705882352941
 20
275.4542483660132
 30
0.0
 11
358.770588235294
 21
275.4542483660132
 31
0.0
  0
LINE
  5
286
330
1F
100
AcDbEntity
  8
Layer0000
  6
Continuous
 62
     3
370
    25
100
AcDbLine
 10
358.770588235294
 20
275.4542483660132
 30
0.0
 11
358.770588235294
 21
251.4542483660131
 31
0.0
  0
LINE
  5
287
330
1F
100
AcDbEntity
  8
Layer0000
  6
Continuous
 62
     3
370
    25
100
AcDbLine
 10
352.770588235294
 20
190.4542483660131
 30
0.0
 11
352.770588235294
 21
246.4542483660131
 31
0.0
  0
LINE
  5
288
330
1F
100
AcDbEntity
  8
Layer0000
  6
Continuous
 62
     3
370
    25
100
AcDbLine
 10
369.770588235294
 20
243.4542483660131
 30
0.0
 11
369.770588235294
 21
193.4542483660131
 31
0.0
  0
LINE
  5
289
330
1F
100
AcDbEntity
  8
Layer0000
  6
Continuous
 62
     3
370
    25
100
AcDbLine
 10
363.2427241902936
 20
249.4542483660131
 30
0.0
 11
363.770588235294
 21
249.4542483660131
 31
0.0
  0
ARC
  5
28A
330
1F
100
AcDbEntity
  8
Layer0000
  6
Continuous
 62
     3
370
    25
100
AcDbCircle
 10
363.770588235294
 20
243.4542483660131
 30
0.0
 40
6.0
100
AcDbArc
 50
0.0
 51
90.0
  0
LINE
  5
28B
330
1F
100
AcDbEntity
  8
Layer0000
  6
Continuous
 62
     3
370
    25
100
AcDbLine
 10
284.7705882352941
 20
282.9542483660131
 30
0.0
 11
238.7705882352941
 21
282.9542483660131
 31
0.0
  0
LINE
  5
28C
330
1F
100
AcDbEntity
  8
Layer0000
  6
Continuous
 62
     3
370
    25
100
AcDbLine
 10
284.7705882352941
 20
282.9542483660131
 30
0.0
 11
284.7705882352941
 21
153.9542483660131
 31
0.0
  0
LINE
  5
28D
330
1F
100
AcDbEntity
  8
Layer0000
  6
Continuous
 62
     3
370
    25
100
AcDbLine
 10
284.7705882352941
 20
182.9542483660131
 30
0.0
 11
284.7705882352941
 21
153.4542483660131
 31
0.0
  0
LINE
  5
28E
330
1F
100
AcDbEntity
  8
Layer0000
  6
Continuous
 62
     3
370
    25
100
AcDbLine
 10
286.7705882352941
 20
182.9542483660131
 30
0.0
 11
284.7705882352941
 21
182.9542483660131
 31
0.0
  0
LINE
  5
28F
330
1F
100
AcDbEntity
  8
Layer0000
  6
Continuous
 62
     3
370
    25
100
AcDbLine
 10
367.7705882352941
 20
153.4542483660131
 30
0.0
 11
367.7705882352941
 21
160.4542483660131
 31
0.0
  0
LINE
  5
290
330
1F
100
AcDbEntity
  8
Layer0000
  6
Continuous
 62
     3
370
    25
100
AcDbLine
 10
367.7705882352941
 20
160.4542483660131
 30
0.0
 11
319.7705882352941
 21
160.4542483660131
 31
0.0
  0
LINE
  5
291
330
1F
100
AcDbEntity
  8
Layer0000
  6
Continuous
 62
     3
370
    25
100
AcDbLine
 10
319.7705882352941
 20
160.4542483660131
 30
0.0
 11
319.7705882352941
 21
153.4542483660131
 31
0.0
  0
LINE
  5
292
330
1F
100
AcDbEntity
  8
Layer0000
  6
Continuous
 62
     3
370
    25
100
AcDbLine
 10
389.7705882352941
 20
153.4542483660131
 30
0.0
 11
367.7705882352941
 21
153.4542483660131
 31
0.0
  0
LINE
  5
293
330
1F
100
AcDbEntity
  8
Layer0000
  6
Continuous
 62
     3
370
    25
100
AcDbLine
 10
319.7705882352941
 20
153.4542483660131
 30
0.0
 11
284.7705882352941
 21
153.4542483660131
 31
0.0
  0
ARC
  5
294
330
1F
100
AcDbEntity
  8
Layer0000
  6
Continuous
 62
     3
370
    25
100
AcDbCircle
 10
358.770588235294
 20
191.4542483660131
 30
0.0
 40
6.0
100
AcDbArc
 50
270.0
 51
0.0
  0
LINE
  5
295
330
1F
100
AcDbEntity
  8
Layer0000
  6
Continuous
 62
     3
370
    25
100
AcDbLine
 10
363.2427241902936
 20
187.4542483660131
 30
0.0
 11
363.770588235294
 21
187.4542483660131
 31
0.0
  0
ARC
  5
296
330
1F
100
AcDbEntity
  8
Layer0000
  6
Continuous
 62
     3
370
    25
100
AcDbCircle
 10
363.770588235294
 20
193.4542483660131
 30
0.0
 40
6.0
100
AcDbArc
 50
270.0
 51
0.0
  0
LINE
  5
297
330
1F
100
AcDbEntity
  8
Layer0000
  6
Continuous
 62
     3
370
    25
100
AcDbLine
 10
284.7705882352941
 20
153.9542483660131
 30
0.0
 11
238.7705882352941
 21
153.9542483660131
 31
0.0
  0
LINE
  5
298
330
1F
100
AcDbEntity
  8
Layer0000
  6
Continuous
 62
     3
370
    25
100
AcDbLine
 10
285.7705882352941
 20
182.954248366013
 30
0.0
 11
286.7705882352941
 21
182.954248366013
 31
0.0
  0
LINE
  5
299
330
1F
100
AcDbEntity
  8
Layer0000
  6
Continuous
 62
     3
370
    25
100
AcDbLine
 10
285.7705882352941
 20
184.454248366013
 30
0.0
 11
286.7705882352941
 21
184.454248366013
 31
0.0
  0
LINE
  5
29A
330
1F
100
AcDbEntity
  8
Layer0000
  6
Continuous
 62
     3
370
    25
100
AcDbLine
 10
285.7705882352941
 20
186.454248366013
 30
0.0
 11
286.7705882352941
 21
186.454248366013
 31
0.0
  0
LINE
  5
29B
330
1F
100
AcDbEntity
  8
Layer0000
  6
Continuous
 62
     3
370
    25
100
AcDbLine
 10
285.7705882352941
 20
186.954248366013
 30
0.0
 11
286.7705882352941
 21
186.954248366013
 31
0.0
  0
LINE
  5
29C
330
1F
100
AcDbEntity
  8
Layer0000
  6
Continuous
 62
     3
370
    25
100
AcDbLine
 10
285.7705882352941
 20
182.954248366013
 30
0.0
 11
285.7705882352941
 21
200.954248366013
 31
0.0
  0
LINE
  5
29D
330
1F
100
AcDbEntity
  8
Layer0000
  6
Continuous
 62
     3
370
    25
100
AcDbLine
 10
285.7705882352941
 20
200.954248366013
 30
0.0
 11
286.7705882352941
 21
200.954248366013
 31
0.0
  0
CIRCLE
  5
29E
330
1F
100
AcDbEntity
  8
Layer0000
  6
Continuous
 62
     3
370
    25
100
AcDbCircle
 10
298.7705882352941
 20
262.9542483660132
 30
0.0
 40
10.0
  0
CIRCLE
  5
29F
330
1F
100
AcDbEntity
  8
Layer0000
  6
Continuous
 62
     3
370
    25
100
AcDbCircle
 10
298.7705882352941
 20
262.9542483660132
 30
0.0
 40
6.5
  0
CIRCLE
  5
2A0
330
1F
100
AcDbEntity
  8
Layer0000
  6
Continuous
 62
     3
370
    25
100
AcDbCircle
 10
346.770588235294
 20
262.9542483660132
 30
0.0
 40
10.0
  0
CIRCLE
  5
2A1
330
1F
100
AcDbEntity
  8
Layer0000
  6
Continuous
 62
     3
370
    25
100
AcDbCircle
 10
346.770588235294
 20
262.9542483660132
 30
0.0
 40
6.5
  0
CIRCLE
  5
2A2
330
1F
100
AcDbEntity
  8
Layer0000
  6
Continuous
 62
     3
370
    25
100
AcDbCircle
 10
346.770588235294
 20
173.954248366013
 30
0.0
 40
10.0
  0
CIRCLE
  5
2A3
330
1F
100
AcDbEntity
  8
Layer0000
  6
Continuous
 62
     3
370
    25
100
AcDbCircle
 10
346.770588235294
 20
173.954248366013
 30
0.0
 40
6.5
  0
CIRCLE
  5
2A4
330
1F
100
AcDbEntity
  8
Layer0000
  6
Continuous
 62
     3
370
    25
100
AcDbCircle
 10
298.7705882352941
 20
173.954248366013
 30
0.0
 40
10.0
  0
CIRCLE
  5
2A5
330
1F
100
AcDbEntity
  8
Layer0000
  6
Continuous
 62
     3
370
    25
100
AcDbCircle
 10
298.7705882352941
 20
173.954248366013
 30
0.0
 40
6.5
  0
LINE
  5
2A6
330
1F
100
AcDbEntity
  8
Layer0000
  6
Continuous
 62
     3
370
    25
100
AcDbLine
 10
286.7705882352941
 20
161.454248366013
 30
0.0
 11
358.770588235294
 21
161.454248366013
 31
0.0
  0
LINE
  5
2A7
330
1F
100
AcDbEntity
  8
Layer0000
  6
Continuous
 62
     3
370
    25
100
AcDbLine
 10
358.770588235294
 20
161.454248366013
 30
0.0
 11
358.770588235294
 21
185.4542483660131
 31
0.0
  0
CIRCLE
  5
2A8
330
1F
100
AcDbEntity
  8
Layer0000
  6
Continuous
 62
     3
370
    25
100
AcDbCircle
 10
322.770588235294
 20
218.4542483660131
 30
0.0
 40
22.5
  0
LINE
  5
2A9
330
1F
100
AcDbEntity
  8
Layer0000
  6
Continuous
 62
     3
370
    25
100
AcDbLine
 10
357.770588235294
 20
251.4542483660131
 30
0.0
 11
358.770588235294
 21
251.4542483660131
 31
0.0
  0
ARC
  5
2AA
330
1F
100
AcDbEntity
  8
Layer0000
  6
Continuous
 62
     3
370
    25
100
AcDbCircle
 10
357.770588235294
 20
246.4542483660131
 30
0.0
 40
5.0
100
AcDbArc
 50
90.0
 51
180.0
  0
LINE
  5
2AB
330
1F
100
AcDbEntity
  8
Layer0000
  6
Continuous
 62
     3
370
    25
100
AcDbLine
 10
357.770588235294
 20
185.4542483660131
 30
0.0
 11
358.770588235294
 21
185.4542483660131
 31
0.0
  0
ARC
  5
2AC
330
1F
100
AcDbEntity
  8
Layer0000
  6
Continuous
 62
     3
370
    25
100
AcDbCircle
 10
357.770588235294
 20
190.4542483660131
 30
0.0
 40
5.0
100
AcDbArc
 50
180.0
 51
270.0
  0
CIRCLE
  5
2AD
330
1F
100
AcDbEntity
  8
Layer0000
  6
Continuous
 62
     3
370
    25
100
AcDbCircle
 10
322.770588235294
 20
218.4542483660131
 30
0.0
 40
9.0
  0
LINE
  5
2AE
330
1F
100
AcDbEntity
  8
Layer0000
  6
Continuous
 62
     3
370
    25
100
AcDbLine
 10
330.3413024495655
 20
223.3208987834798
 30
0.0
 11
323.1998740210226
 21
227.4440044090975
 31
0.0
  0
LINE
  5
2AF
330
1F
100
AcDbEntity
  8
Layer0000
  6
Continuous
 62
     3
370
    25
100
AcDbLine
 10
322.3413024495655
 20
227.4440044090975
 30
0.0
 11
315.1998740210226
 21
223.3208987834798
 31
0.0
  0
LINE
  5
2B0
330
1F
100
AcDbEntity
  8
Layer0000
  6
Continuous
 62
     3
370
    25
100
AcDbLine
 10
314.770588235294
 20
222.5773539916308
 30
0.0
 11
314.770588235294
 21
214.3311427403955
 31
0.0
  0
LINE
  5
2B1
330
1F
100
AcDbEntity
  8
Layer0000
  6
Continuous
 62
     3
370
    25
100
AcDbLine
 10
315.1998740210227
 20
213.5875979485465
 30
0.0
 11
322.3413024495654
 21
209.4644923229288
 31
0.0
  0
LINE
  5
2B2
330
1F
100
AcDbEntity
  8
Layer0000
  6
Continuous
 62
     3
370
    25
100
AcDbLine
 10
323.1998740210226
 20
209.4644923229288
 30
0.0
 11
330.3413024495654
 21
213.5875979485465
 31
0.0
  0
LINE
  5
2B3
330
1F
100
AcDbEntity
  8
Layer0000
  6
Continuous
 62
     3
370
    25
100
AcDbLine
 10
330.770588235294
 20
214.3311427403955
 30
0.0
 11
330.770588235294
 21
222.5773539916308
 31
0.0
  0
CIRCLE
  5
2B4
330
1F
100
AcDbEntity
  8
Layer0000
  6
Continuous
 62
     3
370
    25
100
AcDbCircle
 10
322.770588235294
 20
218.4542483660131
 30
0.0
 40
8.0
  0
LINE
  5
2B5
330
1F
100
AcDbEntity
  8
Layer0000
  6
Continuous
 62
     3
370
    25
100
AcDbLine
 10
335.1829640617471
 20
226.8764171094475
 30
0.0
 11
323.858212408841
 21
233.4147655247586
 31
0.0
  0
LINE
  5
2B6
330
1F
100
AcDbEntity
  8
Layer0000
  6
Continuous
 62
     3
370
    25
100
AcDbLine
 10
321.6829640617471
 20
233.4147655247586
 30
0.0
 11
310.358212408841
 21
226.8764171094475
 31
0.0
  0
LINE
  5
2B7
330
1F
100
AcDbEntity
  8
Layer0000
  6
Continuous
 62
     3
370
    25
100
AcDbLine
 10
309.270588235294
 20
224.9925967813242
 30
0.0
 11
309.270588235294
 21
211.9158999507021
 31
0.0
  0
LINE
  5
2B8
330
1F
100
AcDbEntity
  8
Layer0000
  6
Continuous
 62
     3
370
    25
100
AcDbLine
 10
310.3582124088409
 20
210.0320796225788
 30
0.0
 11
321.6829640617471
 21
203.4937312072677
 31
0.0
  0
LINE
  5
2B9
330
1F
100
AcDbEntity
  8
Layer0000
  6
Continuous
 62
     3
370
    25
100
AcDbLine
 10
323.858212408841
 20
203.4937312072677
 30
0.0
 11
335.1829640617471
 21
210.0320796225787
 31
0.0
  0
LINE
  5
2BA
330
1F
100
AcDbEntity
  8
Layer0000
  6
Continuous
 62
     3
370
    25
100
AcDbLine
 10
336.270588235294
 20
211.9158999507021
 30
0.0
 11
336.270588235294
 21
224.9925967813242
 31
0.0
  0
ARC
  5
2BB
330
1F
100
AcDbEntity
  8
Layer0000
  6
Continuous
 62
     3
370
    25
100
AcDbCircle
 10
322.770588235294
 20
218.4542483660132
 30
0.0
 40
14.0
100
AcDbArc
 50
75.35888558082257
 51
104.6411144191774
  0
ARC
  5
2BC
330
1F
100
AcDbEntity
  8
Layer0000
  6
Continuous
 62
     3
370
    25
100
AcDbCircle
 10
322.770588235294
 20
218.4542483660132
 30
0.0
 40
14.0
100
AcDbArc
 50
15.35888558082273
 51
44.64111441917733
  0
ARC
  5
2BD
330
1F
100
AcDbEntity
  8
Layer0000
  6
Continuous
 62
     3
370
    25
100
AcDbCircle
 10
322.770588235294
 20
218.4542483660132
 30
0.0
 40
14.0
100
AcDbArc
 50
315.3588855808223
 51
344.6411144191773
  0
ARC
  5
2BE
330
1F
100
AcDbEntity
  8
Layer0000
  6
Continuous
 62
     3
370
    25
100
AcDbCircle
 10
322.770588235294
 20
218.4542483660132
 30
0.0
 40
14.0
100
AcDbArc
 50
254.1375834367882
 51
284.6411144191776
  0
ARC
  5
2BF
330
1F
100
AcDbEntity
  8
Layer0000
  6
Continuous
 62
     3
370
    25
100
AcDbCircle
 10
322.770588235294
 20
218.4542483660132
 30
0.0
 40
14.0
100
AcDbArc
 50
135.3588855808227
 51
164.6411144191775
  0
ARC
  5
2C0
330
1F
100
AcDbEntity
  8
Layer0000
  6
Continuous
 62
     3
370
    25
100
AcDbCircle
 10
322.770588235294
 20
218.4542483660132
 30
0.0
 40
14.0
100
AcDbArc
 50
195.3588855808225
 51
224.6411144191773
  0
CIRCLE
  5
2C1
330
1F
100
AcDbEntity
  8
Layer0000
  6
Continuous
 62
     3
370
    25
100
AcDbCircle
 10
322.770588235294
 20
218.4542483660132
 30
0.0
 40
15.0
  0
LINE
  5
2C2
330
1F
100
AcDbEntity
  8
Layer0000
  6
Continuous
 62
     3
370
    25
100
AcDbLine
 10
-249.2294117647059
 20
-235.1608179128768
 30
0.0
 11
-231.2294117647059
 21
-235.1608179128768
 31
0.0
  0
LINE
  5
2C3
330
1F
100
AcDbEntity
  8
Layer0000
  6
Continuous
 62
     3
370
    25
100
AcDbLine
 10
72.77058823529404
 20
-227.1608179128768
 30
0.0
 11
-231.2294117647059
 21
-227.1608179128768
 31
0.0
  0
LINE
  5
2C4
330
1F
100
AcDbEntity
  8
Layer0000
  6
Continuous
 62
     3
370
    25
100
AcDbLine
 10
-249.2294117647059
 20
-227.1608179128768
 30
0.0
 11
-402.229411764706
 21
-227.1608179128768
 31
0.0
  0
LINE
  5
2C5
330
1F
100
AcDbEntity
  8
Layer0000
  6
Continuous
 62
     3
370
    25
100
AcDbLine
 10
-127.2294117647058
 20
205.4542483660131
 30
0.0
 11
-307.2294117647059
 21
205.4542483660131
 31
0.0
  0
LINE
  5
2C6
330
1F
100
AcDbEntity
  8
Layer0000
  6
Continuous
 62
     3
370
    25
100
AcDbLine
 10
-37.53247329945149
 20
-184.1608179547894
 30
0.0
 11
-127.2294117647058
 21
-184.1608179547894
 31
0.0
  0
LINE
  5
2C7
330
1F
100
AcDbEntity
  8
Layer0000
  6
Continuous
 62
     3
370
    25
100
AcDbLine
 10
-127.2294117647058
 20
-184.1608179547894
 30
0.0
 11
-127.2294117647058
 21
-172.1608179128768
 31
0.0
  0
LINE
  5
2C8
330
1F
100
AcDbEntity
  8
Layer0000
  6
Continuous
 62
     3
370
    25
100
AcDbLine
 10
-127.2294117647058
 20
-173.1608179528266
 30
0.0
 11
-207.6145766756996
 21
-173.1608179528266
 31
0.0
  0
LINE
  5
2C9
330
1F
100
AcDbEntity
  8
Layer0000
  6
Continuous
 62
     3
370
    25
100
AcDbLine
 10
72.77058823529407
 20
283.4542483660132
 30
0.0
 11
-402.229411764706
 21
283.4542483660132
 31
0.0
  0
LINE
  5
2CA
330
1F
100
AcDbEntity
  8
Layer0000
  6
Continuous
 62
     3
370
    25
100
AcDbLine
 10
-52.22941176470593
 20
253.9542483660132
 30
0.0
 11
-307.2294117647059
 21
253.9542483660132
 31
0.0
  0
LINE
  5
2CB
330
1F
100
AcDbEntity
  8
Layer0000
  6
Continuous
 62
     3
370
    25
100
AcDbLine
 10
-127.2294117647058
 20
231.4542483660131
 30
0.0
 11
-307.2294117647059
 21
231.4542483660131
 31
0.0
  0
LINE
  5
2CC
330
1F
100
AcDbEntity
  8
Layer0000
  6
CENTER
 62
     2
370
    25
100
AcDbLine
 10
-240.2294117647059
 20
-220.8081669613666
 30
0.0
 11
-240.2294117647059
 21
-237.0667219000277
 31
0.0
  0
LINE
  5
2CD
330
1F
100
AcDbEntity
  8
Layer0000
  6
CENTER
 62
     2
370
    25
100
AcDbLine
 10
-190.2294117647059
 20
-220.8081669613666
 30
0.0
 11
-190.2294117647059
 21
-231.1002278255832
 31
0.0
  0
LINE
  5
2CE
330
1F
100
AcDbEntity
  8
Layer0000
  6
CENTER
 62
     2
370
    25
100
AcDbLine
 10
-140.2294117647059
 20
-220.8081669613666
 30
0.0
 11
-140.2294117647059
 21
-231.1002278255832
 31
0.0
  0
LINE
  5
2CF
330
1F
100
AcDbEntity
  8
Layer0000
  6
CENTER
 62
     2
370
    25
100
AcDbLine
 10
-15.72941176470592
 20
256.4542483660132
 30
0.0
 11
1.270588235294085
 21
256.4542483660132
 31
0.0
  0
LINE
  5
2D0
330
1F
100
AcDbEntity
  8
Layer0000
  6
CENTER
 62
     2
370
    25
100
AcDbLine
 10
-15.72941176470592
 20
180.4542483660131
 30
0.0
 11
1.270588235294085
 21
180.4542483660131
 31
0.0
  0
LINE
  5
2D1
330
1F
100
AcDbEntity
  8
Layer0000
  6
CENTER
 62
     2
370
    25
100
AcDbLine
 10
-7.229411764705915
 20
171.9542483660131
 30
0.0
 11
-7.229411764705915
 21
188.9542483660131
 31
0.0
  0
LINE
  5
2D2
330
1F
100
AcDbEntity
  8
Layer0000
  6
CENTER
 62
     2
370
    25
100
AcDbLine
 10
-7.229411764706043
 20
223.4542483660132
 30
0.0
 11
-7.229411764706043
 21
213.4542483660131
 31
0.0
  0
LINE
  5
2D3
330
1F
100
AcDbEntity
  8
Layer0000
  6
CENTER
 62
     2
370
    25
100
AcDbLine
 10
-2.229411764706043
 20
256.4542483660132
 30
0.0
 11
-12.22941176470604
 21
256.4542483660132
 31
0.0
  0
LINE
  5
2D4
330
1F
100
AcDbEntity
  8
Layer0000
  6
CENTER
 62
     2
370
    25
100
AcDbLine
 10
-7.229411764706043
 20
261.4542483660132
 30
0.0
 11
-7.229411764706043
 21
251.4542483660132
 31
0.0
  0
LINE
  5
2D5
330
1F
100
AcDbEntity
  8
Layer0000
  6
CENTER
 62
     2
370
    25
100
AcDbLine
 10
-2.229411764706043
 20
180.4542483660131
 30
0.0
 11
-12.22941176470604
 21
180.4542483660131
 31
0.0
  0
LINE
  5
2D6
330
1F
100
AcDbEntity
  8
Layer0000
  6
CENTER
 62
     2
370
    25
100
AcDbLine
 10
-7.229411764706043
 20
185.4542483660131
 30
0.0
 11
-7.229411764706043
 21
175.4542483660131
 31
0.0
  0
LINE
  5
2D7
330
1F
100
AcDbEntity
  8
Layer0000
  6
CENTER
 62
     2
370
    25
100
AcDbLine
 10
-375.7294117647059
 20
168.4542483660131
 30
0.0
 11
-398.7294117647059
 21
168.4542483660131
 31
0.0
  0
LINE
  5
2D8
330
1F
100
AcDbEntity
  8
Layer0000
  6
CENTER
 62
     2
370
    25
100
AcDbLine
 10
-387.2294117647059
 20
179.9542483660131
 30
0.0
 11
-387.2294117647059
 21
156.9542483660131
 31
0.0
  0
LINE
  5
2D9
330
1F
100
AcDbEntity
  8
Layer0000
  6
CENTER
 62
     2
370
    25
100
AcDbLine
 10
-325.7294117647059
 20
168.4542483660131
 30
0.0
 11
-348.7294117647059
 21
168.4542483660131
 31
0.0
  0
LINE
  5
2DA
330
1F
100
AcDbEntity
  8
Layer0000
  6
CENTER
 62
     2
370
    25
100
AcDbLine
 10
-337.2294117647059
 20
179.9542483660131
 30
0.0
 11
-337.2294117647059
 21
156.9542483660131
 31
0.0
  0
LINE
  5
2DB
330
1F
100
AcDbEntity
  8
Layer0000
  6
CENTER
 62
     2
370
    25
100
AcDbLine
 10
-375.7294117647059
 20
268.4542483660132
 30
0.0
 11
-398.7294117647059
 21
268.4542483660132
 31
0.0
  0
LINE
  5
2DC
330
1F
100
AcDbEntity
  8
Layer0000
  6
CENTER
 62
     2
370
    25
100
AcDbLine
 10
-387.2294117647059
 20
256.9542483660132
 30
0.0
 11
-387.2294117647059
 21
279.9542483660132
 31
0.0
  0
LINE
  5
2DD
330
1F
100
AcDbEntity
  8
Layer0000
  6
CENTER
 62
     2
370
    25
100
AcDbLine
 10
-325.7294117647059
 20
268.4542483660132
 30
0.0
 11
-348.7294117647059
 21
268.4542483660132
 31
0.0
  0
LINE
  5
2DE
330
1F
100
AcDbEntity
  8
Layer0000
  6
CENTER
 62
     2
370
    25
100
AcDbLine
 10
-337.2294117647059
 20
256.9542483660132
 30
0.0
 11
-337.2294117647059
 21
279.9542483660132
 31
0.0
  0
LINE
  5
2DF
330
1F
100
AcDbEntity
  8
Layer0000
  6
CENTER
 62
     2
370
    25
100
AcDbLine
 10
-15.22941176470593
 20
244.4542483660132
 30
0.0
 11
-29.22941176470593
 21
244.4542483660132
 31
0.0
  0
LINE
  5
2E0
330
1F
100
AcDbEntity
  8
Layer0000
  6
CENTER
 62
     2
370
    25
100
AcDbLine
 10
-22.22941176470593
 20
251.4542483660132
 30
0.0
 11
-22.22941176470593
 21
237.4542483660132
 31
0.0
  0
LINE
  5
2E1
330
1F
100
AcDbEntity
  8
Layer0000
  6
CENTER
 62
     2
370
    25
100
AcDbLine
 10
-15.22941176470593
 20
192.4542483660131
 30
0.0
 11
-29.22941176470593
 21
192.4542483660131
 31
0.0
  0
LINE
  5
2E2
330
1F
100
AcDbEntity
  8
Layer0000
  6
CENTER
 62
     2
370
    25
100
AcDbLine
 10
-22.22941176470593
 20
199.4542483660131
 30
0.0
 11
-22.22941176470593
 21
185.4542483660131
 31
0.0
  0
LINE
  5
2E3
330
1F
100
AcDbEntity
  8
Layer0000
  6
CENTER
 62
     2
370
    25
100
AcDbLine
 10
39.77058823529407
 20
192.4542483660131
 30
0.0
 11
25.77058823529407
 21
192.4542483660131
 31
0.0
  0
LINE
  5
2E4
330
1F
100
AcDbEntity
  8
Layer0000
  6
CENTER
 62
     2
370
    25
100
AcDbLine
 10
32.77058823529407
 20
199.4542483660131
 30
0.0
 11
32.77058823529407
 21
185.4542483660131
 31
0.0
  0
LINE
  5
2E5
330
1F
100
AcDbEntity
  8
Layer0000
  6
CENTER
 62
     2
370
    25
100
AcDbLine
 10
39.77058823529407
 20
244.4542483660132
 30
0.0
 11
25.77058823529407
 21
244.4542483660132
 31
0.0
  0
LINE
  5
2E6
330
1F
100
AcDbEntity
  8
Layer0000
  6
CENTER
 62
     2
370
    25
100
AcDbLine
 10
32.77058823529407
 20
251.4542483660132
 30
0.0
 11
32.77058823529407
 21
237.4542483660132
 31
0.0
  0
LINE
  5
2E7
330
1F
100
AcDbEntity
  8
Layer0000
  6
CENTER
 62
     2
370
    25
100
AcDbLine
 10
150.2705882352944
 20
-160.1608179128767
 30
0.0
 11
90.77058817406481
 21
-160.1608179128767
 31
0.0
  0
LINE
  5
2E8
330
1F
100
AcDbEntity
  8
Layer0000
  6
CENTER
 62
     2
370
    25
100
AcDbLine
 10
-347.2294117647059
 20
256.4542483660132
 30
0.0
 11
-357.2294117647059
 21
256.4542483660132
 31
0.0
  0
LINE
  5
2E9
330
1F
100
AcDbEntity
  8
Layer0000
  6
CENTER
 62
     2
370
    25
100
AcDbLine
 10
-352.2294117647059
 20
261.4542483660132
 30
0.0
 11
-352.2294117647059
 21
251.4542483660132
 31
0.0
  0
LINE
  5
2EA
330
1F
100
AcDbEntity
  8
Layer0000
  6
CENTER
 62
     2
370
    25
100
AcDbLine
 10
-352.2294117647059
 20
223.4542483660132
 30
0.0
 11
-352.2294117647059
 21
213.4542483660131
 31
0.0
  0
LINE
  5
2EB
330
1F
100
AcDbEntity
  8
Layer0000
  6
CENTER
 62
     2
370
    25
100
AcDbLine
 10
-347.2294117647059
 20
180.4542483660131
 30
0.0
 11
-357.2294117647059
 21
180.4542483660131
 31
0.0
  0
LINE
  5
2EC
330
1F
100
AcDbEntity
  8
Layer0000
  6
CENTER
 62
     2
370
    25
100
AcDbLine
 10
-352.2294117647059
 20
175.4542483660131
 30
0.0
 11
-352.2294117647059
 21
185.4542483660131
 31
0.0
  0
LINE
  5
2ED
330
1F
100
AcDbEntity
  8
Layer0000
  6
CENTER
 62
     2
370
    25
100
AcDbLine
 10
389.7705882352941
 20
218.4542483660131
 30
0.0
 11
238.7705882352941
 21
218.4542483660131
 31
0.0
  0
LINE
  5
2EE
330
1F
100
AcDbEntity
  8
Layer0000
  6
CENTER
 62
     2
370
    25
100
AcDbLine
 10
322.770588235294
 20
250.1406793703397
 30
0.0
 11
322.770588235294
 21
188.0336371168186
 31
0.0
  0
LINE
  5
2EF
330
1F
100
AcDbEntity
  8
Layer0000
  6
CENTER
 62
     2
370
    25
100
AcDbLine
 10
288.7705882352941
 20
262.9542483660132
 30
0.0
 11
308.7705882352941
 21
262.9542483660132
 31
0.0
  0
LINE
  5
2F0
330
1F
100
AcDbEntity
  8
Layer0000
  6
CENTER
 62
     2
370
    25
100
AcDbLine
 10
298.7705882352941
 20
272.9542483660132
 30
0.0
 11
298.7705882352941
 21
252.9542483660132
 31
0.0
  0
LINE
  5
2F1
330
1F
100
AcDbEntity
  8
Layer0000
  6
CENTER
 62
     2
370
    25
100
AcDbLine
 10
356.770588235294
 20
262.9542483660132
 30
0.0
 11
336.770588235294
 21
262.9542483660132
 31
0.0
  0
LINE
  5
2F2
330
1F
100
AcDbEntity
  8
Layer0000
  6
CENTER
 62
     2
370
    25
100
AcDbLine
 10
346.770588235294
 20
272.9542483660132
 30
0.0
 11
346.770588235294
 21
252.9542483660132
 31
0.0
  0
LINE
  5
2F3
330
1F
100
AcDbEntity
  8
Layer0000
  6
CENTER
 62
     2
370
    25
100
AcDbLine
 10
356.770588235294
 20
173.954248366013
 30
0.0
 11
336.770588235294
 21
173.954248366013
 31
0.0
  0
LINE
  5
2F4
330
1F
100
AcDbEntity
  8
Layer0000
  6
CENTER
 62
     2
370
    25
100
AcDbLine
 10
346.770588235294
 20
163.954248366013
 30
0.0
 11
346.770588235294
 21
183.954248366013
 31
0.0
  0
LINE
  5
2F5
330
1F
100
AcDbEntity
  8
Layer0000
  6
CENTER
 62
     2
370
    25
100
AcDbLine
 10
288.7705882352941
 20
173.954248366013
 30
0.0
 11
308.7705882352941
 21
173.954248366013
 31
0.0
  0
LINE
  5
2F6
330
1F
100
AcDbEntity
  8
Layer0000
  6
CENTER
 62
     2
370
    25
100
AcDbLine
 10
298.7705882352941
 20
163.954248366013
 30
0.0
 11
298.7705882352941
 21
183.954248366013
 31
0.0
  0
LINE
  5
2F7
330
1F
100
AcDbEntity
  8
Layer0000
  6
CENTER
 62
     2
370
    25
100
AcDbLine
 10
-359.2294117647059
 20
-97.16081791287675
 30
0.0
 11
-373.2294117647059
 21
-97.16081791287675
 31
0.0
  0
LINE
  5
2F8
330
1F
100
AcDbEntity
  8
Layer0000
  6
CENTER
 62
     2
370
    25
100
AcDbLine
 10
-366.2294117647059
 20
-90.16081791287675
 30
0.0
 11
-366.2294117647059
 21
-104.1608179128768
 31
0.0
  0
LINE
  5
2F9
330
1F
100
AcDbEntity
  8
Layer0000
  6
CENTER
 62
     2
370
    25
100
AcDbLine
 10
-402.229411764706
 20
218.4542483660131
 30
0.0
 11
-296.6233084783209
 21
218.4542483660131
 31
0.0
  0
LINE
  5
2FA
330
1F
100
AcDbEntity
  8
Layer0000
  6
CENTER
 62
     2
370
    25
100
AcDbLine
 10
-281.0003314001657
 20
218.4542483660131
 30
0.0
 11
-242.7053595808488
 21
218.4542483660131
 31
0.0
  0
LINE
  5
2FB
330
1F
100
AcDbEntity
  8
Layer0000
  6
CENTER
 62
     2
370
    25
100
AcDbLine
 10
-226.9814330334395
 20
218.4542483660131
 30
0.0
 11
145.2705882352943
 21
218.4542483660131
 31
0.0
  0
LINE
  5
2FC
330
1F
100
AcDbEntity
  8
Layer0000
  6
Continuous
 62
     2
370
    25
100
AcDbLine
 10
-127.2294117647058
 20
229.9542483660131
 30
0.0
 11
-307.2294117647059
 21
229.9542483660131
 31
0.0
  0
LINE
  5
2FD
330
1F
100
AcDbEntity
  8
Layer0000
  6
Continuous
 62
     2
370
    25
100
AcDbLine
 10
-127.2294117647058
 20
206.9542483660131
 30
0.0
 11
-307.2294117647059
 21
206.9542483660131
 31
0.0
  0
LINE
  5
2FE
330
1F
100
AcDbEntity
  8
Layer0000
  6
DIVIDE
 62
    56
370
    25
100
AcDbLine
 10
-367.229411764706
 20
-58.66081791287677
 30
0.0
 11
-332.2294117647059
 21
-58.66081791287677
 31
0.0
  0
LINE
  5
2FF
330
1F
100
AcDbEntity
  8
Layer0000
  6
DIVIDE
 62
    56
370
    25
100
AcDbLine
 10
-367.229411764706
 20
-58.66081791287677
 30
0.0
 11
-367.229411764706
 21
-53.66081791287677
 31
0.0
  0
LINE
  5
300
330
1F
100
AcDbEntity
  8
Layer0000
  6
DIVIDE
 62
    56
370
    25
100
AcDbLine
 10
-367.229411764706
 20
-53.66081791287677
 30
0.0
 11
-387.229411764706
 21
-53.66081791287677
 31
0.0
  0
LINE
  5
301
330
1F
100
AcDbEntity
  8
Layer0000
  6
DIVIDE
 62
    56
370
    25
100
AcDbLine
 10
-387.229411764706
 20
-53.66081791287677
 30
0.0
 11
-387.229411764706
 21
-77.16081791287675
 31
0.0
  0
LINE
  5
302
330
1F
100
AcDbEntity
  8
Layer0000
  6
DIVIDE
 62
    56
370
    25
100
AcDbLine
 10
-332.2294117647059
 20
-58.66081791287677
 30
0.0
 11
-332.2294117647059
 21
-77.16081791287675
 31
0.0
  0
LINE
  5
303
330
1F
100
AcDbEntity
  8
Layer0000
  6
DIVIDE
 62
    56
370
    25
100
AcDbLine
 10
7.770588235294127
 20
-58.66081791287677
 30
0.0
 11
-27.22941176470593
 21
-58.66081791287677
 31
0.0
  0
LINE
  5
304
330
1F
100
AcDbEntity
  8
Layer0000
  6
DIVIDE
 62
    56
370
    25
100
AcDbLine
 10
7.770588235294127
 20
-58.66081791287677
 30
0.0
 11
7.770588235294127
 21
-53.66081791287677
 31
0.0
  0
LINE
  5
305
330
1F
100
AcDbEntity
  8
Layer0000
  6
DIVIDE
 62
    56
370
    25
100
AcDbLine
 10
7.770588235294127
 20
-53.66081791287677
 30
0.0
 11
27.77058823529413
 21
-53.66081791287677
 31
0.0
  0
LINE
  5
306
330
1F
100
AcDbEntity
  8
Layer0000
  6
DIVIDE
 62
    56
370
    25
100
AcDbLine
 10
27.77058823529413
 20
-53.66081791287677
 30
0.0
 11
27.77058823529413
 21
-77.16081791287675
 31
0.0
  0
LINE
  5
307
330
1F
100
AcDbEntity
  8
Layer0000
  6
DIVIDE
 62
    56
370
    25
100
AcDbLine
 10
-27.22941176470593
 20
-58.66081791287677
 30
0.0
 11
-27.22941176470593
 21
-77.16081791287675
 31
0.0
  0
LINE
  5
308
330
1F
100
AcDbEntity
  8
Layer0000
  6
DIVIDE
 62
    56
370
    25
100
AcDbLine
 10
239.7705882352941
 20
282.9542483660132
 30
0.0
 11
216.2705882352941
 21
282.9542483660132
 31
0.0
  0
LINE
  5
309
330
1F
100
AcDbEntity
  8
Layer0000
  6
DIVIDE
 62
    56
370
    25
100
AcDbLine
 10
239.7705882352941
 20
153.9542483660131
 30
0.0
 11
216.2705882352941
 21
153.9542483660131
 31
0.0
  0
LINE
  5
30A
330
1F
100
AcDbEntity
  8
Layer0000
  6
DIVIDE
 62
    56
370
    25
100
AcDbLine
 10
216.2705882352941
 20
153.9542483660131
 30
0.0
 11
216.2705882352941
 21
282.9542483660132
 31
0.0
  0
LINE
  5
30B
330
1F
100
AcDbEntity
  8
Layer0000
  6
CENTER
 62
    56
370
    25
100
AcDbLine
 10
224.2705882352944
 20
-260.1608179128754
 30
0.0
 11
141.2705882352944
 21
-260.1608179128754
 31
0.0
  0
LINE
  5
30C
330
1F
100
AcDbEntity
  8
Layer0000
  6
CENTER
 62
    56
370
    25
100
AcDbLine
 10
-377.2294117647058
 20
102.9542483660131
 30
0.0
 11
-395.2294117647058
 21
102.9542483660131
 31
0.0
  0
LINE
  5
30D
330
1F
100
AcDbEntity
  8
Layer0000
  6
CENTER
 62
    56
370
    25
100
AcDbLine
 10
-386.2294117647058
 20
111.9542483660131
 30
0.0
 11
-386.2294117647058
 21
93.95424836601313
 31
0.0
  0
LINE
  5
30E
330
1F
100
AcDbEntity
  8
Layer0000
  6
CENTER
 62
    56
370
    25
100
AcDbLine
 10
-366.2294117647059
 20
156.4564064063679
 30
0.0
 11
-366.2294117647059
 21
51.95424836601313
 31
0.0
  0
LINE
  5
30F
330
1F
100
AcDbEntity
  8
Layer0000
  6
CENTER
 62
    56
370
    25
100
AcDbLine
 10
-288.2294117647059
 20
149.9542483660132
 30
0.0
 11
-288.2294117647059
 21
80.95424836601313
 31
0.0
  0
LINE
  5
310
330
1F
100
AcDbEntity
  8
Layer0000
  6
Continuous
 62
    56
370
    25
100
AcDbLine
 10
155.2705882352944
 20
-267.6608179128754
 30
0.0
 11
155.2705882352944
 21
-252.6608179128754
 31
0.0
  0
LINE
  5
311
330
1F
100
AcDbEntity
  8
Layer0000
  6
Continuous
 62
    56
370
    25
100
AcDbLine
 10
155.2705882352944
 20
-267.6608179128754
 30
0.0
 11
141.2705882352944
 21
-267.6608179128754
 31
0.0
  0
LINE
  5
312
330
1F
100
AcDbEntity
  8
Layer0000
  6
Continuous
 62
    56
370
    25
100
AcDbLine
 10
155.2705882352944
 20
-252.6608179128754
 30
0.0
 11
148.2705882352944
 21
-252.6608179128754
 31
0.0
  0
LINE
  5
313
330
1F
100
AcDbEntity
  8
Layer0000
  6
Continuous
 62
    56
370
    25
100
AcDbLine
 10
224.2705882352944
 20
-270.6608179128754
 30
0.0
 11
224.2705882352944
 21
-249.6608179128754
 31
0.0
  0
LINE
  5
314
330
1F
100
AcDbEntity
  8
Layer0000
  6
Continuous
 62
    56
370
    25
100
AcDbLine
 10
164.2705882352944
 20
-267.1608179128754
 30
0.0
 11
164.2705882352944
 21
-253.1608179128754
 31
0.0
  0
LINE
  5
315
330
1F
100
AcDbEntity
  8
Layer0000
  6
Continuous
 62
    56
370
    25
100
AcDbLine
 10
164.2705882352944
 20
-267.1608179128754
 30
0.0
 11
224.2705882352944
 21
-270.6608179128754
 31
0.0
  0
LINE
  5
316
330
1F
100
AcDbEntity
  8
Layer0000
  6
Continuous
 62
    56
370
    25
100
AcDbLine
 10
164.2705882352944
 20
-253.1608179128754
 30
0.0
 11
224.2705882352944
 21
-249.6608179128754
 31
0.0
  0
LINE
  5
317
330
1F
100
AcDbEntity
  8
Layer0000
  6
Continuous
 62
    56
370
    25
100
AcDbLine
 10
164.2705882352944
 20
-267.1608179128754
 30
0.0
 11
155.2705882352944
 21
-267.1608179128754
 31
0.0
  0
LINE
  5
318
330
1F
100
AcDbEntity
  8
Layer0000
  6
Continuous
 62
    56
370
    25
100
AcDbLine
 10
164.2705882352944
 20
-253.1608179128754
 30
0.0
 11
155.2705882352944
 21
-253.1608179128754
 31
0.0
  0
LINE
  5
319
330
1F
100
AcDbEntity
  8
Layer0000
  6
Continuous
 62
    56
370
    25
100
AcDbLine
 10
141.2705882352944
 20
-177.6608179128767
 30
0.0
 11
141.2705882352944
 21
-267.6608179128754
 31
0.0
  0
LINE
  5
31A
330
1F
100
AcDbEntity
  8
Layer0000
  6
Continuous
 62
    56
370
    25
100
AcDbLine
 10
148.2705882352944
 20
-142.6608179128767
 30
0.0
 11
148.2705882352944
 21
-252.6608179128754
 31
0.0
  0
LINE
  5
31B
330
1F
100
AcDbEntity
  8
Layer0000
  6
Continuous
 62
    56
370
    25
100
AcDbLine
 10
122.2705882352944
 20
-174.6608179128767
 30
0.0
 11
137.2705882352944
 21
-174.6608179128767
 31
0.0
  0
LINE
  5
31C
330
1F
100
AcDbEntity
  8
Layer0000
  6
Continuous
 62
    56
370
    25
100
AcDbLine
 10
137.2705882352944
 20
-174.6608179128767
 30
0.0
 11
137.2705882352944
 21
-175.6608179128767
 31
0.0
  0
LINE
  5
31D
330
1F
100
AcDbEntity
  8
Layer0000
  6
Continuous
 62
    56
370
    25
100
AcDbLine
 10
137.2705882352944
 20
-175.6608179128767
 30
0.0
 11
139.2705882352944
 21
-175.6608179128767
 31
0.0
  0
ARC
  5
31E
330
1F
100
AcDbEntity
  8
Layer0000
  6
Continuous
 62
    56
370
    25
100
AcDbCircle
 10
139.2705882352944
 20
-177.6608179128767
 30
0.0
 40
2.0
100
AcDbArc
 50
0.0
 51
90.0
  0
LINE
  5
31F
330
1F
100
AcDbEntity
  8
Layer0000
  6
Continuous
 62
    56
370
    25
100
AcDbLine
 10
122.2705882352944
 20
-145.6608179128767
 30
0.0
 11
137.2705882352944
 21
-145.6608179128767
 31
0.0
  0
LINE
  5
320
330
1F
100
AcDbEntity
  8
Layer0000
  6
Continuous
 62
    56
370
    25
100
AcDbLine
 10
137.2705882352944
 20
-145.6608179128767
 30
0.0
 11
137.2705882352944
 21
-144.6608179128767
 31
0.0
  0
LINE
  5
321
330
1F
100
AcDbEntity
  8
Layer0000
  6
Continuous
 62
    56
370
    25
100
AcDbLine
 10
137.2705882352944
 20
-144.6608179128767
 30
0.0
 11
141.2705882352944
 21
-144.6608179128767
 31
0.0
  0
LINE
  5
322
330
1F
100
AcDbEntity
  8
Layer0000
  6
Continuous
 62
    56
370
    25
100
AcDbLine
 10
141.2705882352944
 20
-144.6608179128767
 30
0.0
 11
141.2705882352944
 21
-142.6608179128767
 31
0.0
  0
LINE
  5
323
330
1F
100
AcDbEntity
  8
Layer0000
  6
Continuous
 62
    56
370
    25
100
AcDbLine
 10
141.2705882352944
 20
-142.6608179128767
 30
0.0
 11
148.2705882352944
 21
-142.6608179128767
 31
0.0
  0
LINE
  5
324
330
1F
100
AcDbEntity
  8
Layer0000
  6
Continuous
 62
    56
370
    25
100
AcDbLine
 10
122.2705882352944
 20
-174.6608179128767
 30
0.0
 11
122.2705882352944
 21
-169.1608179128767
 31
0.0
  0
LINE
  5
325
330
1F
100
AcDbEntity
  8
Layer0000
  6
Continuous
 62
    56
370
    25
100
AcDbLine
 10
122.2705882352944
 20
-151.1608179128767
 30
0.0
 11
122.2705882352944
 21
-145.6608179128767
 31
0.0
  0
LINE
  5
326
330
1F
100
AcDbEntity
  8
Layer0000
  6
Continuous
 62
    56
370
    25
100
AcDbLine
 10
-355.8435133798437
 20
140.9542483660131
 30
0.0
 11
-376.6153101495681
 21
140.9542483660131
 31
0.0
  0
ARC
  5
327
330
1F
100
AcDbEntity
  8
Layer0000
  6
Continuous
 62
    56
370
    25
100
AcDbCircle
 10
-355.8435133798437
 20
146.0548923133379
 30
0.0
 40
5.100643947324726
100
AcDbArc
 50
227.2227543443626
 51
312.7772456556379
  0
ARC
  5
328
330
1F
100
AcDbEntity
  8
Layer0000
  6
Continuous
 62
    56
370
    25
100
AcDbCircle
 10
-376.6153101495681
 20
146.0548923133379
 30
0.0
 40
5.100643947324764
100
AcDbArc
 50
227.2227543443621
 51
312.7772456556374
  0
ARC
  5
329
330
1F
100
AcDbEntity
  8
Layer0000
  6
Continuous
 62
    56
370
    25
100
AcDbCircle
 10
-366.2294117647059
 20
159.2889657404359
 30
0.0
 40
18.33471737442274
100
AcDbArc
 50
247.8195992645518
 51
292.1804007354482
  0
LINE
  5
32A
330
1F
100
AcDbEntity
  8
Layer0000
  6
Continuous
 62
    56
370
    25
100
AcDbLine
 10
-374.2294117647059
 20
133.9542483660131
 30
0.0
 11
-358.2294117647059
 21
133.9542483660131
 31
0.0
  0
LINE
  5
32B
330
1F
100
AcDbEntity
  8
Layer0000
  6
Continuous
 62
    56
370
    25
100
AcDbLine
 10
-374.2294117647059
 20
138.9542483660131
 30
0.0
 11
-358.2294117647059
 21
138.9542483660131
 31
0.0
  0
LINE
  5
32C
330
1F
100
AcDbEntity
  8
Layer0000
  6
Continuous
 62
    56
370
    25
100
AcDbLine
 10
-374.2294117647059
 20
133.9542483660131
 30
0.0
 11
-374.2294117647059
 21
140.9542483660131
 31
0.0
  0
LINE
  5
32D
330
1F
100
AcDbEntity
  8
Layer0000
  6
Continuous
 62
    56
370
    25
100
AcDbLine
 10
-373.1294117647059
 20
138.9542483660131
 30
0.0
 11
-373.1294117647059
 21
140.9542483660131
 31
0.0
  0
LINE
  5
32E
330
1F
100
AcDbEntity
  8
Layer0000
  6
Continuous
 62
    56
370
    25
100
AcDbLine
 10
-358.2294117647059
 20
133.9542483660131
 30
0.0
 11
-358.2294117647059
 21
140.9542483660131
 31
0.0
  0
LINE
  5
32F
330
1F
100
AcDbEntity
  8
Layer0000
  6
Continuous
 62
    56
370
    25
100
AcDbLine
 10
-359.3294117647059
 20
138.9542483660131
 30
0.0
 11
-359.3294117647059
 21
140.9542483660131
 31
0.0
  0
LINE
  5
330
330
1F
100
AcDbEntity
  8
Layer0000
  6
Continuous
 62
    56
370
    25
100
AcDbLine
 10
-358.2294117647059
 20
137.0489924776907
 30
0.0
 11
-359.329411764704
 21
138.9542483660131
 31
0.0
  0
LINE
  5
331
330
1F
100
AcDbEntity
  8
Layer0000
  6
Continuous
 62
    56
370
    25
100
AcDbLine
 10
-373.1294117647059
 20
138.9542483660181
 30
0.0
 11
-374.2294117647059
 21
137.0489924776924
 31
0.0
  0
LINE
  5
332
330
1F
100
AcDbEntity
  8
Layer0000
  6
Continuous
 62
    56
370
    25
100
AcDbLine
 10
-357.2294117647059
 20
132.9542483660131
 30
0.0
 11
-357.2294117647059
 21
113.9542483660131
 31
0.0
  0
LINE
  5
333
330
1F
100
AcDbEntity
  8
Layer0000
  6
Continuous
 62
    56
370
    25
100
AcDbLine
 10
-375.2294117647059
 20
132.9542483660131
 30
0.0
 11
-375.2294117647059
 21
113.9542483660131
 31
0.0
  0
LINE
  5
334
330
1F
100
AcDbEntity
  8
Layer0000
  6
Continuous
 62
    56
370
    25
100
AcDbLine
 10
-374.2294117647059
 20
133.9542483660131
 30
0.0
 11
-375.2294117647059
 21
132.9542483660131
 31
0.0
  0
LINE
  5
335
330
1F
100
AcDbEntity
  8
Layer0000
  6
Continuous
 62
    56
370
    25
100
AcDbLine
 10
-358.2294117647059
 20
133.9542483660131
 30
0.0
 11
-357.2294117647059
 21
132.9542483660131
 31
0.0
  0
LINE
  5
336
330
1F
100
AcDbEntity
  8
Layer0000
  6
Continuous
 62
    56
370
    25
100
AcDbLine
 10
-357.2294117647059
 20
132.9542483660131
 30
0.0
 11
-375.2294117647059
 21
132.9542483660131
 31
0.0
  0
LINE
  5
337
330
1F
100
AcDbEntity
  8
Layer0000
  6
Continuous
 62
    56
370
    25
100
AcDbLine
 10
-373.1512085344303
 20
153.9542483660131
 30
0.0
 11
-373.1512085344303
 21
142.3110214986087
 31
0.0
  0
LINE
  5
338
330
1F
100
AcDbEntity
  8
Layer0000
  6
Continuous
 62
    56
370
    25
100
AcDbLine
 10
-380.0794117647059
 20
153.9542483660131
 30
0.0
 11
-380.0794117647059
 21
142.3110214986087
 31
0.0
  0
LINE
  5
339
330
1F
100
AcDbEntity
  8
Layer0000
  6
Continuous
 62
    56
370
    25
100
AcDbLine
 10
-359.3076149949813
 20
142.3110214986087
 30
0.0
 11
-359.3076149949813
 21
153.9542483660131
 31
0.0
  0
LINE
  5
33A
330
1F
100
AcDbEntity
  8
Layer0000
  6
Continuous
 62
    56
370
    25
100
AcDbLine
 10
-352.3794117647059
 20
153.9542483660131
 30
0.0
 11
-352.3794117647059
 21
142.3110214986087
 31
0.0
  0
LINE
  5
33B
330
1F
100
AcDbEntity
  8
Layer0000
  6
Continuous
 62
    56
370
    25
100
AcDbLine
 10
-396.2294117647059
 20
92.95424836601313
 30
0.0
 11
-396.2294117647059
 21
112.9542483660131
 31
0.0
  0
LINE
  5
33C
330
1F
100
AcDbEntity
  8
Layer0000
  6
Continuous
 62
    56
370
    25
100
AcDbLine
 10
-395.2294117647059
 20
91.95424836601313
 30
0.0
 11
-396.2294117647059
 21
92.95424836601313
 31
0.0
  0
LINE
  5
33D
330
1F
100
AcDbEntity
  8
Layer0000
  6
Continuous
 62
    56
370
    25
100
AcDbLine
 10
-396.2294117647059
 20
112.9542483660131
 30
0.0
 11
-395.2294117647059
 21
113.9542483660131
 31
0.0
  0
CIRCLE
  5
33E
330
1F
100
AcDbEntity
  8
Layer0000
  6
Continuous
 62
    56
370
    25
100
AcDbCircle
 10
-386.2294117647058
 20
102.9542483660131
 30
0.0
 40
6.267949192431104
  0
CIRCLE
  5
33F
330
1F
100
AcDbEntity
  8
Layer0000
  6
Continuous
 62
    56
370
    25
100
AcDbCircle
 10
-386.2294117647058
 20
102.9542483660131
 30
0.0
 40
8.0
  0
LINE
  5
340
330
1F
100
AcDbEntity
  8
Layer0000
  6
Continuous
 62
    56
370
    25
100
AcDbLine
 10
-390.8482139182228
 20
102.9542483660131
 30
0.0
 11
-388.5388128414643
 21
98.95424836601313
 31
0.0
  0
LINE
  5
341
330
1F
100
AcDbEntity
  8
Layer0000
  6
Continuous
 62
    56
370
    25
100
AcDbLine
 10
-388.5388128414643
 20
98.95424836601313
 30
0.0
 11
-383.9200106879473
 21
98.95424836601313
 31
0.0
  0
LINE
  5
342
330
1F
100
AcDbEntity
  8
Layer0000
  6
Continuous
 62
    56
370
    25
100
AcDbLine
 10
-383.9200106879473
 20
98.95424836601313
 30
0.0
 11
-381.6106096111888
 21
102.9542483660131
 31
0.0
  0
LINE
  5
343
330
1F
100
AcDbEntity
  8
Layer0000
  6
Continuous
 62
    56
370
    25
100
AcDbLine
 10
-381.6106096111888
 20
102.9542483660131
 30
0.0
 11
-383.9200106879473
 21
106.9542483660131
 31
0.0
  0
LINE
  5
344
330
1F
100
AcDbEntity
  8
Layer0000
  6
Continuous
 62
    56
370
    25
100
AcDbLine
 10
-383.9200106879473
 20
106.9542483660131
 30
0.0
 11
-388.5388128414643
 21
106.9542483660131
 31
0.0
  0
LINE
  5
345
330
1F
100
AcDbEntity
  8
Layer0000
  6
Continuous
 62
    56
370
    25
100
AcDbLine
 10
-388.5388128414643
 20
106.9542483660131
 30
0.0
 11
-390.8482139182228
 21
102.9542483660131
 31
0.0
  0
LINE
  5
346
330
1F
100
AcDbEntity
  8
Layer0000
  6
Continuous
 62
    56
370
    25
100
AcDbLine
 10
-357.2294117647059
 20
91.95424836601313
 30
0.0
 11
-357.2294117647059
 21
54.95424836601313
 31
0.0
  0
LINE
  5
347
330
1F
100
AcDbEntity
  8
Layer0000
  6
Continuous
 62
    56
370
    25
100
AcDbLine
 10
-375.2294117647059
 20
91.95424836601313
 30
0.0
 11
-375.2294117647059
 21
54.95424836601313
 31
0.0
  0
LINE
  5
348
330
1F
100
AcDbEntity
  8
Layer0000
  6
Continuous
 62
    56
370
    25
100
AcDbLine
 10
-283.2294117647059
 20
83.45424836601313
 30
0.0
 11
-293.2294117647059
 21
83.45424836601313
 31
0.0
  0
LINE
  5
349
330
1F
100
AcDbEntity
  8
Layer0000
  6
Continuous
 62
    56
370
    25
100
AcDbLine
 10
-284.7294117647059
 20
81.95424836601313
 30
0.0
 11
-291.7294117647059
 21
81.95424836601313
 31
0.0
  0
LINE
  5
34A
330
1F
100
AcDbEntity
  8
Layer0000
  6
Continuous
 62
    56
370
    25
100
AcDbLine
 10
-283.2294117647059
 20
83.45424836601313
 30
0.0
 11
-284.7294117647059
 21
81.95424836601313
 31
0.0
  0
LINE
  5
34B
330
1F
100
AcDbEntity
  8
Layer0000
  6
Continuous
 62
    56
370
    25
100
AcDbLine
 10
-293.2294117647059
 20
83.45424836601313
 30
0.0
 11
-291.7294117647059
 21
81.95424836601313
 31
0.0
  0
LINE
  5
34C
330
1F
100
AcDbEntity
  8
Layer0000
  6
Continuous
 62
    56
370
    25
100
AcDbLine
 10
-298.0294117647059
 20
113.9542483660131
 30
0.0
 11
-298.0294117647059
 21
121.0593554487692
 31
0.0
  0
LINE
  5
34D
330
1F
100
AcDbEntity
  8
Layer0000
  6
Continuous
 62
    56
370
    25
100
AcDbLine
 10
-293.1219344765941
 20
121.0593554487692
 30
0.0
 11
-293.1219344765941
 21
113.9542483660131
 31
0.0
  0
ARC
  5
34E
330
1F
100
AcDbEntity
  8
Layer0000
  6
Continuous
 62
    56
370
    25
100
AcDbCircle
 10
-295.57567312065
 20
118.14280537925
 30
0.0
 40
3.811442986763149
100
AcDbArc
 50
49.92557966161387
 51
130.0744203383854
  0
ARC
  5
34F
330
1F
100
AcDbEntity
  8
Layer0000
  6
Continuous
 62
    56
370
    25
100
AcDbCircle
 10
-288.2294117647059
 20
108.1326998080797
 30
0.0
 40
13.82154855793342
100
AcDbArc
 50
69.26918485858411
 51
110.7308151414159
  0
LINE
  5
350
330
1F
100
AcDbEntity
  8
Layer0000
  6
Continuous
 62
    56
370
    25
100
AcDbLine
 10
-283.3368890528177
 20
113.9542483660131
 30
0.0
 11
-283.3368890528177
 21
121.0593554487692
 31
0.0
  0
LINE
  5
351
330
1F
100
AcDbEntity
  8
Layer0000
  6
Continuous
 62
    56
370
    25
100
AcDbLine
 10
-293.2294117647059
 20
91.95424836601313
 30
0.0
 11
-293.2294117647059
 21
83.45424836601313
 31
0.0
  0
LINE
  5
352
330
1F
100
AcDbEntity
  8
Layer0000
  6
Continuous
 62
    56
370
    25
100
AcDbLine
 10
-283.2294117647059
 20
91.95424836601313
 30
0.0
 11
-283.2294117647059
 21
83.45424836601313
 31
0.0
  0
LINE
  5
353
330
1F
100
AcDbEntity
  8
Layer0000
  6
Continuous
 62
    56
370
    25
100
AcDbLine
 10
-292.4194117647058
 20
91.95424836601313
 30
0.0
 11
-292.4194117647058
 21
82.64424836601313
 31
0.0
  0
LINE
  5
354
330
1F
100
AcDbEntity
  8
Layer0000
  6
Continuous
 62
    56
370
    25
100
AcDbLine
 10
-284.0394117647058
 20
91.95424836601313
 30
0.0
 11
-284.0394117647058
 21
82.64424836601313
 31
0.0
  0
LINE
  5
355
330
1F
100
AcDbEntity
  8
Layer0000
  6
Continuous
 62
    56
370
    25
100
AcDbLine
 10
-295.57567312065
 20
121.9542483660131
 30
0.0
 11
-280.8831504087617
 21
121.9542483660131
 31
0.0
  0
ARC
  5
356
330
1F
100
AcDbEntity
  8
Layer0000
  6
Continuous
 62
    56
370
    25
100
AcDbCircle
 10
-280.8831504087617
 20
118.14280537925
 30
0.0
 40
3.811442986763113
100
AcDbArc
 50
49.92557966161453
 51
130.0744203383861
  0
LINE
  5
357
330
1F
100
AcDbEntity
  8
Layer0000
  6
Continuous
 62
    56
370
    25
100
AcDbLine
 10
-278.4294117647058
 20
113.9542483660131
 30
0.0
 11
-278.4294117647058
 21
121.0593554487692
 31
0.0
  0
LINE
  5
358
330
1F
100
AcDbEntity
  8
Layer0000
  6
Continuous
 62
    56
370
    25
100
AcDbLine
 10
-273.2294117647059
 20
112.9542483660131
 30
0.0
 11
-273.2294117647059
 21
92.95424836601313
 31
0.0
  0
LINE
  5
359
330
1F
100
AcDbEntity
  8
Layer0000
  6
Continuous
 62
    56
370
    25
100
AcDbLine
 10
-274.2294117647059
 20
113.9542483660131
 30
0.0
 11
-273.2294117647059
 21
112.9542483660131
 31
0.0
  0
LINE
  5
35A
330
1F
100
AcDbEntity
  8
Layer0000
  6
Continuous
 62
    56
370
    25
100
AcDbLine
 10
-274.2294117647059
 20
91.95424836601313
 30
0.0
 11
-273.2294117647059
 21
92.95424836601313
 31
0.0
  0
LINE
  5
35B
330
1F
100
AcDbEntity
  8
Layer0000
  6
Continuous
 62
    56
370
    25
100
AcDbLine
 10
-283.3368890528177
 20
141.9542483660131
 30
0.0
 11
-283.3368890528177
 21
148.0593554487692
 31
0.0
  0
LINE
  5
35C
330
1F
100
AcDbEntity
  8
Layer0000
  6
Continuous
 62
    56
370
    25
100
AcDbLine
 10
-298.0294117647059
 20
141.9542483660131
 30
0.0
 11
-298.0294117647059
 21
148.0593554487692
 31
0.0
  0
LINE
  5
35D
330
1F
100
AcDbEntity
  8
Layer0000
  6
Continuous
 62
    56
370
    25
100
AcDbLine
 10
-293.1219344765941
 20
141.9542483660131
 30
0.0
 11
-293.1219344765941
 21
148.0593554487692
 31
0.0
  0
ARC
  5
35E
330
1F
100
AcDbEntity
  8
Layer0000
  6
Continuous
 62
    56
370
    25
100
AcDbCircle
 10
-295.57567312065
 20
145.14280537925
 30
0.0
 40
3.811442986763149
100
AcDbArc
 50
49.92557966161389
 51
130.0744203383852
  0
ARC
  5
35F
330
1F
100
AcDbEntity
  8
Layer0000
  6
Continuous
 62
    56
370
    25
100
AcDbCircle
 10
-288.2294117647059
 20
135.1326998080797
 30
0.0
 40
13.82154855793342
100
AcDbArc
 50
69.26918485858411
 51
110.7308151414159
  0
ARC
  5
360
330
1F
100
AcDbEntity
  8
Layer0000
  6
Continuous
 62
    56
370
    25
100
AcDbCircle
 10
-282.8294117647059
 20
141.5542483660131
 30
0.0
 40
0.4000000000000057
100
AcDbArc
 50
90.0
 51
180.0
  0
ARC
  5
361
330
1F
100
AcDbEntity
  8
Layer0000
  6
Continuous
 62
    56
370
    25
100
AcDbCircle
 10
-293.6294117647059
 20
141.5542483660131
 30
0.0
 40
0.3999999999999773
100
AcDbArc
 50
0.0
 51
90.0
  0
LINE
  5
362
330
1F
100
AcDbEntity
  8
Layer0000
  6
Continuous
 62
    56
370
    25
100
AcDbLine
 10
-293.2294117647059
 20
137.4542483660131
 30
0.0
 11
-283.2294117647059
 21
137.4542483660131
 31
0.0
  0
LINE
  5
363
330
1F
100
AcDbEntity
  8
Layer0000
  6
Continuous
 62
    56
370
    25
100
AcDbLine
 10
-284.0394117647088
 20
137.4542483660131
 30
0.0
 11
-283.2294117647059
 21
138.8572095201491
 31
0.0
  0
LINE
  5
364
330
1F
100
AcDbEntity
  8
Layer0000
  6
Continuous
 62
    56
370
    25
100
AcDbLine
 10
-292.4194117647058
 20
137.4542483660131
 30
0.0
 11
-293.2294117647059
 21
138.857209520148
 31
0.0
  0
LINE
  5
365
330
1F
100
AcDbEntity
  8
Layer0000
  6
Continuous
 62
    56
370
    25
100
AcDbLine
 10
-292.4194117647058
 20
137.4542483660131
 30
0.0
 11
-292.4194117647058
 21
121.9542483660131
 31
0.0
  0
LINE
  5
366
330
1F
100
AcDbEntity
  8
Layer0000
  6
Continuous
 62
    56
370
    25
100
AcDbLine
 10
-293.2294117647059
 20
141.5542483660131
 30
0.0
 11
-293.2294117647059
 21
121.9542483660131
 31
0.0
  0
LINE
  5
367
330
1F
100
AcDbEntity
  8
Layer0000
  6
Continuous
 62
    56
370
    25
100
AcDbLine
 10
-284.0394117647058
 20
137.4542483660131
 30
0.0
 11
-284.0394117647058
 21
121.9542483660131
 31
0.0
  0
LINE
  5
368
330
1F
100
AcDbEntity
  8
Layer0000
  6
Continuous
 62
    56
370
    25
100
AcDbLine
 10
-283.2294117647059
 20
141.5542483660131
 30
0.0
 11
-283.2294117647059
 21
121.9542483660131
 31
0.0
  0
LINE
  5
369
330
1F
100
AcDbEntity
  8
Layer0000
  6
Continuous
 62
    56
370
    25
100
AcDbLine
 10
-278.4294117647058
 20
141.9542483660131
 30
0.0
 11
-298.0294117647059
 21
141.9542483660131
 31
0.0
  0
LINE
  5
36A
330
1F
100
AcDbEntity
  8
Layer0000
  6
Continuous
 62
    56
370
    25
100
AcDbLine
 10
-278.4294117647058
 20
141.9542483660131
 30
0.0
 11
-278.4294117647058
 21
148.0593554487692
 31
0.0
  0
ARC
  5
36B
330
1F
100
AcDbEntity
  8
Layer0000
  6
Continuous
 62
    56
370
    25
100
AcDbCircle
 10
-280.8831504087617
 20
145.14280537925
 30
0.0
 40
3.811442986763113
100
AcDbArc
 50
49.92557966161454
 51
130.0744203383861
  0
LINE
  5
36C
330
1F
100
AcDbEntity
  8
Layer0000
  6
Continuous
 62
    56
370
    25
100
AcDbLine
 10
-395.2294117647059
 20
91.95424836601313
 30
0.0
 11
-274.2294117647059
 21
91.95424836601313
 31
0.0
  0
LINE
  5
36D
330
1F
100
AcDbEntity
  8
Layer0000
  6
Continuous
 62
    56
370
    25
100
AcDbLine
 10
-395.2294117647059
 20
113.9542483660131
 30
0.0
 11
-274.2294117647059
 21
113.9542483660131
 31
0.0
  0
LINE
  5
36E
330
1F
100
AcDbEntity
  8
Layer0000
  6
Continuous
 62
    56
370
    25
100
AcDbLine
 10
-295.5756731206502
 20
148.9542483660132
 30
0.0
 11
-280.883150408762
 21
148.9542483660132
 31
0.0
  0
LINE
  5
36F
330
1F
100
AcDbEntity
  8
Layer0000
  6
Continuous
 62
    56
370
    25
100
AcDbLine
 10
-358.2294117647059
 20
53.95424836601313
 30
0.0
 11
-374.2294117647059
 21
53.95424836601313
 31
0.0
  0
LINE
  5
370
330
1F
100
AcDbEntity
  8
Layer0000
  6
Continuous
 62
    56
370
    25
100
AcDbLine
 10
-375.2294117647059
 20
54.95424836601313
 30
0.0
 11
-374.2294117647059
 21
53.95424836601313
 31
0.0
  0
LINE
  5
371
330
1F
100
AcDbEntity
  8
Layer0000
  6
Continuous
 62
    56
370
    25
100
AcDbLine
 10
-358.2294117647059
 20
53.95424836601313
 30
0.0
 11
-357.2294117647059
 21
54.95424836601313
 31
0.0
  0
LINE
  5
372
330
1F
100
AcDbEntity
  8
Layer0000
  6
Continuous
 62
    56
370
    25
100
AcDbLine
 10
-357.2294117647059
 20
54.95424836601313
 30
0.0
 11
-375.2294117647059
 21
54.95424836601313
 31
0.0
  0
LINE
  5
373
330
1F
100
AcDbEntity
  8
Layer0001
  6
Continuous
 62
    56
370
    25
100
AcDbLine
 10
-265.2294117647062
 20
328.4542483660134
 30
0.0
 11
-264.2294117647062
 21
329.4542483660133
 31
0.0
  0
LINE
  5
374
330
1F
100
AcDbEntity
  8
Layer0001
  6
Continuous
 62
    56
370
    25
100
AcDbLine
 10
-265.2294117647062
 20
287.4542483660132
 30
0.0
 11
-265.2294117647062
 21
328.4542483660134
 31
0.0
  0
LINE
  5
375
330
1F
100
AcDbEntity
  8
Layer0001
  6
Continuous
 62
    56
370
    25
100
AcDbLine
 10
-215.2294117647062
 20
328.4542483660133
 30
0.0
 11
-216.2294117647062
 21
329.4542483660133
 31
0.0
  0
LINE
  5
376
330
1F
100
AcDbEntity
  8
Layer0001
  6
Continuous
 62
    56
370
    25
100
AcDbLine
 10
-264.2294117647062
 20
329.4542483660133
 30
0.0
 11
-216.2294117647062
 21
329.4542483660133
 31
0.0
  0
LINE
  5
377
330
1F
100
AcDbEntity
  8
Layer0001
  6
Continuous
 62
    56
370
    25
100
AcDbLine
 10
-215.2294117647062
 20
287.4542483660134
 30
0.0
 11
-215.2294117647062
 21
328.4542483660133
 31
0.0
  0
LINE
  5
378
330
1F
100
AcDbEntity
  8
Layer0001
  6
Continuous
 62
    56
370
    25
100
AcDbLine
 10
-255.2294117647062
 20
277.4542483660133
 30
0.0
 11
-265.2294117647062
 21
287.4542483660132
 31
0.0
  0
LINE
  5
379
330
1F
100
AcDbEntity
  8
Layer0001
  6
Continuous
 62
    56
370
    25
100
AcDbLine
 10
-225.2294117647062
 20
277.4542483660133
 30
0.0
 11
-215.2294117647062
 21
287.4542483660134
 31
0.0
  0
LINE
  5
37A
330
1F
100
AcDbEntity
  8
Layer0001
  6
Continuous
 62
    56
370
    25
100
AcDbLine
 10
-255.2294117647062
 20
277.4542483660133
 30
0.0
 11
-225.2294117647062
 21
277.4542483660133
 31
0.0
  0
CIRCLE
  5
37B
330
1F
100
AcDbEntity
  8
Layer0001
  6
Continuous
 62
    56
370
    25
100
AcDbCircle
 10
-240.2294117647059
 20
303.4542483660133
 30
0.0
 40
8.5
  0
CIRCLE
  5
37C
330
1F
100
AcDbEntity
  8
Layer0001
  6
Continuous
 62
    56
370
    25
100
AcDbCircle
 10
-240.2294117647059
 20
303.4542483660133
 30
0.0
 40
13.0
  0
LINE
  5
37D
330
1F
100
AcDbEntity
  8
Layer0001
  6
Continuous
 62
    56
370
    25
100
AcDbLine
 10
-65.22941176470616
 20
328.4542483660136
 30
0.0
 11
-64.22941176470616
 21
329.4542483660135
 31
0.0
  0
LINE
  5
37E
330
1F
100
AcDbEntity
  8
Layer0001
  6
Continuous
 62
    56
370
    25
100
AcDbLine
 10
-65.22941176470616
 20
287.4542483660134
 30
0.0
 11
-65.22941176470616
 21
328.4542483660136
 31
0.0
  0
LINE
  5
37F
330
1F
100
AcDbEntity
  8
Layer0001
  6
Continuous
 62
    56
370
    25
100
AcDbLine
 10
-15.22941176470604
 20
328.4542483660135
 30
0.0
 11
-16.22941176470604
 21
329.4542483660135
 31
0.0
  0
LINE
  5
380
330
1F
100
AcDbEntity
  8
Layer0001
  6
Continuous
 62
    56
370
    25
100
AcDbLine
 10
-64.22941176470616
 20
329.4542483660135
 30
0.0
 11
-16.22941176470604
 21
329.4542483660135
 31
0.0
  0
LINE
  5
381
330
1F
100
AcDbEntity
  8
Layer0001
  6
Continuous
 62
    56
370
    25
100
AcDbLine
 10
-15.22941176470604
 20
287.4542483660136
 30
0.0
 11
-15.22941176470604
 21
328.4542483660135
 31
0.0
  0
LINE
  5
382
330
1F
100
AcDbEntity
  8
Layer0001
  6
Continuous
 62
    56
370
    25
100
AcDbLine
 10
-55.22941176470604
 20
277.4542483660135
 30
0.0
 11
-65.22941176470616
 21
287.4542483660134
 31
0.0
  0
LINE
  5
383
330
1F
100
AcDbEntity
  8
Layer0001
  6
Continuous
 62
    56
370
    25
100
AcDbLine
 10
-25.22941176470604
 20
277.4542483660135
 30
0.0
 11
-15.22941176470604
 21
287.4542483660136
 31
0.0
  0
LINE
  5
384
330
1F
100
AcDbEntity
  8
Layer0001
  6
Continuous
 62
    56
370
    25
100
AcDbLine
 10
-55.22941176470604
 20
277.4542483660135
 30
0.0
 11
-25.22941176470604
 21
277.4542483660135
 31
0.0
  0
CIRCLE
  5
385
330
1F
100
AcDbEntity
  8
Layer0001
  6
Continuous
 62
    56
370
    25
100
AcDbCircle
 10
-40.22941176470582
 20
303.4542483660135
 30
0.0
 40
8.5
  0
CIRCLE
  5
386
330
1F
100
AcDbEntity
  8
Layer0001
  6
Continuous
 62
    56
370
    25
100
AcDbCircle
 10
-40.22941176470582
 20
303.4542483660135
 30
0.0
 40
13.0
  0
LINE
  5
387
330
1F
100
AcDbEntity
  8
Layer0001
  6
Continuous
 62
    56
370
    25
100
AcDbLine
 10
-265.2294117647062
 20
108.4542483660129
 30
0.0
 11
-264.2294117647062
 21
107.454248366013
 31
0.0
  0
LINE
  5
388
330
1F
100
AcDbEntity
  8
Layer0001
  6
Continuous
 62
    56
370
    25
100
AcDbLine
 10
-265.2294117647062
 20
149.4542483660131
 30
0.0
 11
-265.2294117647062
 21
108.4542483660129
 31
0.0
  0
LINE
  5
389
330
1F
100
AcDbEntity
  8
Layer0001
  6
Continuous
 62
    56
370
    25
100
AcDbLine
 10
-215.2294117647062
 20
108.454248366013
 30
0.0
 11
-216.2294117647062
 21
107.454248366013
 31
0.0
  0
LINE
  5
38A
330
1F
100
AcDbEntity
  8
Layer0001
  6
Continuous
 62
    56
370
    25
100
AcDbLine
 10
-264.2294117647062
 20
107.454248366013
 30
0.0
 11
-216.2294117647062
 21
107.454248366013
 31
0.0
  0
LINE
  5
38B
330
1F
100
AcDbEntity
  8
Layer0001
  6
Continuous
 62
    56
370
    25
100
AcDbLine
 10
-215.2294117647062
 20
149.4542483660129
 30
0.0
 11
-215.2294117647062
 21
108.454248366013
 31
0.0
  0
LINE
  5
38C
330
1F
100
AcDbEntity
  8
Layer0001
  6
Continuous
 62
    56
370
    25
100
AcDbLine
 10
-255.2294117647062
 20
159.454248366013
 30
0.0
 11
-265.2294117647062
 21
149.4542483660131
 31
0.0
  0
LINE
  5
38D
330
1F
100
AcDbEntity
  8
Layer0001
  6
Continuous
 62
    56
370
    25
100
AcDbLine
 10
-225.2294117647062
 20
159.454248366013
 30
0.0
 11
-215.2294117647062
 21
149.4542483660129
 31
0.0
  0
LINE
  5
38E
330
1F
100
AcDbEntity
  8
Layer0001
  6
Continuous
 62
    56
370
    25
100
AcDbLine
 10
-255.2294117647062
 20
159.454248366013
 30
0.0
 11
-225.2294117647062
 21
159.454248366013
 31
0.0
  0
CIRCLE
  5
38F
330
1F
100
AcDbEntity
  8
Layer0001
  6
Continuous
 62
    56
370
    25
100
AcDbCircle
 10
-240.2294117647059
 20
133.454248366013
 30
0.0
 40
8.5
  0
CIRCLE
  5
390
330
1F
100
AcDbEntity
  8
Layer0001
  6
Continuous
 62
    56
370
    25
100
AcDbCircle
 10
-240.2294117647059
 20
133.454248366013
 30
0.0
 40
13.0
  0
LINE
  5
391
330
1F
100
AcDbEntity
  8
Layer0001
  6
Continuous
 62
    56
370
    25
100
AcDbLine
 10
367.7705882352941
 20
159.4542483660131
 30
0.0
 11
357.7705882352941
 21
159.4542483660131
 31
0.0
  0
LINE
  5
392
330
1F
100
AcDbEntity
  8
Layer0001
  6
Continuous
 62
    56
370
    25
100
AcDbLine
 10
357.7705882352941
 20
159.4542483660131
 30
0.0
 11
357.7705882352941
 21
107.4542483660131
 31
0.0
  0
LINE
  5
393
330
1F
100
AcDbEntity
  8
Layer0001
  6
Continuous
 62
    56
370
    25
100
AcDbLine
 10
357.7705882352941
 20
107.4542483660131
 30
0.0
 11
389.7705882352941
 21
107.4542483660131
 31
0.0
  0
LINE
  5
394
330
1F
100
AcDbEntity
  8
Layer0001
  6
Continuous
 62
    56
370
    25
100
AcDbLine
 10
389.7705882352941
 20
107.4542483660131
 30
0.0
 11
389.7705882352941
 21
116.4542483660131
 31
0.0
  0
LINE
  5
395
330
1F
100
AcDbEntity
  8
Layer0001
  6
Continuous
 62
    56
370
    25
100
AcDbLine
 10
387.7705882352941
 20
116.4542483660131
 30
0.0
 11
387.7705882352941
 21
153.4542483660131
 31
0.0
  0
LINE
  5
396
330
1F
100
AcDbEntity
  8
Layer0001
  6
Continuous
 62
    56
370
    25
100
AcDbLine
 10
389.7705882352941
 20
116.4542483660131
 30
0.0
 11
387.7705882352941
 21
116.4542483660131
 31
0.0
  0
LINE
  5
397
330
1F
100
AcDbEntity
  8
Layer0001
  6
Continuous
 62
    56
370
    25
100
AcDbLine
 10
387.7705882352941
 20
153.4542483660131
 30
0.0
 11
367.7705882352941
 21
153.4542483660131
 31
0.0
  0
LINE
  5
398
330
1F
100
AcDbEntity
  8
Layer0001
  6
Continuous
 62
    56
370
    25
100
AcDbLine
 10
367.7705882352941
 20
159.4542483660131
 30
0.0
 11
367.7705882352941
 21
153.4542483660131
 31
0.0
  0
LINE
  5
399
330
1F
100
AcDbEntity
  8
Layer0001
  6
Continuous
 62
    56
370
    25
100
AcDbLine
 10
367.7705882352941
 20
277.4542483660131
 30
0.0
 11
357.7705882352941
 21
277.4542483660131
 31
0.0
  0
LINE
  5
39A
330
1F
100
AcDbEntity
  8
Layer0001
  6
Continuous
 62
    56
370
    25
100
AcDbLine
 10
357.7705882352941
 20
277.4542483660131
 30
0.0
 11
357.7705882352941
 21
329.4542483660131
 31
0.0
  0
LINE
  5
39B
330
1F
100
AcDbEntity
  8
Layer0001
  6
Continuous
 62
    56
370
    25
100
AcDbLine
 10
367.7705882352941
 20
277.4542483660131
 30
0.0
 11
367.7705882352941
 21
283.4542483660131
 31
0.0
  0
LINE
  5
39C
330
1F
100
AcDbEntity
  8
Layer0001
  6
Continuous
 62
    56
370
    25
100
AcDbLine
 10
387.7705882352941
 20
283.4542483660131
 30
0.0
 11
367.7705882352941
 21
283.4542483660131
 31
0.0
  0
LINE
  5
39D
330
1F
100
AcDbEntity
  8
Layer0001
  6
Continuous
 62
    56
370
    25
100
AcDbLine
 10
387.7705882352941
 20
320.4542483660131
 30
0.0
 11
387.7705882352941
 21
283.4542483660131
 31
0.0
  0
LINE
  5
39E
330
1F
100
AcDbEntity
  8
Layer0001
  6
Continuous
 62
    56
370
    25
100
AcDbLine
 10
389.7705882352941
 20
329.4542483660131
 30
0.0
 11
389.7705882352941
 21
320.4542483660131
 31
0.0
  0
LINE
  5
39F
330
1F
100
AcDbEntity
  8
Layer0001
  6
Continuous
 62
    56
370
    25
100
AcDbLine
 10
389.7705882352941
 20
320.4542483660131
 30
0.0
 11
387.7705882352941
 21
320.4542483660131
 31
0.0
  0
LINE
  5
3A0
330
1F
100
AcDbEntity
  8
Layer0001
  6
Continuous
 62
    56
370
    25
100
AcDbLine
 10
357.7705882352941
 20
329.4542483660131
 30
0.0
 11
389.7705882352941
 21
329.4542483660131
 31
0.0
  0
LINE
  5
3A1
330
1F
100
AcDbEntity
  8
Layer0001
  6
Continuous
 62
    56
370
    25
100
AcDbLine
 10
-65.22941176470616
 20
108.4542483660126
 30
0.0
 11
-64.22941176470616
 21
107.4542483660127
 31
0.0
  0
LINE
  5
3A2
330
1F
100
AcDbEntity
  8
Layer0001
  6
Continuous
 62
    56
370
    25
100
AcDbLine
 10
-65.22941176470616
 20
149.4542483660128
 30
0.0
 11
-65.22941176470616
 21
108.4542483660126
 31
0.0
  0
LINE
  5
3A3
330
1F
100
AcDbEntity
  8
Layer0001
  6
Continuous
 62
    56
370
    25
100
AcDbLine
 10
-15.22941176470604
 20
108.4542483660127
 30
0.0
 11
-16.22941176470604
 21
107.4542483660127
 31
0.0
  0
LINE
  5
3A4
330
1F
100
AcDbEntity
  8
Layer0001
  6
Continuous
 62
    56
370
    25
100
AcDbLine
 10
-64.22941176470616
 20
107.4542483660127
 30
0.0
 11
-16.22941176470604
 21
107.4542483660127
 31
0.0
  0
LINE
  5
3A5
330
1F
100
AcDbEntity
  8
Layer0001
  6
Continuous
 62
    56
370
    25
100
AcDbLine
 10
-15.22941176470604
 20
149.4542483660126
 30
0.0
 11
-15.22941176470604
 21
108.4542483660127
 31
0.0
  0
LINE
  5
3A6
330
1F
100
AcDbEntity
  8
Layer0001
  6
Continuous
 62
    56
370
    25
100
AcDbLine
 10
-55.22941176470604
 20
159.4542483660127
 30
0.0
 11
-65.22941176470616
 21
149.4542483660128
 31
0.0
  0
LINE
  5
3A7
330
1F
100
AcDbEntity
  8
Layer0001
  6
Continuous
 62
    56
370
    25
100
AcDbLine
 10
-25.22941176470604
 20
159.4542483660127
 30
0.0
 11
-15.22941176470604
 21
149.4542483660126
 31
0.0
  0
LINE
  5
3A8
330
1F
100
AcDbEntity
  8
Layer0001
  6
Continuous
 62
    56
370
    25
100
AcDbLine
 10
-55.22941176470604
 20
159.4542483660127
 30
0.0
 11
-25.22941176470604
 21
159.4542483660127
 31
0.0
  0
CIRCLE
  5
3A9
330
1F
100
AcDbEntity
  8
Layer0001
  6
Continuous
 62
    56
370
    25
100
AcDbCircle
 10
-40.22941176470582
 20
133.4542483660127
 30
0.0
 40
8.5
  0
CIRCLE
  5
3AA
330
1F
100
AcDbEntity
  8
Layer0001
  6
Continuous
 62
    56
370
    25
100
AcDbCircle
 10
-40.22941176470582
 20
133.4542483660127
 30
0.0
 40
13.0
  0
LINE
  5
3AB
330
1F
100
AcDbEntity
  8
Layer0001
  6
CENTER
 62
    56
370
    25
100
AcDbLine
 10
-240.2294117647059
 20
277.4542483660133
 30
0.0
 11
-240.2294117647059
 21
329.4542483660133
 31
0.0
  0
LINE
  5
3AC
330
1F
100
AcDbEntity
  8
Layer0001
  6
CENTER
 62
    56
370
    25
100
AcDbLine
 10
-215.2294117647062
 20
303.4542483660133
 30
0.0
 11
-265.2294117647062
 21
303.4542483660133
 31
0.0
  0
LINE
  5
3AD
330
1F
100
AcDbEntity
  8
Layer0001
  6
CENTER
 62
    56
370
    25
100
AcDbLine
 10
-40.22941176470582
 20
277.4542483660135
 30
0.0
 11
-40.22941176470582
 21
329.4542483660135
 31
0.0
  0
LINE
  5
3AE
330
1F
100
AcDbEntity
  8
Layer0001
  6
CENTER
 62
    56
370
    25
100
AcDbLine
 10
-15.22941176470604
 20
303.4542483660135
 30
0.0
 11
-65.22941176470616
 21
303.4542483660135
 31
0.0
  0
LINE
  5
3AF
330
1F
100
AcDbEntity
  8
Layer0001
  6
CENTER
 62
    56
370
    25
100
AcDbLine
 10
-240.2294117647059
 20
159.454248366013
 30
0.0
 11
-240.2294117647059
 21
107.454248366013
 31
0.0
  0
LINE
  5
3B0
330
1F
100
AcDbEntity
  8
Layer0001
  6
CENTER
 62
    56
370
    25
100
AcDbLine
 10
-215.2294117647062
 20
133.454248366013
 30
0.0
 11
-265.2294117647062
 21
133.454248366013
 31
0.0
  0
LINE
  5
3B1
330
1F
100
AcDbEntity
  8
Layer0001
  6
CENTER
 62
    56
370
    25
100
AcDbLine
 10
-40.22941176470582
 20
159.4542483660127
 30
0.0
 11
-40.22941176470582
 21
107.4542483660127
 31
0.0
  0
LINE
  5
3B2
330
1F
100
AcDbEntity
  8
Layer0001
  6
CENTER
 62
    56
370
    25
100
AcDbLine
 10
-15.22941176470604
 20
133.4542483660127
 30
0.0
 11
-65.22941176470616
 21
133.4542483660127
 31
0.0
  0
LINE
  5
3B3
330
1F
100
AcDbEntity
  8
Layer0001
  6
CENTER
 62
    56
370
    25
100
AcDbLine
 10
357.7705882352941
 20
303.4542483660135
 30
0.0
 11
387.7705882352941
 21
303.4542483660135
 31
0.0
  0
LINE
  5
3B4
330
1F
100
AcDbEntity
  8
Layer0001
  6
CENTER
 62
    56
370
    25
100
AcDbLine
 10
357.7705882352941
 20
133.4542483660127
 30
0.0
 11
387.7705882352941
 21
133.4542483660127
 31
0.0
  0
LINE
  5
3B5
330
1F
100
AcDbEntity
  8
Layer0000
  6
DASHED2
 62
    30
370
    25
100
AcDbLine
 10
385.7705882352941
 20
227.4542483660131
 30
0.0
 11
385.7705882352941
 21
209.4542483660131
 31
0.0
  0
LINE
  5
3B6
330
1F
100
AcDbEntity
  8
Layer0000
  6
DASHED2
 62
    30
370
    25
100
AcDbLine
 10
385.7705882352941
 20
209.4542483660131
 30
0.0
 11
389.7705882352941
 21
209.4542483660131
 31
0.0
  0
LINE
  5
3B7
330
1F
100
AcDbEntity
  8
Layer0000
  6
DASHED2
 62
    30
370
    25
100
AcDbLine
 10
385.7705882352941
 20
227.4542483660131
 30
0.0
 11
389.7705882352941
 21
227.4542483660131
 31
0.0
  0
CIRCLE
  5
3B8
330
1F
100
AcDbEntity
  8
Layer0000
  6
Continuous
 62
    30
370
    25
100
AcDbCircle
 10
-366.2294117647059
 20
-97.16081791287675
 30
0.0
 40
6.187999999999988
  0
CIRCLE
  5
3B9
330
1F
100
AcDbEntity
  8
Layer0000
  6
Continuous
 62
     4
370
    25
100
AcDbCircle
 10
-366.2294117647059
 20
-97.16081791287675
 30
0.0
 40
7.0
  0
LINE
  5
3BA
330
1F
100
AcDbEntity
  8
Layer0000
  6
Continuous
 62
     3
370
    18
100
AcDbLine
 10
331.8571524149017
 20
12.22220046067082
 30
0.0
 11
402.8571524149017
 21
12.22220046067082
 31
0.0
  0
LINE
  5
3BB
330
1F
100
AcDbEntity
  8
Layer0000
  6
Continuous
 62
     3
370
    18
100
AcDbLine
 10
331.8571524149017
 20
-31.77779953932918
 30
0.0
 11
402.8571524149017
 21
-31.77779953932918
 31
0.0
  0
LINE
  5
3BC
330
1F
100
AcDbEntity
  8
Layer0000
  6
Continuous
 62
     3
370
    18
100
AcDbLine
 10
413.3571524149017
 20
0.7222004606708197
 30
0.0
 11
430.3571524149017
 21
0.7222004606708197
 31
0.0
  0
LINE
  5
3BD
330
1F
100
AcDbEntity
  8
Layer0000
  6
Continuous
 62
     3
370
    18
100
AcDbLine
 10
413.3571524149017
 20
-20.27779953932918
 30
0.0
 11
430.3571524149017
 21
-20.27779953932918
 31
0.0
  0
LINE
  5
3BE
330
1F
100
AcDbEntity
  8
Layer0000
  6
Continuous
 62
     3
370
    18
100
AcDbLine
 10
431.3571524149017
 20
-1.009850346898077
 30
0.0
 11
431.3571524149017
 21
-18.54574873176034
 31
0.0
  0
LINE
  5
3BF
330
1F
100
AcDbEntity
  8
Layer0000
  6
Continuous
 62
     3
370
    18
100
AcDbLine
 10
403.3571524149017
 20
-31.27779953932918
 30
0.0
 11
403.3571524149017
 21
11.72220046067082
 31
0.0
  0
LINE
  5
3C0
330
1F
100
AcDbEntity
  8
Layer0000
  6
Continuous
 62
     3
370
    18
100
AcDbLine
 10
331.3571524149017
 20
11.72220046067082
 30
0.0
 11
331.3571524149017
 21
-31.27779953932918
 31
0.0
  0
LINE
  5
3C1
330
1F
100
AcDbEntity
  8
Layer0000
  6
Continuous
 62
     3
370
    18
100
AcDbLine
 10
402.8571524149017
 20
12.22220046067082
 30
0.0
 11
403.3571524149017
 21
11.72220046067082
 31
0.0
  0
LINE
  5
3C2
330
1F
100
AcDbEntity
  8
Layer0000
  6
Continuous
 62
     3
370
    18
100
AcDbLine
 10
331.8571524149017
 20
12.22220046067082
 30
0.0
 11
331.3571524149017
 21
11.72220046067082
 31
0.0
  0
LINE
  5
3C3
330
1F
100
AcDbEntity
  8
Layer0000
  6
Continuous
 62
     3
370
    18
100
AcDbLine
 10
331.3571524149017
 20
-31.27779953932918
 30
0.0
 11
331.8571524149017
 21
-31.77779953932918
 31
0.0
  0
LINE
  5
3C4
330
1F
100
AcDbEntity
  8
Layer0000
  6
Continuous
 62
     3
370
    18
100
AcDbLine
 10
403.3571524149017
 20
-31.27779953932918
 30
0.0
 11
402.8571524149017
 21
-31.77779953932918
 31
0.0
  0
LINE
  5
3C5
330
1F
100
AcDbEntity
  8
Layer0000
  6
Continuous
 62
     3
370
    18
100
AcDbLine
 10
403.8571524149017
 20
-20.77779953932918
 30
0.0
 11
403.8571524149017
 21
1.22220046067082
 31
0.0
  0
LINE
  5
3C6
330
1F
100
AcDbEntity
  8
Layer0000
  6
Continuous
 62
     3
370
    18
100
AcDbLine
 10
402.8571524149017
 20
-31.77779953932918
 30
0.0
 11
402.8571524149017
 21
12.22220046067082
 31
0.0
  0
LINE
  5
3C7
330
1F
100
AcDbEntity
  8
Layer0000
  6
Continuous
 62
     3
370
    18
100
AcDbLine
 10
331.8571524149017
 20
-31.77779953932918
 30
0.0
 11
331.8571524149017
 21
12.22220046067082
 31
0.0
  0
LINE
  5
3C8
330
1F
100
AcDbEntity
  8
Layer0000
  6
Continuous
 62
     3
370
    18
100
AcDbLine
 10
430.3571524149017
 20
-5.305663584329636
 30
0.0
 11
413.3571524149017
 21
-5.305663584329636
 31
0.0
  0
LINE
  5
3C9
330
1F
100
AcDbEntity
  8
Layer0000
  6
Continuous
 62
     3
370
    18
100
AcDbLine
 10
430.3571524149017
 20
-3.786626180876794
 30
0.0
 11
413.3571524149017
 21
-3.786626180876794
 31
0.0
  0
LINE
  5
3CA
330
1F
100
AcDbEntity
  8
Layer0000
  6
Continuous
 62
     3
370
    18
100
AcDbLine
 10
430.3571524149017
 20
-14.24993549432872
 30
0.0
 11
413.3571524149017
 21
-14.24993549432872
 31
0.0
  0
LINE
  5
3CB
330
1F
100
AcDbEntity
  8
Layer0000
  6
Continuous
 62
     3
370
    18
100
AcDbLine
 10
430.3571524149017
 20
-15.76897289778151
 30
0.0
 11
413.3571524149017
 21
-15.76897289778151
 31
0.0
  0
LINE
  5
3CC
330
1F
100
AcDbEntity
  8
Layer0000
  6
Continuous
 62
     3
370
    18
100
AcDbLine
 10
430.3571524149017
 20
-3.786626180876794
 30
0.0
 11
430.3571524149017
 21
-5.305663584329636
 31
0.0
  0
LINE
  5
3CD
330
1F
100
AcDbEntity
  8
Layer0000
  6
Continuous
 62
     3
370
    18
100
AcDbLine
 10
430.3571524149017
 20
-15.76897289778151
 30
0.0
 11
430.3571524149017
 21
-14.24993549432872
 31
0.0
  0
ARC
  5
3CE
330
1F
100
AcDbEntity
  8
Layer0000
  6
Continuous
 62
     3
370
    18
100
AcDbCircle
 10
428.3159627044606
 20
-1.532212860103016
 30
0.0
 40
3.041189710441189
100
AcDbArc
 50
312.1583048916936
 51
12.15830489169361
  0
ARC
  5
3CF
330
1F
100
AcDbEntity
  8
Layer0000
  6
Continuous
 62
     3
370
    18
100
AcDbCircle
 10
420.8571524149018
 20
-9.77779953932918
 30
0.0
 40
10.49999999999994
100
AcDbArc
 50
334.7912347032415
 51
25.20876529675846
  0
ARC
  5
3D0
330
1F
100
AcDbEntity
  8
Layer0000
  6
Continuous
 62
     3
370
    18
100
AcDbCircle
 10
428.3159627044606
 20
-18.02338621855534
 30
0.0
 40
3.041189710441189
100
AcDbArc
 50
347.8416951083055
 51
47.84169510830637
  0
LINE
  5
3D1
330
1F
100
AcDbEntity
  8
Layer0000
  6
Continuous
 62
     3
370
    18
100
AcDbLine
 10
430.3571524149017
 20
0.7222004606708197
 30
0.0
 11
431.3571524149017
 21
-1.00985034689802
 31
0.0
  0
LINE
  5
3D2
330
1F
100
AcDbEntity
  8
Layer0000
  6
Continuous
 62
     3
370
    18
100
AcDbLine
 10
430.3571524149017
 20
-20.27779953932918
 30
0.0
 11
431.3571524149017
 21
-18.54574873176034
 31
0.0
  0
LINE
  5
3D3
330
1F
100
AcDbEntity
  8
Layer0000
  6
Continuous
 62
     3
370
    18
100
AcDbLine
 10
413.3571524149017
 20
1.22220046067082
 30
0.0
 11
413.3571524149017
 21
-20.77779953932918
 31
0.0
  0
LINE
  5
3D4
330
1F
100
AcDbEntity
  8
Layer0000
  6
Continuous
 62
     3
370
    18
100
AcDbLine
 10
403.8571524149017
 20
1.22220046067082
 30
0.0
 11
413.3571524149017
 21
1.22220046067082
 31
0.0
  0
LINE
  5
3D5
330
1F
100
AcDbEntity
  8
Layer0000
  6
Continuous
 62
     3
370
    18
100
AcDbLine
 10
403.8571524149017
 20
-20.77779953932918
 30
0.0
 11
413.3571524149017
 21
-20.77779953932918
 31
0.0
  0
LINE
  5
3D6
330
1F
100
AcDbEntity
  8
Layer0000
  6
Continuous
 62
     3
370
    18
100
AcDbLine
 10
403.8571524149017
 20
-20.77779953932918
 30
0.0
 11
403.3571524149017
 21
-21.27779953932918
 31
0.0
  0
LINE
  5
3D7
330
1F
100
AcDbEntity
  8
Layer0000
  6
Continuous
 62
     3
370
    18
100
AcDbLine
 10
403.8571524149017
 20
1.22220046067082
 30
0.0
 11
403.3571524149017
 21
1.72220046067082
 31
0.0
  0
LINE
  5
3D8
330
1F
100
AcDbEntity
  8
Layer0000
  6
DASHED2
 62
    30
370
    18
100
AcDbLine
 10
331.3571524149017
 20
8.222200460670877
 30
0.0
 11
356.3571524149017
 21
8.222200460670877
 31
0.0
  0
LINE
  5
3D9
330
1F
100
AcDbEntity
  8
Layer0000
  6
DASHED2
 62
    30
370
    18
100
AcDbLine
 10
331.3571524149017
 20
-0.0444987043957781
 30
0.0
 11
356.3571524149017
 21
-0.0444987043957781
 31
0.0
  0
LINE
  5
3DA
330
1F
100
AcDbEntity
  8
Layer0000
  6
DASHED2
 62
    30
370
    18
100
AcDbLine
 10
331.3571524149017
 20
-1.531588288094383
 30
0.0
 11
356.3571524149017
 21
-1.531588288094383
 31
0.0
  0
LINE
  5
3DB
330
1F
100
AcDbEntity
  8
Layer0000
  6
DASHED2
 62
    30
370
    18
100
AcDbLine
 10
356.3571524149017
 20
8.222200460670877
 30
0.0
 11
356.3571524149017
 21
-9.77779953932918
 31
0.0
  0
ARC
  5
3DC
330
1F
100
AcDbEntity
  8
Layer0000
  6
DASHED2
 62
    30
370
    18
100
AcDbCircle
 10
328.0860077220447
 20
4.088850878137521
 30
0.0
 40
5.271144692857096
100
AcDbArc
 50
308.3581926761688
 51
51.64180732383124
  0
ARC
  5
3DD
330
1F
100
AcDbEntity
  8
Layer0000
  6
DASHED2
 62
    30
370
    18
100
AcDbCircle
 10
315.3571524149039
 20
-9.77779953932918
 30
0.0
 40
17.99999999999785
100
AcDbArc
 50
0.000000000000007
 51
27.26604445073447
  0
LINE
  5
3DE
330
1F
100
AcDbEntity
  8
Layer0000
  6
DASHED2
 62
    30
370
    18
100
AcDbLine
 10
356.3571524149017
 20
3.72220046067082
 30
0.0
 11
395.3571524149017
 21
3.72220046067082
 31
0.0
  0
LINE
  5
3DF
330
1F
100
AcDbEntity
  8
Layer0000
  6
DASHED2
 62
    30
370
    18
100
AcDbLine
 10
396.3571524149017
 20
2.72220046067082
 30
0.0
 11
396.3571524149017
 21
-9.77779953932918
 31
0.0
  0
LINE
  5
3E0
330
1F
100
AcDbEntity
  8
Layer0000
  6
DASHED2
 62
    30
370
    18
100
AcDbLine
 10
395.3571524149017
 20
3.72220046067082
 30
0.0
 11
396.3571524149017
 21
2.72220046067082
 31
0.0
  0
LINE
  5
3E1
330
1F
100
AcDbEntity
  8
Layer0000
  6
DASHED2
 62
    30
370
    18
100
AcDbLine
 10
331.3571524149017
 20
-27.77779953932924
 30
0.0
 11
356.3571524149017
 21
-27.77779953932924
 31
0.0
  0
LINE
  5
3E2
330
1F
100
AcDbEntity
  8
Layer0000
  6
DASHED2
 62
    30
370
    18
100
AcDbLine
 10
331.3571524149017
 20
-19.51110037426258
 30
0.0
 11
356.3571524149017
 21
-19.51110037426258
 31
0.0
  0
LINE
  5
3E3
330
1F
100
AcDbEntity
  8
Layer0000
  6
DASHED2
 62
    30
370
    18
100
AcDbLine
 10
331.3571524149017
 20
-18.02401079056398
 30
0.0
 11
356.3571524149017
 21
-18.02401079056398
 31
0.0
  0
LINE
  5
3E4
330
1F
100
AcDbEntity
  8
Layer0000
  6
DASHED2
 62
    30
370
    18
100
AcDbLine
 10
356.3571524149017
 20
-27.77779953932924
 30
0.0
 11
356.3571524149017
 21
-9.77779953932918
 31
0.0
  0
ARC
  5
3E5
330
1F
100
AcDbEntity
  8
Layer0000
  6
DASHED2
 62
    30
370
    18
100
AcDbCircle
 10
328.0860077220447
 20
-23.64444995679588
 30
0.0
 40
5.271144692857096
100
AcDbArc
 50
308.3581926761688
 51
51.64180732383124
  0
ARC
  5
3E6
330
1F
100
AcDbEntity
  8
Layer0000
  6
DASHED2
 62
    30
370
    18
100
AcDbCircle
 10
315.3571524149039
 20
-9.77779953932918
 30
0.0
 40
17.99999999999785
100
AcDbArc
 50
332.7339555492655
 51
0.0
  0
LINE
  5
3E7
330
1F
100
AcDbEntity
  8
Layer0000
  6
DASHED2
 62
    30
370
    18
100
AcDbLine
 10
356.3571524149017
 20
-23.27779953932918
 30
0.0
 11
395.3571524149017
 21
-23.27779953932918
 31
0.0
  0
LINE
  5
3E8
330
1F
100
AcDbEntity
  8
Layer0000
  6
DASHED2
 62
    30
370
    18
100
AcDbLine
 10
396.3571524149017
 20
-22.27779953932918
 30
0.0
 11
396.3571524149017
 21
-9.77779953932918
 31
0.0
  0
LINE
  5
3E9
330
1F
100
AcDbEntity
  8
Layer0000
  6
DASHED2
 62
    30
370
    18
100
AcDbLine
 10
395.3571524149017
 20
-23.27779953932918
 30
0.0
 11
396.3571524149017
 21
-22.27779953932918
 31
0.0
  0
LINE
  5
3EA
330
1F
100
AcDbEntity
  8
Layer0000
  6
CENTER
 62
     2
370
    18
100
AcDbLine
 10
329.3571524149017
 20
-9.77779953932918
 30
0.0
 11
433.3571524149017
 21
-9.77779953932918
 31
0.0
  0
LINE
  5
3EB
330
1F
100
AcDbEntity
  8
Layer0014
  6
DIVIDE
 62
     4
370
    25
100
AcDbLine
 10
-69.22941176470577
 20
-76.66081791287681
 30
0.0
 11
-69.22941176470577
 21
-118.1608179128768
 31
0.0
  0
LINE
  5
3EC
330
1F
100
AcDbEntity
  8
Layer0014
  6
DIVIDE
 62
     4
370
    25
100
AcDbLine
 10
-60.67603900648797
 20
-76.16081791287681
 30
0.0
 11
-37.22941176470589
 21
-76.16081791287681
 31
0.0
  0
LINE
  5
3ED
330
1F
100
AcDbEntity
  8
Layer0014
  6
DIVIDE
 62
     4
370
    25
100
AcDbLine
 10
-37.42941176470593
 20
-122.1608179128768
 30
0.0
 11
-48.42941176470593
 21
-122.1608179128768
 31
0.0
  0
LINE
  5
3EE
330
1F
100
AcDbEntity
  8
Layer0014
  6
DIVIDE
 62
     4
370
    25
100
AcDbLine
 10
-37.42941176470593
 20
-122.1608179128768
 30
0.0
 11
-37.42941176470593
 21
-118.1608179128768
 31
0.0
  0
LINE
  5
3EF
330
1F
100
AcDbEntity
  8
Layer0014
  6
DIVIDE
 62
     4
370
    25
100
AcDbLine
 10
-48.42941176470593
 20
-121.1608179128768
 30
0.0
 11
-61.42941176470582
 21
-121.1608179128768
 31
0.0
  0
LINE
  5
3F0
330
1F
100
AcDbEntity
  8
Layer0014
  6
DIVIDE
 62
     4
370
    25
100
AcDbLine
 10
-48.42941176470593
 20
-122.1608179128768
 30
0.0
 11
-48.42941176470593
 21
-121.1608179128768
 31
0.0
  0
LINE
  5
3F1
330
1F
100
AcDbEntity
  8
Layer0014
  6
DIVIDE
 62
     4
370
    25
100
AcDbLine
 10
-61.42941176470582
 20
-118.1608179128768
 30
0.0
 11
-61.42941176470582
 21
-121.1608179128768
 31
0.0
  0
LINE
  5
3F2
330
1F
100
AcDbEntity
  8
Layer0014
  6
DIVIDE
 62
     4
370
    25
100
AcDbLine
 10
-56.42941176470582
 20
-118.1608179128768
 30
0.0
 11
-56.42941176470582
 21
-117.6608179128768
 31
0.0
  0
LINE
  5
3F3
330
1F
100
AcDbEntity
  8
Layer0014
  6
DIVIDE
 62
     4
370
    25
100
AcDbLine
 10
-56.42941176470582
 20
-117.6608179128768
 30
0.0
 11
-47.19187161282233
 21
-117.6608179128768
 31
0.0
  0
LINE
  5
3F4
330
1F
100
AcDbEntity
  8
Layer0014
  6
DIVIDE
 62
     4
370
    25
100
AcDbLine
 10
-69.22941176470577
 20
-76.66081791287681
 30
0.0
 11
-60.51357915837151
 21
-76.66081791287681
 31
0.0
  0
LINE
  5
3F5
330
1F
100
AcDbEntity
  8
Layer0014
  6
DIVIDE
 62
     4
370
    25
100
AcDbLine
 10
-47.02941176470588
 20
-118.1608179128768
 30
0.0
 11
-60.67603900648797
 21
-76.16081791287681
 31
0.0
  0
LINE
  5
3F6
330
1F
100
AcDbEntity
  8
Layer0014
  6
DIVIDE
 62
     4
370
    25
100
AcDbLine
 10
-56.42941176470582
 20
-118.1608179128768
 30
0.0
 11
-37.22941176470593
 21
-118.1608179128768
 31
0.0
  0
LINE
  5
3F7
330
1F
100
AcDbEntity
  8
Layer0014
  6
DIVIDE
 62
     4
370
    25
100
AcDbLine
 10
-56.42941176470582
 20
-118.1608179128768
 30
0.0
 11
-69.22941176470577
 21
-118.1608179128768
 31
0.0
  0
LINE
  5
3F8
330
1F
100
AcDbEntity
  8
Layer0014
  6
DIVIDE
 62
     4
370
    25
100
AcDbLine
 10
-37.22941176470589
 20
-76.16081791287681
 30
0.0
 11
-37.22941176470589
 21
-118.1608179128768
 31
0.0
  0
DIMENSION
  5
3F9
330
1F
100
AcDbEntity
  8
Layer0015
  6
Continuous
370
    25
100
AcDbDimension
  2
*D1
 10
-433.9601767467551
 20
283.4542483660132
 30
0.0
 11
-433.9601767467551
 21
218.4542483660132
 31
0.0
 70
    32
 71
     8
 42
-1.0
  3
DaDimRotatedStyle
100
AcDbAlignedDimension
 13
-402.229411764706
 23
153.4542483660131
 33
0.0
 14
-402.229411764706
 24
283.4542483660132
 34
0.0
 50
90.0
100
AcDbRotatedDimension
1001
ACAD
1000
DSTYLE
1002
{
1070
   274
1070
     4
1070
    41
1040
4.499995307353803
1070
   289
1070
     0
1070
    79
1070
     2
1070
   343
1005
E9
1070
   344
1005
E9
1070
   176
1070
     2
1070
   177
1070
     2
1070
   178
1070
     2
1070
   271
1070
     3
1070
    44
1040
1.2
1070
    42
1040
1.5
1070
   147
1040
1.5
1070
   173
1070
     1
1070
    77
1070
     3
1070
    73
1070
     0
1070
   172
1070
     1
1070
    74
1070
     0
1070
   283
1070
     0
1070
   340
1005
F3
1070
   140
1040
9.0
1070
   284
1070
     8
1070
   288
1070
     1
1070
    78
1070
     8
1002
}
  0
DIMENSION
  5
3FB
330
1F
100
AcDbEntity
  8
Layer0015
  6
Continuous
370
    25
100
AcDbDimension
  2
*D2
 10
-284.9969069317868
 20
282.9542483660132
 30
0.0
 11
-284.9969069317868
 21
218.4542483660132
 31
0.0
 70
    32
 71
     8
 42
-1.0
  3
DaDimRotatedStyle
100
AcDbAlignedDimension
 13
-307.2294117647059
 23
153.9542483660131
 33
0.0
 14
-307.2294117647059
 24
282.9542483660132
 34
0.0
 50
90.0
100
AcDbRotatedDimension
1001
ACAD
1000
DSTYLE
1002
{
1070
   274
1070
     4
1070
    41
1040
4.499995307353803
1070
   289
1070
     0
1070
    79
1070
     2
1070
   343
1005
E9
1070
   344
1005
E9
1070
   176
1070
     2
1070
   177
1070
     2
1070
   178
1070
     2
1070
   271
1070
     3
1070
    44
1040
1.2
1070
    42
1040
1.5
1070
   147
1040
1.5
1070
   173
1070
     1
1070
    77
1070
     3
1070
    73
1070
     0
1070
   172
1070
     1
1070
    74
1070
     0
1070
   283
1070
     0
1070
   340
1005
F3
1070
   140
1040
9.0
1070
   284
1070
     8
1070
   288
1070
     1
1070
    78
1070
     8
1002
}
  0
DIMENSION
  5
3FC
330
1F
100
AcDbEntity
  8
Layer0015
  6
Continuous
370
    25
100
AcDbDimension
  2
*D3
 10
-229.7714995857498
 20
253.9542483660132
 30
0.0
 11
-229.7714995857498
 21
218.4542483660131
 31
0.0
 70
    32
 71
     8
 42
-1.0
  3
DaDimRotatedStyle
100
AcDbAlignedDimension
 13
-229.7714995857498
 23
182.9542483660131
 33
0.0
 14
-229.7714995857498
 24
253.9542483660132
 34
0.0
 50
90.0
100
AcDbRotatedDimension
1001
ACAD
1000
DSTYLE
1002
{
1070
   274
1070
     4
1070
    41
1040
4.499995307353803
1070
   289
1070
     0
1070
    79
1070
     2
1070
   343
1005
E9
1070
   344
1005
E9
1070
   176
1070
     2
1070
   177
1070
     7
1070
   178
1070
     2
1070
   271
1070
     3
1070
    44
1040
0.0
1070
    42
1040
1.5
1070
   147
1040
1.5
1070
   173
1070
     1
1070
    75
1070
     1
1070
    76
1070
     1
1070
    77
1070
     3
1070
    73
1070
     0
1070
   172
1070
     1
1070
    74
1070
     0
1070
   283
1070
     0
1070
   340
1005
F3
1070
   140
1040
9.0
1070
   284
1070
     8
1070
   288
1070
     1
1070
    78
1070
     8
1002
}
  0
DIMENSION
  5
3FD
330
1F
100
AcDbEntity
  8
Layer0015
  6
Continuous
370
    25
100
AcDbDimension
  2
*D4
 10
423.3684617508976
 20
153.4542483660131
 30
0.0
 11
423.3684617508976
 21
130.454248366013
 31
0.0
 70
    32
 71
     8
 42
-1.0
  3
DaDimRotatedStyle
100
AcDbAlignedDimension
 13
388.7705882352941
 23
107.454248366013
 33
0.0
 14
389.7705882352941
 24
153.4542483660131
 34
0.0
 50
90.0
100
AcDbRotatedDimension
1001
ACAD
1000
DSTYLE
1002
{
1070
   274
1070
     4
1070
    41
1040
4.499995307353803
1070
   289
1070
     0
1070
    79
1070
     2
1070
   343
1005
E9
1070
   344
1005
E9
1070
   176
1070
     2
1070
   177
1070
     2
1070
   178
1070
     2
1070
   271
1070
     3
1070
    44
1040
1.2
1070
    42
1040
1.5
1070
   147
1040
1.5
1070
   173
1070
     1
1070
    77
1070
     3
1070
    73
1070
     0
1070
   172
1070
     1
1070
    74
1070
     0
1070
   283
1070
     0
1070
   340
1005
F3
1070
   140
1040
9.0
1070
   284
1070
     8
1070
   288
1070
     1
1070
    78
1070
     8
1002
}
  0
DIMENSION
  5
3FE
330
1F
100
AcDbEntity
  8
Layer0015
  6
Continuous
370
    25
100
AcDbDimension
  2
*D5
 10
423.3684617508976
 20
283.4542483660131
 30
0.0
 11
423.3684617508976
 21
218.4542483660131
 31
0.0
 70
    32
 71
     8
 42
-1.0
  3
DaDimRotatedStyle
100
AcDbAlignedDimension
 13
389.7705882352941
 23
153.4542483660131
 33
0.0
 14
389.7705882352941
 24
283.4542483660131
 34
0.0
 50
90.0
100
AcDbRotatedDimension
1001
ACAD
1000
DSTYLE
1002
{
1070
   274
1070
     4
1070
    41
1040
4.499995307353803
1070
   289
1070
     0
1070
    79
1070
     2
1070
   343
1005
E9
1070
   344
1005
E9
1070
   176
1070
     2
1070
   177
1070
     2
1070
   178
1070
     2
1070
   271
1070
     3
1070
    44
1040
1.2
1070
    42
1040
1.5
1070
   147
1040
1.5
1070
   173
1070
     1
1070
    77
1070
     3
1070
    73
1070
     0
1070
   172
1070
     1
1070
    74
1070
     0
1070
   283
1070
     0
1070
   340
1005
F3
1070
   140
1040
9.0
1070
   284
1070
     8
1070
   288
1070
     1
1070
    78
1070
     8
1002
}
  0
DIMENSION
  5
3FF
330
1F
100
AcDbEntity
  8
Layer0015
  6
Continuous
370
    25
100
AcDbDimension
  2
*D6
 10
423.3684617508976
 20
329.4542483660133
 30
0.0
 11
423.3684617508976
 21
306.4542483660132
 31
0.0
 70
    32
 71
     8
 42
-1.0
  3
DaDimRotatedStyle
100
AcDbAlignedDimension
 13
389.7705882352941
 23
283.4542483660131
 33
0.0
 14
388.7705882352941
 24
329.4542483660133
 34
0.0
 50
90.0
100
AcDbRotatedDimension
1001
ACAD
1000
DSTYLE
1002
{
1070
   274
1070
     4
1070
    41
1040
4.499995307353803
1070
   289
1070
     0
1070
    79
1070
     2
1070
   343
1005
E9
1070
   344
1005
E9
1070
   176
1070
     2
1070
   177
1070
     2
1070
   178
1070
     2
1070
   271
1070
     3
1070
    44
1040
1.2
1070
    42
1040
1.5
1070
   147
1040
1.5
1070
   173
1070
     1
1070
    77
1070
     3
1070
    73
1070
     0
1070
   172
1070
     1
1070
    74
1070
     0
1070
   283
1070
     0
1070
   340
1005
F3
1070
   140
1040
9.0
1070
   284
1070
     8
1070
   288
1070
     1
1070
    78
1070
     8
1002
}
  0
DIMENSION
  5
400
330
1F
100
AcDbEntity
  8
Layer0015
  6
Continuous
370
    25
100
AcDbDimension
  2
*D7
 10
439.354763877382
 20
329.4542483660133
 30
0.0
 11
439.354763877382
 21
218.4542483660131
 31
0.0
 70
    32
 71
     8
 42
-1.0
  3
DaDimRotatedStyle
100
AcDbAlignedDimension
 13
388.7705882352941
 23
107.454248366013
 33
0.0
 14
388.7705882352941
 24
329.4542483660133
 34
0.0
 50
90.0
100
AcDbRotatedDimension
1001
ACAD
1000
DSTYLE
1002
{
1070
   274
1070
     4
1070
    41
1040
4.499995307353803
1070
   289
1070
     0
1070
    79
1070
     2
1070
   343
1005
E9
1070
   344
1005
E9
1070
   176
1070
     2
1070
   177
1070
     2
1070
   178
1070
     2
1070
   271
1070
     3
1070
    44
1040
1.2
1070
    42
1040
1.5
1070
   147
1040
1.5
1070
   173
1070
     1
1070
    77
1070
     3
1070
    73
1070
     0
1070
   172
1070
     1
1070
    74
1070
     0
1070
   283
1070
     0
1070
   340
1005
F3
1070
   140
1040
9.0
1070
   284
1070
     8
1070
   288
1070
     1
1070
    78
1070
     8
1002
}
  0
DIMENSION
  5
401
330
1F
100
AcDbEntity
  8
Layer0015
  6
Continuous
370
    25
100
AcDbDimension
  2
*D8
 10
-432.4975421154378
 20
-77.16081791287675
 30
0.0
 11
-432.4975421154378
 21
-152.1608179128768
 31
0.0
 70
    32
 71
     8
 42
-1.0
  3
DaDimRotatedStyle
100
AcDbAlignedDimension
 13
-402.229411764706
 23
-227.1608179128768
 33
0.0
 14
-402.229411764706
 24
-77.16081791287675
 34
0.0
 50
90.0
100
AcDbRotatedDimension
1001
ACAD
1000
DSTYLE
1002
{
1070
   274
1070
     4
1070
    41
1040
4.499995307353803
1070
   289
1070
     0
1070
    79
1070
     2
1070
   343
1005
E9
1070
   344
1005
E9
1070
   176
1070
     2
1070
   177
1070
     2
1070
   178
1070
     2
1070
   271
1070
     3
1070
    44
1040
1.2
1070
    42
1040
1.5
1070
   147
1040
1.5
1070
   173
1070
     1
1070
    77
1070
     3
1070
    73
1070
     0
1070
   172
1070
     1
1070
    74
1070
     0
1070
   283
1070
     0
1070
   340
1005
F3
1070
   140
1040
9.0
1070
   284
1070
     8
1070
   288
1070
     1
1070
    78
1070
     8
1002
}
  0
DIMENSION
  5
402
330
1F
100
AcDbEntity
  8
Layer0015
  6
Continuous
370
    25
100
AcDbDimension
  2
*D9
 10
-448.9168185584093
 20
-53.66081791287677
 30
0.0
 11
-448.9168185584093
 21
-140.4108179128768
 31
0.0
 70
    32
 71
     8
 42
-1.0
  3
DaDimRotatedStyle
100
AcDbAlignedDimension
 13
-402.229411764706
 23
-227.1608179128768
 33
0.0
 14
-387.229411764706
 24
-53.66081791287677
 34
0.0
 50
90.0
100
AcDbRotatedDimension
1001
ACAD
1000
DSTYLE
1002
{
1070
   274
1070
     4
1070
    41
1040
4.499995307353803
1070
   289
1070
     0
1070
    79
1070
     2
1070
   343
1005
E9
1070
   344
1005
E9
1070
   176
1070
     2
1070
   177
1070
     2
1070
   178
1070
     2
1070
   271
1070
     3
1070
    44
1040
1.2
1070
    42
1040
1.5
1070
   147
1040
1.5
1070
   173
1070
     1
1070
    77
1070
     3
1070
    73
1070
     0
1070
   172
1070
     1
1070
    74
1070
     0
1070
   283
1070
     0
1070
   340
1005
F3
1070
   140
1040
9.0
1070
   284
1070
     8
1070
   288
1070
     1
1070
    78
1070
     8
1002
}
  0
DIMENSION
  5
403
330
1F
100
AcDbEntity
  8
Layer0015
  6
Continuous
370
    13
100
AcDbDimension
  2
*D10
 10
145.2705882352943
 20
44.74639344446642
 30
0.0
 11
-128.4794117647058
 21
44.74639344446642
 31
0.0
 70
    32
  1
548
 71
     8
 42
-1.0
  3
DaDimRotatedStyle
100
AcDbAlignedDimension
 13
-402.229411764706
 23
153.4542483660131
 33
0.0
 14
145.2705882352943
 24
211.7042483660131
 34
0.0
100
AcDbRotatedDimension
1001
ACAD
1000
DSTYLE
1002
{
1070
   274
1070
     4
1070
    41
1040
4.499995307353803
1070
   289
1070
     0
1070
    79
1070
     2
1070
   343
1005
E9
1070
   344
1005
E9
1070
   176
1070
     2
1070
   177
1070
     2
1070
   178
1070
     2
1070
   271
1070
     3
1070
    44
1040
1.2
1070
    42
1040
1.5
1070
   147
1040
1.5
1070
   173
1070
     1
1070
    77
1070
     3
1070
    73
1070
     0
1070
   172
1070
     1
1070
    74
1070
     0
1070
   283
1070
     0
1070
   340
1005
F3
1070
   140
1040
9.0
1070
   284
1070
     8
1070
   288
1070
     1
1070
    78
1070
     8
1002
}
  0
DIMENSION
  5
404
330
1F
100
AcDbEntity
  8
Layer0015
  6
Continuous
370
    13
100
AcDbDimension
  2
*D11
 10
-252.5206313041554
 20
-227.1608179128768
 30
0.0
 11
-252.5206313041554
 21
-243.1924479128768
 31
0.0
 70
    32
 71
     8
 42
-1.0
  3
DaDimRotatedStyle
100
AcDbAlignedDimension
 13
-249.2294117647059
 23
-235.1608179128768
 33
0.0
 14
-252.5206313041554
 24
-227.1608179128768
 34
0.0
 50
90.0
100
AcDbRotatedDimension
1001
ACAD
1000
DSTYLE
1002
{
1070
   274
1070
     4
1070
    41
1040
4.499995307353803
1070
   289
1070
     0
1070
    79
1070
     2
1070
   343
1005
E9
1070
   344
1005
E9
1070
   176
1070
     2
1070
   177
1070
     2
1070
   178
1070
     2
1070
   271
1070
     3
1070
    44
1040
0.0
1070
    42
1040
1.5
1070
   147
1040
1.5
1070
   173
1070
     1
1070
    76
1070
     1
1070
    77
1070
     3
1070
    73
1070
     0
1070
   172
1070
     1
1070
    74
1070
     0
1070
   283
1070
     0
1070
   340
1005
F3
1070
   140
1040
9.0
1070
   284
1070
     8
1070
   288
1070
     1
1070
    78
1070
     8
1002
}
  0
DIMENSION
  5
405
330
1F
100
AcDbEntity
  8
Layer0015
  6
Continuous
370
    13
100
AcDbDimension
  2
*D12
 10
-252.5206313041554
 20
-122.1608179128768
 30
0.0
 11
-252.5206313041554
 21
-174.6608179128767
 31
0.0
 70
    32
 71
     8
 42
-1.0
  3
DaDimRotatedStyle
100
AcDbAlignedDimension
 13
-252.5206313041554
 23
-227.1608179128768
 33
0.0
 14
-252.5206313041554
 24
-122.1608179128768
 34
0.0
 50
90.0
100
AcDbRotatedDimension
1001
ACAD
1000
DSTYLE
1002
{
1070
   274
1070
     4
1070
    41
1040
4.499995307353803
1070
   289
1070
     0
1070
    79
1070
     2
1070
   343
1005
E9
1070
   344
1005
E9
1070
   176
1070
     2
1070
   177
1070
     7
1070
   178
1070
     2
1070
   271
1070
     3
1070
    44
1040
0.0
1070
    42
1040
1.5
1070
   147
1040
1.5
1070
   173
1070
     1
1070
    75
1070
     1
1070
    76
1070
     1
1070
    77
1070
     3
1070
    73
1070
     0
1070
   172
1070
     1
1070
    74
1070
     0
1070
   283
1070
     0
1070
   340
1005
F3
1070
   140
1040
9.0
1070
   284
1070
     8
1070
   288
1070
     1
1070
    78
1070
     8
1002
}
  0
DIMENSION
  5
406
330
1F
100
AcDbEntity
  8
Layer0015
  6
Continuous
370
    13
100
AcDbDimension
  2
*D13
 10
-252.5206313041554
 20
-76.16081791287675
 30
0.0
 11
-252.5206313041554
 21
-99.16081791287677
 31
0.0
 70
    32
 71
     8
 42
-1.0
  3
DaDimRotatedStyle
100
AcDbAlignedDimension
 13
-252.5206313041554
 23
-122.1608179128768
 33
0.0
 14
-307.2294117647059
 24
-76.16081791287675
 34
0.0
 50
90.0
100
AcDbRotatedDimension
1001
ACAD
1000
DSTYLE
1002
{
1070
   274
1070
     4
1070
    41
1040
4.499995307353803
1070
   289
1070
     0
1070
    79
1070
     2
1070
   343
1005
E9
1070
   344
1005
E9
1070
   176
1070
     2
1070
   177
1070
     2
1070
   178
1070
     2
1070
   271
1070
     3
1070
    44
1040
1.2
1070
    42
1040
1.5
1070
   147
1040
1.5
1070
   173
1070
     1
1070
    75
1070
     1
1070
    77
1070
     3
1070
    73
1070
     0
1070
   172
1070
     1
1070
    74
1070
     0
1070
   283
1070
     0
1070
   340
1005
F3
1070
   140
1040
9.0
1070
   284
1070
     8
1070
   288
1070
     1
1070
    78
1070
     8
1002
}
  0
DIMENSION
  5
407
330
1F
100
AcDbEntity
  8
Layer0015
  6
Continuous
370
    13
100
AcDbDimension
  2
*D14
 10
-220.6189511014499
 20
-58.66081791287677
 30
0.0
 11
-220.6189511014499
 21
-142.9108179128768
 31
0.0
 70
    32
 71
     8
 42
-1.0
  3
DaDimRotatedStyle
100
AcDbAlignedDimension
 13
-220.6189511014499
 23
-227.1608179128768
 33
0.0
 14
-332.2294117647059
 24
-58.66081791287677
 34
0.0
 50
90.0
100
AcDbRotatedDimension
1001
ACAD
1000
DSTYLE
1002
{
1070
   274
1070
     4
1070
    41
1040
4.499995307353803
1070
   289
1070
     0
1070
    79
1070
     2
1070
   343
1005
E9
1070
   344
1005
E9
1070
   176
1070
     2
1070
   177
1070
     2
1070
   178
1070
     2
1070
   271
1070
     3
1070
    44
1040
1.2
1070
    42
1040
1.5
1070
   147
1040
1.5
1070
   173
1070
     1
1070
    75
1070
     1
1070
    77
1070
     3
1070
    73
1070
     0
1070
   172
1070
     1
1070
    74
1070
     0
1070
   283
1070
     0
1070
   340
1005
F3
1070
   140
1040
9.0
1070
   284
1070
     8
1070
   288
1070
     1
1070
    78
1070
     8
1002
}
  0
INSERT
  5
408
330
1F
100
AcDbEntity
  8
Layer0015
  6
Continuous
100
AcDbBlockReference
  2
DA_IMAGEDIMGROUP_1
 10
0.0
 20
0.0
 30
0.0
  0
INSERT
  5
409
330
1F
100
AcDbEntity
  8
Layer0015
  6
Continuous
100
AcDbBlockReference
  2
DA_IMAGEDIMGROUP_2
 10
0.0
 20
0.0
 30
0.0
  0
DIMENSION
  5
40A
330
1F
100
AcDbEntity
  8
Layer0015
  6
Continuous
370
    13
100
AcDbDimension
  2
*D17
 10
-240.2294117647059
 20
-266.427920794288
 30
0.0
 11
-273.7294117647059
 21
-266.427920794288
 31
0.0
 70
    32
 71
     8
 42
-1.0
  3
DaDimRotatedStyle
100
AcDbAlignedDimension
 13
-307.2294117647059
 23
-122.1608179128768
 33
0.0
 14
-240.2294117647059
 24
-237.0667219000277
 34
0.0
100
AcDbRotatedDimension
1001
ACAD
1000
DSTYLE
1002
{
1070
   274
1070
     4
1070
    41
1040
4.499995307353803
1070
   289
1070
     0
1070
    79
1070
     2
1070
   343
1005
E9
1070
   344
1005
E9
1070
   176
1070
     2
1070
   177
1070
     2
1070
   178
1070
     2
1070
   271
1070
     3
1070
    44
1040
1.2
1070
    42
1040
1.5
1070
   147
1040
1.5
1070
   173
1070
     1
1070
    77
1070
     3
1070
    73
1070
     0
1070
   172
1070
     1
1070
    74
1070
     0
1070
   283
1070
     0
1070
   340
1005
F3
1070
   140
1040
9.0
1070
   284
1070
     8
1070
   288
1070
     1
1070
    78
1070
     8
1002
}
  0
DIMENSION
  5
40B
330
1F
100
AcDbEntity
  8
Layer0015
  6
Continuous
370
    13
100
AcDbDimension
  2
*D18
 10
-190.2294117647059
 20
-266.427920794288
 30
0.0
 11
-215.2294117647059
 21
-266.427920794288
 31
0.0
 70
    32
 71
     8
 42
-1.0
  3
DaDimRotatedStyle
100
AcDbAlignedDimension
 13
-240.2294117647059
 23
-237.0667219000277
 33
0.0
 14
-190.2294117647059
 24
-231.1002278255832
 34
0.0
100
AcDbRotatedDimension
1001
ACAD
1000
DSTYLE
1002
{
1070
   274
1070
     4
1070
    41
1040
4.499995307353803
1070
   289
1070
     0
1070
    79
1070
     2
1070
   343
1005
E9
1070
   344
1005
E9
1070
   176
1070
     2
1070
   177
1070
     2
1070
   178
1070
     2
1070
   271
1070
     3
1070
    44
1040
1.2
1070
    42
1040
1.5
1070
   147
1040
1.5
1070
   173
1070
     1
1070
    77
1070
     3
1070
    73
1070
     0
1070
   172
1070
     1
1070
    74
1070
     0
1070
   283
1070
     0
1070
   340
1005
F3
1070
   140
1040
9.0
1070
   284
1070
     8
1070
   288
1070
     1
1070
    78
1070
     8
1002
}
  0
DIMENSION
  5
40C
330
1F
100
AcDbEntity
  8
Layer0015
  6
Continuous
370
    13
100
AcDbDimension
  2
*D19
 10
-140.2294117647059
 20
-266.427920794288
 30
0.0
 11
-165.2294117647059
 21
-266.427920794288
 31
0.0
 70
    32
 71
     8
 42
-1.0
  3
DaDimRotatedStyle
100
AcDbAlignedDimension
 13
-190.2294117647059
 23
-231.1002278255832
 33
0.0
 14
-140.2294117647059
 24
-231.1002278255832
 34
0.0
100
AcDbRotatedDimension
1001
ACAD
1000
DSTYLE
1002
{
1070
   274
1070
     4
1070
    41
1040
4.499995307353803
1070
   289
1070
     0
1070
    79
1070
     2
1070
   343
1005
E9
1070
   344
1005
E9
1070
   176
1070
     2
1070
   177
1070
     2
1070
   178
1070
     2
1070
   271
1070
     3
1070
    44
1040
1.2
1070
    42
1040
1.5
1070
   147
1040
1.5
1070
   173
1070
     1
1070
    77
1070
     3
1070
    73
1070
     0
1070
   172
1070
     1
1070
    74
1070
     0
1070
   283
1070
     0
1070
   340
1005
F3
1070
   140
1040
9.0
1070
   284
1070
     8
1070
   288
1070
     1
1070
    78
1070
     8
1002
}
  0
DIMENSION
  5
40D
330
1F
100
AcDbEntity
  8
Layer0015
  6
Continuous
370
    13
100
AcDbDimension
  2
*D20
 10
72.77058823529404
 20
-292.4248485676737
 30
0.0
 11
-164.729411764706
 21
-292.4248485676737
 31
0.0
 70
    32
 71
     8
 42
-1.0
  3
DaDimRotatedStyle
100
AcDbAlignedDimension
 13
-402.229411764706
 23
-227.1608179128768
 33
0.0
 14
72.77058823529404
 24
-227.1608179128768
 34
0.0
100
AcDbRotatedDimension
1001
ACAD
1000
DSTYLE
1002
{
1070
   274
1070
     4
1070
    41
1040
4.499995307353803
1070
   289
1070
     0
1070
    79
1070
     2
1070
   343
1005
E9
1070
   344
1005
E9
1070
   176
1070
     2
1070
   177
1070
     2
1070
   178
1070
     2
1070
   271
1070
     3
1070
    44
1040
1.2
1070
    42
1040
1.5
1070
   147
1040
1.5
1070
   173
1070
     1
1070
    77
1070
     3
1070
    73
1070
     0
1070
   172
1070
     1
1070
    74
1070
     0
1070
   283
1070
     0
1070
   340
1005
F3
1070
   140
1040
9.0
1070
   284
1070
     8
1070
   288
1070
     1
1070
    78
1070
     8
1002
}
  0
DIMENSION
  5
40E
330
1F
100
AcDbEntity
  8
Layer0015
  6
Continuous
370
    13
100
AcDbDimension
  2
*D21
 10
145.2705882352943
 20
-292.4248485676737
 30
0.0
 11
109.0205882352942
 21
-292.4248485676737
 31
0.0
 70
    32
  1
73
 71
     8
 42
-1.0
  3
DaDimRotatedStyle
100
AcDbAlignedDimension
 13
72.77058823529404
 23
-227.1608179128768
 33
0.0
 14
145.2705882352943
 24
-166.9108179128768
 34
0.0
100
AcDbRotatedDimension
1001
ACAD
1000
DSTYLE
1002
{
1070
   274
1070
     4
1070
    41
1040
4.499995307353803
1070
   289
1070
     0
1070
    79
1070
     2
1070
   343
1005
E9
1070
   344
1005
E9
1070
   176
1070
     2
1070
   177
1070
     2
1070
   178
1070
     2
1070
   271
1070
     3
1070
    44
1040
1.2
1070
    42
1040
1.5
1070
   147
1040
1.5
1070
   173
1070
     1
1070
    77
1070
     3
1070
    73
1070
     0
1070
   172
1070
     1
1070
    74
1070
     0
1070
   283
1070
     0
1070
   340
1005
F3
1070
   140
1040
9.0
1070
   284
1070
     8
1070
   288
1070
     1
1070
    78
1070
     8
1002
}
  0
DIMENSION
  5
40F
330
1F
100
AcDbEntity
  8
Layer0015
  6
Continuous
370
    13
100
AcDbDimension
  2
*D22
 10
224.2705882352944
 20
-292.4248485676737
 30
0.0
 11
184.7705882352944
 21
-292.4248485676737
 31
0.0
 70
    32
 71
     8
 42
-1.0
  3
DaDimRotatedStyle
100
AcDbAlignedDimension
 13
145.2705882352943
 23
-166.9108179128768
 33
0.0
 14
224.2705882352944
 24
-270.6608179128754
 34
0.0
100
AcDbRotatedDimension
1001
ACAD
1000
DSTYLE
1002
{
1070
   274
1070
     4
1070
    41
1040
4.499995307353803
1070
   289
1070
     0
1070
    79
1070
     2
1070
   343
1005
E9
1070
   344
1005
E9
1070
   176
1070
     2
1070
   177
1070
     2
1070
   178
1070
     2
1070
   271
1070
     3
1070
    44
1040
1.2
1070
    42
1040
1.5
1070
   147
1040
1.5
1070
   173
1070
     1
1070
    77
1070
     3
1070
    73
1070
     0
1070
   172
1070
     1
1070
    74
1070
     0
1070
   283
1070
     0
1070
   340
1005
F3
1070
   140
1040
9.0
1070
   284
1070
     8
1070
   288
1070
     1
1070
    78
1070
     8
1002
}
  0
DIMENSION
  5
410
330
1F
100
AcDbEntity
  8
Layer0015
  6
Continuous
370
    13
100
AcDbDimension
  2
*D23
 10
-307.2294117647059
 20
-24.04032749949175
 30
0.0
 11
-354.729411764706
 21
-24.04032749949175
 31
0.0
 70
    32
 71
     8
 42
-1.0
  3
DaDimRotatedStyle
100
AcDbAlignedDimension
 13
-402.229411764706
 23
-77.16081791287675
 33
0.0
 14
-307.2294117647059
 24
-76.16081791287675
 34
0.0
100
AcDbRotatedDimension
1001
ACAD
1000
DSTYLE
1002
{
1070
   274
1070
     4
1070
    41
1040
4.499995307353803
1070
   289
1070
     0
1070
    79
1070
     2
1070
   343
1005
E9
1070
   344
1005
E9
1070
   176
1070
     2
1070
   177
1070
     2
1070
   178
1070
     2
1070
   271
1070
     3
1070
    44
1040
1.2
1070
    42
1040
1.5
1070
   147
1040
1.5
1070
   173
1070
     1
1070
    77
1070
     3
1070
    73
1070
     0
1070
   172
1070
     1
1070
    74
1070
     0
1070
   283
1070
     0
1070
   340
1005
F3
1070
   140
1040
9.0
1070
   284
1070
     8
1070
   288
1070
     1
1070
    78
1070
     8
1002
}
  0
DIMENSION
  5
411
330
1F
100
AcDbEntity
  8
Layer0015
  6
Continuous
370
    13
100
AcDbDimension
  2
*D24
 10
-52.22941176470593
 20
-24.04032749949175
 30
0.0
 11
-179.7294117647059
 21
-24.04032749949175
 31
0.0
 70
    32
  1
0～250
 71
     8
 42
-1.0
  3
DaDimRotatedStyle
100
AcDbAlignedDimension
 13
-307.2294117647059
 23
-76.16081791287675
 33
0.0
 14
-52.22941176470593
 24
-76.16081791287675
 34
0.0
100
AcDbRotatedDimension
1001
ACAD
1000
DSTYLE
1002
{
1070
   274
1070
     4
1070
    41
1040
4.499995307353803
1070
   289
1070
     0
1070
    79
1070
     2
1070
   343
1005
E9
1070
   344
1005
E9
1070
   176
1070
     2
1070
   177
1070
     2
1070
   178
1070
     2
1070
   271
1070
     3
1070
    44
1040
1.2
1070
    42
1040
1.5
1070
   147
1040
1.5
1070
   173
1070
     1
1070
    77
1070
     3
1070
    73
1070
     0
1070
   172
1070
     1
1070
    74
1070
     0
1070
   283
1070
     0
1070
   340
1005
F3
1070
   140
1040
9.0
1070
   284
1070
     8
1070
   288
1070
     1
1070
    78
1070
     8
1002
}
  0
DIMENSION
  5
412
330
1F
100
AcDbEntity
  8
Layer0015
  6
Continuous
370
    13
100
AcDbDimension
  2
*D25
 10
145.2705882352943
 20
-24.04032749949175
 30
0.0
 11
46.5205882352942
 21
-24.04032749949175
 31
0.0
 70
    32
  1
203
 71
     8
 42
-1.0
  3
DaDimRotatedStyle
100
AcDbAlignedDimension
 13
-52.22941176470593
 23
-76.16081791287675
 33
0.0
 14
145.2705882352943
 24
-153.4108179128767
 34
0.0
100
AcDbRotatedDimension
1001
ACAD
1000
DSTYLE
1002
{
1070
   274
1070
     4
1070
    41
1040
4.499995307353803
1070
   289
1070
     0
1070
    79
1070
     2
1070
   343
1005
E9
1070
   344
1005
E9
1070
   176
1070
     2
1070
   177
1070
     2
1070
   178
1070
     2
1070
   271
1070
     3
1070
    44
1040
1.2
1070
    42
1040
1.5
1070
   147
1040
1.5
1070
   173
1070
     1
1070
    77
1070
     3
1070
    73
1070
     0
1070
   172
1070
     1
1070
    74
1070
     0
1070
   283
1070
     0
1070
   340
1005
F3
1070
   140
1040
9.0
1070
   284
1070
     8
1070
   288
1070
     1
1070
    78
1070
     8
1002
}
  0
DIMENSION
  5
413
330
1F
100
AcDbEntity
  8
Layer0015
  6
Continuous
370
    13
100
AcDbDimension
  2
*D26
 10
431.3571524149017
 20
-66.6321372985247
 30
0.0
 11
381.3571524149017
 21
-66.6321372985247
 31
0.0
 70
    32
 71
     8
 42
-1.0
  3
DaDimRotatedStyle
100
AcDbAlignedDimension
 13
331.3571524149017
 23
-31.77779953932918
 33
0.0
 14
431.3571524149017
 24
-18.52338621855534
 34
0.0
100
AcDbRotatedDimension
1001
ACAD
1000
DSTYLE
1002
{
1070
   274
1070
     4
1070
    41
1040
4.499995307353803
1070
   289
1070
     0
1070
    79
1070
     2
1070
   343
1005
E9
1070
   344
1005
E9
1070
   176
1070
     2
1070
   177
1070
     2
1070
   178
1070
     2
1070
   271
1070
     2
1070
    44
1040
1.600000000000023
1070
    42
1040
1.5
1070
   147
1040
2.0
1070
   173
1070
     1
1070
    77
1070
     3
1070
    73
1070
     0
1070
   172
1070
     1
1070
    74
1070
     0
1070
   283
1070
     0
1070
   340
1005
F3
1070
   140
1040
9.0
1070
   284
1070
     8
1070
   288
1070
     1
1070
    78
1070
     8
1002
}
  0
INSERT
  5
414
330
1F
100
AcDbEntity
  8
Layer0015
  6
Continuous
100
AcDbBlockReference
  2
DA_IMAGEDIMGROUP_3
 10
0.0
 20
0.0
 30
0.0
  0
DIMENSION
  5
415
330
1F
100
AcDbEntity
  8
Layer0015
  6
Continuous
370
    13
100
AcDbDimension
  2
*D28
 10
-69.22941176470577
 20
-41.01831162332372
 30
0.0
 11
-188.2294117647058
 21
-41.01831162332372
 31
0.0
 70
    32
  1
0～233
 71
     8
 42
-1.0
  3
DaDimRotatedStyle
100
AcDbAlignedDimension
 13
-307.2294117647059
 23
-76.16081791287675
 33
0.0
 14
-69.22941176470577
 24
-76.66081791287681
 34
0.0
100
AcDbRotatedDimension
1001
ACAD
1000
DSTYLE
1002
{
1070
   274
1070
     4
1070
    41
1040
4.499995307353803
1070
   289
1070
     0
1070
    79
1070
     2
1070
   343
1005
E9
1070
   344
1005
E9
1070
   176
1070
     2
1070
   177
1070
     2
1070
   178
1070
     2
1070
   271
1070
     2
1070
    44
1040
1.2
1070
    42
1040
1.5
1070
   147
1040
1.5
1070
   173
1070
     1
1070
    77
1070
     3
1070
    73
1070
     0
1070
   172
1070
     1
1070
    74
1070
     0
1070
   283
1070
     0
1070
   340
1005
F3
1070
   140
1040
9.0
1070
   284
1070
     8
1070
   288
1070
     1
1070
    78
1070
     8
1002
}
  0
INSERT
  5
416
330
1F
100
AcDbEntity
  8
Layer0015
  6
Continuous
100
AcDbBlockReference
  2
DC_GROUP_HCN125_6
 10
0.0
 20
0.0
 30
0.0
  0
INSERT
  5
417
330
1F
100
AcDbEntity
  8
Layer0014
  6
Continuous
100
AcDbBlockReference
  2
DC_GROUP_HCN125_1
 10
0.0
 20
0.0
 30
0.0
  0
INSERT
  5
418
330
1F
100
AcDbEntity
  8
Layer0014
  6
Continuous
100
AcDbBlockReference
  2
DC_GROUP_HCN125_2
 10
0.0
 20
0.0
 30
0.0
  0
INSERT
  5
419
330
1F
100
AcDbEntity
  8
Layer0014
  6
Continuous
100
AcDbBlockReference
  2
DC_GROUP_HCN125_3
 10
0.0
 20
0.0
 30
0.0
  0
INSERT
  5
41A
330
1F
100
AcDbEntity
  8
Layer0004
  6
Continuous
100
AcDbBlockReference
  2
DC_GROUP_HCN125_4
 10
0.0
 20
0.0
 30
0.0
  0
INSERT
  5
41B
330
1F
100
AcDbEntity
  8
Layer0004
  6
Continuous
100
AcDbBlockReference
  2
DC_GROUP_HCN125_5
 10
0.0
 20
0.0
 30
0.0
  0
INSERT
  5
41C
330
1F
100
AcDbEntity
  8
Layer0004
  6
Continuous
100
AcDbBlockReference
  2
DC_GROUP_HCN125_7
 10
0.0
 20
0.0
 30
0.0
  0
INSERT
  5
41D
330
1F
100
AcDbEntity
  8
Layer0004
  6
Continuous
100
AcDbBlockReference
  2
DC_GROUP_HCN125_8
 10
0.0
 20
0.0
 30
0.0
  0
INSERT
  5
41E
330
1F
100
AcDbEntity
  8
Layer0004
  6
Continuous
100
AcDbBlockReference
  2
DC_GROUP_HCN125_9
 10
0.0
 20
0.0
 30
0.0
  0
INSERT
  5
41F
330
1F
100
AcDbEntity
  8
Layer0004
  6
Continuous
100
AcDbBlockReference
  2
DC_GROUP_HCN125_10
 10
0.0
 20
0.0
 30
0.0
  0
VIEWPORT
  5
75
330
1B
100
AcDbEntity
 67
     1
  8
0
100
AcDbViewport
 10
-3.075413071753815
 20
0.0000000000001137
 30
0.0
 40
2738.048432919933
 41
1976.725490196081
 68
     1
 69
     1
 12
-3.075413071753815
 22
0.0000000000001137
 13
0.0
 23
0.0
 14
0.5
 24
0.5
 15
0.0
 25
0.0
 16
0.0
 26
0.0
 36
1.0
 17
0.0
 27
0.0
 37
0.0
 42
50.0
 43
0.0
 44
0.0
 45
1976.725490196081
 50
0.0
 51
0.0
 72
   100
 90
   557152
  1

281
     0
 71
     1
 74
     0
110
0.0
120
0.0
130
0.0
111
1.0
121
0.0
131
0.0
112
0.0
122
1.0
132
0.0
 79
     0
146
0.0
  0
ENDSEC
  0
SECTION
  2
OBJECTS
  0
DICTIONARY
  5
C
330
0
100
AcDbDictionary
281
     1
  3
ACAD_GROUP
350
D
  3
ACAD_LAYOUT
350
1A
  3
ACAD_MLEADERSTYLE
350
421
  3
ACAD_MLINESTYLE
350
17
  3
ACAD_PLOTSETTINGS
350
19
  3
ACAD_PLOTSTYLENAME
350
E
  3
ACAD_TABLESTYLE
350
420
  3
ACAD_VISUALSTYLE
350
2A
  0
DICTIONARY
  5
D
102
{ACAD_REACTORS
330
C
102
}
330
C
100
AcDbDictionary
281
     1
  0
DICTIONARY
  5
1A
102
{ACAD_REACTORS
330
C
102
}
330
C
100
AcDbDictionary
281
     1
  3
Layout1
350
1E
  3
Layout2
350
26
  3
Model
350
22
  0
DICTIONARY
  5
421
102
{ACAD_REACTORS
330
C
102
}
330
C
100
AcDbDictionary
281
     1
  0
DICTIONARY
  5
17
102
{ACAD_REACTORS
330
C
102
}
330
C
100
AcDbDictionary
281
     1
  3
Standard
350
18
  0
DICTIONARY
  5
19
102
{ACAD_REACTORS
330
C
102
}
330
C
100
AcDbDictionary
281
     1
  0
ACDBDICTIONARYWDFLT
  5
E
102
{ACAD_REACTORS
330
C
102
}
330
C
100
AcDbDictionary
281
     1
  3
Normal
350
F
100
AcDbDictionaryWithDefault
340
F
  0
DICTIONARY
  5
420
102
{ACAD_REACTORS
330
C
102
}
330
C
100
AcDbDictionary
281
     1
  0
DICTIONARY
  5
2A
102
{ACAD_REACTORS
330
C
102
}
330
C
100
AcDbDictionary
281
     1
  3
2dWireframe
350
2F
  3
3D Hidden
350
31
  3
3dWireframe
350
30
  3
Basic
350
32
  3
Brighten
350
36
  3
ColorChange
350
3A
  3
Conceptual
350
34
  3
Dim
350
35
  3
Facepattern
350
39
  3
Flat
350
2B
  3
FlatWithEdges
350
2C
  3
Gouraud
350
2D
  3
GouraudWithEdges
350
2E
  3
Linepattern
350
38
  3
Realistic
350
33
  3
Thicken
350
37
  0
LAYOUT
  5
1E
102
{ACAD_REACTORS
330
1A
102
}
330
1A
100
AcDbPlotSettings
  1

  2
none_device
  4

  6

 40
0.0
 41
0.0
 42
0.0
 43
0.0
 44
0.0
 45
0.0
 46
0.0
 47
0.0
 48
0.0
 49
0.0
140
0.0
141
0.0
142
1.0
143
1.0
 70
   688
 72
     0
 73
     0
 74
     5
  7

 75
    16
147
1.0
148
0.0
149
0.0
100
AcDbLayout
  1
Layout1
 70
     0
 71
     1
 10
0.0
 20
0.0
 11
12.0
 21
9.0
 12
0.0
 22
0.0
 32
0.0
 14
1.000000000000000E+20
 24
1.000000000000000E+20
 34
1.000000000000000E+20
 15
-1.000000000000000E+20
 25
-1.000000000000000E+20
 35
-1.000000000000000E+20
146
0.0
 13
0.0
 23
0.0
 33
0.0
 16
1.0
 26
0.0
 36
0.0
 17
0.0
 27
1.0
 37
0.0
 76
     0
330
1B
331
75
  0
LAYOUT
  5
26
102
{ACAD_REACTORS
330
1A
102
}
330
1A
100
AcDbPlotSettings
  1

  2
none_device
  4

  6

 40
0.0
 41
0.0
 42
0.0
 43
0.0
 44
0.0
 45
0.0
 46
0.0
 47
0.0
 48
0.0
 49
0.0
140
0.0
141
0.0
142
1.0
143
1.0
 70
   688
 72
     0
 73
     0
 74
     5
  7

 75
    16
147
1.0
148
0.0
149
0.0
100
AcDbLayout
  1
Layout2
 70
     1
 71
     2
 10
0.0
 20
0.0
 11
0.0
 21
0.0
 12
0.0
 22
0.0
 32
0.0
 14
0.0
 24
0.0
 34
0.0
 15
0.0
 25
0.0
 35
0.0
146
0.0
 13
0.0
 23
0.0
 33
0.0
 16
1.0
 26
0.0
 36
0.0
 17
0.0
 27
1.0
 37
0.0
 76
     0
330
23
  0
LAYOUT
  5
22
102
{ACAD_REACTORS
330
1A
102
}
330
1A
100
AcDbPlotSettings
  1

  2
none_device
  4

  6

 40
0.0
 41
0.0
 42
0.0
 43
0.0
 44
0.0
 45
0.0
 46
0.0
 47
0.0
 48
0.0
 49
0.0
140
0.0
141
0.0
142
1.0
143
1.0
 70
  1712
 72
     0
 73
     0
 74
     0
  7

 75
     0
147
1.0
148
0.0
149
0.0
100
AcDbLayout
  1
Model
 70
     1
 71
     0
 10
-601.5
 20
-429.0
 11
601.5
 21
429.0
 12
0.0
 22
0.0
 32
0.0
 14
-1372.09962953172
 24
-988.3627450980401
 34
0.0
 15
1365.948803388213
 25
988.3627450980404
 35
0.0
146
0.0
 13
0.0
 23
0.0
 33
0.0
 16
1.0
 26
0.0
 36
0.0
 17
0.0
 27
1.0
 37
0.0
 76
     0
330
1F
331
29
  0
MLINESTYLE
  5
18
102
{ACAD_REACTORS
330
17
102
}
330
17
100
AcDbMlineStyle
  2
Standard
 70
     0
  3

 62
   256
 51
90.0
 52
90.0
 71
     2
 49
0.5
 62
   256
  6
BYLAYER
 49
-0.5
 62
   256
  6
BYLAYER
  0
ACDBPLACEHOLDER
  5
F
102
{ACAD_REACTORS
330
E
102
}
330
E
  0
VISUALSTYLE
  5
2F
102
{ACAD_REACTORS
330
2A
102
}
330
2A
100
AcDbVisualStyle
  2
2dWireframe
 70
     4
 71
     0
 72
     2
 73
     0
 90
        0
 40
-0.6
 41
-30.0
 62
     5
 63
     7
 74
     1
 91
        4
 64
     7
 65
   257
 75
     1
175
     1
 42
1.0
 92
        0
 66
   257
 43
1.0
 76
     1
 77
     6
 78
     2
 67
     7
 79
     5
170
     0
171
     0
290
     0
174
     0
 93
        1
 44
0.0
173
     0
291
     0
 45
0.0
1001
ACAD
1000
AcDbSavedByObjectVersion
1070
     0
  0
VISUALSTYLE
  5
31
102
{ACAD_REACTORS
330
2A
102
}
330
2A
100
AcDbVisualStyle
  2
3D Hidden
 70
     6
 71
     1
 72
     2
 73
     2
 90
        0
 40
-0.6
 41
-30.0
 62
     5
 63
     7
 74
     2
 91
        2
 64
     7
 65
   257
 75
     2
175
     1
 42
40.0
 92
        0
 66
   257
 43
1.0
 76
     1
 77
     6
 78
     2
 67
     7
 79
     3
170
     0
171
     0
290
     0
174
     0
 93
        1
 44
0.0
173
     0
291
     0
 45
0.0
1001
ACAD
1000
AcDbSavedByObjectVersion
1070
     0
  0
VISUALSTYLE
  5
30
102
{ACAD_REACTORS
330
2A
102
}
330
2A
100
AcDbVisualStyle
  2
3dWireframe
 70
     5
 71
     0
 72
     2
 73
     0
 90
        0
 40
-0.6
 41
-30.0
 62
     5
 63
     7
 74
     1
 91
        4
 64
     7
 65
   257
 75
     1
175
     1
 42
1.0
 92
        0
 66
   257
 43
1.0
 76
     1
 77
     6
 78
     2
 67
     7
 79
     5
170
     0
171
     0
290
     0
174
     0
 93
        1
 44
0.0
173
     0
291
     0
 45
0.0
1001
ACAD
1000
AcDbSavedByObjectVersion
1070
     0
  0
VISUALSTYLE
  5
32
102
{ACAD_REACTORS
330
2A
102
}
330
2A
100
AcDbVisualStyle
  2
Basic
 70
     7
 71
     1
 72
     0
 73
     1
 90
        0
 40
-0.6
 41
-30.0
 62
     5
 63
     7
 74
     0
 91
        4
 64
     7
 65
   257
 75
     1
175
     1
 42
1.0
 92
        8
 66
     7
 43
1.0
 76
     1
 77
     6
 78
     2
 67
     7
 79
     5
170
     0
171
     0
290
     0
174
     0
 93
        1
 44
0.0
173
     0
291
     1
 45
0.0
1001
ACAD
1000
AcDbSavedByObjectVersion
1070
     0
  0
VISUALSTYLE
  5
36
102
{ACAD_REACTORS
330
2A
102
}
330
2A
100
AcDbVisualStyle
  2
Brighten
 70
    12
 71
     2
 72
     2
 73
     0
 90
        0
 40
-0.6
 41
-30.0
 62
     5
 63
     7
 74
     1
 91
        4
 64
     7
 65
   257
 75
     1
175
     1
 42
1.0
 92
        8
 66
     7
 43
1.0
 76
     1
 77
     6
 78
     2
 67
     7
 79
     5
170
     0
171
     0
290
     0
174
     0
 93
        1
 44
50.0
173
     0
291
     1
 45
0.0
1001
ACAD
1000
AcDbSavedByObjectVersion
1070
     0
  0
VISUALSTYLE
  5
3A
102
{ACAD_REACTORS
330
2A
102
}
330
2A
100
AcDbVisualStyle
  2
ColorChange
 70
    16
 71
     2
 72
     2
 73
     3
 90
        0
 40
-0.6
 41
-30.0
 62
     5
 63
     8
 74
     1
 91
        4
 64
     7
 65
   257
 75
     1
175
     1
 42
1.0
 92
        8
 66
     8
 43
1.0
 76
     1
 77
     6
 78
     2
 67
     7
 79
     5
170
     0
171
     0
290
     0
174
     0
 93
        1
 44
0.0
173
     0
291
     1
 45
0.0
1001
ACAD
1000
AcDbSavedByObjectVersion
1070
     0
  0
VISUALSTYLE
  5
34
102
{ACAD_REACTORS
330
2A
102
}
330
2A
100
AcDbVisualStyle
  2
Conceptual
 70
     9
 71
     3
 72
     2
 73
     0
 90
        0
 40
-0.6
 41
-30.0
 62
     5
 63
     7
 74
     2
 91
        2
 64
     7
 65
   257
 75
     1
175
     1
 42
40.0
 92
        8
 66
     7
 43
1.0
 76
     1
 77
     6
 78
     2
 67
     7
 79
     3
170
     0
171
     0
290
     0
174
     0
 93
        1
 44
0.0
173
     0
291
     0
 45
0.0
1001
ACAD
1000
AcDbSavedByObjectVersion
1070
     0
  0
VISUALSTYLE
  5
35
102
{ACAD_REACTORS
330
2A
102
}
330
2A
100
AcDbVisualStyle
  2
Dim
 70
    11
 71
     2
 72
     2
 73
     0
 90
        0
 40
-0.6
 41
-30.0
 62
     5
 63
     7
 74
     1
 91
        4
 64
     7
 65
   257
 75
     1
175
     1
 42
1.0
 92
        8
 66
     7
 43
1.0
 76
     1
 77
     6
 78
     2
 67
     7
 79
     5
170
     0
171
     0
290
     0
174
     0
 93
        1
 44
-50.0
173
     0
291
     1
 45
0.0
1001
ACAD
1000
AcDbSavedByObjectVersion
1070
     0
  0
VISUALSTYLE
  5
39
102
{ACAD_REACTORS
330
2A
102
}
330
2A
100
AcDbVisualStyle
  2
Facepattern
 70
    15
 71
     2
 72
     2
 73
     0
 90
        0
 40
-0.6
 41
-30.0
 62
     5
 63
     7
 74
     1
 91
        4
 64
     7
 65
   257
 75
     1
175
     1
 42
1.0
 92
        8
 66
     7
 43
1.0
 76
     1
 77
     6
 78
     2
 67
     7
 79
     5
170
     0
171
     0
290
     0
174
     0
 93
        1
 44
0.0
173
     0
291
     1
 45
0.0
1001
ACAD
1000
AcDbSavedByObjectVersion
1070
     0
  0
VISUALSTYLE
  5
2B
102
{ACAD_REACTORS
330
2A
102
}
330
2A
100
AcDbVisualStyle
  2
Flat
 70
     0
 71
     2
 72
     1
 73
     1
 90
        2
 40
-0.6
 41
30.0
 62
     5
 63
     7
 74
     0
 91
        4
 64
     7
 65
   257
 75
     1
175
     1
 42
1.0
 92
        8
 66
     7
 43
1.0
 76
     1
 77
     6
 78
     2
 67
     7
 79
     5
170
     0
171
     0
290
     0
174
     0
 93
       13
 44
0.0
173
     0
291
     1
 45
0.0
1001
ACAD
1000
AcDbSavedByObjectVersion
1070
     0
  0
VISUALSTYLE
  5
2C
102
{ACAD_REACTORS
330
2A
102
}
330
2A
100
AcDbVisualStyle
  2
FlatWithEdges
 70
     1
 71
     2
 72
     1
 73
     1
 90
        2
 40
-0.6
 41
30.0
 62
     5
 63
     7
 74
     1
 91
        4
 64
     7
 65
   257
 75
     1
175
     1
 42
1.0
 92
        0
 66
   257
 43
1.0
 76
     1
 77
     6
 78
     2
 67
     7
 79
     5
170
     0
171
     0
290
     0
174
     0
 93
       13
 44
0.0
173
     0
291
     1
 45
0.0
1001
ACAD
1000
AcDbSavedByObjectVersion
1070
     0
  0
VISUALSTYLE
  5
2D
102
{ACAD_REACTORS
330
2A
102
}
330
2A
100
AcDbVisualStyle
  2
Gouraud
 70
     2
 71
     2
 72
     2
 73
     1
 90
        2
 40
-0.6
 41
30.0
 62
     5
 63
     7
 74
     0
 91
        4
 64
     7
 65
   257
 75
     1
175
     1
 42
1.0
 92
        0
 66
     7
 43
1.0
 76
     1
 77
     6
 78
     2
 67
     7
 79
     5
170
     0
171
     0
290
     0
174
     0
 93
       13
 44
0.0
173
     0
291
     1
 45
0.0
1001
ACAD
1000
AcDbSavedByObjectVersion
1070
     0
  0
VISUALSTYLE
  5
2E
102
{ACAD_REACTORS
330
2A
102
}
330
2A
100
AcDbVisualStyle
  2
GouraudWithEdges
 70
     3
 71
     2
 72
     2
 73
     1
 90
        2
 40
-0.6
 41
30.0
 62
     5
 63
     7
 74
     1
 91
        4
 64
     7
 65
   257
 75
     1
175
     1
 42
1.0
 92
        0
 66
   257
 43
1.0
 76
     1
 77
     6
 78
     2
 67
     7
 79
     5
170
     0
171
     0
290
     0
174
     0
 93
       13
 44
0.0
173
     0
291
     1
 45
0.0
1001
ACAD
1000
AcDbSavedByObjectVersion
1070
     0
  0
VISUALSTYLE
  5
38
102
{ACAD_REACTORS
330
2A
102
}
330
2A
100
AcDbVisualStyle
  2
Linepattern
 70
    14
 71
     2
 72
     2
 73
     0
 90
        0
 40
-0.6
 41
-30.0
 62
     5
 63
     7
 74
     1
 91
        4
 64
     7
 65
   257
 75
     7
175
     7
 42
1.0
 92
        8
 66
     7
 43
1.0
 76
     1
 77
     6
 78
     2
 67
     7
 79
     5
170
     0
171
     0
290
     0
174
     0
 93
        1
 44
0.0
173
     0
291
     1
 45
0.0
1001
ACAD
1000
AcDbSavedByObjectVersion
1070
     0
  0
VISUALSTYLE
  5
33
102
{ACAD_REACTORS
330
2A
102
}
330
2A
100
AcDbVisualStyle
  2
Realistic
 70
     8
 71
     2
 72
     2
 73
     0
 90
        0
 40
-0.6
 41
-30.0
 62
     5
 63
     7
 74
     1
 91
        0
 64
     7
 65
   257
 75
     1
175
     1
 42
1.0
 92
        8
 66
     8
 43
1.0
 76
     1
 77
     6
 78
     2
 67
     7
 79
     5
170
     0
171
     0
290
     0
174
     0
 93
       13
 44
0.0
173
     0
291
     0
 45
0.0
1001
ACAD
1000
AcDbSavedByObjectVersion
1070
     0
  0
VISUALSTYLE
  5
37
102
{ACAD_REACTORS
330
2A
102
}
330
2A
100
AcDbVisualStyle
  2
Thicken
 70
    13
 71
     2
 72
     2
 73
     0
 90
        0
 40
-0.6
 41
-30.0
 62
     5
 63
     7
 74
     1
 91
        4
 64
     7
 65
   257
 75
     1
175
     1
 42
1.0
 92
       12
 66
     7
 43
1.0
 76
     1
 77
     6
 78
     2
 67
     7
 79
     5
170
     0
171
     0
290
     0
174
     0
 93
        1
 44
0.0
173
     0
291
     1
 45
0.0
1001
ACAD
1000
AcDbSavedByObjectVersion
1070
     0
  0
ENDSEC
  0
EOF
