  0
SECTION
  2
HEADER
  9
$ACADVER
  1
AC1015
  9
$ACADMAINTVER
 70
     6
  9
$DWGCODEPAGE
  3
ANSI_932
  9
$INSBASE
 10
0.0
 20
0.0
 30
0.0
  9
$EXTMIN
 10
-1739.161025013571
 20
-1218.627136457014
 30
0.0
  9
$EXTMAX
 10
1762.758631153986
 20
1248.008593241708
 30
0.0
  9
$LIMMIN
 10
-601.5
 20
-429.0
  9
$LIMMAX
 10
601.5
 20
429.0
  9
$ORTHOMODE
 70
     0
  9
$REGENMODE
 70
     1
  9
$FILLMODE
 70
     1
  9
$QTEXTMODE
 70
     0
  9
$MIRRTEXT
 70
     1
  9
$LTSCALE
 40
0.375
  9
$ATTMODE
 70
     1
  9
$TEXTSIZE
 40
0.2
  9
$TRACEWID
 40
0.05
  9
$TEXTSTYLE
  7
Standard
  9
$CLAYER
  8
0
  9
$CELTYPE
  6
ByLayer
  9
$CECOLOR
 62
   256
  9
$CELTSCALE
 40
1.0
  9
$DISPSILH
 70
     0
  9
$DIMSCALE
 40
1.0
  9
$DIMASZ
 40
3.75
  9
$DIMEXO
 40
0.0625
  9
$DIMDLI
 40
0.38
  9
$DIMRND
 40
0.0
  9
$DIMDLE
 40
0.0
  9
$DIMEXE
 40
0.18
  9
$DIMTP
 40
0.0
  9
$DIMTM
 40
0.0
  9
$DIMTXT
 40
0.18
  9
$DIMCEN
 40
0.09
  9
$DIMTSZ
 40
0.0
  9
$DIMTOL
 70
     0
  9
$DIMLIM
 70
     0
  9
$DIMTIH
 70
     1
  9
$DIMTOH
 70
     1
  9
$DIMSE1
 70
     0
  9
$DIMSE2
 70
     0
  9
$DIMTAD
 70
     3
  9
$DIMZIN
 70
     0
  9
$DIMBLK
  1

  9
$DIMASO
 70
     1
  9
$DIMSHO
 70
     1
  9
$DIMPOST
  1

  9
$DIMAPOST
  1

  9
$DIMALT
 70
     0
  9
$DIMALTD
 70
     2
  9
$DIMALTF
 40
25.4
  9
$DIMLFAC
 40
1.0
  9
$DIMTOFL
 70
     0
  9
$DIMTVP
 40
0.0
  9
$DIMTIX
 70
     0
  9
$DIMSOXD
 70
     0
  9
$DIMSAH
 70
     0
  9
$DIMBLK1
  1

  9
$DIMBLK2
  1

  9
$DIMSTYLE
  2
Standard
  9
$DIMCLRD
 70
     0
  9
$DIMCLRE
 70
     0
  9
$DIMCLRT
 70
     0
  9
$DIMTFAC
 40
1.0
  9
$DIMGAP
 40
0.09
  9
$DIMJUST
 70
     0
  9
$DIMSD1
 70
     0
  9
$DIMSD2
 70
     0
  9
$DIMTOLJ
 70
     1
  9
$DIMTZIN
 70
     0
  9
$DIMALTZ
 70
     0
  9
$DIMALTTZ
 70
     0
  9
$DIMUPT
 70
     0
  9
$DIMDEC
 70
     4
  9
$DIMTDEC
 70
     4
  9
$DIMALTU
 70
     2
  9
$DIMALTTD
 70
     2
  9
$DIMTXSTY
  7
Standard
  9
$DIMAUNIT
 70
     0
  9
$DIMADEC
 70
     0
  9
$DIMALTRND
 40
0.0
  9
$DIMAZIN
 70
     0
  9
$DIMDSEP
 70
    46
  9
$DIMATFIT
 70
     3
  9
$DIMFRAC
 70
     0
  9
$DIMLDRBLK
  1

  9
$DIMLUNIT
 70
     2
  9
$DIMLWD
 70
    -2
  9
$DIMLWE
 70
    -2
  9
$DIMTMOVE
 70
     0
  9
$LUNITS
 70
     2
  9
$LUPREC
 70
     4
  9
$SKETCHINC
 40
0.1
  9
$FILLETRAD
 40
0.5
  9
$AUNITS
 70
     0
  9
$AUPREC
 70
     0
  9
$MENU
  1
.
  9
$ELEVATION
 40
0.0
  9
$PELEVATION
 40
0.0
  9
$THICKNESS
 40
0.0
  9
$LIMCHECK
 70
     0
  9
$CHAMFERA
 40
0.5
  9
$CHAMFERB
 40
0.5
  9
$CHAMFERC
 40
1.0
  9
$CHAMFERD
 40
0.0
  9
$SKPOLY
 70
     0
  9
$TDCREATE
 40
2454973.73734971
  9
$TDUCREATE
 40
2454973.36234971
  9
$TDUPDATE
 40
2454973.737349722
  9
$TDUUPDATE
 40
2454973.362349722
  9
$TDINDWG
 40
0.0000000116
  9
$TDUSRTIMER
 40
0.0000000116
  9
$USRTIMER
 70
     1
  9
$ANGBASE
 50
0.0
  9
$ANGDIR
 70
     0
  9
$PDMODE
 70
     0
  9
$PDSIZE
 40
1.0
  9
$PLINEWID
 40
0.0
  9
$SPLFRAME
 70
     0
  9
$SPLINETYPE
 70
     6
  9
$SPLINESEGS
 70
     8
  9
$HANDSEED
  5
4CA
  9
$SURFTAB1
 70
     6
  9
$SURFTAB2
 70
     6
  9
$SURFTYPE
 70
     6
  9
$SURFU
 70
     6
  9
$SURFV
 70
     6
  9
$UCSBASE
  2

  9
$UCSNAME
  2

  9
$UCSORG
 10
0.0
 20
0.0
 30
0.0
  9
$UCSXDIR
 10
1.0
 20
0.0
 30
0.0
  9
$UCSYDIR
 10
0.0
 20
1.0
 30
0.0
  9
$UCSORTHOREF
  2

  9
$UCSORTHOVIEW
 70
     0
  9
$UCSORGTOP
 10
0.0
 20
0.0
 30
0.0
  9
$UCSORGBOTTOM
 10
0.0
 20
0.0
 30
0.0
  9
$UCSORGLEFT
 10
0.0
 20
0.0
 30
0.0
  9
$UCSORGRIGHT
 10
0.0
 20
0.0
 30
0.0
  9
$UCSORGFRONT
 10
0.0
 20
0.0
 30
0.0
  9
$UCSORGBACK
 10
0.0
 20
0.0
 30
0.0
  9
$PUCSBASE
  2

  9
$PUCSNAME
  2

  9
$PUCSORG
 10
0.0
 20
0.0
 30
0.0
  9
$PUCSXDIR
 10
1.0
 20
0.0
 30
0.0
  9
$PUCSYDIR
 10
0.0
 20
1.0
 30
0.0
  9
$PUCSORTHOREF
  2

  9
$PUCSORTHOVIEW
 70
     0
  9
$PUCSORGTOP
 10
0.0
 20
0.0
 30
0.0
  9
$PUCSORGBOTTOM
 10
0.0
 20
0.0
 30
0.0
  9
$PUCSORGLEFT
 10
0.0
 20
0.0
 30
0.0
  9
$PUCSORGRIGHT
 10
0.0
 20
0.0
 30
0.0
  9
$PUCSORGFRONT
 10
0.0
 20
0.0
 30
0.0
  9
$PUCSORGBACK
 10
0.0
 20
0.0
 30
0.0
  9
$USERI1
 70
     0
  9
$USERI2
 70
     0
  9
$USERI3
 70
     0
  9
$USERI4
 70
     0
  9
$USERI5
 70
     0
  9
$USERR1
 40
0.0
  9
$USERR2
 40
0.0
  9
$USERR3
 40
0.0
  9
$USERR4
 40
0.0
  9
$USERR5
 40
0.0
  9
$WORLDVIEW
 70
     1
  9
$SHADEDGE
 70
     3
  9
$SHADEDIF
 70
    70
  9
$TILEMODE
 70
     1
  9
$MAXACTVP
 70
    64
  9
$PINSBASE
 10
0.0
 20
0.0
 30
0.0
  9
$PLIMCHECK
 70
     0
  9
$PEXTMIN
 10
1.000000000000000E+20
 20
1.000000000000000E+20
 30
1.000000000000000E+20
  9
$PEXTMAX
 10
-1.000000000000000E+20
 20
-1.000000000000000E+20
 30
-1.000000000000000E+20
  9
$PLIMMIN
 10
0.0
 20
0.0
  9
$PLIMMAX
 10
12.0
 20
9.0
  9
$UNITMODE
 70
     0
  9
$VISRETAIN
 70
     0
  9
$PLINEGEN
 70
     1
  9
$PSLTSCALE
 70
     0
  9
$TREEDEPTH
 70
  3020
  9
$CMLSTYLE
  2
Standard
  9
$CMLJUST
 70
     0
  9
$CMLSCALE
 40
1.0
  9
$PROXYGRAPHICS
 70
     0
  9
$MEASUREMENT
 70
     1
  9
$CELWEIGHT
370
    -1
  9
$ENDCAPS
280
     0
  9
$JOINSTYLE
280
     0
  9
$LWDISPLAY
290
     1
  9
$INSUNITS
 70
     4
  9
$HYPERLINKBASE
  1

  9
$STYLESHEET
  1

  9
$XEDIT
290
     1
  9
$CEPSNTYPE
380
     0
  9
$PSTYLEMODE
290
     1
  9
$FINGERPRINTGUID
  2
{9BACC0D8-1FB9-49D2-94CC-94D2E53CF3B8}
  9
$VERSIONGUID
  2
{FAEB1C32-E019-11D5-929B-00C0DF256EC4}
  9
$EXTNAMES
290
     1
  9
$PSVPSCALE
 40
0.0
  9
$OLESTARTUP
290
     0
  0
ENDSEC
  0
SECTION
  2
CLASSES
  0
CLASS
  1
ACDBDICTIONARYWDFLT
  2
AcDbDictionaryWithDefault
  3
ObjectDBX Classes
 90
        0
280
     0
281
     0
  0
CLASS
  1
VISUALSTYLE
  2
AcDbVisualStyle
  3
ObjectDBX Classes
 90
     4095
280
     0
281
     0
  0
CLASS
  1
ACDBPLACEHOLDER
  2
AcDbPlaceHolder
  3
ObjectDBX Classes
 90
        0
280
     0
281
     0
  0
CLASS
  1
LAYOUT
  2
AcDbLayout
  3
ObjectDBX Classes
 90
        0
280
     0
281
     0
  0
ENDSEC
  0
SECTION
  2
TABLES
  0
TABLE
  2
VPORT
  5
8
330
0
100
AcDbSymbolTable
 70
     1
  0
VPORT
  5
29
330
8
100
AcDbSymbolTableRecord
100
AcDbViewportTableRecord
  2
*Active
 70
     0
 10
0.0
 20
0.0
 11
1.0
 21
1.0
 12
0.0
 22
0.0
 13
0.0
 23
0.0
 14
0.5
 24
0.5
 15
0.5
 25
0.5
 16
0.0
 26
0.0
 36
1.0
 17
11.79880307020732
 27
-14.69072839234713
 37
0.0
 40
838.6561480975657
 41
1.419714963990765
 42
50.0
 43
0.0
 44
0.0
 50
0.0
 51
0.0
 71
     0
 72
  1000
 73
     1
 74
     1
 75
     0
 76
     0
 77
     0
 78
     0
281
     0
 65
     1
110
0.0
120
0.0
130
0.0
111
1.0
121
0.0
131
0.0
112
0.0
122
1.0
132
0.0
 79
     0
146
0.0
  0
ENDTAB
  0
TABLE
  2
LTYPE
  5
5
330
0
100
AcDbSymbolTable
 70
    53
  0
LTYPE
  5
14
330
5
100
AcDbSymbolTableRecord
100
AcDbLinetypeTableRecord
  2
ByBlock
 70
     0
  3

 72
    65
 73
     0
 40
0.0
  0
LTYPE
  5
15
330
5
100
AcDbSymbolTableRecord
100
AcDbLinetypeTableRecord
  2
ByLayer
 70
     0
  3

 72
    65
 73
     0
 40
0.0
  0
LTYPE
  5
16
330
5
100
AcDbSymbolTableRecord
100
AcDbLinetypeTableRecord
  2
Continuous
 70
     0
  3
Solid line
 72
    65
 73
     0
 40
0.0
  0
LTYPE
  5
3C
330
5
100
AcDbSymbolTableRecord
100
AcDbLinetypeTableRecord
  2
HIDDENX2
 70
     0
  3
Hidden (2x) ____ ____ ____ ____ ____ ____ ____ 
 72
    65
 73
     2
 40
19.05
 49
12.7
 74
     0
 49
-6.35
 74
     0
  0
LTYPE
  5
3D
330
5
100
AcDbSymbolTableRecord
100
AcDbLinetypeTableRecord
  2
HIDDEN
 70
     0
  3
Hidden __ __ __ __ __ __ __ __ __ __ __ __ __ __
 72
    65
 73
     2
 40
9.524999999999999
 49
6.35
 74
     0
 49
-3.175
 74
     0
  0
LTYPE
  5
3E
330
5
100
AcDbSymbolTableRecord
100
AcDbLinetypeTableRecord
  2
HIDDEN2
 70
     0
  3
Hidden (.5x) _ _ _ _ _ _ _ _ _ _ _ _ _ _ _ _ _ 
 72
    65
 73
     2
 40
4.762499999999999
 49
3.175
 74
     0
 49
-1.5875
 74
     0
  0
LTYPE
  5
3F
330
5
100
AcDbSymbolTableRecord
100
AcDbLinetypeTableRecord
  2
DASHED
 70
     0
  3
Dashed __ __ __ __ __ __ __ __ __ __ __ __ __ _
 72
    65
 73
     2
 40
19.05
 49
12.7
 74
     0
 49
-6.35
 74
     0
  0
LTYPE
  5
40
330
5
100
AcDbSymbolTableRecord
100
AcDbLinetypeTableRecord
  2
DASHED2
 70
     0
  3
Dashed (.5x) _ _ _ _ _ _ _ _ _ _ _ _ _ _ _ _ _ 
 72
    65
 73
     2
 40
9.524999999999999
 49
6.35
 74
     0
 49
-3.175
 74
     0
  0
LTYPE
  5
41
330
5
100
AcDbSymbolTableRecord
100
AcDbLinetypeTableRecord
  2
DASHEDX2
 70
     0
  3
Dashed (2x) ____  ____  ____  ____  ____  ___
 72
    65
 73
     2
 40
38.09999999999999
 49
25.4
 74
     0
 49
-12.7
 74
     0
  0
LTYPE
  5
42
330
5
100
AcDbSymbolTableRecord
100
AcDbLinetypeTableRecord
  2
DOTX2
 70
     0
  3
Dot (2x) .  .  .  .  .  .  .  .  .  .  .  .  .  .
 72
    65
 73
     2
 40
12.7
 49
0.0
 74
     0
 49
-12.7
 74
     0
  0
LTYPE
  5
43
330
5
100
AcDbSymbolTableRecord
100
AcDbLinetypeTableRecord
  2
DOT
 70
     0
  3
Dot . . . . . . . . . . . . . . . . . . . . . . . .
 72
    65
 73
     2
 40
6.35
 49
0.0
 74
     0
 49
-6.35
 74
     0
  0
LTYPE
  5
44
330
5
100
AcDbSymbolTableRecord
100
AcDbLinetypeTableRecord
  2
DOT2
 70
     0
  3
Dot (.5x) ........................................
 72
    65
 73
     2
 40
3.175
 49
0.0
 74
     0
 49
-3.175
 74
     0
  0
LTYPE
  5
45
330
5
100
AcDbSymbolTableRecord
100
AcDbLinetypeTableRecord
  2
CENTERX2
 70
     0
  3
Center (2x) ________  __  ________  __  _____
 72
    65
 73
     4
 40
101.6
 49
63.5
 74
     0
 49
-12.7
 74
     0
 49
12.7
 74
     0
 49
-12.7
 74
     0
  0
LTYPE
  5
46
330
5
100
AcDbSymbolTableRecord
100
AcDbLinetypeTableRecord
  2
CENTER
 70
     0
  3
Center ____ _ ____ _ ____ _ ____ _ ____ _ ____
 72
    65
 73
     4
 40
50.8
 49
31.75
 74
     0
 49
-6.35
 74
     0
 49
6.35
 74
     0
 49
-6.35
 74
     0
  0
LTYPE
  5
47
330
5
100
AcDbSymbolTableRecord
100
AcDbLinetypeTableRecord
  2
CENTER2
 70
     0
  3
Center (.5x) ___ _ ___ _ ___ _ ___ _ ___ _ ___
 72
    65
 73
     4
 40
28.575
 49
19.05
 74
     0
 49
-3.175
 74
     0
 49
3.175
 74
     0
 49
-3.175
 74
     0
  0
LTYPE
  5
48
330
5
100
AcDbSymbolTableRecord
100
AcDbLinetypeTableRecord
  2
DASHDOTX2
 70
     0
  3
Dash dot (2x) ____  .  ____  .  ____  .  ___
 72
    65
 73
     4
 40
50.8
 49
25.4
 74
     0
 49
-12.7
 74
     0
 49
0.0
 74
     0
 49
-12.7
 74
     0
  0
LTYPE
  5
49
330
5
100
AcDbSymbolTableRecord
100
AcDbLinetypeTableRecord
  2
DASHDOT
 70
     0
  3
Dash dot __ . __ . __ . __ . __ . __ . __ . __
 72
    65
 73
     4
 40
25.4
 49
12.7
 74
     0
 49
-6.35
 74
     0
 49
0.0
 74
     0
 49
-6.35
 74
     0
  0
LTYPE
  5
4A
330
5
100
AcDbSymbolTableRecord
100
AcDbLinetypeTableRecord
  2
DASHDOT2
 70
     0
  3
Dash dot (.5x) _._._._._._._._._._._._._._._.
 72
    65
 73
     4
 40
12.7
 49
6.35
 74
     0
 49
-3.175
 74
     0
 49
0.0
 74
     0
 49
-3.175
 74
     0
  0
LTYPE
  5
4B
330
5
100
AcDbSymbolTableRecord
100
AcDbLinetypeTableRecord
  2
DIVIDEX2
 70
     0
  3
Divide (2x) ________  .  .  ________  .  .  _
 72
    65
 73
     6
 40
63.5
 49
25.4
 74
     0
 49
-12.7
 74
     0
 49
0.0
 74
     0
 49
-12.7
 74
     0
 49
0.0
 74
     0
 49
-12.7
 74
     0
  0
LTYPE
  5
4C
330
5
100
AcDbSymbolTableRecord
100
AcDbLinetypeTableRecord
  2
DIVIDE
 70
     0
  3
Divide ____ . . ____ . . ____ . . ____ . . ____
 72
    65
 73
     6
 40
31.75
 49
12.7
 74
     0
 49
-6.35
 74
     0
 49
0.0
 74
     0
 49
-6.35
 74
     0
 49
0.0
 74
     0
 49
-6.35
 74
     0
  0
LTYPE
  5
4D
330
5
100
AcDbSymbolTableRecord
100
AcDbLinetypeTableRecord
  2
DIVIDE2
 70
     0
  3
Divide (.5x) __..__..__..__..__..__..__..__.._
 72
    65
 73
     6
 40
15.875
 49
6.35
 74
     0
 49
-3.175
 74
     0
 49
0.0
 74
     0
 49
-3.175
 74
     0
 49
0.0
 74
     0
 49
-3.175
 74
     0
  0
LTYPE
  5
4E
330
5
100
AcDbSymbolTableRecord
100
AcDbLinetypeTableRecord
  2
BORDERX2
 70
     0
  3
Border (2x) ____  ____  .  ____  ____  .  ___
 72
    65
 73
     6
 40
88.89999999999999
 49
25.4
 74
     0
 49
-12.7
 74
     0
 49
25.4
 74
     0
 49
-12.7
 74
     0
 49
0.0
 74
     0
 49
-12.7
 74
     0
  0
LTYPE
  5
4F
330
5
100
AcDbSymbolTableRecord
100
AcDbLinetypeTableRecord
  2
BORDER
 70
     0
  3
Border __ __ . __ __ . __ __ . __ __ . __ __ .
 72
    65
 73
     6
 40
44.45
 49
12.7
 74
     0
 49
-6.35
 74
     0
 49
12.7
 74
     0
 49
-6.35
 74
     0
 49
0.0
 74
     0
 49
-6.35
 74
     0
  0
LTYPE
  5
50
330
5
100
AcDbSymbolTableRecord
100
AcDbLinetypeTableRecord
  2
BORDER2
 70
     0
  3
Border (.5x) __.__.__.__.__.__.__.__.__.__.__.
 72
    65
 73
     6
 40
22.225
 49
6.35
 74
     0
 49
-3.175
 74
     0
 49
6.35
 74
     0
 49
-3.175
 74
     0
 49
0.0
 74
     0
 49
-3.175
 74
     0
  0
LTYPE
  5
51
330
5
100
AcDbSymbolTableRecord
100
AcDbLinetypeTableRecord
  2
PHANTOMX2
 70
     0
  3
Phantom (2x) ____________    ____    ____   _
 72
    65
 73
     6
 40
127.0
 49
63.5
 74
     0
 49
-12.7
 74
     0
 49
12.7
 74
     0
 49
-12.7
 74
     0
 49
12.7
 74
     0
 49
-12.7
 74
     0
  0
LTYPE
  5
52
330
5
100
AcDbSymbolTableRecord
100
AcDbLinetypeTableRecord
  2
PHANTOM
 70
     0
  3
Phantom ______  __  __  ______  __  __  ______ 
 72
    65
 73
     6
 40
63.5
 49
31.75
 74
     0
 49
-6.35
 74
     0
 49
6.35
 74
     0
 49
-6.35
 74
     0
 49
6.35
 74
     0
 49
-6.35
 74
     0
  0
LTYPE
  5
53
330
5
100
AcDbSymbolTableRecord
100
AcDbLinetypeTableRecord
  2
PHANTOM2
 70
     0
  3
Phantom (.5x) ___ _ _ ___ _ _ ___ _ _ ___ _ _
 72
    65
 73
     6
 40
31.75
 49
15.875
 74
     0
 49
-3.175
 74
     0
 49
3.175
 74
     0
 49
-3.175
 74
     0
 49
3.175
 74
     0
 49
-3.175
 74
     0
  0
LTYPE
  5
54
330
5
100
AcDbSymbolTableRecord
100
AcDbLinetypeTableRecord
  2
ACAD_ISO06W100
 70
     0
  3
ISO long-dash triple-dot ____ ... ____ ... ____
 72
    65
 73
     8
 40
36.0
 49
24.0
 74
     0
 49
-3.0
 74
     0
 49
0.0
 74
     0
 49
-3.0
 74
     0
 49
0.0
 74
     0
 49
-3.0
 74
     0
 49
0.0
 74
     0
 49
-3.0
 74
     0
  0
LTYPE
  5
55
330
5
100
AcDbSymbolTableRecord
100
AcDbLinetypeTableRecord
  2
ACAD_ISO13W100
 70
     0
  3
ISO double-dash double-dot __ __ . . __ __ . . _
 72
    65
 73
     8
 40
36.0
 49
12.0
 74
     0
 49
-3.0
 74
     0
 49
12.0
 74
     0
 49
-3.0
 74
     0
 49
0.0
 74
     0
 49
-3.0
 74
     0
 49
0.0
 74
     0
 49
-3.0
 74
     0
  0
LTYPE
  5
56
330
5
100
AcDbSymbolTableRecord
100
AcDbLinetypeTableRecord
  2
ACAD_ISO14W100
 70
     0
  3
ISO dash triple-dot __ . . . __ . . . __ . . . _
 72
    65
 73
     8
 40
24.0
 49
12.0
 74
     0
 49
-3.0
 74
     0
 49
0.0
 74
     0
 49
-3.0
 74
     0
 49
0.0
 74
     0
 49
-3.0
 74
     0
 49
0.0
 74
     0
 49
-3.0
 74
     0
  0
LTYPE
  5
57
330
5
100
AcDbSymbolTableRecord
100
AcDbLinetypeTableRecord
  2
ACAD_ISO02W100
 70
     0
  3
ISO dash __ __ __ __ __ __ __ __ __ __ __ __ __
 72
    65
 73
     2
 40
15.0
 49
12.0
 74
     0
 49
-3.0
 74
     0
  0
LTYPE
  5
58
330
5
100
AcDbSymbolTableRecord
100
AcDbLinetypeTableRecord
  2
ACAD_ISO03W100
 70
     0
  3
ISO dash space __    __    __    __    __    __
 72
    65
 73
     2
 40
30.0
 49
12.0
 74
     0
 49
-18.0
 74
     0
  0
LTYPE
  5
59
330
5
100
AcDbSymbolTableRecord
100
AcDbLinetypeTableRecord
  2
ACAD_ISO04W100
 70
     0
  3
ISO long-dash dot ____ . ____ . ____ . ____ . _
 72
    65
 73
     4
 40
30.0
 49
24.0
 74
     0
 49
-3.0
 74
     0
 49
0.0
 74
     0
 49
-3.0
 74
     0
  0
LTYPE
  5
5A
330
5
100
AcDbSymbolTableRecord
100
AcDbLinetypeTableRecord
  2
ACAD_ISO05W100
 70
     0
  3
ISO long-dash double-dot ____ .. ____ .. ____ . 
 72
    65
 73
     6
 40
33.0
 49
24.0
 74
     0
 49
-3.0
 74
     0
 49
0.0
 74
     0
 49
-3.0
 74
     0
 49
0.0
 74
     0
 49
-3.0
 74
     0
  0
LTYPE
  5
5B
330
5
100
AcDbSymbolTableRecord
100
AcDbLinetypeTableRecord
  2
ACAD_ISO07W100
 70
     0
  3
ISO dot . . . . . . . . . . . . . . . . . . . . 
 72
    65
 73
     2
 40
3.0
 49
0.0
 74
     0
 49
-3.0
 74
     0
  0
LTYPE
  5
5C
330
5
100
AcDbSymbolTableRecord
100
AcDbLinetypeTableRecord
  2
ACAD_ISO08W100
 70
     0
  3
ISO long-dash short-dash ____ __ ____ __ ____ _
 72
    65
 73
     4
 40
36.0
 49
24.0
 74
     0
 49
-3.0
 74
     0
 49
6.0
 74
     0
 49
-3.0
 74
     0
  0
LTYPE
  5
5D
330
5
100
AcDbSymbolTableRecord
100
AcDbLinetypeTableRecord
  2
ACAD_ISO09W100
 70
     0
  3
ISO long-dash double-short-dash ____ __ __ ____
 72
    65
 73
     6
 40
45.0
 49
24.0
 74
     0
 49
-3.0
 74
     0
 49
6.0
 74
     0
 49
-3.0
 74
     0
 49
6.0
 74
     0
 49
-3.0
 74
     0
  0
LTYPE
  5
5E
330
5
100
AcDbSymbolTableRecord
100
AcDbLinetypeTableRecord
  2
ACAD_ISO10W100
 70
     0
  3
ISO dash dot __ . __ . __ . __ . __ . __ . __ . 
 72
    65
 73
     4
 40
18.0
 49
12.0
 74
     0
 49
-3.0
 74
     0
 49
0.0
 74
     0
 49
-3.0
 74
     0
  0
LTYPE
  5
5F
330
5
100
AcDbSymbolTableRecord
100
AcDbLinetypeTableRecord
  2
ACAD_ISO11W100
 70
     0
  3
ISO double-dash dot __ __ . __ __ . __ __ . __ _
 72
    65
 73
     6
 40
33.0
 49
12.0
 74
     0
 49
-3.0
 74
     0
 49
12.0
 74
     0
 49
-3.0
 74
     0
 49
0.0
 74
     0
 49
-3.0
 74
     0
  0
LTYPE
  5
60
330
5
100
AcDbSymbolTableRecord
100
AcDbLinetypeTableRecord
  2
ACAD_ISO12W100
 70
     0
  3
ISO dash double-dot __ . . __ . . __ . . __ . . 
 72
    65
 73
     6
 40
21.0
 49
12.0
 74
     0
 49
-3.0
 74
     0
 49
0.0
 74
     0
 49
-3.0
 74
     0
 49
0.0
 74
     0
 49
-3.0
 74
     0
  0
LTYPE
  5
61
330
5
100
AcDbSymbolTableRecord
100
AcDbLinetypeTableRecord
  2
ACAD_ISO15W100
 70
     0
  3
ISO double-dash triple-dot __ __ . . . __ __ . .
 72
    65
 73
    10
 40
39.0
 49
12.0
 74
     0
 49
-3.0
 74
     0
 49
12.0
 74
     0
 49
-3.0
 74
     0
 49
0.0
 74
     0
 49
-3.0
 74
     0
 49
0.0
 74
     0
 49
-3.0
 74
     0
 49
0.0
 74
     0
 49
-3.0
 74
     0
  0
LTYPE
  5
62
330
5
100
AcDbSymbolTableRecord
100
AcDbLinetypeTableRecord
  2
JIS_02_0.7
 70
     0
  3
HIDDEN0.75 _ _ _ _ _ _ _ _ _ _ _ _ _ _ _ _ _ 
 72
    65
 73
     2
 40
1.35
 49
0.75
 74
     0
 49
-0.6
 74
     0
  0
LTYPE
  5
63
330
5
100
AcDbSymbolTableRecord
100
AcDbLinetypeTableRecord
  2
JIS_02_1.0
 70
     0
  3
HIDDEN01 _ _ _ _ _ _ _ _ _ _ _ _ _ _ _ _ _ 
 72
    65
 73
     2
 40
2.0
 49
1.0
 74
     0
 49
-1.0
 74
     0
  0
LTYPE
  5
64
330
5
100
AcDbSymbolTableRecord
100
AcDbLinetypeTableRecord
  2
JIS_02_1.2
 70
     0
  3
HIDDEN01.25  _ _ _ _ _ _ _ _ _ _ _ _ _ _ _ _ _ 
 72
    65
 73
     2
 40
2.5
 49
1.25
 74
     0
 49
-1.25
 74
     0
  0
LTYPE
  5
65
330
5
100
AcDbSymbolTableRecord
100
AcDbLinetypeTableRecord
  2
JIS_02_2.0
 70
     0
  3
HIDDEN02 __ __ __ __ __ __ __ __ __ __ __ 
 72
    65
 73
     2
 40
3.0
 49
2.0
 74
     0
 49
-1.0
 74
     0
  0
LTYPE
  5
66
330
5
100
AcDbSymbolTableRecord
100
AcDbLinetypeTableRecord
  2
JIS_02_4.0
 70
     0
  3
HIDDEN04 ____ ____ ____ ____ ____ ____ ____ 
 72
    65
 73
     2
 40
5.5
 49
4.0
 74
     0
 49
-1.5
 74
     0
  0
LTYPE
  5
67
330
5
100
AcDbSymbolTableRecord
100
AcDbLinetypeTableRecord
  2
JIS_08_11
 70
     0
  3
1SASEN11 ___ _ ___ _ ___ _ ___ _ ___ _ ___
 72
    65
 73
     4
 40
12.8
 49
11.0
 74
     0
 49
-0.6
 74
     0
 49
0.6
 74
     0
 49
-0.6
 74
     0
  0
LTYPE
  5
68
330
5
100
AcDbSymbolTableRecord
100
AcDbLinetypeTableRecord
  2
JIS_08_15
 70
     0
  3
1SASEN15 ____ _ ____ _ ____ _ ____ _ ____ 
 72
    65
 73
     4
 40
17.25
 49
15.0
 74
     0
 49
-0.75
 74
     0
 49
0.75
 74
     0
 49
-0.75
 74
     0
  0
LTYPE
  5
69
330
5
100
AcDbSymbolTableRecord
100
AcDbLinetypeTableRecord
  2
JIS_08_25
 70
     0
  3
1SASEN25 ________  __  ________  __  _____
 72
    65
 73
     4
 40
28.0
 49
25.0
 74
     0
 49
-1.125
 74
     0
 49
0.75
 74
     0
 49
-1.125
 74
     0
  0
LTYPE
  5
6A
330
5
100
AcDbSymbolTableRecord
100
AcDbLinetypeTableRecord
  2
JIS_08_37
 70
     0
  3
1SASEN37 ________  __  ________  __  _____
 72
    65
 73
     4
 40
40.5
 49
37.5
 74
     0
 49
-1.125
 74
     0
 49
0.75
 74
     0
 49
-1.125
 74
     0
  0
LTYPE
  5
6B
330
5
100
AcDbSymbolTableRecord
100
AcDbLinetypeTableRecord
  2
JIS_08_50
 70
     0
  3
1SASEN50 _______________  __  ____________
 72
    65
 73
     4
 40
53.0
 49
50.0
 74
     0
 49
-1.125
 74
     0
 49
0.75
 74
     0
 49
-1.125
 74
     0
  0
LTYPE
  5
6C
330
5
100
AcDbSymbolTableRecord
100
AcDbLinetypeTableRecord
  2
JIS_09_08
 70
     0
  3
2SASEN8 __ _ _ __ _ _ __ _ _ __ _ _ __ _ _ 
 72
    65
 73
     6
 40
10.75
 49
8.0
 74
     0
 49
-0.55
 74
     0
 49
0.55
 74
     0
 49
-0.55
 74
     0
 49
0.55
 74
     0
 49
-0.55
 74
     0
  0
LTYPE
  5
6D
330
5
100
AcDbSymbolTableRecord
100
AcDbLinetypeTableRecord
  2
JIS_09_15
 70
     0
  3
2SASEN15 ___ _ _ ___ _ _ ___ _ _ ___ _ _ ___ 
 72
    65
 73
     6
 40
18.9
 49
15.0
 74
     0
 49
-0.9
 74
     0
 49
0.6
 74
     0
 49
-0.9
 74
     0
 49
0.6
 74
     0
 49
-0.9
 74
     0
  0
LTYPE
  5
6E
330
5
100
AcDbSymbolTableRecord
100
AcDbLinetypeTableRecord
  2
JIS_09_29
 70
     0
  3
2SASEN29 ______　__  __  ______　__  __  ___
 72
    65
 73
     6
 40
34.0
 49
29.0
 74
     0
 49
-1.2
 74
     0
 49
0.7
 74
     0
 49
-1.2
 74
     0
 49
0.7
 74
     0
 49
-1.2
 74
     0
  0
LTYPE
  5
6F
330
5
100
AcDbSymbolTableRecord
100
AcDbLinetypeTableRecord
  2
JIS_09_50
 70
     0
  3
2SASEN50 ____________　__  __  _____________
 72
    65
 73
     6
 40
55.0
 49
50.0
 74
     0
 49
-1.2
 74
     0
 49
0.7
 74
     0
 49
-1.2
 74
     0
 49
0.7
 74
     0
 49
-1.2
 74
     0
  0
ENDTAB
  0
TABLE
  2
LAYER
  5
2
330
0
100
AcDbSymbolTable
 70
     6
  0
LAYER
  5
10
330
2
100
AcDbSymbolTableRecord
100
AcDbLayerTableRecord
  2
0
 70
     0
 62
     7
  6
Continuous
370
    -3
390
F
  0
LAYER
  5
70
330
2
100
AcDbSymbolTableRecord
100
AcDbLayerTableRecord
  2
Layer0000
 70
     0
 62
     7
  6
Continuous
370
    -3
390
F
  0
LAYER
  5
71
330
2
100
AcDbSymbolTableRecord
100
AcDbLayerTableRecord
  2
Layer0001
 70
     0
 62
     7
  6
Continuous
370
    -3
390
F
  0
LAYER
  5
72
330
2
100
AcDbSymbolTableRecord
100
AcDbLayerTableRecord
  2
Layer0004
 70
     0
 62
     7
  6
Continuous
370
    -3
390
F
  0
LAYER
  5
73
330
2
100
AcDbSymbolTableRecord
100
AcDbLayerTableRecord
  2
Layer0014
 70
     0
 62
     7
  6
Continuous
370
    -3
390
F
  0
LAYER
  5
74
330
2
100
AcDbSymbolTableRecord
100
AcDbLayerTableRecord
  2
Layer0015
 70
     0
 62
     7
  6
Continuous
370
    -3
390
F
  0
ENDTAB
  0
TABLE
  2
STYLE
  5
3
330
0
100
AcDbSymbolTable
 70
     2
  0
STYLE
  5
11
330
3
100
AcDbSymbolTableRecord
100
AcDbTextStyleTableRecord
  2
Standard
 70
     0
 40
0.0
 41
1.0
 50
0.0
 71
     0
 42
0.2
  3
txt
  4

  0
STYLE
  5
105
330
3
100
AcDbSymbolTableRecord
100
AcDbTextStyleTableRecord
  2
dcStyle0
 70
     0
 40
0.0
 41
0.7999999999999966
 50
0.0
 71
     0
 42
0.2
  3
txt.shx
  4
bigfont
  0
ENDTAB
  0
TABLE
  2
VIEW
  5
6
330
0
100
AcDbSymbolTable
 70
     0
  0
ENDTAB
  0
TABLE
  2
UCS
  5
7
330
0
100
AcDbSymbolTable
 70
     0
  0
ENDTAB
  0
TABLE
  2
APPID
  5
9
330
0
100
AcDbSymbolTable
 70
     2
  0
APPID
  5
12
330
9
100
AcDbSymbolTableRecord
100
AcDbRegAppTableRecord
  2
ACAD
 70
     0
  0
APPID
  5
3B
330
9
100
AcDbSymbolTableRecord
100
AcDbRegAppTableRecord
  2
DaFusionOut
 70
     0
  0
ENDTAB
  0
TABLE
  2
DIMSTYLE
  5
A
330
0
100
AcDbSymbolTable
 70
     2
100
AcDbDimStyleTable
  0
DIMSTYLE
105
27
330
A
100
AcDbSymbolTableRecord
100
AcDbDimStyleTableRecord
  2
Standard
 70
     0
340
11
  0
DIMSTYLE
105
49C
102
{ACAD_REACTORS
330
49B
330
49D
330
49E
330
49F
330
4A0
330
4A1
330
4A2
330
4A3
330
4A4
330
4A6
330
4A7
330
4A8
330
4A9
330
4AA
330
4AB
330
4AC
330
4AD
330
4AE
330
4AF
330
4B0
330
4B1
330
4B2
330
4B3
330
4B4
330
4B5
330
4B7
330
4B8
330
4B9
330
4BC
102
}
330
A
100
AcDbSymbolTableRecord
100
AcDbDimStyleTableRecord
  2
DaDimRotatedStyle
 70
     0
 41
4.499995307353803
 42
1.5
 44
1.2
 73
     0
 74
     0
 77
     3
 78
     8
 79
     2
140
9.0
147
1.5
172
     1
173
     1
176
     2
177
     2
178
     2
271
     3
274
     4
283
     0
284
     8
288
     1
289
     0
340
105
343
FB
344
FB
  0
ENDTAB
  0
TABLE
  2
BLOCK_RECORD
  5
1
330
0
100
AcDbSymbolTable
 70
    46
  0
BLOCK_RECORD
  5
1F
330
1
100
AcDbSymbolTableRecord
100
AcDbBlockTableRecord
  2
*Model_Space
340
22
  0
BLOCK_RECORD
  5
1B
330
1
100
AcDbSymbolTableRecord
100
AcDbBlockTableRecord
  2
*Paper_Space
340
1E
  0
BLOCK_RECORD
  5
23
330
1
100
AcDbSymbolTableRecord
100
AcDbBlockTableRecord
  2
*Paper_Space0
340
26
  0
BLOCK_RECORD
  5
76
330
1
100
AcDbSymbolTableRecord
100
AcDbBlockTableRecord
  2
*D1
340
0
  0
BLOCK_RECORD
  5
79
330
1
100
AcDbSymbolTableRecord
100
AcDbBlockTableRecord
  2
*D2
340
0
  0
BLOCK_RECORD
  5
7C
330
1
100
AcDbSymbolTableRecord
100
AcDbBlockTableRecord
  2
*D3
340
0
  0
BLOCK_RECORD
  5
7F
330
1
100
AcDbSymbolTableRecord
100
AcDbBlockTableRecord
  2
*D4
340
0
  0
BLOCK_RECORD
  5
82
330
1
100
AcDbSymbolTableRecord
100
AcDbBlockTableRecord
  2
*D5
340
0
  0
BLOCK_RECORD
  5
85
330
1
100
AcDbSymbolTableRecord
100
AcDbBlockTableRecord
  2
*D6
340
0
  0
BLOCK_RECORD
  5
88
330
1
100
AcDbSymbolTableRecord
100
AcDbBlockTableRecord
  2
*D7
340
0
  0
BLOCK_RECORD
  5
8B
330
1
100
AcDbSymbolTableRecord
100
AcDbBlockTableRecord
  2
*D8
340
0
  0
BLOCK_RECORD
  5
8E
330
1
100
AcDbSymbolTableRecord
100
AcDbBlockTableRecord
  2
*D9
340
0
  0
BLOCK_RECORD
  5
91
330
1
100
AcDbSymbolTableRecord
100
AcDbBlockTableRecord
  2
DA_IMAGEDIMGROUP_1
340
0
102
{BLKREFS
331
4A5
102
}
  0
BLOCK_RECORD
  5
94
330
1
100
AcDbSymbolTableRecord
100
AcDbBlockTableRecord
  2
*D11
340
0
  0
BLOCK_RECORD
  5
97
330
1
100
AcDbSymbolTableRecord
100
AcDbBlockTableRecord
  2
*D12
340
0
  0
BLOCK_RECORD
  5
9A
330
1
100
AcDbSymbolTableRecord
100
AcDbBlockTableRecord
  2
*D13
340
0
  0
BLOCK_RECORD
  5
9D
330
1
100
AcDbSymbolTableRecord
100
AcDbBlockTableRecord
  2
*D14
340
0
  0
BLOCK_RECORD
  5
A0
330
1
100
AcDbSymbolTableRecord
100
AcDbBlockTableRecord
  2
*D15
340
0
  0
BLOCK_RECORD
  5
A3
330
1
100
AcDbSymbolTableRecord
100
AcDbBlockTableRecord
  2
*D16
340
0
  0
BLOCK_RECORD
  5
A6
330
1
100
AcDbSymbolTableRecord
100
AcDbBlockTableRecord
  2
*D17
340
0
  0
BLOCK_RECORD
  5
A9
330
1
100
AcDbSymbolTableRecord
100
AcDbBlockTableRecord
  2
*D18
340
0
  0
BLOCK_RECORD
  5
AC
330
1
100
AcDbSymbolTableRecord
100
AcDbBlockTableRecord
  2
*D19
340
0
  0
BLOCK_RECORD
  5
AF
330
1
100
AcDbSymbolTableRecord
100
AcDbBlockTableRecord
  2
*D20
340
0
  0
BLOCK_RECORD
  5
B2
330
1
100
AcDbSymbolTableRecord
100
AcDbBlockTableRecord
  2
*D21
340
0
  0
BLOCK_RECORD
  5
B5
330
1
100
AcDbSymbolTableRecord
100
AcDbBlockTableRecord
  2
*D22
340
0
  0
BLOCK_RECORD
  5
B8
330
1
100
AcDbSymbolTableRecord
100
AcDbBlockTableRecord
  2
*D23
340
0
  0
BLOCK_RECORD
  5
BB
330
1
100
AcDbSymbolTableRecord
100
AcDbBlockTableRecord
  2
*D24
340
0
  0
BLOCK_RECORD
  5
BE
330
1
100
AcDbSymbolTableRecord
100
AcDbBlockTableRecord
  2
*D25
340
0
  0
BLOCK_RECORD
  5
C1
330
1
100
AcDbSymbolTableRecord
100
AcDbBlockTableRecord
  2
*D26
340
0
  0
BLOCK_RECORD
  5
C4
330
1
100
AcDbSymbolTableRecord
100
AcDbBlockTableRecord
  2
DA_IMAGEDIMGROUP_2
340
0
102
{BLKREFS
331
4B6
102
}
  0
BLOCK_RECORD
  5
C7
330
1
100
AcDbSymbolTableRecord
100
AcDbBlockTableRecord
  2
*D28
340
0
  0
BLOCK_RECORD
  5
CA
330
1
100
AcDbSymbolTableRecord
100
AcDbBlockTableRecord
  2
*D29
340
0
  0
BLOCK_RECORD
  5
CD
330
1
100
AcDbSymbolTableRecord
100
AcDbBlockTableRecord
  2
*D30
340
0
  0
BLOCK_RECORD
  5
D0
330
1
100
AcDbSymbolTableRecord
100
AcDbBlockTableRecord
  2
DC_GROUP_HCN200_1
340
0
102
{BLKREFS
331
4BA
102
}
  0
BLOCK_RECORD
  5
D3
330
1
100
AcDbSymbolTableRecord
100
AcDbBlockTableRecord
  2
DC_GROUP_HCN200_2
340
0
102
{BLKREFS
331
4BB
102
}
  0
BLOCK_RECORD
  5
D6
330
1
100
AcDbSymbolTableRecord
100
AcDbBlockTableRecord
  2
*D33
340
0
  0
BLOCK_RECORD
  5
D9
330
1
100
AcDbSymbolTableRecord
100
AcDbBlockTableRecord
  2
DC_GROUP_HCN200_3
340
0
102
{BLKREFS
331
4BD
102
}
  0
BLOCK_RECORD
  5
DC
330
1
100
AcDbSymbolTableRecord
100
AcDbBlockTableRecord
  2
DC_GROUP_HCN200_4
340
0
102
{BLKREFS
331
4BE
102
}
  0
BLOCK_RECORD
  5
DF
330
1
100
AcDbSymbolTableRecord
100
AcDbBlockTableRecord
  2
DC_GROUP_HCN200_5
340
0
102
{BLKREFS
331
4BF
102
}
  0
BLOCK_RECORD
  5
E2
330
1
100
AcDbSymbolTableRecord
100
AcDbBlockTableRecord
  2
DC_GROUP_HCN200_6
340
0
102
{BLKREFS
331
4C0
102
}
  0
BLOCK_RECORD
  5
E5
330
1
100
AcDbSymbolTableRecord
100
AcDbBlockTableRecord
  2
DC_GROUP_HCN200_7
340
0
102
{BLKREFS
331
4C1
102
}
  0
BLOCK_RECORD
  5
E8
330
1
100
AcDbSymbolTableRecord
100
AcDbBlockTableRecord
  2
DC_GROUP_HCN200_8
340
0
102
{BLKREFS
331
4C5
102
}
  0
BLOCK_RECORD
  5
EB
330
1
100
AcDbSymbolTableRecord
100
AcDbBlockTableRecord
  2
DC_GROUP_HCN200_9
340
0
102
{BLKREFS
331
4C6
102
}
  0
BLOCK_RECORD
  5
EE
330
1
100
AcDbSymbolTableRecord
100
AcDbBlockTableRecord
  2
DC_GROUP_HCN200_10
340
0
102
{BLKREFS
331
4C7
102
}
  0
BLOCK_RECORD
  5
F1
330
1
100
AcDbSymbolTableRecord
100
AcDbBlockTableRecord
  2
DC_GROUP_HCN200_11
340
0
102
{BLKREFS
331
4C2
102
}
  0
BLOCK_RECORD
  5
F4
330
1
100
AcDbSymbolTableRecord
100
AcDbBlockTableRecord
  2
DC_GROUP_HCN200_12
340
0
102
{BLKREFS
331
4C3
102
}
  0
BLOCK_RECORD
  5
F7
330
1
100
AcDbSymbolTableRecord
100
AcDbBlockTableRecord
  2
DC_GROUP_HCN200_13
340
0
102
{BLKREFS
331
4C4
102
}
  0
BLOCK_RECORD
  5
FB
330
1
100
AcDbSymbolTableRecord
100
AcDbBlockTableRecord
  2
_OPEN30
340
0
102
{BLKREFS
331
101
331
102
331
108
331
109
331
10E
331
10F
331
112
331
113
331
118
331
119
331
11E
331
11F
331
124
331
125
331
12A
331
12B
331
130
331
131
331
139
331
13B
331
13E
331
13F
331
144
331
145
331
14A
331
14B
331
150
331
151
331
156
331
157
331
15C
331
15D
331
164
331
167
331
168
331
16C
331
16D
331
170
331
171
331
175
331
176
331
17B
331
17C
331
181
331
182
331
187
331
188
331
18D
331
18E
331
193
331
194
331
19C
331
19E
331
1A1
331
1A2
331
1A7
331
1A8
331
1AD
331
1AE
331
1B4
331
1B8
331
1BB
331
1BC
331
1C9
331
1CD
331
1D1
102
}
  0
ENDTAB
  0
ENDSEC
  0
SECTION
  2
BLOCKS
  0
BLOCK
  5
20
330
1F
100
AcDbEntity
  8
0
100
AcDbBlockBegin
  2
*Model_Space
 70
     0
 10
0.0
 20
0.0
 30
0.0
  3
*Model_Space
  1

  0
ENDBLK
  5
21
330
1F
100
AcDbEntity
  8
0
100
AcDbBlockEnd
  0
BLOCK
  5
1C
330
1B
100
AcDbEntity
 67
     1
  8
0
100
AcDbBlockBegin
  2
*Paper_Space
 70
     0
 10
0.0
 20
0.0
 30
0.0
  3
*Paper_Space
  1

  0
ENDBLK
  5
1D
330
1B
100
AcDbEntity
 67
     1
  8
0
100
AcDbBlockEnd
  0
BLOCK
  5
24
330
23
100
AcDbEntity
  8
0
100
AcDbBlockBegin
  2
*Paper_Space0
 70
     0
 10
0.0
 20
0.0
 30
0.0
  3
*Paper_Space0
  1

  0
ENDBLK
  5
25
330
23
100
AcDbEntity
  8
0
100
AcDbBlockEnd
  0
BLOCK
  5
77
330
76
100
AcDbEntity
  8
0
100
AcDbBlockBegin
  2
*D1
 70
     1
 10
0.0
 20
0.0
 30
0.0
  3
*D1
  1

  0
LINE
  5
FA
330
76
100
AcDbEntity
  8
Layer0015
  6
Continuous
 62
     2
370
    25
100
AcDbLine
 10
-554.1743998496419
 20
142.4152265574398
 30
0.0
 11
-554.1743998496419
 21
350.4152265574398
 31
0.0
  0
INSERT
  5
101
330
76
100
AcDbEntity
  8
Layer0015
 62
     2
100
AcDbBlockReference
  2
_OPEN30
 10
-554.1743998496419
 20
142.4152265574398
 30
0.0
 41
4.587961098652522
 42
3.019162853224171
 50
270.0
  0
INSERT
  5
102
330
76
100
AcDbEntity
  8
Layer0015
 62
     2
100
AcDbBlockReference
  2
_OPEN30
 10
-554.1743998496419
 20
350.4152265574398
 30
0.0
 41
4.587961098652522
 42
3.019162853224171
 50
90.0
  0
LINE
  5
103
330
76
100
AcDbEntity
  8
Layer0015
  6
Continuous
 62
     2
370
    25
100
AcDbLine
 10
-515.7165479055637
 20
142.4152265574398
 30
0.0
 11
-555.3743998496419
 21
142.4152265574398
 31
0.0
  0
LINE
  5
104
330
76
100
AcDbEntity
  8
Layer0015
  6
Continuous
 62
     2
370
    25
100
AcDbLine
 10
-515.7165479055637
 20
350.4152265574398
 30
0.0
 11
-555.3743998496419
 21
350.4152265574398
 31
0.0
  0
MTEXT
  5
106
330
76
100
AcDbEntity
  8
Layer0015
 62
     2
100
AcDbMText
 10
-555.6743998496419
 20
246.4152265574398
 30
0.0
 40
9.0
 41
38.24999999999989
 71
     8
 72
     1
  1
\T1.00;208
  7
dcStyle0
 11
6.123031769111886E-17
 21
1.0
 31
0.0
 73
     1
 44
1.0
  0
ENDBLK
  5
78
330
76
100
AcDbEntity
  8
0
100
AcDbBlockEnd
  0
BLOCK
  5
7A
330
79
100
AcDbEntity
  8
0
100
AcDbBlockBegin
  2
*D2
 70
     1
 10
0.0
 20
0.0
 30
0.0
  3
*D2
  1

  0
LINE
  5
107
330
79
100
AcDbEntity
  8
Layer0015
  6
Continuous
 62
     2
370
    25
100
AcDbLine
 10
-350.2136876996941
 20
143.4152265574398
 30
0.0
 11
-350.2136876996941
 21
349.4152265574398
 31
0.0
  0
INSERT
  5
108
330
79
100
AcDbEntity
  8
Layer0015
 62
     2
100
AcDbBlockReference
  2
_OPEN30
 10
-350.2136876996941
 20
143.4152265574398
 30
0.0
 41
4.587961098652522
 42
3.019162853224171
 50
270.0
  0
INSERT
  5
109
330
79
100
AcDbEntity
  8
Layer0015
 62
     2
100
AcDbBlockReference
  2
_OPEN30
 10
-350.2136876996941
 20
349.4152265574398
 30
0.0
 41
4.587961098652522
 42
3.019162853224171
 50
90.0
  0
LINE
  5
10A
330
79
100
AcDbEntity
  8
Layer0015
  6
Continuous
 62
     2
370
    25
100
AcDbLine
 10
-387.7165479055637
 20
143.4152265574398
 30
0.0
 11
-349.0136876996941
 21
143.4152265574398
 31
0.0
  0
LINE
  5
10B
330
79
100
AcDbEntity
  8
Layer0015
  6
Continuous
 62
     2
370
    25
100
AcDbLine
 10
-387.7165479055637
 20
349.4152265574398
 30
0.0
 11
-349.0136876996941
 21
349.4152265574398
 31
0.0
  0
MTEXT
  5
10C
330
79
100
AcDbEntity
  8
Layer0015
 62
     2
100
AcDbMText
 10
-351.7136876996941
 20
246.4152265574398
 30
0.0
 40
9.0
 41
38.25000000000003
 71
     8
 72
     1
  1
\T1.00;206
  7
dcStyle0
 11
6.123031769111886E-17
 21
1.0
 31
0.0
 73
     1
 44
1.0
  0
ENDBLK
  5
7B
330
79
100
AcDbEntity
  8
0
100
AcDbBlockEnd
  0
BLOCK
  5
7D
330
7C
100
AcDbEntity
  8
0
100
AcDbBlockBegin
  2
*D3
 70
     1
 10
0.0
 20
0.0
 30
0.0
  3
*D3
  1

  0
LINE
  5
10D
330
7C
100
AcDbEntity
  8
Layer0015
  6
Continuous
 62
     2
370
    25
100
AcDbLine
 10
-268.1418473525039
 20
192.4152265574398
 30
0.0
 11
-268.1418473525039
 21
300.4152265574398
 31
0.0
  0
INSERT
  5
10E
330
7C
100
AcDbEntity
  8
Layer0015
 62
     2
100
AcDbBlockReference
  2
_OPEN30
 10
-268.1418473525039
 20
192.4152265574398
 30
0.0
 41
4.587961098652522
 42
3.019162853224171
 50
270.0
  0
INSERT
  5
10F
330
7C
100
AcDbEntity
  8
Layer0015
 62
     2
100
AcDbBlockReference
  2
_OPEN30
 10
-268.1418473525039
 20
300.4152265574398
 30
0.0
 41
4.587961098652522
 42
3.019162853224171
 50
90.0
  0
MTEXT
  5
110
330
7C
100
AcDbEntity
  8
Layer0015
 62
     2
100
AcDbMText
 10
-269.6418473525039
 20
246.4152265574398
 30
0.0
 40
9.0
 41
38.25000000000003
 71
     8
 72
     1
  1
\T1.00;108
  7
dcStyle0
 11
6.123031769111886E-17
 21
1.0
 31
0.0
 73
     1
 44
1.0
  0
ENDBLK
  5
7E
330
7C
100
AcDbEntity
  8
0
100
AcDbBlockEnd
  0
BLOCK
  5
80
330
7F
100
AcDbEntity
  8
0
100
AcDbBlockBegin
  2
*D4
 70
     1
 10
0.0
 20
0.0
 30
0.0
  3
*D4
  1

  0
LINE
  5
111
330
7F
100
AcDbEntity
  8
Layer0015
  6
Continuous
 62
     2
370
    25
100
AcDbLine
 10
454.2296578177351
 20
96.41522655743971
 30
0.0
 11
454.2296578177351
 21
142.4152265574398
 31
0.0
  0
INSERT
  5
112
330
7F
100
AcDbEntity
  8
Layer0015
 62
     2
100
AcDbBlockReference
  2
_OPEN30
 10
454.2296578177351
 20
96.41522655743971
 30
0.0
 41
4.587961098652522
 42
3.019162853224171
 50
270.0
  0
INSERT
  5
113
330
7F
100
AcDbEntity
  8
Layer0015
 62
     2
100
AcDbBlockReference
  2
_OPEN30
 10
454.2296578177351
 20
142.4152265574398
 30
0.0
 41
4.587961098652522
 42
3.019162853224171
 50
90.0
  0
LINE
  5
114
330
7F
100
AcDbEntity
  8
Layer0015
  6
Continuous
 62
     2
370
    25
100
AcDbLine
 10
423.9167854889995
 20
96.41522655743971
 30
0.0
 11
455.4296578177351
 21
96.41522655743971
 31
0.0
  0
LINE
  5
115
330
7F
100
AcDbEntity
  8
Layer0015
  6
Continuous
 62
     2
370
    25
100
AcDbLine
 10
424.9167854889995
 20
142.4152265574398
 30
0.0
 11
455.4296578177351
 21
142.4152265574398
 31
0.0
  0
MTEXT
  5
116
330
7F
100
AcDbEntity
  8
Layer0015
 62
     2
100
AcDbMText
 10
452.7296578177351
 20
117.4152265574398
 30
0.0
 40
9.0
 41
29.24999999999997
 71
     8
 72
     1
  1
\T1.00;46
  7
dcStyle0
 11
6.123031769111886E-17
 21
1.0
 31
0.0
 73
     1
 44
1.0
  0
ENDBLK
  5
81
330
7F
100
AcDbEntity
  8
0
100
AcDbBlockEnd
  0
BLOCK
  5
83
330
82
100
AcDbEntity
  8
0
100
AcDbBlockBegin
  2
*D5
 70
     1
 10
0.0
 20
0.0
 30
0.0
  3
*D5
  1

  0
LINE
  5
117
330
82
100
AcDbEntity
  8
Layer0015
  6
Continuous
 62
     2
370
    25
100
AcDbLine
 10
454.2296578177351
 20
142.4152265574398
 30
0.0
 11
454.2296578177351
 21
350.4152265574398
 31
0.0
  0
INSERT
  5
118
330
82
100
AcDbEntity
  8
Layer0015
 62
     2
100
AcDbBlockReference
  2
_OPEN30
 10
454.2296578177351
 20
142.4152265574398
 30
0.0
 41
4.587961098652522
 42
3.019162853224171
 50
270.0
  0
INSERT
  5
119
330
82
100
AcDbEntity
  8
Layer0015
 62
     2
100
AcDbBlockReference
  2
_OPEN30
 10
454.2296578177351
 20
350.4152265574398
 30
0.0
 41
4.587961098652522
 42
3.019162853224171
 50
90.0
  0
LINE
  5
11A
330
82
100
AcDbEntity
  8
Layer0015
  6
Continuous
 62
     2
370
    25
100
AcDbLine
 10
424.9167854889995
 20
142.4152265574398
 30
0.0
 11
455.4296578177351
 21
142.4152265574398
 31
0.0
  0
LINE
  5
11B
330
82
100
AcDbEntity
  8
Layer0015
  6
Continuous
 62
     2
370
    25
100
AcDbLine
 10
424.9167854889995
 20
350.4152265574398
 30
0.0
 11
455.4296578177351
 21
350.4152265574398
 31
0.0
  0
MTEXT
  5
11C
330
82
100
AcDbEntity
  8
Layer0015
 62
     2
100
AcDbMText
 10
452.7296578177351
 20
246.4152265574398
 30
0.0
 40
9.0
 41
38.25000000000003
 71
     8
 72
     1
  1
\T1.00;208
  7
dcStyle0
 11
6.123031769111886E-17
 21
1.0
 31
0.0
 73
     1
 44
1.0
  0
ENDBLK
  5
84
330
82
100
AcDbEntity
  8
0
100
AcDbBlockEnd
  0
BLOCK
  5
86
330
85
100
AcDbEntity
  8
0
100
AcDbBlockBegin
  2
*D6
 70
     1
 10
0.0
 20
0.0
 30
0.0
  3
*D6
  1

  0
LINE
  5
11D
330
85
100
AcDbEntity
  8
Layer0015
  6
Continuous
 62
     2
370
    25
100
AcDbLine
 10
454.2296578177351
 20
350.4152265574398
 30
0.0
 11
454.2296578177351
 21
396.41522655744
 31
0.0
  0
INSERT
  5
11E
330
85
100
AcDbEntity
  8
Layer0015
 62
     2
100
AcDbBlockReference
  2
_OPEN30
 10
454.2296578177351
 20
350.4152265574398
 30
0.0
 41
4.587961098652522
 42
3.019162853224171
 50
270.0
  0
INSERT
  5
11F
330
85
100
AcDbEntity
  8
Layer0015
 62
     2
100
AcDbBlockReference
  2
_OPEN30
 10
454.2296578177351
 20
396.41522655744
 30
0.0
 41
4.587961098652522
 42
3.019162853224171
 50
90.0
  0
LINE
  5
120
330
85
100
AcDbEntity
  8
Layer0015
  6
Continuous
 62
     2
370
    25
100
AcDbLine
 10
424.9167854889995
 20
350.4152265574398
 30
0.0
 11
455.4296578177351
 21
350.4152265574398
 31
0.0
  0
LINE
  5
121
330
85
100
AcDbEntity
  8
Layer0015
  6
Continuous
 62
     2
370
    25
100
AcDbLine
 10
423.9167854889995
 20
396.41522655744
 30
0.0
 11
455.4296578177351
 21
396.41522655744
 31
0.0
  0
MTEXT
  5
122
330
85
100
AcDbEntity
  8
Layer0015
 62
     2
100
AcDbMText
 10
452.7296578177351
 20
375.4152265574399
 30
0.0
 40
9.0
 41
29.24999999999997
 71
     8
 72
     1
  1
\T1.00;46
  7
dcStyle0
 11
6.123031769111886E-17
 21
1.0
 31
0.0
 73
     1
 44
1.0
  0
ENDBLK
  5
87
330
85
100
AcDbEntity
  8
0
100
AcDbBlockEnd
  0
BLOCK
  5
89
330
88
100
AcDbEntity
  8
0
100
AcDbBlockBegin
  2
*D7
 70
     1
 10
0.0
 20
0.0
 30
0.0
  3
*D7
  1

  0
LINE
  5
123
330
88
100
AcDbEntity
  8
Layer0015
  6
Continuous
 62
     2
370
    25
100
AcDbLine
 10
467.7296578177351
 20
96.41522655743971
 30
0.0
 11
467.7296578177351
 21
396.41522655744
 31
0.0
  0
INSERT
  5
124
330
88
100
AcDbEntity
  8
Layer0015
 62
     2
100
AcDbBlockReference
  2
_OPEN30
 10
467.7296578177351
 20
96.41522655743971
 30
0.0
 41
4.587961098652522
 42
3.019162853224171
 50
270.0
  0
INSERT
  5
125
330
88
100
AcDbEntity
  8
Layer0015
 62
     2
100
AcDbBlockReference
  2
_OPEN30
 10
467.7296578177351
 20
396.41522655744
 30
0.0
 41
4.587961098652522
 42
3.019162853224171
 50
90.0
  0
LINE
  5
126
330
88
100
AcDbEntity
  8
Layer0015
  6
Continuous
 62
     2
370
    25
100
AcDbLine
 10
423.9167854889995
 20
96.41522655743971
 30
0.0
 11
468.9296578177351
 21
96.41522655743971
 31
0.0
  0
LINE
  5
127
330
88
100
AcDbEntity
  8
Layer0015
  6
Continuous
 62
     2
370
    25
100
AcDbLine
 10
423.9167854889995
 20
396.41522655744
 30
0.0
 11
468.9296578177351
 21
396.41522655744
 31
0.0
  0
MTEXT
  5
128
330
88
100
AcDbEntity
  8
Layer0015
 62
     2
100
AcDbMText
 10
466.2296578177351
 20
246.4152265574398
 30
0.0
 40
9.0
 41
38.25000000000003
 71
     8
 72
     1
  1
\T1.00;300
  7
dcStyle0
 11
6.123031769111886E-17
 21
1.0
 31
0.0
 73
     1
 44
1.0
  0
ENDBLK
  5
8A
330
88
100
AcDbEntity
  8
0
100
AcDbBlockEnd
  0
BLOCK
  5
8C
330
8B
100
AcDbEntity
  8
0
100
AcDbBlockBegin
  2
*D8
 70
     1
 10
0.0
 20
0.0
 30
0.0
  3
*D8
  1

  0
LINE
  5
129
330
8B
100
AcDbEntity
  8
Layer0015
  6
Continuous
 62
     2
370
    25
100
AcDbLine
 10
-544.8544729577188
 20
-219.6567096947347
 30
0.0
 11
-544.8544729577188
 21
-33.65670969473467
 31
0.0
  0
INSERT
  5
12A
330
8B
100
AcDbEntity
  8
Layer0015
 62
     2
100
AcDbBlockReference
  2
_OPEN30
 10
-544.8544729577188
 20
-219.6567096947347
 30
0.0
 41
4.587961098652522
 42
3.019162853224171
 50
270.0
  0
INSERT
  5
12B
330
8B
100
AcDbEntity
  8
Layer0015
 62
     2
100
AcDbBlockReference
  2
_OPEN30
 10
-544.8544729577188
 20
-33.65670969473467
 30
0.0
 41
4.587961098652522
 42
3.019162853224171
 50
90.0
  0
LINE
  5
12C
330
8B
100
AcDbEntity
  8
Layer0015
  6
Continuous
 62
     2
370
    25
100
AcDbLine
 10
-515.7165479055637
 20
-219.6567096947347
 30
0.0
 11
-546.0544729577189
 21
-219.6567096947347
 31
0.0
  0
LINE
  5
12D
330
8B
100
AcDbEntity
  8
Layer0015
  6
Continuous
 62
     2
370
    25
100
AcDbLine
 10
-515.7165479055637
 20
-33.65670969473467
 30
0.0
 11
-546.0544729577189
 21
-33.65670969473467
 31
0.0
  0
MTEXT
  5
12E
330
8B
100
AcDbEntity
  8
Layer0015
 62
     2
100
AcDbMText
 10
-546.3544729577188
 20
-126.6567096947347
 30
0.0
 40
9.0
 41
38.24999999999989
 71
     8
 72
     1
  1
\T1.00;186
  7
dcStyle0
 11
6.123031769111886E-17
 21
1.0
 31
0.0
 73
     1
 44
1.0
  0
ENDBLK
  5
8D
330
8B
100
AcDbEntity
  8
0
100
AcDbBlockEnd
  0
BLOCK
  5
8F
330
8E
100
AcDbEntity
  8
0
100
AcDbBlockBegin
  2
*D9
 70
     1
 10
0.0
 20
0.0
 30
0.0
  3
*D9
  1

  0
LINE
  5
12F
330
8E
100
AcDbEntity
  8
Layer0015
  6
Continuous
 62
     2
370
    25
100
AcDbLine
 10
-561.3544729577188
 20
-219.6567096947347
 30
0.0
 11
-561.3544729577188
 21
-6.65670969473468
 31
0.0
  0
INSERT
  5
130
330
8E
100
AcDbEntity
  8
Layer0015
 62
     2
100
AcDbBlockReference
  2
_OPEN30
 10
-561.3544729577188
 20
-219.6567096947347
 30
0.0
 41
4.587961098652522
 42
3.019162853224171
 50
270.0
  0
INSERT
  5
131
330
8E
100
AcDbEntity
  8
Layer0015
 62
     2
100
AcDbBlockReference
  2
_OPEN30
 10
-561.3544729577188
 20
-6.65670969473468
 30
0.0
 41
4.587961098652522
 42
3.019162853224171
 50
90.0
  0
LINE
  5
132
330
8E
100
AcDbEntity
  8
Layer0015
  6
Continuous
 62
     2
370
    25
100
AcDbLine
 10
-515.7165479055637
 20
-219.6567096947347
 30
0.0
 11
-562.5544729577189
 21
-219.6567096947347
 31
0.0
  0
LINE
  5
133
330
8E
100
AcDbEntity
  8
Layer0015
  6
Continuous
 62
     2
370
    25
100
AcDbLine
 10
-485.7165479055637
 20
-6.65670969473468
 30
0.0
 11
-562.5544729577189
 21
-6.65670969473468
 31
0.0
  0
MTEXT
  5
134
330
8E
100
AcDbEntity
  8
Layer0015
 62
     2
100
AcDbMText
 10
-562.8544729577188
 20
-113.1567096947347
 30
0.0
 40
9.0
 41
38.24999999999989
 71
     8
 72
     1
  1
\T1.00;213
  7
dcStyle0
 11
6.123031769111886E-17
 21
1.0
 31
0.0
 73
     1
 44
1.0
  0
ENDBLK
  5
90
330
8E
100
AcDbEntity
  8
0
100
AcDbBlockEnd
  0
BLOCK
  5
92
330
91
100
AcDbEntity
  8
0
100
AcDbBlockBegin
  2
DA_IMAGEDIMGROUP_1
 70
     0
 10
0.0
 20
0.0
 30
0.0
  3
DA_IMAGEDIMGROUP_1
  1

  0
LINE
  5
135
330
91
100
AcDbEntity
  8
Layer0015
  6
Continuous
 62
     2
370
    13
100
AcDbLine
 10
-331.2165479055637
 20
-229.1567096947347
 30
0.0
 11
-331.2165479055637
 21
-255.1328680095134
 31
0.0
  0
LINE
  5
136
330
91
100
AcDbEntity
  8
Layer0015
  6
Continuous
 62
     2
370
    13
100
AcDbLine
 10
-313.2165479055637
 20
-229.1567096947347
 30
0.0
 11
-313.2165479055637
 21
-255.1328680095134
 31
0.0
  0
LINE
  5
137
330
91
100
AcDbEntity
  8
Layer0015
  6
Continuous
 62
     2
370
    13
100
AcDbLine
 10
-331.2165479055637
 20
-253.9328680095134
 30
0.0
 11
-313.2165479055637
 21
-253.9328680095134
 31
0.0
  0
LINE
  5
138
330
91
100
AcDbEntity
  8
Layer0015
  6
Continuous
 62
     2
370
    13
100
AcDbLine
 10
-287.3615684147597
 20
-253.9328680095134
 30
0.0
 11
-313.2165479055637
 21
-253.9328680095134
 31
0.0
  0
INSERT
  5
139
330
91
100
AcDbEntity
  8
Layer0015
 62
     2
100
AcDbBlockReference
  2
_OPEN30
 10
-313.2165479055637
 20
-253.9328680095134
 30
0.0
 41
4.587961098652522
 42
3.019162853224171
 50
180.0
  0
LINE
  5
13A
330
91
100
AcDbEntity
  8
Layer0015
  6
Continuous
 62
     2
370
    13
100
AcDbLine
 10
-337.2165479055637
 20
-253.9328680095134
 30
0.0
 11
-331.2165479055637
 21
-253.9328680095134
 31
0.0
  0
INSERT
  5
13B
330
91
100
AcDbEntity
  8
Layer0015
 62
     2
100
AcDbBlockReference
  2
_OPEN30
 10
-331.2165479055637
 20
-253.9328680095134
 30
0.0
 41
4.587961098652522
 42
3.019162853224171
 50
360.0
  0
MTEXT
  5
13C
330
91
100
AcDbEntity
  8
Layer0015
 62
     2
100
AcDbMText
 10
-301.7615684147597
 20
-252.4328680095134
 30
0.0
 40
9.0
 41
29.24999999999997
 71
     7
 72
     1
  1
\T1.00;18
  7
dcStyle0
 73
     1
 44
1.0
  0
ENDBLK
  5
93
330
91
100
AcDbEntity
  8
0
100
AcDbBlockEnd
  0
BLOCK
  5
95
330
94
100
AcDbEntity
  8
0
100
AcDbBlockBegin
  2
*D11
 70
     1
 10
0.0
 20
0.0
 30
0.0
  3
*D11
  1

  0
LINE
  5
13D
330
94
100
AcDbEntity
  8
Layer0015
  6
Continuous
 62
     2
370
    13
100
AcDbLine
 10
-389.2165479055637
 20
-286.492707017807
 30
0.0
 11
-322.2165479055637
 21
-286.492707017807
 31
0.0
  0
INSERT
  5
13E
330
94
100
AcDbEntity
  8
Layer0015
 62
     2
100
AcDbBlockReference
  2
_OPEN30
 10
-389.2165479055637
 20
-286.492707017807
 30
0.0
 41
4.587961098652522
 42
3.019162853224171
 50
180.0
  0
INSERT
  5
13F
330
94
100
AcDbEntity
  8
Layer0015
 62
     2
100
AcDbBlockReference
  2
_OPEN30
 10
-322.2165479055637
 20
-286.492707017807
 30
0.0
 41
4.587961098652522
 42
3.019162853224171
 50
360.0
  0
LINE
  5
140
330
94
100
AcDbEntity
  8
Layer0015
  6
Continuous
 62
     2
370
    13
100
AcDbLine
 10
-389.2165479055637
 20
-96.15670969473467
 30
0.0
 11
-389.2165479055637
 21
-287.692707017807
 31
0.0
  0
LINE
  5
141
330
94
100
AcDbEntity
  8
Layer0015
  6
Continuous
 62
     2
370
    13
100
AcDbLine
 10
-322.2165479055637
 20
-233.1316714875713
 30
0.0
 11
-322.2165479055637
 21
-287.692707017807
 31
0.0
  0
MTEXT
  5
142
330
94
100
AcDbEntity
  8
Layer0015
 62
     2
100
AcDbMText
 10
-355.7165479055637
 20
-284.992707017807
 30
0.0
 40
9.0
 41
29.24999999999997
 71
     8
 72
     1
  1
\T1.00;67
  7
dcStyle0
 73
     1
 44
1.0
  0
ENDBLK
  5
96
330
94
100
AcDbEntity
  8
0
100
AcDbBlockEnd
  0
BLOCK
  5
98
330
97
100
AcDbEntity
  8
0
100
AcDbBlockBegin
  2
*D12
 70
     1
 10
0.0
 20
0.0
 30
0.0
  3
*D12
  1

  0
LINE
  5
143
330
97
100
AcDbEntity
  8
Layer0015
  6
Continuous
 62
     2
370
    13
100
AcDbLine
 10
-322.2165479055637
 20
-286.492707017807
 30
0.0
 11
-262.2165479055637
 21
-286.492707017807
 31
0.0
  0
INSERT
  5
144
330
97
100
AcDbEntity
  8
Layer0015
 62
     2
100
AcDbBlockReference
  2
_OPEN30
 10
-322.2165479055637
 20
-286.492707017807
 30
0.0
 41
4.587961098652522
 42
3.019162853224171
 50
180.0
  0
INSERT
  5
145
330
97
100
AcDbEntity
  8
Layer0015
 62
     2
100
AcDbBlockReference
  2
_OPEN30
 10
-262.2165479055637
 20
-286.492707017807
 30
0.0
 41
4.587961098652522
 42
3.019162853224171
 50
360.0
  0
LINE
  5
146
330
97
100
AcDbEntity
  8
Layer0015
  6
Continuous
 62
     2
370
    13
100
AcDbLine
 10
-322.2165479055637
 20
-233.1316714875713
 30
0.0
 11
-322.2165479055637
 21
-287.692707017807
 31
0.0
  0
LINE
  5
147
330
97
100
AcDbEntity
  8
Layer0015
  6
Continuous
 62
     2
370
    13
100
AcDbLine
 10
-262.2165479055637
 20
-229.9285544889905
 30
0.0
 11
-262.2165479055637
 21
-287.692707017807
 31
0.0
  0
MTEXT
  5
148
330
97
100
AcDbEntity
  8
Layer0015
 62
     2
100
AcDbMText
 10
-292.2165479055637
 20
-284.992707017807
 30
0.0
 40
9.0
 41
29.24999999999997
 71
     8
 72
     1
  1
\T1.00;60
  7
dcStyle0
 73
     1
 44
1.0
  0
ENDBLK
  5
99
330
97
100
AcDbEntity
  8
0
100
AcDbBlockEnd
  0
BLOCK
  5
9B
330
9A
100
AcDbEntity
  8
0
100
AcDbBlockBegin
  2
*D13
 70
     1
 10
0.0
 20
0.0
 30
0.0
  3
*D13
  1

  0
LINE
  5
149
330
9A
100
AcDbEntity
  8
Layer0015
  6
Continuous
 62
     2
370
    13
100
AcDbLine
 10
-262.2165479055637
 20
-286.492707017807
 30
0.0
 11
-202.2165479055637
 21
-286.492707017807
 31
0.0
  0
INSERT
  5
14A
330
9A
100
AcDbEntity
  8
Layer0015
 62
     2
100
AcDbBlockReference
  2
_OPEN30
 10
-262.2165479055637
 20
-286.492707017807
 30
0.0
 41
4.587961098652522
 42
3.019162853224171
 50
180.0
  0
INSERT
  5
14B
330
9A
100
AcDbEntity
  8
Layer0015
 62
     2
100
AcDbBlockReference
  2
_OPEN30
 10
-202.2165479055637
 20
-286.492707017807
 30
0.0
 41
4.587961098652522
 42
3.019162853224171
 50
360.0
  0
LINE
  5
14C
330
9A
100
AcDbEntity
  8
Layer0015
  6
Continuous
 62
     2
370
    13
100
AcDbLine
 10
-262.2165479055637
 20
-229.9285544889905
 30
0.0
 11
-262.2165479055637
 21
-287.692707017807
 31
0.0
  0
LINE
  5
14D
330
9A
100
AcDbEntity
  8
Layer0015
  6
Continuous
 62
     2
370
    13
100
AcDbLine
 10
-202.2165479055637
 20
-229.9285544889905
 30
0.0
 11
-202.2165479055637
 21
-287.692707017807
 31
0.0
  0
MTEXT
  5
14E
330
9A
100
AcDbEntity
  8
Layer0015
 62
     2
100
AcDbMText
 10
-232.2165479055637
 20
-284.992707017807
 30
0.0
 40
9.0
 41
29.24999999999997
 71
     8
 72
     1
  1
\T1.00;60
  7
dcStyle0
 73
     1
 44
1.0
  0
ENDBLK
  5
9C
330
9A
100
AcDbEntity
  8
0
100
AcDbBlockEnd
  0
BLOCK
  5
9E
330
9D
100
AcDbEntity
  8
0
100
AcDbBlockBegin
  2
*D14
 70
     1
 10
0.0
 20
0.0
 30
0.0
  3
*D14
  1

  0
LINE
  5
14F
330
9D
100
AcDbEntity
  8
Layer0015
  6
Continuous
 62
     2
370
    13
100
AcDbLine
 10
-514.2165479055637
 20
-333.2172804445552
 30
0.0
 11
91.78345209443518
 21
-333.2172804445552
 31
0.0
  0
INSERT
  5
150
330
9D
100
AcDbEntity
  8
Layer0015
 62
     2
100
AcDbBlockReference
  2
_OPEN30
 10
-514.2165479055637
 20
-333.2172804445552
 30
0.0
 41
4.587961098652522
 42
3.019162853224171
 50
180.0
  0
INSERT
  5
151
330
9D
100
AcDbEntity
  8
Layer0015
 62
     2
100
AcDbBlockReference
  2
_OPEN30
 10
91.78345209443518
 20
-333.2172804445552
 30
0.0
 41
4.587961098652522
 42
3.019162853224171
 50
360.0
  0
LINE
  5
152
330
9D
100
AcDbEntity
  8
Layer0015
  6
Continuous
 62
     2
370
    13
100
AcDbLine
 10
-514.2165479055637
 20
-221.1567096947347
 30
0.0
 11
-514.2165479055637
 21
-334.4172804445552
 31
0.0
  0
LINE
  5
153
330
9D
100
AcDbEntity
  8
Layer0015
  6
Continuous
 62
     2
370
    13
100
AcDbLine
 10
91.78345209443518
 20
-221.1567096947347
 30
0.0
 11
91.78345209443518
 21
-334.4172804445552
 31
0.0
  0
MTEXT
  5
154
330
9D
100
AcDbEntity
  8
Layer0015
 62
     2
100
AcDbMText
 10
-211.2165479055643
 20
-331.7172804445552
 30
0.0
 40
9.0
 41
38.25000000000003
 71
     8
 72
     1
  1
\T1.00;606
  7
dcStyle0
 73
     1
 44
1.0
  0
ENDBLK
  5
9F
330
9D
100
AcDbEntity
  8
0
100
AcDbBlockEnd
  0
BLOCK
  5
A1
330
A0
100
AcDbEntity
  8
0
100
AcDbBlockBegin
  2
*D15
 70
     1
 10
0.0
 20
0.0
 30
0.0
  3
*D15
  1

  0
LINE
  5
155
330
A0
100
AcDbEntity
  8
Layer0015
  6
Continuous
 62
     2
370
    13
100
AcDbLine
 10
91.78345209443518
 20
-333.2172804445552
 30
0.0
 11
174.2834521556655
 21
-333.2172804445552
 31
0.0
  0
INSERT
  5
156
330
A0
100
AcDbEntity
  8
Layer0015
 62
     2
100
AcDbBlockReference
  2
_OPEN30
 10
91.78345209443518
 20
-333.2172804445552
 30
0.0
 41
4.587961098652522
 42
3.019162853224171
 50
180.0
  0
INSERT
  5
157
330
A0
100
AcDbEntity
  8
Layer0015
 62
     2
100
AcDbBlockReference
  2
_OPEN30
 10
174.2834521556655
 20
-333.2172804445552
 30
0.0
 41
4.587961098652522
 42
3.019162853224171
 50
360.0
  0
LINE
  5
158
330
A0
100
AcDbEntity
  8
Layer0015
  6
Continuous
 62
     2
370
    13
100
AcDbLine
 10
91.78345209443518
 20
-221.1567096947347
 30
0.0
 11
91.78345209443518
 21
-334.4172804445552
 31
0.0
  0
LINE
  5
159
330
A0
100
AcDbEntity
  8
Layer0015
  6
Continuous
 62
     2
370
    13
100
AcDbLine
 10
174.2834521556655
 20
-149.1567096947348
 30
0.0
 11
174.2834521556655
 21
-334.4172804445552
 31
0.0
  0
MTEXT
  5
15A
330
A0
100
AcDbEntity
  8
Layer0015
 62
     2
100
AcDbMText
 10
133.0334521250504
 20
-331.7172804445552
 30
0.0
 40
9.0
 41
29.24999999999999
 71
     8
 72
     1
  1
\T1.00;83
  7
dcStyle0
 73
     1
 44
1.0
  0
ENDBLK
  5
A2
330
A0
100
AcDbEntity
  8
0
100
AcDbBlockEnd
  0
BLOCK
  5
A4
330
A3
100
AcDbEntity
  8
0
100
AcDbBlockBegin
  2
*D16
 70
     1
 10
0.0
 20
0.0
 30
0.0
  3
*D16
  1

  0
LINE
  5
15B
330
A3
100
AcDbEntity
  8
Layer0015
  6
Continuous
 62
     2
370
    13
100
AcDbLine
 10
174.2834521556655
 20
-333.2172804445552
 30
0.0
 11
263.2834521556682
 21
-333.2172804445552
 31
0.0
  0
INSERT
  5
15C
330
A3
100
AcDbEntity
  8
Layer0015
 62
     2
100
AcDbBlockReference
  2
_OPEN30
 10
174.2834521556655
 20
-333.2172804445552
 30
0.0
 41
4.587961098652522
 42
3.019162853224171
 50
180.0
  0
INSERT
  5
15D
330
A3
100
AcDbEntity
  8
Layer0015
 62
     2
100
AcDbBlockReference
  2
_OPEN30
 10
263.2834521556682
 20
-333.2172804445552
 30
0.0
 41
4.587961098652522
 42
3.019162853224171
 50
360.0
  0
LINE
  5
15E
330
A3
100
AcDbEntity
  8
Layer0015
  6
Continuous
 62
     2
370
    13
100
AcDbLine
 10
174.2834521556655
 20
-149.1567096947348
 30
0.0
 11
174.2834521556655
 21
-334.4172804445552
 31
0.0
  0
LINE
  5
15F
330
A3
100
AcDbEntity
  8
Layer0015
  6
Continuous
 62
     2
370
    13
100
AcDbLine
 10
263.2834521556682
 20
-314.8771050902174
 30
0.0
 11
263.2834521556682
 21
-334.4172804445552
 31
0.0
  0
MTEXT
  5
160
330
A3
100
AcDbEntity
  8
Layer0015
 62
     2
100
AcDbMText
 10
218.7834521556669
 20
-331.7172804445552
 30
0.0
 40
9.0
 41
29.24999999999997
 71
     8
 72
     1
  1
\T1.00;89
  7
dcStyle0
 73
     1
 44
1.0
  0
ENDBLK
  5
A5
330
A3
100
AcDbEntity
  8
0
100
AcDbBlockEnd
  0
BLOCK
  5
A7
330
A6
100
AcDbEntity
  8
0
100
AcDbBlockBegin
  2
*D17
 70
     1
 10
0.0
 20
0.0
 30
0.0
  3
*D17
  1

  0
LINE
  5
161
330
A6
100
AcDbEntity
  8
Layer0015
  6
Continuous
 62
     2
370
    13
100
AcDbLine
 10
-355.090352960764
 20
-227.6567096947347
 30
0.0
 11
-355.090352960764
 21
-219.6567096947347
 31
0.0
  0
LINE
  5
162
330
A6
100
AcDbEntity
  8
Layer0015
  6
Continuous
 62
     2
370
    13
100
AcDbLine
 10
-332.7165479055637
 20
-227.6567096947347
 30
0.0
 11
-356.290352960764
 21
-227.6567096947347
 31
0.0
  0
LINE
  5
163
330
A6
100
AcDbEntity
  8
Layer0015
  6
Continuous
 62
     2
370
    13
100
AcDbLine
 10
-355.090352960764
 20
-239.2883396947347
 30
0.0
 11
-355.090352960764
 21
-227.6567096947347
 31
0.0
  0
INSERT
  5
164
330
A6
100
AcDbEntity
  8
Layer0015
 62
     2
100
AcDbBlockReference
  2
_OPEN30
 10
-355.090352960764
 20
-227.6567096947347
 30
0.0
 41
4.587961098652522
 42
3.019162853224171
 50
90.0
  0
MTEXT
  5
165
330
A6
100
AcDbEntity
  8
Layer0015
 62
     2
100
AcDbMText
 10
-356.590352960764
 20
-232.0883396947347
 30
0.0
 40
9.0
 41
20.24999999999999
 71
     9
 72
     1
  1
\T1.00;8
  7
dcStyle0
 11
6.123031769111886E-17
 21
1.0
 31
0.0
 73
     1
 44
1.0
  0
ENDBLK
  5
A8
330
A6
100
AcDbEntity
  8
0
100
AcDbBlockEnd
  0
BLOCK
  5
AA
330
A9
100
AcDbEntity
  8
0
100
AcDbBlockBegin
  2
*D18
 70
     1
 10
0.0
 20
0.0
 30
0.0
  3
*D18
  1

  0
LINE
  5
166
330
A9
100
AcDbEntity
  8
Layer0015
  6
Continuous
 62
     2
370
    13
100
AcDbLine
 10
-355.090352960764
 20
-94.65670969473467
 30
0.0
 11
-355.090352960764
 21
-32.65670969473467
 31
0.0
  0
INSERT
  5
167
330
A9
100
AcDbEntity
  8
Layer0015
 62
     2
100
AcDbBlockReference
  2
_OPEN30
 10
-355.090352960764
 20
-94.65670969473467
 30
0.0
 41
4.587961098652522
 42
3.019162853224171
 50
270.0
  0
INSERT
  5
168
330
A9
100
AcDbEntity
  8
Layer0015
 62
     2
100
AcDbBlockReference
  2
_OPEN30
 10
-355.090352960764
 20
-32.65670969473467
 30
0.0
 41
4.587961098652522
 42
3.019162853224171
 50
90.0
  0
LINE
  5
169
330
A9
100
AcDbEntity
  8
Layer0015
  6
Continuous
 62
     2
370
    13
100
AcDbLine
 10
-387.7165479055637
 20
-32.65670969473467
 30
0.0
 11
-353.8903529607641
 21
-32.65670969473467
 31
0.0
  0
MTEXT
  5
16A
330
A9
100
AcDbEntity
  8
Layer0015
 62
     2
100
AcDbMText
 10
-356.590352960764
 20
-63.65670969473467
 30
0.0
 40
9.0
 41
29.24999999999997
 71
     8
 72
     1
  1
\T1.00;62
  7
dcStyle0
 11
6.123031769111886E-17
 21
1.0
 31
0.0
 73
     1
 44
1.0
  0
ENDBLK
  5
AB
330
A9
100
AcDbEntity
  8
0
100
AcDbBlockEnd
  0
BLOCK
  5
AD
330
AC
100
AcDbEntity
  8
0
100
AcDbBlockBegin
  2
*D19
 70
     1
 10
0.0
 20
0.0
 30
0.0
  3
*D19
  1

  0
LINE
  5
16B
330
AC
100
AcDbEntity
  8
Layer0015
  6
Continuous
 62
     2
370
    13
100
AcDbLine
 10
-355.090352960764
 20
-219.6567096947347
 30
0.0
 11
-355.090352960764
 21
-94.65670969473467
 31
0.0
  0
INSERT
  5
16C
330
AC
100
AcDbEntity
  8
Layer0015
 62
     2
100
AcDbBlockReference
  2
_OPEN30
 10
-355.090352960764
 20
-219.6567096947347
 30
0.0
 41
4.587961098652522
 42
3.019162853224171
 50
270.0
  0
INSERT
  5
16D
330
AC
100
AcDbEntity
  8
Layer0015
 62
     2
100
AcDbBlockReference
  2
_OPEN30
 10
-355.090352960764
 20
-94.65670969473467
 30
0.0
 41
4.587961098652522
 42
3.019162853224171
 50
90.0
  0
MTEXT
  5
16E
330
AC
100
AcDbEntity
  8
Layer0015
 62
     2
100
AcDbMText
 10
-356.590352960764
 20
-125.4270888967875
 30
0.0
 40
9.0
 41
38.25000000000003
 71
     8
 72
     1
  1
\T1.00;125
  7
dcStyle0
 11
6.123031769111886E-17
 21
1.0
 31
0.0
 73
     1
 44
1.0
  0
ENDBLK
  5
AE
330
AC
100
AcDbEntity
  8
0
100
AcDbBlockEnd
  0
BLOCK
  5
B0
330
AF
100
AcDbEntity
  8
0
100
AcDbBlockBegin
  2
*D20
 70
     1
 10
0.0
 20
0.0
 30
0.0
  3
*D20
  1

  0
LINE
  5
16F
330
AF
100
AcDbEntity
  8
Layer0015
  6
Continuous
 62
     2
370
    13
100
AcDbLine
 10
-306.4105637552283
 20
-219.6567096947347
 30
0.0
 11
-306.4105637552283
 21
-11.65670969473468
 31
0.0
  0
INSERT
  5
170
330
AF
100
AcDbEntity
  8
Layer0015
 62
     2
100
AcDbBlockReference
  2
_OPEN30
 10
-306.4105637552283
 20
-219.6567096947347
 30
0.0
 41
4.587961098652522
 42
3.019162853224171
 50
270.0
  0
INSERT
  5
171
330
AF
100
AcDbEntity
  8
Layer0015
 62
     2
100
AcDbBlockReference
  2
_OPEN30
 10
-306.4105637552283
 20
-11.65670969473468
 30
0.0
 41
4.587961098652522
 42
3.019162853224171
 50
90.0
  0
LINE
  5
172
330
AF
100
AcDbEntity
  8
Layer0015
  6
Continuous
 62
     2
370
    13
100
AcDbLine
 10
-417.7165479055637
 20
-11.65670969473468
 30
0.0
 11
-305.2105637552282
 21
-11.65670969473468
 31
0.0
  0
MTEXT
  5
173
330
AF
100
AcDbEntity
  8
Layer0015
 62
     2
100
AcDbMText
 10
-307.9105637552283
 20
-115.6567096947347
 30
0.0
 40
9.0
 41
38.25000000000003
 71
     8
 72
     1
  1
\T1.00;208
  7
dcStyle0
 11
6.123031769111886E-17
 21
1.0
 31
0.0
 73
     1
 44
1.0
  0
ENDBLK
  5
B1
330
AF
100
AcDbEntity
  8
0
100
AcDbBlockEnd
  0
BLOCK
  5
B3
330
B2
100
AcDbEntity
  8
0
100
AcDbBlockBegin
  2
*D21
 70
     1
 10
0.0
 20
0.0
 30
0.0
  3
*D21
  1

  0
LINE
  5
174
330
B2
100
AcDbEntity
  8
Layer0015
  6
Continuous
 62
     2
370
    13
100
AcDbLine
 10
-514.2165479055637
 20
19.18731945637535
 30
0.0
 11
-389.2165479055637
 21
19.18731945637535
 31
0.0
  0
INSERT
  5
175
330
B2
100
AcDbEntity
  8
Layer0015
 62
     2
100
AcDbBlockReference
  2
_OPEN30
 10
-514.2165479055637
 20
19.18731945637535
 30
0.0
 41
4.587961098652522
 42
3.019162853224171
 50
180.0
  0
INSERT
  5
176
330
B2
100
AcDbEntity
  8
Layer0015
 62
     2
100
AcDbBlockReference
  2
_OPEN30
 10
-389.2165479055637
 20
19.18731945637535
 30
0.0
 41
4.587961098652522
 42
3.019162853224171
 50
360.0
  0
LINE
  5
177
330
B2
100
AcDbEntity
  8
Layer0015
  6
Continuous
 62
     2
370
    13
100
AcDbLine
 10
-514.2165479055637
 20
-32.15670969473467
 30
0.0
 11
-514.2165479055637
 21
20.38731945637535
 31
0.0
  0
LINE
  5
178
330
B2
100
AcDbEntity
  8
Layer0015
  6
Continuous
 62
     2
370
    13
100
AcDbLine
 10
-389.2165479055637
 20
-31.15670969473467
 30
0.0
 11
-389.2165479055637
 21
20.38731945637535
 31
0.0
  0
MTEXT
  5
179
330
B2
100
AcDbEntity
  8
Layer0015
 62
     2
100
AcDbMText
 10
-451.7165479055637
 20
20.68731945637535
 30
0.0
 40
9.0
 41
38.25000000000003
 71
     8
 72
     1
  1
\T1.00;125
  7
dcStyle0
 73
     1
 44
1.0
  0
ENDBLK
  5
B4
330
B2
100
AcDbEntity
  8
0
100
AcDbBlockEnd
  0
BLOCK
  5
B6
330
B5
100
AcDbEntity
  8
0
100
AcDbBlockBegin
  2
*D22
 70
     1
 10
0.0
 20
0.0
 30
0.0
  3
*D22
  1

  0
LINE
  5
17A
330
B5
100
AcDbEntity
  8
Layer0015
  6
Continuous
 62
     2
370
    13
100
AcDbLine
 10
-389.2165479055637
 20
19.18731945637535
 30
0.0
 11
-54.21654790556374
 21
19.18731945637535
 31
0.0
  0
INSERT
  5
17B
330
B5
100
AcDbEntity
  8
Layer0015
 62
     2
100
AcDbBlockReference
  2
_OPEN30
 10
-389.2165479055637
 20
19.18731945637535
 30
0.0
 41
4.587961098652522
 42
3.019162853224171
 50
180.0
  0
INSERT
  5
17C
330
B5
100
AcDbEntity
  8
Layer0015
 62
     2
100
AcDbBlockReference
  2
_OPEN30
 10
-54.21654790556374
 20
19.18731945637535
 30
0.0
 41
4.587961098652522
 42
3.019162853224171
 50
360.0
  0
LINE
  5
17D
330
B5
100
AcDbEntity
  8
Layer0015
  6
Continuous
 62
     2
370
    13
100
AcDbLine
 10
-389.2165479055637
 20
-31.15670969473467
 30
0.0
 11
-389.2165479055637
 21
20.38731945637535
 31
0.0
  0
LINE
  5
17E
330
B5
100
AcDbEntity
  8
Layer0015
  6
Continuous
 62
     2
370
    13
100
AcDbLine
 10
-54.21654790556374
 20
-31.15670969473467
 30
0.0
 11
-54.21654790556374
 21
20.38731945637535
 31
0.0
  0
MTEXT
  5
17F
330
B5
100
AcDbEntity
  8
Layer0015
 62
     2
100
AcDbMText
 10
-221.7165479055637
 20
20.68731945637535
 30
0.0
 40
9.0
 41
56.25
 71
     8
 72
     1
  1
\T1.00;0～330
  7
dcStyle0
 73
     1
 44
1.0
  0
ENDBLK
  5
B7
330
B5
100
AcDbEntity
  8
0
100
AcDbBlockEnd
  0
BLOCK
  5
B9
330
B8
100
AcDbEntity
  8
0
100
AcDbBlockBegin
  2
*D23
 70
     1
 10
0.0
 20
0.0
 30
0.0
  3
*D23
  1

  0
LINE
  5
180
330
B8
100
AcDbEntity
  8
Layer0015
  6
Continuous
 62
     2
370
    13
100
AcDbLine
 10
-54.21654790556374
 20
19.18731945637535
 30
0.0
 11
174.2834521556655
 21
19.18731945637535
 31
0.0
  0
INSERT
  5
181
330
B8
100
AcDbEntity
  8
Layer0015
 62
     2
100
AcDbBlockReference
  2
_OPEN30
 10
-54.21654790556374
 20
19.18731945637535
 30
0.0
 41
4.587961098652522
 42
3.019162853224171
 50
180.0
  0
INSERT
  5
182
330
B8
100
AcDbEntity
  8
Layer0015
 62
     2
100
AcDbBlockReference
  2
_OPEN30
 10
174.2834521556655
 20
19.18731945637535
 30
0.0
 41
4.587961098652522
 42
3.019162853224171
 50
360.0
  0
LINE
  5
183
330
B8
100
AcDbEntity
  8
Layer0015
  6
Continuous
 62
     2
370
    13
100
AcDbLine
 10
-54.21654790556374
 20
-31.15670969473467
 30
0.0
 11
-54.21654790556374
 21
20.38731945637535
 31
0.0
  0
LINE
  5
184
330
B8
100
AcDbEntity
  8
Layer0015
  6
Continuous
 62
     2
370
    13
100
AcDbLine
 10
174.2834521556655
 20
-130.1567096947348
 30
0.0
 11
174.2834521556655
 21
20.38731945637535
 31
0.0
  0
MTEXT
  5
185
330
B8
100
AcDbEntity
  8
Layer0015
 62
     2
100
AcDbMText
 10
60.0334521250509
 20
20.68731945637535
 30
0.0
 40
9.0
 41
38.24999999999999
 71
     8
 72
     1
  1
\T1.00;234
  7
dcStyle0
 73
     1
 44
1.0
  0
ENDBLK
  5
BA
330
B8
100
AcDbEntity
  8
0
100
AcDbBlockEnd
  0
BLOCK
  5
BC
330
BB
100
AcDbEntity
  8
0
100
AcDbBlockBegin
  2
*D24
 70
     1
 10
0.0
 20
0.0
 30
0.0
  3
*D24
  1

  0
LINE
  5
186
330
BB
100
AcDbEntity
  8
Layer0015
  6
Continuous
 62
     2
370
    13
100
AcDbLine
 10
-409.2165479055637
 20
-23.70218121079014
 30
0.0
 11
-389.2165479055637
 21
-23.70218121079014
 31
0.0
  0
INSERT
  5
187
330
BB
100
AcDbEntity
  8
Layer0015
 62
     2
100
AcDbBlockReference
  2
_OPEN30
 10
-409.2165479055637
 20
-23.70218121079014
 30
0.0
 41
4.587961098652522
 42
3.019162853224171
 50
180.0
  0
INSERT
  5
188
330
BB
100
AcDbEntity
  8
Layer0015
 62
     2
100
AcDbBlockReference
  2
_OPEN30
 10
-389.2165479055637
 20
-23.70218121079014
 30
0.0
 41
4.587961098652522
 42
3.019162853224171
 50
360.0
  0
LINE
  5
189
330
BB
100
AcDbEntity
  8
Layer0015
  6
Continuous
 62
     2
370
    13
100
AcDbLine
 10
-409.2165479055637
 20
-31.15670969473467
 30
0.0
 11
-409.2165479055637
 21
-22.50218121079014
 31
0.0
  0
LINE
  5
18A
330
BB
100
AcDbEntity
  8
Layer0015
  6
Continuous
 62
     2
370
    13
100
AcDbLine
 10
-389.2165479055637
 20
-31.15670969473467
 30
0.0
 11
-389.2165479055637
 21
-22.50218121079014
 31
0.0
  0
MTEXT
  5
18B
330
BB
100
AcDbEntity
  8
Layer0015
 62
     2
100
AcDbMText
 10
-399.2165479055637
 20
-22.20218121079014
 30
0.0
 40
9.0
 41
29.24999999999997
 71
     8
 72
     1
  1
\T1.00;20
  7
dcStyle0
 73
     1
 44
1.0
  0
ENDBLK
  5
BD
330
BB
100
AcDbEntity
  8
0
100
AcDbBlockEnd
  0
BLOCK
  5
BF
330
BE
100
AcDbEntity
  8
0
100
AcDbBlockBegin
  2
*D25
 70
     1
 10
0.0
 20
0.0
 30
0.0
  3
*D25
  1

  0
LINE
  5
18C
330
BE
100
AcDbEntity
  8
Layer0015
  6
Continuous
 62
     2
370
    13
100
AcDbLine
 10
-514.2165479055637
 20
37.32082558776075
 30
0.0
 11
174.2834521556655
 21
37.32082558776075
 31
0.0
  0
INSERT
  5
18D
330
BE
100
AcDbEntity
  8
Layer0015
 62
     2
100
AcDbBlockReference
  2
_OPEN30
 10
-514.2165479055637
 20
37.32082558776075
 30
0.0
 41
4.587961098652522
 42
3.019162853224171
 50
180.0
  0
INSERT
  5
18E
330
BE
100
AcDbEntity
  8
Layer0015
 62
     2
100
AcDbBlockReference
  2
_OPEN30
 10
174.2834521556655
 20
37.32082558776075
 30
0.0
 41
4.587961098652522
 42
3.019162853224171
 50
360.0
  0
LINE
  5
18F
330
BE
100
AcDbEntity
  8
Layer0015
  6
Continuous
 62
     2
370
    13
100
AcDbLine
 10
-514.2165479055637
 20
140.9152265574398
 30
0.0
 11
-514.2165479055637
 21
36.12082558776075
 31
0.0
  0
LINE
  5
190
330
BE
100
AcDbEntity
  8
Layer0015
  6
Continuous
 62
     2
370
    13
100
AcDbLine
 10
174.2834521556655
 20
236.9152265574398
 30
0.0
 11
174.2834521556655
 21
36.12082558776075
 31
0.0
  0
MTEXT
  5
191
330
BE
100
AcDbEntity
  8
Layer0015
 62
     2
100
AcDbMText
 10
-169.9665478749491
 20
38.82082558776075
 30
0.0
 40
9.0
 41
38.25000000000003
 71
     8
 72
     1
  1
\T1.00;689
  7
dcStyle0
 73
     1
 44
1.0
  0
ENDBLK
  5
C0
330
BE
100
AcDbEntity
  8
0
100
AcDbBlockEnd
  0
BLOCK
  5
C2
330
C1
100
AcDbEntity
  8
0
100
AcDbBlockBegin
  2
*D26
 70
     1
 10
0.0
 20
0.0
 30
0.0
  3
*D26
  1

  0
LINE
  5
192
330
C1
100
AcDbEntity
  8
Layer0015
  6
Continuous
 62
     2
370
    13
100
AcDbLine
 10
-388.2810939537528
 20
-424.1966833421342
 30
0.0
 11
-288.2810939537528
 21
-424.1966833421342
 31
0.0
  0
INSERT
  5
193
330
C1
100
AcDbEntity
  8
Layer0015
 62
     2
100
AcDbBlockReference
  2
_OPEN30
 10
-388.2810939537528
 20
-424.1966833421342
 30
0.0
 41
4.587961098652522
 42
3.019162853224171
 50
180.0
  0
INSERT
  5
194
330
C1
100
AcDbEntity
  8
Layer0015
 62
     2
100
AcDbBlockReference
  2
_OPEN30
 10
-288.2810939537528
 20
-424.1966833421342
 30
0.0
 41
4.587961098652522
 42
3.019162853224171
 50
360.0
  0
LINE
  5
195
330
C1
100
AcDbEntity
  8
Layer0015
  6
Continuous
 62
     2
370
    13
100
AcDbLine
 10
-388.2810939537528
 20
-390.8423455829388
 30
0.0
 11
-388.2810939537528
 21
-425.7966833421343
 31
0.0
  0
LINE
  5
196
330
C1
100
AcDbEntity
  8
Layer0015
  6
Continuous
 62
     2
370
    13
100
AcDbLine
 10
-288.2810939537528
 20
-377.5879322621649
 30
0.0
 11
-288.2810939537528
 21
-425.7966833421343
 31
0.0
  0
MTEXT
  5
197
330
C1
100
AcDbEntity
  8
Layer0015
 62
     2
100
AcDbMText
 10
-338.2810939537528
 20
-422.1966833421342
 30
0.0
 40
9.0
 41
38.25000000000003
 71
     8
 72
     1
  1
\T1.00;100
  7
dcStyle0
 73
     1
 44
1.0
  0
ENDBLK
  5
C3
330
C1
100
AcDbEntity
  8
0
100
AcDbBlockEnd
  0
BLOCK
  5
C5
330
C4
100
AcDbEntity
  8
0
100
AcDbBlockBegin
  2
DA_IMAGEDIMGROUP_2
 70
     0
 10
0.0
 20
0.0
 30
0.0
  3
DA_IMAGEDIMGROUP_2
  1

  0
LINE
  5
198
330
C4
100
AcDbEntity
  8
Layer0015
  6
Continuous
 62
     2
370
    13
100
AcDbLine
 10
-306.2810939537528
 20
-380.3423455829388
 30
0.0
 11
-306.2810939537528
 21
-407.9337853085776
 31
0.0
  0
LINE
  5
199
330
C4
100
AcDbEntity
  8
Layer0015
  6
Continuous
 62
     2
370
    13
100
AcDbLine
 10
-288.2810939537528
 20
-377.5879322621649
 30
0.0
 11
-288.2810939537528
 21
-407.9337853085776
 31
0.0
  0
LINE
  5
19A
330
C4
100
AcDbEntity
  8
Layer0015
  6
Continuous
 62
     2
370
    13
100
AcDbLine
 10
-306.2810939537528
 20
-406.3337853085775
 30
0.0
 11
-288.2810939537528
 21
-406.3337853085775
 31
0.0
  0
LINE
  5
19B
330
C4
100
AcDbEntity
  8
Layer0015
  6
Continuous
 62
     2
370
    13
100
AcDbLine
 10
-266.3722539537528
 20
-406.3337853085775
 30
0.0
 11
-288.2810939537528
 21
-406.3337853085775
 31
0.0
  0
INSERT
  5
19C
330
C4
100
AcDbEntity
  8
Layer0015
 62
     2
100
AcDbBlockReference
  2
_OPEN30
 10
-288.2810939537528
 20
-406.3337853085775
 30
0.0
 41
4.587961098652522
 42
3.019162853224171
 50
180.0
  0
LINE
  5
19D
330
C4
100
AcDbEntity
  8
Layer0015
  6
Continuous
 62
     2
370
    13
100
AcDbLine
 10
-314.2810939537528
 20
-406.3337853085775
 30
0.0
 11
-306.2810939537528
 21
-406.3337853085775
 31
0.0
  0
INSERT
  5
19E
330
C4
100
AcDbEntity
  8
Layer0015
 62
     2
100
AcDbBlockReference
  2
_OPEN30
 10
-306.2810939537528
 20
-406.3337853085775
 30
0.0
 41
4.587961098652522
 42
3.019162853224171
 50
360.0
  0
MTEXT
  5
19F
330
C4
100
AcDbEntity
  8
Layer0015
 62
     2
100
AcDbMText
 10
-282.3722539537528
 20
-404.3337853085775
 30
0.0
 40
9.0
 41
29.24999999999997
 71
     7
 72
     1
  1
\T1.00;18
  7
dcStyle0
 73
     1
 44
1.0
  0
ENDBLK
  5
C6
330
C4
100
AcDbEntity
  8
0
100
AcDbBlockEnd
  0
BLOCK
  5
C8
330
C7
100
AcDbEntity
  8
0
100
AcDbBlockBegin
  2
*D28
 70
     1
 10
0.0
 20
0.0
 30
0.0
  3
*D28
  1

  0
LINE
  5
1A0
330
C7
100
AcDbEntity
  8
Layer0015
  6
Continuous
 62
     2
370
    13
100
AcDbLine
 10
-389.2165479055637
 20
1.499590989886504
 30
0.0
 11
-69.21654790556376
 21
1.499590989886504
 31
0.0
  0
INSERT
  5
1A1
330
C7
100
AcDbEntity
  8
Layer0015
 62
     2
100
AcDbBlockReference
  2
_OPEN30
 10
-389.2165479055637
 20
1.499590989886504
 30
0.0
 41
4.587961098652522
 42
3.019162853224171
 50
180.0
  0
INSERT
  5
1A2
330
C7
100
AcDbEntity
  8
Layer0015
 62
     2
100
AcDbBlockReference
  2
_OPEN30
 10
-69.21654790556376
 20
1.499590989886504
 30
0.0
 41
4.587961098652522
 42
3.019162853224171
 50
360.0
  0
LINE
  5
1A3
330
C7
100
AcDbEntity
  8
Layer0015
  6
Continuous
 62
     2
370
    13
100
AcDbLine
 10
-389.2165479055637
 20
-31.15670969473467
 30
0.0
 11
-389.2165479055637
 21
2.699590989886504
 31
0.0
  0
LINE
  5
1A4
330
C7
100
AcDbEntity
  8
Layer0015
  6
Continuous
 62
     2
370
    13
100
AcDbLine
 10
-69.21654790556376
 20
-31.65670969473468
 30
0.0
 11
-69.21654790556376
 21
2.699590989886504
 31
0.0
  0
MTEXT
  5
1A5
330
C7
100
AcDbEntity
  8
Layer0015
 62
     2
100
AcDbMText
 10
-229.2165479055637
 20
2.999590989886504
 30
0.0
 40
9.0
 41
56.25
 71
     8
 72
     1
  1
\T1.00;0～315
  7
dcStyle0
 73
     1
 44
1.0
  0
ENDBLK
  5
C9
330
C7
100
AcDbEntity
  8
0
100
AcDbBlockEnd
  0
BLOCK
  5
CB
330
CA
100
AcDbEntity
  8
0
100
AcDbBlockBegin
  2
*D29
 70
     1
 10
0.0
 20
0.0
 30
0.0
  3
*D29
  1

  0
LINE
  5
1A6
330
CA
100
AcDbEntity
  8
Layer0015
  6
Continuous
 62
     2
370
    13
100
AcDbLine
 10
423.085492515247
 20
-219.6567096947347
 30
0.0
 11
423.085492515247
 21
-79.84710925631799
 31
0.0
  0
INSERT
  5
1A7
330
CA
100
AcDbEntity
  8
Layer0015
 62
     2
100
AcDbBlockReference
  2
_OPEN30
 10
423.085492515247
 20
-219.6567096947347
 30
0.0
 41
4.587961098652522
 42
3.019162853224171
 50
270.0
  0
INSERT
  5
1A8
330
CA
100
AcDbEntity
  8
Layer0015
 62
     2
100
AcDbBlockReference
  2
_OPEN30
 10
423.085492515247
 20
-79.84710925631799
 30
0.0
 41
4.587961098652522
 42
3.019162853224171
 50
90.0
  0
LINE
  5
1A9
330
CA
100
AcDbEntity
  8
Layer0015
  6
Continuous
 62
     2
370
    13
100
AcDbLine
 10
285.6960745302142
 20
-219.6567096947347
 30
0.0
 11
424.285492515247
 21
-219.6567096947347
 31
0.0
  0
LINE
  5
1AA
330
CA
100
AcDbEntity
  8
Layer0015
  6
Continuous
 62
     2
370
    13
100
AcDbLine
 10
376.9028078517006
 20
-79.84710925631799
 30
0.0
 11
424.285492515247
 21
-79.84710925631799
 31
0.0
  0
MTEXT
  5
1AB
330
CA
100
AcDbEntity
  8
Layer0015
 62
     2
100
AcDbMText
 10
421.585492515247
 20
-163.7945943448532
 30
0.0
 40
9.0
 41
38.25000000000003
 71
     8
 72
     1
  1
\T1.00;140
  7
dcStyle0
 11
6.123031769111886E-17
 21
1.0
 31
0.0
 73
     1
 44
1.0
  0
ENDBLK
  5
CC
330
CA
100
AcDbEntity
  8
0
100
AcDbBlockEnd
  0
BLOCK
  5
CE
330
CD
100
AcDbEntity
  8
0
100
AcDbBlockBegin
  2
*D30
 70
     1
 10
0.0
 20
0.0
 30
0.0
  3
*D30
  1

  0
LINE
  5
1AC
330
CD
100
AcDbEntity
  8
Layer0015
  6
Continuous
 62
     2
370
    13
100
AcDbLine
 10
442.3988172241733
 20
-219.6567096947347
 30
0.0
 11
442.3988172241733
 21
78.87415076781463
 31
0.0
  0
INSERT
  5
1AD
330
CD
100
AcDbEntity
  8
Layer0015
 62
     2
100
AcDbBlockReference
  2
_OPEN30
 10
442.3988172241733
 20
-219.6567096947347
 30
0.0
 41
4.587961098652522
 42
3.019162853224171
 50
270.0
  0
INSERT
  5
1AE
330
CD
100
AcDbEntity
  8
Layer0015
 62
     2
100
AcDbBlockReference
  2
_OPEN30
 10
442.3988172241733
 20
78.87415076781463
 30
0.0
 41
4.587961098652522
 42
3.019162853224171
 50
90.0
  0
LINE
  5
1AF
330
CD
100
AcDbEntity
  8
Layer0015
  6
Continuous
 62
     2
370
    13
100
AcDbLine
 10
285.6960745302142
 20
-219.6567096947347
 30
0.0
 11
443.5988172241733
 21
-219.6567096947347
 31
0.0
  0
LINE
  5
1B0
330
CD
100
AcDbEntity
  8
Layer0015
  6
Continuous
 62
     2
370
    13
100
AcDbLine
 10
281.9895212485631
 20
78.87415076781463
 30
0.0
 11
443.5988172241733
 21
78.87415076781463
 31
0.0
  0
MTEXT
  5
1B1
330
CD
100
AcDbEntity
  8
Layer0015
 62
     2
100
AcDbMText
 10
440.8988172241733
 20
-70.39127946346002
 30
0.0
 40
9.0
 41
38.25000000000003
 71
     8
 72
     1
  1
\T1.00;299
  7
dcStyle0
 11
6.123031769111886E-17
 21
1.0
 31
0.0
 73
     1
 44
1.0
  0
ENDBLK
  5
CF
330
CD
100
AcDbEntity
  8
0
100
AcDbBlockEnd
  0
BLOCK
  5
D1
330
D0
100
AcDbEntity
  8
0
100
AcDbBlockBegin
  2
DC_GROUP_HCN200_1
 70
     0
 10
0.0
 20
0.0
 30
0.0
  3
DC_GROUP_HCN200_1
  1

  0
LINE
  5
1B2
330
D0
100
AcDbEntity
  8
Layer0015
  6
Continuous
 62
     2
370
    13
100
AcDbLine
 10
387.4960745914397
 20
-169.1567096947348
 30
0.0
 11
387.4960745914397
 21
-243.627416374053
 31
0.0
  0
LINE
  5
1B3
330
D0
100
AcDbEntity
  8
Layer0015
  6
Continuous
 62
     2
370
    13
100
AcDbLine
 10
210.9454814267233
 20
-242.427416374053
 30
0.0
 11
387.4960745914397
 21
-242.427416374053
 31
0.0
  0
INSERT
  5
1B4
330
D0
100
AcDbEntity
  8
Layer0015
 62
     2
100
AcDbBlockReference
  2
_OPEN30
 10
387.4960745914397
 20
-242.427416374053
 30
0.0
 41
4.587961098652522
 42
3.019162853224171
 50
360.0
  0
TEXT
  5
1B5
330
D0
100
AcDbEntity
  8
Layer0015
 62
     2
100
AcDbText
 10
276.0459416842594
 20
-240.927416374053
 30
0.0
 40
9.0
  1
710
 41
0.8000000000000008
  7
dcStyle0
 72
     5
 11
297.6459416842595
 21
-240.927416374053
 31
0.0
100
AcDbText
  0
ENDBLK
  5
D2
330
D0
100
AcDbEntity
  8
0
100
AcDbBlockEnd
  0
BLOCK
  5
D4
330
D3
100
AcDbEntity
  8
0
100
AcDbBlockBegin
  2
DC_GROUP_HCN200_2
 70
     0
 10
0.0
 20
0.0
 30
0.0
  3
DC_GROUP_HCN200_2
  1

  0
LINE
  5
1B6
330
D3
100
AcDbEntity
  8
Layer0015
  6
Continuous
 62
     2
370
    13
100
AcDbLine
 10
578.5026279343167
 20
-94.6837965992421
 30
0.0
 11
578.5026279343167
 21
-265.6997874699687
 31
0.0
  0
LINE
  5
1B7
330
D3
100
AcDbEntity
  8
Layer0015
  6
Continuous
 62
     2
370
    13
100
AcDbLine
 10
210.9454814267233
 20
-264.4997874699687
 30
0.0
 11
578.5026279343167
 21
-264.4997874699687
 31
0.0
  0
INSERT
  5
1B8
330
D3
100
AcDbEntity
  8
Layer0015
 62
     2
100
AcDbBlockReference
  2
_OPEN30
 10
578.5026279343167
 20
-264.4997874699687
 30
0.0
 41
4.587961098652522
 42
3.019162853224171
 50
360.0
  0
TEXT
  5
1B9
330
D3
100
AcDbEntity
  8
Layer0015
 62
     2
100
AcDbText
 10
371.549218355698
 20
-262.9997874699687
 30
0.0
 40
9.0
  1
901
 41
0.8000000000000008
  7
dcStyle0
 72
     5
 11
393.149218355698
 21
-262.9997874699687
 31
0.0
100
AcDbText
  0
ENDBLK
  5
D5
330
D3
100
AcDbEntity
  8
0
100
AcDbBlockEnd
  0
BLOCK
  5
D7
330
D6
100
AcDbEntity
  8
0
100
AcDbBlockBegin
  2
*D33
 70
     1
 10
0.0
 20
0.0
 30
0.0
  3
*D33
  1

  0
LINE
  5
1BA
330
D6
100
AcDbEntity
  8
Layer0015
  6
Continuous
 62
     2
370
    13
100
AcDbLine
 10
594.2520790981334
 20
-219.6567096947347
 30
0.0
 11
594.2520790981334
 21
-81.1258492321856
 31
0.0
  0
INSERT
  5
1BB
330
D6
100
AcDbEntity
  8
Layer0015
 62
     2
100
AcDbBlockReference
  2
_OPEN30
 10
594.2520790981334
 20
-219.6567096947347
 30
0.0
 41
4.587961098652522
 42
3.019162853224171
 50
270.0
  0
INSERT
  5
1BC
330
D6
100
AcDbEntity
  8
Layer0015
 62
     2
100
AcDbBlockReference
  2
_OPEN30
 10
594.2520790981334
 20
-81.1258492321856
 30
0.0
 41
4.587961098652522
 42
3.019162853224171
 50
90.0
  0
LINE
  5
1BD
330
D6
100
AcDbEntity
  8
Layer0015
  6
Continuous
 62
     2
370
    13
100
AcDbLine
 10
285.6960745302142
 20
-219.6567096947347
 30
0.0
 11
595.4520790981335
 21
-219.6567096947347
 31
0.0
  0
LINE
  5
1BE
330
D6
100
AcDbEntity
  8
Layer0015
  6
Continuous
 62
     2
370
    13
100
AcDbLine
 10
559.1176504595835
 20
-81.1258492321856
 30
0.0
 11
595.4520790981335
 21
-81.1258492321856
 31
0.0
  0
MTEXT
  5
1BF
330
D6
100
AcDbEntity
  8
Layer0015
 62
     2
100
AcDbMText
 10
592.7520790981334
 20
-150.3912794634601
 30
0.0
 40
9.0
 41
38.24999999999989
 71
     8
 72
     1
  1
\T1.00;139
  7
dcStyle0
 11
6.123031769111886E-17
 21
1.0
 31
0.0
 73
     1
 44
1.0
  0
ENDBLK
  5
D8
330
D6
100
AcDbEntity
  8
0
100
AcDbBlockEnd
  0
BLOCK
  5
DA
330
D9
100
AcDbEntity
  8
0
100
AcDbBlockBegin
  2
DC_GROUP_HCN200_3
 70
     0
 10
0.0
 20
0.0
 30
0.0
  3
DC_GROUP_HCN200_3
  1

  0
TEXT
  5
1C0
330
D9
100
AcDbEntity
  8
Layer0015
 62
     2
100
AcDbText
 10
-477.9244266030311
 20
-386.0019463719855
 30
0.0
 40
9.0
  1
ハンドルソケット
 41
0.666666666666667
  7
dcStyle0
 72
     5
 11
-420.324426603031
 21
-386.0019463719855
 31
0.0
100
AcDbText
  0
LINE
  5
1C1
330
D9
100
AcDbEntity
  8
Layer0015
  6
Continuous
 62
     2
370
    18
100
AcDbLine
 10
-496.824426603031
 20
-386.9019463719854
 30
0.0
 11
-401.4244266030311
 21
-386.9019463719854
 31
0.0
  0
ENDBLK
  5
DB
330
D9
100
AcDbEntity
  8
0
100
AcDbBlockEnd
  0
BLOCK
  5
DD
330
DC
100
AcDbEntity
  8
0
100
AcDbBlockBegin
  2
DC_GROUP_HCN200_4
 70
     0
 10
0.0
 20
0.0
 30
0.0
  3
DC_GROUP_HCN200_4
  1

  0
TEXT
  5
1C2
330
DC
100
AcDbEntity
  8
Layer0004
 62
     2
100
AcDbText
 10
-495.9244266030311
 20
-396.5602726993168
 30
0.0
 40
9.0
  1
HANDLE SOCKET
 41
0.8000000000000002
  7
dcStyle0
 72
     5
 11
-402.324426603031
 21
-396.5602726993168
 31
0.0
100
AcDbText
  0
ENDBLK
  5
DE
330
DC
100
AcDbEntity
  8
0
100
AcDbBlockEnd
  0
BLOCK
  5
E0
330
DF
100
AcDbEntity
  8
0
100
AcDbBlockBegin
  2
DC_GROUP_HCN200_5
 70
     0
 10
0.0
 20
0.0
 30
0.0
  3
DC_GROUP_HCN200_5
  1

  0
TEXT
  5
1C3
330
DF
100
AcDbEntity
  8
Layer0004
 62
     2
100
AcDbText
 10
345.235806994308
 20
0.2501809287618455
 30
0.0
 40
9.0
  1
U-HANDLE
 41
0.8000000000000003
  7
dcStyle0
 72
     5
 11
402.835806994308
 21
0.2501809287618455
 31
0.0
100
AcDbText
  0
LINE
  5
1C4
330
DF
100
AcDbEntity
  8
Layer0004
  6
Continuous
 62
     2
370
    18
100
AcDbLine
 10
344.335806994308
 20
-0.6498190712381549
 30
0.0
 11
403.735806994308
 21
-0.6498190712381549
 31
0.0
  0
ENDBLK
  5
E1
330
DF
100
AcDbEntity
  8
0
100
AcDbBlockEnd
  0
BLOCK
  5
E3
330
E2
100
AcDbEntity
  8
0
100
AcDbBlockBegin
  2
DC_GROUP_HCN200_6
 70
     0
 10
0.0
 20
0.0
 30
0.0
  3
DC_GROUP_HCN200_6
  1

  0
TEXT
  5
1C5
330
E2
100
AcDbEntity
  8
Layer0004
 62
     2
100
AcDbText
 10
-424.8063393729984
 20
59.87607259803207
 30
0.0
 40
9.0
  1
ワークストッパー
 41
0.666666666666667
  7
dcStyle0
 72
     5
 11
-367.2063393729984
 21
59.87607259803207
 31
0.0
100
AcDbText
  0
LINE
  5
1C6
330
E2
100
AcDbEntity
  8
Layer0004
  6
Continuous
 62
     2
370
    18
100
AcDbLine
 10
-440.1063393729984
 20
58.97607259803207
 30
0.0
 11
-351.9063393729984
 21
58.97607259803207
 31
0.0
  0
ENDBLK
  5
E4
330
E2
100
AcDbEntity
  8
0
100
AcDbBlockEnd
  0
BLOCK
  5
E6
330
E5
100
AcDbEntity
  8
0
100
AcDbBlockBegin
  2
DC_GROUP_HCN200_7
 70
     0
 10
0.0
 20
0.0
 30
0.0
  3
DC_GROUP_HCN200_7
  1

  0
TEXT
  5
1C7
330
E5
100
AcDbEntity
  8
Layer0004
 62
     2
100
AcDbText
 10
-439.2063393729984
 20
49.31774627070067
 30
0.0
 40
9.0
  1
WORK STOPPER
 41
0.7999999999999998
  7
dcStyle0
 72
     5
 11
-352.8063393729984
 21
49.31774627070067
 31
0.0
100
AcDbText
  0
ENDBLK
  5
E7
330
E5
100
AcDbEntity
  8
0
100
AcDbBlockEnd
  0
BLOCK
  5
E9
330
E8
100
AcDbEntity
  8
0
100
AcDbBlockBegin
  2
DC_GROUP_HCN200_8
 70
     0
 10
0.0
 20
0.0
 30
0.0
  3
DC_GROUP_HCN200_8
  1

  0
LINE
  5
1C8
330
E8
100
AcDbEntity
  8
Layer0014
  6
Continuous
 62
     2
370
    18
100
AcDbLine
 10
-105.645591462752
 20
112.5149586915107
 30
0.0
 11
-77.30819853023179
 21
96.15435725378791
 31
0.0
  0
INSERT
  5
1C9
330
E8
100
AcDbEntity
  8
Layer0014
 62
     2
100
AcDbBlockReference
  2
_OPEN30
 10
-105.645591462752
 20
112.5149586915107
 30
0.0
 41
4.587961098652522
 42
3.019162853224171
 50
150.0
  0
LINE
  5
1CA
330
E8
100
AcDbEntity
  8
Layer0014
  6
Continuous
 62
     2
370
    18
100
AcDbLine
 10
-77.30819853023179
 20
96.15435725378791
 30
0.0
 11
25.8918014697682
 21
96.15435725378791
 31
0.0
  0
TEXT
  5
1CB
330
E8
100
AcDbEntity
  8
Layer0014
 62
     2
100
AcDbText
 10
-75.80819853023179
 20
96.4543572537879
 30
0.0
 40
9.0
  1
クランピングブロック
 41
0.6666666666666666
  7
dcStyle0
 72
     5
 11
-3.808198530231792
 21
96.4543572537879
 31
0.0
100
AcDbText
  0
ENDBLK
  5
EA
330
E8
100
AcDbEntity
  8
0
100
AcDbBlockEnd
  0
BLOCK
  5
EC
330
EB
100
AcDbEntity
  8
0
100
AcDbBlockBegin
  2
DC_GROUP_HCN200_9
 70
     0
 10
0.0
 20
0.0
 30
0.0
  3
DC_GROUP_HCN200_9
  1

  0
LINE
  5
1CC
330
EB
100
AcDbEntity
  8
Layer0014
  6
Continuous
 62
     2
370
    18
100
AcDbLine
 10
34.77586619235286
 20
-19.60200415603413
 30
0.0
 11
52.13980988088733
 21
-2.238060467499665
 31
0.0
  0
INSERT
  5
1CD
330
EB
100
AcDbEntity
  8
Layer0014
 62
     2
100
AcDbBlockReference
  2
_OPEN30
 10
34.77586619235286
 20
-19.60200415603413
 30
0.0
 41
4.587961098652522
 42
3.019162853224171
 50
225.0
  0
LINE
  5
1CE
330
EB
100
AcDbEntity
  8
Layer0014
  6
Continuous
 62
     2
370
    18
100
AcDbLine
 10
52.13980988088733
 20
-2.238060467499665
 30
0.0
 11
119.3398098808873
 21
-2.238060467499665
 31
0.0
  0
TEXT
  5
1CF
330
EB
100
AcDbEntity
  8
Layer0014
 62
     2
100
AcDbText
 10
53.63980988088733
 20
-1.938060467499665
 30
0.0
 40
9.0
  1
上口金
 41
0.6666666666666665
  7
dcStyle0
 72
     5
 11
75.23980988088732
 21
-1.938060467499665
 31
0.0
100
AcDbText
  0
ENDBLK
  5
ED
330
EB
100
AcDbEntity
  8
0
100
AcDbBlockEnd
  0
BLOCK
  5
EF
330
EE
100
AcDbEntity
  8
0
100
AcDbBlockBegin
  2
DC_GROUP_HCN200_10
 70
     0
 10
0.0
 20
0.0
 30
0.0
  3
DC_GROUP_HCN200_10
  1

  0
LINE
  5
1D0
330
EE
100
AcDbEntity
  8
Layer0014
  6
Continuous
 62
     2
370
    18
100
AcDbLine
 10
-64.5005944616594
 20
-60.74700115712667
 30
0.0
 11
-83.44618741478936
 21
-27.93227158278668
 31
0.0
  0
INSERT
  5
1D1
330
EE
100
AcDbEntity
  8
Layer0014
 62
     2
100
AcDbBlockReference
  2
_OPEN30
 10
-64.5005944616594
 20
-60.74700115712667
 30
0.0
 41
4.587961098652522
 42
3.019162853224171
 50
300.0
  0
LINE
  5
1D2
330
EE
100
AcDbEntity
  8
Layer0014
  6
Continuous
 62
     2
370
    18
100
AcDbLine
 10
-83.44618741478936
 20
-27.93227158278668
 30
0.0
 11
-179.4461874147894
 21
-27.93227158278668
 31
0.0
  0
TEXT
  5
1D3
330
EE
100
AcDbEntity
  8
Layer0014
 62
     2
100
AcDbText
 10
-142.5461874147894
 20
-27.63227158278668
 30
0.0
 40
9.0
  1
アンチリフト口金
 41
0.6666666666666666
  7
dcStyle0
 72
     5
 11
-84.94618741478936
 21
-27.63227158278668
 31
0.0
100
AcDbText
  0
ENDBLK
  5
F0
330
EE
100
AcDbEntity
  8
0
100
AcDbBlockEnd
  0
BLOCK
  5
F2
330
F1
100
AcDbEntity
  8
0
100
AcDbBlockBegin
  2
DC_GROUP_HCN200_11
 70
     0
 10
0.0
 20
0.0
 30
0.0
  3
DC_GROUP_HCN200_11
  1

  0
TEXT
  5
1D4
330
F1
100
AcDbEntity
  8
Layer0004
 62
     2
100
AcDbText
 10
-75.80819853023179
 20
86.4543572537879
 30
0.0
 40
9.0
  1
CLAMPING BLOCK
 41
0.7999999999999999
  7
dcStyle0
 72
     5
 11
24.99180146976821
 21
86.4543572537879
 31
0.0
100
AcDbText
  0
ENDBLK
  5
F3
330
F1
100
AcDbEntity
  8
0
100
AcDbBlockEnd
  0
BLOCK
  5
F5
330
F4
100
AcDbEntity
  8
0
100
AcDbBlockBegin
  2
DC_GROUP_HCN200_12
 70
     0
 10
0.0
 20
0.0
 30
0.0
  3
DC_GROUP_HCN200_12
  1

  0
TEXT
  5
1D5
330
F4
100
AcDbEntity
  8
Layer0004
 62
     2
100
AcDbText
 10
53.63980988088733
 20
-11.93806046749966
 30
0.0
 40
9.0
  1
UPPER JAW
 41
0.7999999999999999
  7
dcStyle0
 72
     5
 11
118.4398098808873
 21
-11.93806046749966
 31
0.0
100
AcDbText
  0
ENDBLK
  5
F6
330
F4
100
AcDbEntity
  8
0
100
AcDbBlockEnd
  0
BLOCK
  5
F8
330
F7
100
AcDbEntity
  8
0
100
AcDbBlockBegin
  2
DC_GROUP_HCN200_13
 70
     0
 10
0.0
 20
0.0
 30
0.0
  3
DC_GROUP_HCN200_13
  1

  0
TEXT
  5
1D6
330
F7
100
AcDbEntity
  8
Layer0004
 62
     2
100
AcDbText
 10
-178.5461874147894
 20
-37.63227158278667
 30
0.0
 40
9.0
  1
ANTI-LIFT JAW
 41
0.7999999999999999
  7
dcStyle0
 72
     5
 11
-84.94618741478936
 21
-37.63227158278667
 31
0.0
100
AcDbText
  0
ENDBLK
  5
F9
330
F7
100
AcDbEntity
  8
0
100
AcDbBlockEnd
  0
BLOCK
  5
FC
330
FB
100
AcDbEntity
  8
0
100
AcDbBlockBegin
  2
_OPEN30
 70
     0
 10
0.0
 20
0.0
 30
0.0
  3
_OPEN30
  1

  0
LINE
  5
FE
330
FB
100
AcDbEntity
  8
0
  6
ByBlock
 62
     0
370
    -2
100
AcDbLine
 10
-1.0
 20
0.267949
 30
0.0
 11
0.0
 21
0.0
 31
0.0
  0
LINE
  5
FF
330
FB
100
AcDbEntity
  8
0
  6
ByBlock
 62
     0
370
    -2
100
AcDbLine
 10
0.0
 20
0.0
 30
0.0
 11
-1.0
 21
-0.267949
 31
0.0
  0
LINE
  5
100
330
FB
100
AcDbEntity
  8
0
  6
ByBlock
 62
     0
370
    -2
100
AcDbLine
 10
0.0
 20
0.0
 30
0.0
 11
-1.0
 21
0.0
 31
0.0
  0
ENDBLK
  5
FD
330
FB
100
AcDbEntity
  8
0
100
AcDbBlockEnd
  0
ENDSEC
  0
SECTION
  2
ENTITIES
  0
LINE
  5
1D7
330
1F
100
AcDbEntity
  8
Layer0000
  6
Continuous
 62
     3
370
    18
100
AcDbLine
 10
91.78345209443495
 20
-99.65670969473467
 30
0.0
 11
123.7834520944334
 21
-99.65670969473473
 31
0.0
  0
LINE
  5
1D8
330
1F
100
AcDbEntity
  8
Layer0000
  6
Continuous
 62
     3
370
    18
100
AcDbLine
 10
91.78345209443518
 20
-184.6567096947348
 30
0.0
 11
123.7834520944334
 21
-184.6567096947347
 31
0.0
  0
LINE
  5
1D9
330
1F
100
AcDbEntity
  8
Layer0000
  6
Continuous
 62
     3
370
    18
100
AcDbLine
 10
378.4167854889995
 20
298.9152265574398
 30
0.0
 11
378.4167854889995
 21
193.9152265574398
 31
0.0
  0
LINE
  5
1DA
330
1F
100
AcDbEntity
  8
Layer0000
  6
Continuous
 62
     3
370
    18
100
AcDbLine
 10
393.4167854889995
 20
336.4152265574398
 30
0.0
 11
393.4167854889995
 21
303.9152265574398
 31
0.0
  0
LINE
  5
1DB
330
1F
100
AcDbEntity
  8
Layer0000
  6
Continuous
 62
     3
370
    18
100
AcDbLine
 10
303.4167854889995
 20
336.4152265574398
 30
0.0
 11
393.4167854889995
 21
336.4152265574398
 31
0.0
  0
LINE
  5
1DC
330
1F
100
AcDbEntity
  8
Layer0000
  6
Continuous
 62
     3
370
    18
100
AcDbLine
 10
303.4167854889995
 20
156.4152265574398
 30
0.0
 11
393.4167854889995
 21
156.4152265574398
 31
0.0
  0
LINE
  5
1DD
330
1F
100
AcDbEntity
  8
Layer0000
  6
Continuous
 62
     3
370
    18
100
AcDbLine
 10
393.4167854889995
 20
188.9152265574398
 30
0.0
 11
383.4167854889995
 21
188.9152265574398
 31
0.0
  0
ARC
  5
1DE
330
1F
100
AcDbEntity
  8
Layer0000
  6
Continuous
 62
     3
370
    18
100
AcDbCircle
 10
383.4167854889995
 20
193.9152265574398
 30
0.0
 40
5.0
100
AcDbArc
 50
180.0
 51
270.0
  0
LINE
  5
1DF
330
1F
100
AcDbEntity
  8
Layer0000
  6
Continuous
 62
     3
370
    18
100
AcDbLine
 10
393.4167854889995
 20
156.4152265574398
 30
0.0
 11
393.4167854889995
 21
188.9152265574398
 31
0.0
  0
CIRCLE
  5
1E0
330
1F
100
AcDbEntity
  8
Layer0000
  6
Continuous
 62
     3
370
    18
100
AcDbCircle
 10
343.4167854889995
 20
246.4152265574398
 30
0.0
 40
18.0
  0
LINE
  5
1E1
330
1F
100
AcDbEntity
  8
Layer0000
  6
Continuous
 62
     3
370
    18
100
AcDbLine
 10
91.78345209443495
 20
336.4152265574398
 30
0.0
 11
123.7834520944334
 21
336.4152265574398
 31
0.0
  0
LINE
  5
1E2
330
1F
100
AcDbEntity
  8
Layer0000
  6
Continuous
 62
     3
370
    18
100
AcDbLine
 10
91.78345209443495
 20
156.4152265574398
 30
0.0
 11
123.7834520944334
 21
156.4152265574398
 31
0.0
  0
LINE
  5
1E3
330
1F
100
AcDbEntity
  8
Layer0000
  6
Continuous
 62
     3
370
    18
100
AcDbLine
 10
123.7834520944334
 20
-99.65670969473473
 30
0.0
 11
123.7834520944334
 21
-184.6567096947347
 31
0.0
  0
CIRCLE
  5
1E4
330
1F
100
AcDbEntity
  8
Layer0000
  6
Continuous
 62
     3
370
    18
100
AcDbCircle
 10
343.4167854889995
 20
246.4152265574398
 30
0.0
 40
25.0
  0
LINE
  5
1E5
330
1F
100
AcDbEntity
  8
Layer0000
  6
Continuous
 62
     3
370
    18
100
AcDbLine
 10
123.7834520944334
 20
336.4152265574398
 30
0.0
 11
123.7834520944334
 21
156.4152265574398
 31
0.0
  0
LINE
  5
1E6
330
1F
100
AcDbEntity
  8
Layer0000
  6
Continuous
 62
     3
370
    18
100
AcDbLine
 10
393.4167854889995
 20
303.9152265574398
 30
0.0
 11
383.4167854889995
 21
303.9152265574398
 31
0.0
  0
ARC
  5
1E7
330
1F
100
AcDbEntity
  8
Layer0000
  6
Continuous
 62
     3
370
    18
100
AcDbCircle
 10
383.4167854889995
 20
298.9152265574398
 30
0.0
 40
5.0
100
AcDbArc
 50
90.0
 51
180.0
  0
LINE
  5
1E8
330
1F
100
AcDbEntity
  8
Layer0000
  6
Continuous
 62
     3
370
    18
100
AcDbLine
 10
-124.2165477831039
 20
264.4152265574398
 30
0.0
 11
-389.2165479055637
 21
264.4152265574398
 31
0.0
  0
LINE
  5
1E9
330
1F
100
AcDbEntity
  8
Layer0000
  6
Continuous
 62
     3
370
    18
100
AcDbLine
 10
-124.216547905565
 20
262.4152265574398
 30
0.0
 11
-389.2165479055637
 21
262.41522655744
 31
0.0
  0
LINE
  5
1EA
330
1F
100
AcDbEntity
  8
Layer0000
  6
Continuous
 62
     3
370
    18
100
AcDbLine
 10
-124.2165477831039
 20
228.4152265574399
 30
0.0
 11
-389.2165479055637
 21
228.4152265574398
 31
0.0
  0
LINE
  5
1EB
330
1F
100
AcDbEntity
  8
Layer0000
  6
Continuous
 62
     3
370
    18
100
AcDbLine
 10
-124.216547905565
 20
230.4152265574398
 30
0.0
 11
-389.2165479055637
 21
230.4152265574397
 31
0.0
  0
LINE
  5
1EC
330
1F
100
AcDbEntity
  8
Layer0000
  6
Continuous
 62
     3
370
    18
100
AcDbLine
 10
-387.7810939537528
 20
-345.3423455829388
 30
0.0
 11
-316.7810939537528
 21
-345.3423455829388
 31
0.0
  0
LINE
  5
1ED
330
1F
100
AcDbEntity
  8
Layer0000
  6
Continuous
 62
     3
370
    18
100
AcDbLine
 10
-387.7810939537528
 20
-389.3423455829388
 30
0.0
 11
-316.7810939537528
 21
-389.3423455829388
 31
0.0
  0
LINE
  5
1EE
330
1F
100
AcDbEntity
  8
Layer0000
  6
Continuous
 62
     3
370
    18
100
AcDbLine
 10
-306.2810939537528
 20
-356.8423455829388
 30
0.0
 11
-289.2810939537528
 21
-356.8423455829388
 31
0.0
  0
LINE
  5
1EF
330
1F
100
AcDbEntity
  8
Layer0000
  6
Continuous
 62
     3
370
    18
100
AcDbLine
 10
-306.2810939537528
 20
-377.8423455829388
 30
0.0
 11
-289.2810939537528
 21
-377.8423455829388
 31
0.0
  0
LINE
  5
1F0
330
1F
100
AcDbEntity
  8
Layer0000
  6
Continuous
 62
     3
370
    18
100
AcDbLine
 10
-288.2810939537528
 20
-358.5743963905077
 30
0.0
 11
-288.2810939537528
 21
-376.1102947753699
 31
0.0
  0
LINE
  5
1F1
330
1F
100
AcDbEntity
  8
Layer0000
  6
Continuous
 62
     3
370
    18
100
AcDbLine
 10
-316.2810939537528
 20
-388.8423455829388
 30
0.0
 11
-316.2810939537528
 21
-345.8423455829388
 31
0.0
  0
LINE
  5
1F2
330
1F
100
AcDbEntity
  8
Layer0000
  6
Continuous
 62
     3
370
    18
100
AcDbLine
 10
-388.2810939537528
 20
-345.8423455829388
 30
0.0
 11
-388.2810939537528
 21
-388.8423455829388
 31
0.0
  0
LINE
  5
1F3
330
1F
100
AcDbEntity
  8
Layer0000
  6
Continuous
 62
     3
370
    18
100
AcDbLine
 10
-316.7810939537528
 20
-345.3423455829388
 30
0.0
 11
-316.2810939537528
 21
-345.8423455829388
 31
0.0
  0
LINE
  5
1F4
330
1F
100
AcDbEntity
  8
Layer0000
  6
Continuous
 62
     3
370
    18
100
AcDbLine
 10
-387.7810939537528
 20
-345.3423455829388
 30
0.0
 11
-388.2810939537528
 21
-345.8423455829388
 31
0.0
  0
LINE
  5
1F5
330
1F
100
AcDbEntity
  8
Layer0000
  6
Continuous
 62
     3
370
    18
100
AcDbLine
 10
-388.2810939537528
 20
-388.8423455829388
 30
0.0
 11
-387.7810939537528
 21
-389.3423455829388
 31
0.0
  0
LINE
  5
1F6
330
1F
100
AcDbEntity
  8
Layer0000
  6
Continuous
 62
     3
370
    18
100
AcDbLine
 10
-316.2810939537528
 20
-388.8423455829388
 30
0.0
 11
-316.7810939537528
 21
-389.3423455829388
 31
0.0
  0
LINE
  5
1F7
330
1F
100
AcDbEntity
  8
Layer0000
  6
Continuous
 62
     3
370
    18
100
AcDbLine
 10
-315.7810939537528
 20
-378.3423455829388
 30
0.0
 11
-315.7810939537528
 21
-356.3423455829388
 31
0.0
  0
LINE
  5
1F8
330
1F
100
AcDbEntity
  8
Layer0000
  6
Continuous
 62
     3
370
    18
100
AcDbLine
 10
-316.7810939537528
 20
-389.3423455829388
 30
0.0
 11
-316.7810939537528
 21
-345.3423455829388
 31
0.0
  0
LINE
  5
1F9
330
1F
100
AcDbEntity
  8
Layer0000
  6
Continuous
 62
     3
370
    18
100
AcDbLine
 10
-387.7810939537528
 20
-389.3423455829388
 30
0.0
 11
-387.7810939537528
 21
-345.3423455829388
 31
0.0
  0
LINE
  5
1FA
330
1F
100
AcDbEntity
  8
Layer0000
  6
Continuous
 62
     3
370
    18
100
AcDbLine
 10
-289.2810939537528
 20
-362.8702096279392
 30
0.0
 11
-306.2810939537528
 21
-362.8702096279392
 31
0.0
  0
LINE
  5
1FB
330
1F
100
AcDbEntity
  8
Layer0000
  6
Continuous
 62
     3
370
    18
100
AcDbLine
 10
-289.2810939537528
 20
-361.3511722244864
 30
0.0
 11
-306.2810939537528
 21
-361.3511722244864
 31
0.0
  0
LINE
  5
1FC
330
1F
100
AcDbEntity
  8
Layer0000
  6
Continuous
 62
     3
370
    18
100
AcDbLine
 10
-289.2810939537528
 20
-371.8144815379383
 30
0.0
 11
-306.2810939537528
 21
-371.8144815379383
 31
0.0
  0
LINE
  5
1FD
330
1F
100
AcDbEntity
  8
Layer0000
  6
Continuous
 62
     3
370
    18
100
AcDbLine
 10
-289.2810939537528
 20
-373.3335189413911
 30
0.0
 11
-306.2810939537528
 21
-373.3335189413911
 31
0.0
  0
LINE
  5
1FE
330
1F
100
AcDbEntity
  8
Layer0000
  6
Continuous
 62
     3
370
    18
100
AcDbLine
 10
-289.2810939537528
 20
-361.3511722244864
 30
0.0
 11
-289.2810939537528
 21
-362.8702096279392
 31
0.0
  0
LINE
  5
1FF
330
1F
100
AcDbEntity
  8
Layer0000
  6
Continuous
 62
     3
370
    18
100
AcDbLine
 10
-289.2810939537528
 20
-373.3335189413911
 30
0.0
 11
-289.2810939537528
 21
-371.8144815379383
 31
0.0
  0
ARC
  5
200
330
1F
100
AcDbEntity
  8
Layer0000
  6
Continuous
 62
     3
370
    18
100
AcDbCircle
 10
-291.322283664194
 20
-359.0967589037126
 30
0.0
 40
3.041189710441189
100
AcDbArc
 50
312.1583048916936
 51
12.15830489169361
  0
ARC
  5
201
330
1F
100
AcDbEntity
  8
Layer0000
  6
Continuous
 62
     3
370
    18
100
AcDbCircle
 10
-298.7810939537526
 20
-367.3423455829388
 30
0.0
 40
10.49999999999994
100
AcDbArc
 50
334.7912347032415
 51
25.20876529675846
  0
ARC
  5
202
330
1F
100
AcDbEntity
  8
Layer0000
  6
Continuous
 62
     3
370
    18
100
AcDbCircle
 10
-291.322283664194
 20
-375.5879322621649
 30
0.0
 40
3.041189710441189
100
AcDbArc
 50
347.8416951083055
 51
47.84169510830637
  0
LINE
  5
203
330
1F
100
AcDbEntity
  8
Layer0000
  6
Continuous
 62
     3
370
    18
100
AcDbLine
 10
-289.2810939537528
 20
-356.8423455829388
 30
0.0
 11
-288.2810939537528
 21
-358.5743963905076
 31
0.0
  0
LINE
  5
204
330
1F
100
AcDbEntity
  8
Layer0000
  6
Continuous
 62
     3
370
    18
100
AcDbLine
 10
-289.2810939537528
 20
-377.8423455829388
 30
0.0
 11
-288.2810939537528
 21
-376.1102947753699
 31
0.0
  0
LINE
  5
205
330
1F
100
AcDbEntity
  8
Layer0000
  6
Continuous
 62
     3
370
    18
100
AcDbLine
 10
-306.2810939537528
 20
-356.3423455829388
 30
0.0
 11
-306.2810939537528
 21
-378.3423455829388
 31
0.0
  0
LINE
  5
206
330
1F
100
AcDbEntity
  8
Layer0000
  6
Continuous
 62
     3
370
    18
100
AcDbLine
 10
-315.7810939537528
 20
-356.3423455829388
 30
0.0
 11
-306.2810939537528
 21
-356.3423455829388
 31
0.0
  0
LINE
  5
207
330
1F
100
AcDbEntity
  8
Layer0000
  6
Continuous
 62
     3
370
    18
100
AcDbLine
 10
-315.7810939537528
 20
-378.3423455829388
 30
0.0
 11
-306.2810939537528
 21
-378.3423455829388
 31
0.0
  0
LINE
  5
208
330
1F
100
AcDbEntity
  8
Layer0000
  6
Continuous
 62
     3
370
    18
100
AcDbLine
 10
-315.7810939537528
 20
-378.3423455829388
 30
0.0
 11
-316.2810939537528
 21
-378.8423455829388
 31
0.0
  0
LINE
  5
209
330
1F
100
AcDbEntity
  8
Layer0000
  6
Continuous
 62
     3
370
    18
100
AcDbLine
 10
-315.7810939537528
 20
-356.3423455829388
 30
0.0
 11
-316.2810939537528
 21
-355.8423455829388
 31
0.0
  0
LINE
  5
20A
330
1F
100
AcDbEntity
  8
Layer0000
  6
Continuous
 62
     3
370
    25
100
AcDbLine
 10
75.78345209443495
 20
-33.65670969473464
 30
0.0
 11
75.78345209443495
 21
-94.65670969473464
 31
0.0
  0
LINE
  5
20B
330
1F
100
AcDbEntity
  8
Layer0000
  6
Continuous
 62
     3
370
    25
100
AcDbLine
 10
-34.21654790556374
 20
-94.65670969473467
 30
0.0
 11
-54.21654790556374
 21
-94.65670969473467
 31
0.0
  0
LINE
  5
20C
330
1F
100
AcDbEntity
  8
Layer0000
  6
Continuous
 62
     3
370
    25
100
AcDbLine
 10
-54.21654790556374
 20
-94.65670969473467
 30
0.0
 11
-54.21654790556374
 21
-32.65670969473467
 31
0.0
  0
LINE
  5
20D
330
1F
100
AcDbEntity
  8
Layer0000
  6
Continuous
 62
     3
370
    25
100
AcDbLine
 10
-54.21654790556374
 20
-32.65670969473467
 30
0.0
 11
-34.21654790556374
 21
-32.65670969473467
 31
0.0
  0
LINE
  5
20E
330
1F
100
AcDbEntity
  8
Layer0000
  6
Continuous
 62
     3
370
    25
100
AcDbLine
 10
-34.21654790556374
 20
-32.65670969473467
 30
0.0
 11
-34.21654790556374
 21
-94.65670969473467
 31
0.0
  0
LINE
  5
20F
330
1F
100
AcDbEntity
  8
Layer0000
  6
Continuous
 62
     3
370
    25
100
AcDbLine
 10
-389.2165479055637
 20
-94.65670969473467
 30
0.0
 11
-409.2165479055637
 21
-94.65670969473467
 31
0.0
  0
LINE
  5
210
330
1F
100
AcDbEntity
  8
Layer0000
  6
Continuous
 62
     3
370
    25
100
AcDbLine
 10
-409.2165479055637
 20
-94.65670969473467
 30
0.0
 11
-409.2165479055637
 21
-32.65670969473467
 31
0.0
  0
LINE
  5
211
330
1F
100
AcDbEntity
  8
Layer0000
  6
Continuous
 62
     3
370
    25
100
AcDbLine
 10
-409.2165479055637
 20
-32.65670969473467
 30
0.0
 11
-389.2165479055637
 21
-32.65670969473467
 31
0.0
  0
LINE
  5
212
330
1F
100
AcDbEntity
  8
Layer0000
  6
Continuous
 62
     3
370
    25
100
AcDbLine
 10
-389.2165479055637
 20
-32.65670969473467
 30
0.0
 11
-389.2165479055637
 21
-94.65670969473467
 31
0.0
  0
LINE
  5
213
330
1F
100
AcDbEntity
  8
Layer0000
  6
Continuous
 62
     3
370
    25
100
AcDbLine
 10
-514.2165479055637
 20
-94.65670969473467
 30
0.0
 11
-514.2165479055637
 21
-219.6567096947347
 31
0.0
  0
LINE
  5
214
330
1F
100
AcDbEntity
  8
Layer0000
  6
Continuous
 62
     3
370
    25
100
AcDbLine
 10
-270.7165479055648
 20
-184.6567096947347
 30
0.0
 11
-65.71654790556482
 21
-184.6567096947347
 31
0.0
  0
LINE
  5
215
330
1F
100
AcDbEntity
  8
Layer0000
  6
Continuous
 62
     3
370
    25
100
AcDbLine
 10
-331.2165479055637
 20
-227.6567096947347
 30
0.0
 11
-331.2165479055637
 21
-215.6567096947347
 31
0.0
  0
LINE
  5
216
330
1F
100
AcDbEntity
  8
Layer0000
  6
Continuous
 62
     3
370
    25
100
AcDbLine
 10
-331.2165479055637
 20
-215.6567096947347
 30
0.0
 11
-313.2165479055637
 21
-215.6567096947347
 31
0.0
  0
LINE
  5
217
330
1F
100
AcDbEntity
  8
Layer0000
  6
Continuous
 62
     3
370
    25
100
AcDbLine
 10
-313.2165479055637
 20
-215.6567096947347
 30
0.0
 11
-313.2165479055637
 21
-227.6567096947347
 31
0.0
  0
LINE
  5
218
330
1F
100
AcDbEntity
  8
Layer0000
  6
Continuous
 62
     3
370
    25
100
AcDbLine
 10
-514.2165479055637
 20
350.4152265574398
 30
0.0
 11
-514.2165479055637
 21
142.4152265574398
 31
0.0
  0
LINE
  5
219
330
1F
100
AcDbEntity
  8
Layer0000
  6
Continuous
 62
     3
370
    25
100
AcDbLine
 10
91.78345209443495
 20
142.4152265574398
 30
0.0
 11
91.78345209443495
 21
350.4152265574398
 31
0.0
  0
LINE
  5
21A
330
1F
100
AcDbEntity
  8
Layer0000
  6
Continuous
 62
     3
370
    25
100
AcDbLine
 10
-514.2165479055637
 20
350.4152265574398
 30
0.0
 11
91.78345209443489
 21
350.4152265574398
 31
0.0
  0
LINE
  5
21B
330
1F
100
AcDbEntity
  8
Layer0000
  6
Continuous
 62
     3
370
    25
100
AcDbLine
 10
-514.2165479055637
 20
142.4152265574398
 30
0.0
 11
91.78345209443489
 21
142.4152265574398
 31
0.0
  0
LINE
  5
21C
330
1F
100
AcDbEntity
  8
Layer0000
  6
Continuous
 62
     3
370
    25
100
AcDbLine
 10
423.4167854889995
 20
350.4152265574398
 30
0.0
 11
423.4167854889995
 21
142.4152265574398
 31
0.0
  0
LINE
  5
21D
330
1F
100
AcDbEntity
  8
Layer0000
  6
Continuous
 62
     3
370
    25
100
AcDbLine
 10
298.4167854889995
 20
300.4152265574398
 30
0.0
 11
299.4167854889995
 21
300.4152265574398
 31
0.0
  0
LINE
  5
21E
330
1F
100
AcDbEntity
  8
Layer0000
  6
Continuous
 62
     3
370
    25
100
AcDbLine
 10
298.4167854889995
 20
192.4152265574398
 30
0.0
 11
299.4167854889995
 21
192.4152265574398
 31
0.0
  0
LINE
  5
21F
330
1F
100
AcDbEntity
  8
Layer0000
  6
Continuous
 62
     3
370
    25
100
AcDbLine
 10
298.4167854889995
 20
300.4152265574398
 30
0.0
 11
298.4167854889995
 21
192.4152265574398
 31
0.0
  0
LINE
  5
220
330
1F
100
AcDbEntity
  8
Layer0000
  6
Continuous
 62
     3
370
    25
100
AcDbLine
 10
298.4167854889995
 20
300.4152265574398
 30
0.0
 11
303.4167854889995
 21
300.4152265574398
 31
0.0
  0
LINE
  5
221
330
1F
100
AcDbEntity
  8
Layer0000
  6
Continuous
 62
     3
370
    25
100
AcDbLine
 10
298.4167854889995
 20
192.4152265574398
 30
0.0
 11
303.4167854889995
 21
192.4152265574398
 31
0.0
  0
LINE
  5
222
330
1F
100
AcDbEntity
  8
Layer0000
  6
Continuous
 62
     3
370
    25
100
AcDbLine
 10
298.4167854889995
 20
348.4152265574398
 30
0.0
 11
298.4167854889995
 21
144.4152265574398
 31
0.0
  0
LINE
  5
223
330
1F
100
AcDbEntity
  8
Layer0000
  6
Continuous
 62
     3
370
    25
100
AcDbLine
 10
298.4167854889995
 20
348.4152265574398
 30
0.0
 11
237.4167854889995
 21
348.4152265574398
 31
0.0
  0
LINE
  5
224
330
1F
100
AcDbEntity
  8
Layer0000
  6
Continuous
 62
     3
370
    25
100
AcDbLine
 10
237.4167854889995
 20
348.4152265574398
 30
0.0
 11
237.4167854889995
 21
144.4152265574398
 31
0.0
  0
LINE
  5
225
330
1F
100
AcDbEntity
  8
Layer0000
  6
Continuous
 62
     3
370
    25
100
AcDbLine
 10
75.78345209443495
 20
144.4152265574398
 30
0.0
 11
75.78345209443495
 21
348.4152265574398
 31
0.0
  0
LINE
  5
226
330
1F
100
AcDbEntity
  8
Layer0000
  6
Continuous
 62
     3
370
    25
100
AcDbLine
 10
-34.21654790556374
 20
144.4152265574398
 30
0.0
 11
-34.21654790556374
 21
348.4152265574398
 31
0.0
  0
LINE
  5
227
330
1F
100
AcDbEntity
  8
Layer0000
  6
Continuous
 62
     3
370
    25
100
AcDbLine
 10
-54.21654790556374
 20
143.4152265574398
 30
0.0
 11
-34.21654790556374
 21
143.4152265574398
 31
0.0
  0
LINE
  5
228
330
1F
100
AcDbEntity
  8
Layer0000
  6
Continuous
 62
     3
370
    25
100
AcDbLine
 10
-54.21654790556374
 20
349.1525494798384
 30
0.0
 11
-34.21654790556374
 21
349.1525494798384
 31
0.0
  0
LINE
  5
229
330
1F
100
AcDbEntity
  8
Layer0000
  6
Continuous
 62
     3
370
    25
100
AcDbLine
 10
-34.21654790556374
 20
349.1525494798384
 30
0.0
 11
-34.21654790556374
 21
143.4152265574398
 31
0.0
  0
LINE
  5
22A
330
1F
100
AcDbEntity
  8
Layer0000
  6
Continuous
 62
     3
370
    25
100
AcDbLine
 10
-409.2165479055637
 20
349.4152265574398
 30
0.0
 11
-409.2165479055637
 21
143.4152265574398
 31
0.0
  0
LINE
  5
22B
330
1F
100
AcDbEntity
  8
Layer0000
  6
Continuous
 62
     3
370
    25
100
AcDbLine
 10
-389.2165479055637
 20
143.4152265574398
 30
0.0
 11
-389.2165479055637
 21
349.4152265574398
 31
0.0
  0
LINE
  5
22C
330
1F
100
AcDbEntity
  8
Layer0000
  6
Continuous
 62
     3
370
    25
100
AcDbLine
 10
-389.2165479055637
 20
349.4152265574398
 30
0.0
 11
-409.2165479055637
 21
349.4152265574398
 31
0.0
  0
LINE
  5
22D
330
1F
100
AcDbEntity
  8
Layer0000
  6
Continuous
 62
     3
370
    25
100
AcDbLine
 10
-389.2165479055637
 20
143.4152265574398
 30
0.0
 11
-409.2165479055637
 21
143.4152265574398
 31
0.0
  0
LINE
  5
22E
330
1F
100
AcDbEntity
  8
Layer0000
  6
Continuous
 62
     3
370
    25
100
AcDbLine
 10
401.4167854889995
 20
149.4152265574398
 30
0.0
 11
338.4167854889995
 21
149.4152265574398
 31
0.0
  0
LINE
  5
22F
330
1F
100
AcDbEntity
  8
Layer0000
  6
Continuous
 62
     3
370
    25
100
AcDbLine
 10
338.4167854889995
 20
149.4152265574398
 30
0.0
 11
338.4167854889995
 21
142.4152265574398
 31
0.0
  0
LINE
  5
230
330
1F
100
AcDbEntity
  8
Layer0000
  6
Continuous
 62
     3
370
    25
100
AcDbLine
 10
423.4167854889995
 20
142.4152265574398
 30
0.0
 11
401.4167854889995
 21
142.4152265574398
 31
0.0
  0
LINE
  5
231
330
1F
100
AcDbEntity
  8
Layer0000
  6
Continuous
 62
     3
370
    25
100
AcDbLine
 10
338.4167854889995
 20
142.4152265574398
 30
0.0
 11
298.4167854889995
 21
142.4152265574398
 31
0.0
  0
LINE
  5
232
330
1F
100
AcDbEntity
  8
Layer0000
  6
Continuous
 62
     3
370
    25
100
AcDbLine
 10
401.4167854889995
 20
343.4152265574398
 30
0.0
 11
338.4167854889995
 21
343.4152265574398
 31
0.0
  0
LINE
  5
233
330
1F
100
AcDbEntity
  8
Layer0000
  6
Continuous
 62
     3
370
    25
100
AcDbLine
 10
338.4167854889995
 20
343.4152265574398
 30
0.0
 11
338.4167854889995
 21
350.4152265574398
 31
0.0
  0
LINE
  5
234
330
1F
100
AcDbEntity
  8
Layer0000
  6
Continuous
 62
     3
370
    25
100
AcDbLine
 10
423.4167854889995
 20
350.4152265574398
 30
0.0
 11
401.4167854889995
 21
350.4152265574398
 31
0.0
  0
LINE
  5
235
330
1F
100
AcDbEntity
  8
Layer0000
  6
Continuous
 62
     3
370
    25
100
AcDbLine
 10
338.4167854889995
 20
350.4152265574398
 30
0.0
 11
298.4167854889995
 21
350.4152265574398
 31
0.0
  0
LINE
  5
236
330
1F
100
AcDbEntity
  8
Layer0000
  6
Continuous
 62
     3
370
    25
100
AcDbLine
 10
-124.2165477831039
 20
300.4152265574398
 30
0.0
 11
-124.2165477831039
 21
192.4152265574398
 31
0.0
  0
LINE
  5
237
330
1F
100
AcDbEntity
  8
Layer0000
  6
Continuous
 62
     3
370
    25
100
AcDbLine
 10
91.78345209443495
 20
264.4152265574398
 30
0.0
 11
91.78345209443495
 21
228.4152265574398
 31
0.0
  0
LINE
  5
238
330
1F
100
AcDbEntity
  8
Layer0000
  6
Continuous
 62
     3
370
    25
100
AcDbLine
 10
303.4167854889995
 20
336.4152265574398
 30
0.0
 11
303.4167854889995
 21
156.4152265574398
 31
0.0
  0
LINE
  5
239
330
1F
100
AcDbEntity
  8
Layer0000
  6
Continuous
 62
     3
370
    25
100
AcDbLine
 10
299.4167854889995
 20
300.4152265574398
 30
0.0
 11
299.4167854889995
 21
280.4152265574398
 31
0.0
  0
LINE
  5
23A
330
1F
100
AcDbEntity
  8
Layer0000
  6
Continuous
 62
     3
370
    25
100
AcDbLine
 10
299.4167854889995
 20
300.4152265574398
 30
0.0
 11
303.4167854889995
 21
300.4152265574398
 31
0.0
  0
LINE
  5
23B
330
1F
100
AcDbEntity
  8
Layer0000
  6
Continuous
 62
     3
370
    25
100
AcDbLine
 10
86.78345209443495
 20
264.4152265574398
 30
0.0
 11
86.78345209443495
 21
300.4152265574398
 31
0.0
  0
LINE
  5
23C
330
1F
100
AcDbEntity
  8
Layer0000
  6
Continuous
 62
     3
370
    25
100
AcDbLine
 10
299.4167854889995
 20
280.4152265574398
 30
0.0
 11
303.4167854889995
 21
280.4152265574398
 31
0.0
  0
LINE
  5
23D
330
1F
100
AcDbEntity
  8
Layer0000
  6
Continuous
 62
     3
370
    25
100
AcDbLine
 10
91.78345209443495
 20
280.4152265574398
 30
0.0
 11
86.78345209443495
 21
280.4152265574398
 31
0.0
  0
LINE
  5
23E
330
1F
100
AcDbEntity
  8
Layer0000
  6
Continuous
 62
     3
370
    25
100
AcDbLine
 10
91.78345209443495
 20
300.4152265574398
 30
0.0
 11
91.78345209443495
 21
280.4152265574398
 31
0.0
  0
LINE
  5
23F
330
1F
100
AcDbEntity
  8
Layer0000
  6
Continuous
 62
     3
370
    25
100
AcDbLine
 10
86.78345209443495
 20
264.4152265574398
 30
0.0
 11
91.78345209443495
 21
264.4152265574398
 31
0.0
  0
LINE
  5
240
330
1F
100
AcDbEntity
  8
Layer0000
  6
Continuous
 62
     3
370
    25
100
AcDbLine
 10
299.4167854889995
 20
298.9152265574398
 30
0.0
 11
303.4167854889995
 21
298.9152265574398
 31
0.0
  0
LINE
  5
241
330
1F
100
AcDbEntity
  8
Layer0000
  6
Continuous
 62
     3
370
    25
100
AcDbLine
 10
299.4167854889995
 20
296.9152265574398
 30
0.0
 11
303.4167854889995
 21
296.9152265574398
 31
0.0
  0
LINE
  5
242
330
1F
100
AcDbEntity
  8
Layer0000
  6
Continuous
 62
     3
370
    25
100
AcDbLine
 10
86.78345209443495
 20
228.4152265574398
 30
0.0
 11
86.78345209443495
 21
192.4152265574398
 31
0.0
  0
LINE
  5
243
330
1F
100
AcDbEntity
  8
Layer0000
  6
Continuous
 62
     3
370
    25
100
AcDbLine
 10
86.78345209443495
 20
228.4152265574398
 30
0.0
 11
91.78345209443495
 21
228.4152265574398
 31
0.0
  0
LINE
  5
244
330
1F
100
AcDbEntity
  8
Layer0000
  6
Continuous
 62
     3
370
    25
100
AcDbLine
 10
-124.216547905565
 20
264.4152265574398
 30
0.0
 11
-124.216547905565
 21
228.4152265574398
 31
0.0
  0
LINE
  5
245
330
1F
100
AcDbEntity
  8
Layer0000
  6
Continuous
 62
     3
370
    25
100
AcDbLine
 10
299.4167854889995
 20
296.4152265574398
 30
0.0
 11
303.4167854889995
 21
296.4152265574398
 31
0.0
  0
LINE
  5
246
330
1F
100
AcDbEntity
  8
Layer0000
  6
Continuous
 62
     3
370
    25
100
AcDbLine
 10
91.78345209443495
 20
212.4152265574398
 30
0.0
 11
86.78345209443495
 21
212.4152265574398
 31
0.0
  0
LINE
  5
247
330
1F
100
AcDbEntity
  8
Layer0000
  6
Continuous
 62
     3
370
    25
100
AcDbLine
 10
91.78345209443495
 20
192.4152265574398
 30
0.0
 11
91.78345209443495
 21
212.4152265574398
 31
0.0
  0
LINE
  5
248
330
1F
100
AcDbEntity
  8
Layer0000
  6
Continuous
 62
     3
370
    25
100
AcDbLine
 10
-129.2165477831039
 20
280.4152265574398
 30
0.0
 11
-124.2165477831039
 21
280.4152265574398
 31
0.0
  0
LINE
  5
249
330
1F
100
AcDbEntity
  8
Layer0000
  6
Continuous
 62
     3
370
    25
100
AcDbLine
 10
-129.2165477831039
 20
300.4152265574398
 30
0.0
 11
-129.2165477831039
 21
280.4152265574398
 31
0.0
  0
LINE
  5
24A
330
1F
100
AcDbEntity
  8
Layer0000
  6
Continuous
 62
     3
370
    25
100
AcDbLine
 10
-129.2165477831039
 20
212.4152265574398
 30
0.0
 11
-124.2165477831039
 21
212.4152265574398
 31
0.0
  0
LINE
  5
24B
330
1F
100
AcDbEntity
  8
Layer0000
  6
Continuous
 62
     3
370
    25
100
AcDbLine
 10
-129.2165477831039
 20
192.4152265574398
 30
0.0
 11
-129.2165477831039
 21
212.4152265574398
 31
0.0
  0
LINE
  5
24C
330
1F
100
AcDbEntity
  8
Layer0000
  6
Continuous
 62
     3
370
    25
100
AcDbLine
 10
91.78345209443495
 20
336.4152265574398
 30
0.0
 11
91.78345209443495
 21
156.4152265574398
 31
0.0
  0
LINE
  5
24D
330
1F
100
AcDbEntity
  8
Layer0000
  6
Continuous
 62
     3
370
    25
100
AcDbLine
 10
-514.2165479055637
 20
-33.65670969473467
 30
0.0
 11
-514.2165479055637
 21
-94.65670969473467
 31
0.0
  0
LINE
  5
24E
330
1F
100
AcDbEntity
  8
Layer0000
  6
Continuous
 62
     3
370
    25
100
AcDbLine
 10
-514.2165479055637
 20
348.4152265574398
 30
0.0
 11
-514.2165479055637
 21
144.4152265574398
 31
0.0
  0
LINE
  5
24F
330
1F
100
AcDbEntity
  8
Layer0000
  6
Continuous
 62
     3
370
    25
100
AcDbLine
 10
-409.2165479055637
 20
348.4152265574398
 30
0.0
 11
-409.2165479055637
 21
144.4152265574398
 31
0.0
  0
LINE
  5
250
330
1F
100
AcDbEntity
  8
Layer0000
  6
Continuous
 62
     3
370
    25
100
AcDbLine
 10
-469.2165479055637
 20
-94.65670969473467
 30
0.0
 11
-469.2165479055637
 21
-104.6567096947347
 31
0.0
  0
LINE
  5
251
330
1F
100
AcDbEntity
  8
Layer0000
  6
Continuous
 62
     3
370
    25
100
AcDbLine
 10
-469.2165479055637
 20
-104.6567096947347
 30
0.0
 11
-444.2165479055637
 21
-104.6567096947347
 31
0.0
  0
LINE
  5
252
330
1F
100
AcDbEntity
  8
Layer0000
  6
Continuous
 62
     3
370
    25
100
AcDbLine
 10
-444.2165479055637
 20
-104.6567096947347
 30
0.0
 11
-444.2165479055637
 21
-94.65670969473467
 31
0.0
  0
LINE
  5
253
330
1F
100
AcDbEntity
  8
Layer0000
  6
Continuous
 62
     3
370
    25
100
AcDbLine
 10
-444.2165479055637
 20
-94.65670969473467
 30
0.0
 11
91.78345209443495
 21
-94.65670969473467
 31
0.0
  0
LINE
  5
254
330
1F
100
AcDbEntity
  8
Layer0000
  6
Continuous
 62
     3
370
    25
100
AcDbLine
 10
298.4167854889995
 20
142.4152265574398
 30
0.0
 11
298.4167854889995
 21
192.4152265574398
 31
0.0
  0
LINE
  5
255
330
1F
100
AcDbEntity
  8
Layer0000
  6
Continuous
 62
     3
370
    25
100
AcDbLine
 10
298.4167854889995
 20
300.4152265574398
 30
0.0
 11
298.4167854889995
 21
350.4152265574398
 31
0.0
  0
LINE
  5
256
330
1F
100
AcDbEntity
  8
Layer0000
  6
Continuous
 62
     3
370
    25
100
AcDbLine
 10
-514.2165479055637
 20
-94.65670969473467
 30
0.0
 11
-469.2165479055637
 21
-94.65670969473467
 31
0.0
  0
LINE
  5
257
330
1F
100
AcDbEntity
  8
Layer0000
  6
Continuous
 62
     3
370
    25
100
AcDbLine
 10
298.4167854889995
 20
349.4152265574398
 30
0.0
 11
236.4167854889995
 21
349.4152265574398
 31
0.0
  0
LINE
  5
258
330
1F
100
AcDbEntity
  8
Layer0000
  6
Continuous
 62
     3
370
    25
100
AcDbLine
 10
236.4167854889995
 20
349.4152265574398
 30
0.0
 11
236.4167854889995
 21
143.4152265574398
 31
0.0
  0
LINE
  5
259
330
1F
100
AcDbEntity
  8
Layer0000
  6
Continuous
 62
     3
370
    25
100
AcDbLine
 10
236.4167854889995
 20
169.4152265574398
 30
0.0
 11
236.4167854889995
 21
349.4152265574398
 31
0.0
  0
LINE
  5
25A
330
1F
100
AcDbEntity
  8
Layer0000
  6
Continuous
 62
     3
370
    25
100
AcDbLine
 10
298.4167854889995
 20
143.4152265574398
 30
0.0
 11
298.4167854889995
 21
349.4152265574398
 31
0.0
  0
LINE
  5
25B
330
1F
100
AcDbEntity
  8
Layer0000
  6
Continuous
 62
     3
370
    25
100
AcDbLine
 10
-65.71654790556482
 20
-149.6567096947347
 30
0.0
 11
-270.7165479055648
 21
-149.6567096947347
 31
0.0
  0
ARC
  5
25C
330
1F
100
AcDbEntity
  8
Layer0000
  6
Continuous
 62
     3
370
    25
100
AcDbCircle
 10
-270.7165479055648
 20
-167.1567096947347
 30
0.0
 40
17.5
100
AcDbArc
 50
90.0
 51
270.0
  0
ARC
  5
25D
330
1F
100
AcDbEntity
  8
Layer0000
  6
Continuous
 62
     3
370
    25
100
AcDbCircle
 10
-65.71654790556482
 20
-167.1567096947347
 30
0.0
 40
17.5
100
AcDbArc
 50
270.0
 51
90.0
  0
LINE
  5
25E
330
1F
100
AcDbEntity
  8
Layer0000
  6
Continuous
 62
     3
370
    25
100
AcDbLine
 10
393.4167854889995
 20
204.4152265574398
 30
0.0
 11
393.4167854889995
 21
288.4152265574398
 31
0.0
  0
ARC
  5
25F
330
1F
100
AcDbEntity
  8
Layer0000
  6
Continuous
 62
     3
370
    25
100
AcDbCircle
 10
383.4167854889995
 20
204.4152265574398
 30
0.0
 40
10.0
100
AcDbArc
 50
283.9443421344249
 51
0.0
  0
ARC
  5
260
330
1F
100
AcDbEntity
  8
Layer0000
  6
Continuous
 62
     3
370
    25
100
AcDbCircle
 10
383.4167854889995
 20
288.4152265574398
 30
0.0
 40
10.0
100
AcDbArc
 50
0.0
 51
76.05565786557507
  0
LINE
  5
261
330
1F
100
AcDbEntity
  8
Layer0000
  6
Continuous
 62
     3
370
    25
100
AcDbLine
 10
298.4167854889995
 20
348.4152265574398
 30
0.0
 11
237.4167854889995
 21
348.4152265574398
 31
0.0
  0
LINE
  5
262
330
1F
100
AcDbEntity
  8
Layer0000
  6
Continuous
 62
     3
370
    25
100
AcDbLine
 10
237.4167854889995
 20
348.4152265574398
 30
0.0
 11
237.4167854889995
 21
144.4152265574398
 31
0.0
  0
LINE
  5
263
330
1F
100
AcDbEntity
  8
Layer0000
  6
Continuous
 62
     3
370
    25
100
AcDbLine
 10
298.4167854889995
 20
144.4152265574398
 30
0.0
 11
298.4167854889995
 21
348.4152265574398
 31
0.0
  0
LINE
  5
264
330
1F
100
AcDbEntity
  8
Layer0000
  6
Continuous
 62
     3
370
    25
100
AcDbLine
 10
91.78345209443495
 20
-94.65670969473467
 30
0.0
 11
91.78345209443518
 21
-219.6567096947347
 31
0.0
  0
LINE
  5
265
330
1F
100
AcDbEntity
  8
Layer0000
  6
Continuous
 62
     3
370
    25
100
AcDbLine
 10
-449.2165479055637
 20
-33.65670969473467
 30
0.0
 11
-449.2165479055637
 21
-38.15670969473467
 31
0.0
  0
LINE
  5
266
330
1F
100
AcDbEntity
  8
Layer0000
  6
Continuous
 62
     3
370
    25
100
AcDbLine
 10
-449.2165479055637
 20
-38.15670969473467
 30
0.0
 11
-465.2165479055637
 21
-38.15670969473467
 31
0.0
  0
LINE
  5
267
330
1F
100
AcDbEntity
  8
Layer0000
  6
Continuous
 62
     3
370
    25
100
AcDbLine
 10
-465.2165479055637
 20
-38.15670969473467
 30
0.0
 11
-465.2165479055637
 21
-33.65670969473467
 31
0.0
  0
LINE
  5
268
330
1F
100
AcDbEntity
  8
Layer0000
  6
Continuous
 62
     3
370
    25
100
AcDbLine
 10
-409.2165479055637
 20
-33.65670969473467
 30
0.0
 11
-449.2165479055637
 21
-33.65670969473467
 31
0.0
  0
LINE
  5
269
330
1F
100
AcDbEntity
  8
Layer0000
  6
Continuous
 62
     3
370
    25
100
AcDbLine
 10
-465.2165479055637
 20
-33.65670969473467
 30
0.0
 11
-514.2165479055637
 21
-33.65670969473467
 31
0.0
  0
LINE
  5
26A
330
1F
100
AcDbEntity
  8
Layer0000
  6
Continuous
 62
     3
370
    25
100
AcDbLine
 10
-34.21654790556374
 20
-33.65670969473464
 30
0.0
 11
5.783452094436264
 21
-33.65670969473464
 31
0.0
  0
LINE
  5
26B
330
1F
100
AcDbEntity
  8
Layer0000
  6
Continuous
 62
     3
370
    25
100
AcDbLine
 10
21.78345209443626
 20
-33.65670969473464
 30
0.0
 11
75.78345209443495
 21
-33.65670969473464
 31
0.0
  0
LINE
  5
26C
330
1F
100
AcDbEntity
  8
Layer0000
  6
Continuous
 62
     3
370
    25
100
AcDbLine
 10
5.783452094436264
 20
-33.65670969473464
 30
0.0
 11
5.783452094436264
 21
-38.15670969473464
 31
0.0
  0
LINE
  5
26D
330
1F
100
AcDbEntity
  8
Layer0000
  6
Continuous
 62
     3
370
    25
100
AcDbLine
 10
5.783452094436264
 20
-38.15670969473464
 30
0.0
 11
21.78345209443626
 21
-38.15670969473464
 31
0.0
  0
LINE
  5
26E
330
1F
100
AcDbEntity
  8
Layer0000
  6
Continuous
 62
     3
370
    25
100
AcDbLine
 10
21.78345209443626
 20
-38.15670969473464
 30
0.0
 11
21.78345209443626
 21
-33.65670969473464
 31
0.0
  0
LINE
  5
26F
330
1F
100
AcDbEntity
  8
Layer0000
  6
Continuous
 62
     3
370
    25
100
AcDbLine
 10
-271.2165479055637
 20
-219.6567096947347
 30
0.0
 11
-271.2165479055637
 21
-215.6567096947347
 31
0.0
  0
LINE
  5
270
330
1F
100
AcDbEntity
  8
Layer0000
  6
Continuous
 62
     3
370
    25
100
AcDbLine
 10
-271.2165479055637
 20
-215.6567096947347
 30
0.0
 11
-253.2165479055637
 21
-215.6567096947347
 31
0.0
  0
LINE
  5
271
330
1F
100
AcDbEntity
  8
Layer0000
  6
Continuous
 62
     3
370
    25
100
AcDbLine
 10
-253.2165479055637
 20
-215.6567096947347
 30
0.0
 11
-253.2165479055637
 21
-219.6567096947347
 31
0.0
  0
LINE
  5
272
330
1F
100
AcDbEntity
  8
Layer0000
  6
Continuous
 62
     3
370
    25
100
AcDbLine
 10
-211.2165479055637
 20
-219.6567096947347
 30
0.0
 11
-211.2165479055637
 21
-215.6567096947347
 31
0.0
  0
LINE
  5
273
330
1F
100
AcDbEntity
  8
Layer0000
  6
Continuous
 62
     3
370
    25
100
AcDbLine
 10
-211.2165479055637
 20
-215.6567096947347
 30
0.0
 11
-193.2165479055637
 21
-215.6567096947347
 31
0.0
  0
LINE
  5
274
330
1F
100
AcDbEntity
  8
Layer0000
  6
Continuous
 62
     3
370
    25
100
AcDbLine
 10
-193.2165479055637
 20
-215.6567096947347
 30
0.0
 11
-193.2165479055637
 21
-219.6567096947347
 31
0.0
  0
LINE
  5
275
330
1F
100
AcDbEntity
  8
Layer0000
  6
Continuous
 62
     3
370
    25
100
AcDbLine
 10
388.4167854889995
 20
291.4152265574398
 30
0.0
 11
388.4167854889995
 21
201.4152265574398
 31
0.0
  0
ARC
  5
276
330
1F
100
AcDbEntity
  8
Layer0000
  6
Continuous
 62
     3
370
    25
100
AcDbCircle
 10
378.4167854889995
 20
291.4152265574398
 30
0.0
 40
10.0
100
AcDbArc
 50
0.0
 51
86.23034996171964
  0
ARC
  5
277
330
1F
100
AcDbEntity
  8
Layer0000
  6
Continuous
 62
     3
370
    25
100
AcDbCircle
 10
378.4167854889995
 20
201.4152265574398
 30
0.0
 40
10.0
100
AcDbArc
 50
273.7696500382804
 51
0.0
  0
LINE
  5
278
330
1F
100
AcDbEntity
  8
Layer0000
  6
Continuous
 62
     3
370
    25
100
AcDbLine
 10
298.4167854889995
 20
143.4152265574398
 30
0.0
 11
236.4167854889995
 21
143.4152265574398
 31
0.0
  0
LINE
  5
279
330
1F
100
AcDbEntity
  8
Layer0000
  6
Continuous
 62
     3
370
    25
100
AcDbLine
 10
298.4167854889995
 20
144.4152265574398
 30
0.0
 11
237.4167854889995
 21
144.4152265574398
 31
0.0
  0
LINE
  5
27A
330
1F
100
AcDbEntity
  8
Layer0000
  6
Continuous
 62
     3
370
    25
100
AcDbLine
 10
298.4167854889995
 20
144.4152265574398
 30
0.0
 11
237.4167854889995
 21
144.4152265574398
 31
0.0
  0
LINE
  5
27B
330
1F
100
AcDbEntity
  8
Layer0000
  6
Continuous
 62
     3
370
    25
100
AcDbLine
 10
299.4167854889995
 20
192.4152265574398
 30
0.0
 11
299.4167854889995
 21
212.4152265574398
 31
0.0
  0
LINE
  5
27C
330
1F
100
AcDbEntity
  8
Layer0000
  6
Continuous
 62
     3
370
    25
100
AcDbLine
 10
299.4167854889995
 20
192.4152265574398
 30
0.0
 11
303.4167854889995
 21
192.4152265574398
 31
0.0
  0
LINE
  5
27D
330
1F
100
AcDbEntity
  8
Layer0000
  6
Continuous
 62
     3
370
    25
100
AcDbLine
 10
299.4167854889995
 20
212.4152265574398
 30
0.0
 11
303.4167854889995
 21
212.4152265574398
 31
0.0
  0
LINE
  5
27E
330
1F
100
AcDbEntity
  8
Layer0000
  6
Continuous
 62
     3
370
    25
100
AcDbLine
 10
299.4167854889995
 20
193.9152265574398
 30
0.0
 11
303.4167854889995
 21
193.9152265574398
 31
0.0
  0
LINE
  5
27F
330
1F
100
AcDbEntity
  8
Layer0000
  6
Continuous
 62
     3
370
    25
100
AcDbLine
 10
299.4167854889995
 20
195.9152265574398
 30
0.0
 11
303.4167854889995
 21
195.9152265574398
 31
0.0
  0
LINE
  5
280
330
1F
100
AcDbEntity
  8
Layer0000
  6
Continuous
 62
     3
370
    25
100
AcDbLine
 10
299.4167854889995
 20
196.4152265574398
 30
0.0
 11
303.4167854889995
 21
196.4152265574398
 31
0.0
  0
LINE
  5
281
330
1F
100
AcDbEntity
  8
Layer0000
  6
Continuous
 62
     3
370
    25
100
AcDbLine
 10
298.4167854889995
 20
276.4152265574398
 30
0.0
 11
303.4167854889995
 21
276.4152265574398
 31
0.0
  0
LINE
  5
282
330
1F
100
AcDbEntity
  8
Layer0000
  6
Continuous
 62
     3
370
    25
100
AcDbLine
 10
298.4167854889995
 20
216.4152265574398
 30
0.0
 11
303.4167854889995
 21
216.4152265574398
 31
0.0
  0
LINE
  5
283
330
1F
100
AcDbEntity
  8
Layer0000
  6
Continuous
 62
     3
370
    25
100
AcDbLine
 10
-389.2165479055637
 20
300.4152265574398
 30
0.0
 11
-54.21654790556374
 21
300.4152265574398
 31
0.0
  0
LINE
  5
284
330
1F
100
AcDbEntity
  8
Layer0000
  6
Continuous
 62
     3
370
    25
100
AcDbLine
 10
75.78345209443495
 20
300.4152265574398
 30
0.0
 11
91.78345209443495
 21
300.4152265574398
 31
0.0
  0
LINE
  5
285
330
1F
100
AcDbEntity
  8
Layer0000
  6
Continuous
 62
     3
370
    25
100
AcDbLine
 10
75.78345209443495
 20
192.4152265574398
 30
0.0
 11
91.78345209443495
 21
192.4152265574398
 31
0.0
  0
LINE
  5
286
330
1F
100
AcDbEntity
  8
Layer0000
  6
Continuous
 62
     3
370
    25
100
AcDbLine
 10
157.2834521556655
 20
-128.6567096947348
 30
0.0
 11
157.2834521556655
 21
-129.1567096947348
 31
0.0
  0
LINE
  5
287
330
1F
100
AcDbEntity
  8
Layer0000
  6
Continuous
 62
     3
370
    25
100
AcDbLine
 10
157.2834521556655
 20
-150.6567096947348
 30
0.0
 11
157.2834521556655
 21
-150.1567096947348
 31
0.0
  0
LINE
  5
288
330
1F
100
AcDbEntity
  8
Layer0000
  6
Continuous
 62
     3
370
    25
100
AcDbLine
 10
123.7834520944334
 20
-121.6567096947348
 30
0.0
 11
135.7834521556614
 21
-121.6567096947348
 31
0.0
  0
LINE
  5
289
330
1F
100
AcDbEntity
  8
Layer0000
  6
Continuous
 62
     3
370
    25
100
AcDbLine
 10
136.7834521556614
 20
-153.1567096947347
 30
0.0
 11
136.7834521556614
 21
-126.1567096947348
 31
0.0
  0
LINE
  5
28A
330
1F
100
AcDbEntity
  8
Layer0000
  6
Continuous
 62
     3
370
    25
100
AcDbLine
 10
174.2834521556655
 20
-131.6567096947348
 30
0.0
 11
174.2834521556655
 21
-147.6567096947348
 31
0.0
  0
LINE
  5
28B
330
1F
100
AcDbEntity
  8
Layer0000
  6
Continuous
 62
     3
370
    25
100
AcDbLine
 10
157.2834521556655
 20
-128.6567096947348
 30
0.0
 11
157.2834521556655
 21
-150.6567096947348
 31
0.0
  0
LINE
  5
28C
330
1F
100
AcDbEntity
  8
Layer0000
  6
Continuous
 62
     3
370
    25
100
AcDbLine
 10
157.2834521556655
 20
-129.1567096947348
 30
0.0
 11
175.283452155665
 21
-129.1567096947348
 31
0.0
  0
LINE
  5
28D
330
1F
100
AcDbEntity
  8
Layer0000
  6
Continuous
 62
     3
370
    25
100
AcDbLine
 10
157.2834521556655
 20
-150.1567096947348
 30
0.0
 11
175.2834521556658
 21
-150.1567096947348
 31
0.0
  0
LINE
  5
28E
330
1F
100
AcDbEntity
  8
Layer0000
  6
Continuous
 62
     3
370
    25
100
AcDbLine
 10
146.7834521556655
 20
-128.6567096947348
 30
0.0
 11
146.7834521556655
 21
-150.6567096947348
 31
0.0
  0
LINE
  5
28F
330
1F
100
AcDbEntity
  8
Layer0000
  6
Continuous
 62
     3
370
    25
100
AcDbLine
 10
143.7834521556655
 20
-128.6567096947348
 30
0.0
 11
143.7834521556655
 21
-150.6567096947348
 31
0.0
  0
LINE
  5
290
330
1F
100
AcDbEntity
  8
Layer0000
  6
Continuous
 62
     3
370
    25
100
AcDbLine
 10
140.7834521556655
 20
-128.6567096947348
 30
0.0
 11
140.7834521556655
 21
-150.6567096947348
 31
0.0
  0
LINE
  5
291
330
1F
100
AcDbEntity
  8
Layer0000
  6
Continuous
 62
     3
370
    25
100
AcDbLine
 10
147.2834521556655
 20
-128.6567096947348
 30
0.0
 11
147.2834521556655
 21
-150.6567096947348
 31
0.0
  0
LINE
  5
292
330
1F
100
AcDbEntity
  8
Layer0000
  6
Continuous
 62
     3
370
    25
100
AcDbLine
 10
144.2834521556655
 20
-128.6567096947348
 30
0.0
 11
144.2834521556655
 21
-150.6567096947348
 31
0.0
  0
LINE
  5
293
330
1F
100
AcDbEntity
  8
Layer0000
  6
Continuous
 62
     3
370
    25
100
AcDbLine
 10
141.2834521556655
 20
-128.6567096947348
 30
0.0
 11
141.2834521556655
 21
-150.6567096947348
 31
0.0
  0
LINE
  5
294
330
1F
100
AcDbEntity
  8
Layer0000
  6
Continuous
 62
     3
370
    25
100
AcDbLine
 10
140.7834521556655
 20
-128.9067096947348
 30
0.0
 11
141.2834521556655
 21
-128.9067096947348
 31
0.0
  0
LINE
  5
295
330
1F
100
AcDbEntity
  8
Layer0000
  6
Continuous
 62
     3
370
    25
100
AcDbLine
 10
143.7834521556655
 20
-128.9067096947348
 30
0.0
 11
144.2834521556655
 21
-128.9067096947348
 31
0.0
  0
LINE
  5
296
330
1F
100
AcDbEntity
  8
Layer0000
  6
Continuous
 62
     3
370
    25
100
AcDbLine
 10
146.7834521556655
 20
-128.9067096947348
 30
0.0
 11
147.2834521556655
 21
-128.9067096947348
 31
0.0
  0
LINE
  5
297
330
1F
100
AcDbEntity
  8
Layer0000
  6
Continuous
 62
     3
370
    25
100
AcDbLine
 10
136.7834521556614
 20
-128.6567096947348
 30
0.0
 11
140.7834521556655
 21
-128.6567096947348
 31
0.0
  0
LINE
  5
298
330
1F
100
AcDbEntity
  8
Layer0000
  6
Continuous
 62
     3
370
    25
100
AcDbLine
 10
141.2834521556655
 20
-128.6567096947348
 30
0.0
 11
143.7834521556655
 21
-128.6567096947348
 31
0.0
  0
LINE
  5
299
330
1F
100
AcDbEntity
  8
Layer0000
  6
Continuous
 62
     3
370
    25
100
AcDbLine
 10
144.2834521556655
 20
-128.6567096947348
 30
0.0
 11
146.7834521556655
 21
-128.6567096947348
 31
0.0
  0
LINE
  5
29A
330
1F
100
AcDbEntity
  8
Layer0000
  6
Continuous
 62
     3
370
    25
100
AcDbLine
 10
147.2834521556655
 20
-128.6567096947348
 30
0.0
 11
157.2834521556655
 21
-128.6567096947348
 31
0.0
  0
LINE
  5
29B
330
1F
100
AcDbEntity
  8
Layer0000
  6
Continuous
 62
     3
370
    25
100
AcDbLine
 10
136.7834521556614
 20
-150.6567096947348
 30
0.0
 11
140.7834521556655
 21
-150.6567096947348
 31
0.0
  0
LINE
  5
29C
330
1F
100
AcDbEntity
  8
Layer0000
  6
Continuous
 62
     3
370
    25
100
AcDbLine
 10
147.2834521556655
 20
-150.6567096947348
 30
0.0
 11
157.2834521556655
 21
-150.6567096947348
 31
0.0
  0
LINE
  5
29D
330
1F
100
AcDbEntity
  8
Layer0000
  6
Continuous
 62
     3
370
    25
100
AcDbLine
 10
140.7834521556655
 20
-150.4067096947348
 30
0.0
 11
141.2834521556655
 21
-150.4067096947348
 31
0.0
  0
LINE
  5
29E
330
1F
100
AcDbEntity
  8
Layer0000
  6
Continuous
 62
     3
370
    25
100
AcDbLine
 10
143.7834521556655
 20
-150.4067096947348
 30
0.0
 11
144.2834521556655
 21
-150.4067096947348
 31
0.0
  0
LINE
  5
29F
330
1F
100
AcDbEntity
  8
Layer0000
  6
Continuous
 62
     3
370
    25
100
AcDbLine
 10
146.7834521556655
 20
-150.4067096947348
 30
0.0
 11
147.2834521556655
 21
-150.4067096947348
 31
0.0
  0
LINE
  5
2A0
330
1F
100
AcDbEntity
  8
Layer0000
  6
Continuous
 62
     3
370
    25
100
AcDbLine
 10
141.2834521556655
 20
-150.6567096947348
 30
0.0
 11
143.7834521556655
 21
-150.6567096947348
 31
0.0
  0
LINE
  5
2A1
330
1F
100
AcDbEntity
  8
Layer0000
  6
Continuous
 62
     3
370
    25
100
AcDbLine
 10
144.2834521556655
 20
-150.6567096947348
 30
0.0
 11
146.7834521556655
 21
-150.6567096947348
 31
0.0
  0
LINE
  5
2A2
330
1F
100
AcDbEntity
  8
Layer0000
  6
Continuous
 62
     3
370
    25
100
AcDbLine
 10
173.2834521556655
 20
-134.1567096947348
 30
0.0
 11
157.2834521556655
 21
-134.1567096947348
 31
0.0
  0
LINE
  5
2A3
330
1F
100
AcDbEntity
  8
Layer0000
  6
Continuous
 62
     3
370
    25
100
AcDbLine
 10
173.2834521556655
 20
-145.1567096947348
 30
0.0
 11
157.2834521556655
 21
-145.1567096947348
 31
0.0
  0
ARC
  5
2A4
330
1F
100
AcDbEntity
  8
Layer0000
  6
Continuous
 62
     3
370
    25
100
AcDbCircle
 10
170.6584521556655
 20
-131.6567096947348
 30
0.0
 40
3.625
100
AcDbArc
 50
316.3971810272964
 51
43.60281897270362
  0
ARC
  5
2A5
330
1F
100
AcDbEntity
  8
Layer0000
  6
Continuous
 62
     3
370
    25
100
AcDbCircle
 10
158.6584521556655
 20
-139.6567096947348
 30
0.0
 40
15.625
100
AcDbArc
 50
339.390307062468
 51
20.60969293753205
  0
ARC
  5
2A6
330
1F
100
AcDbEntity
  8
Layer0000
  6
Continuous
 62
     3
370
    25
100
AcDbCircle
 10
170.6584521556655
 20
-147.6567096947348
 30
0.0
 40
3.625
100
AcDbArc
 50
316.3971810272964
 51
43.60281897270362
  0
LINE
  5
2A7
330
1F
100
AcDbEntity
  8
Layer0000
  6
Continuous
 62
     3
370
    25
100
AcDbLine
 10
123.7834520944334
 20
-157.6567096947348
 30
0.0
 11
135.7834521556614
 21
-157.6567096947348
 31
0.0
  0
LINE
  5
2A8
330
1F
100
AcDbEntity
  8
Layer0000
  6
Continuous
 62
     3
370
    25
100
AcDbLine
 10
123.7834520944334
 20
-130.6567096947348
 30
0.0
 11
135.7834521556614
 21
-130.6567096947348
 31
0.0
  0
LINE
  5
2A9
330
1F
100
AcDbEntity
  8
Layer0000
  6
Continuous
 62
     3
370
    25
100
AcDbLine
 10
123.7834520944334
 20
-148.6567096947347
 30
0.0
 11
135.7834521556614
 21
-148.6567096947347
 31
0.0
  0
ARC
  5
2AA
330
1F
100
AcDbEntity
  8
Layer0000
  6
Continuous
 62
     3
370
    25
100
AcDbCircle
 10
126.1584521556614
 20
-126.1567096947348
 30
0.0
 40
10.625
100
AcDbArc
 50
334.942384581697
 51
25.05761541830302
  0
ARC
  5
2AB
330
1F
100
AcDbEntity
  8
Layer0000
  6
Continuous
 62
     3
370
    25
100
AcDbCircle
 10
95.78345215566165
 20
-139.6567096947348
 30
0.0
 40
40.99999999999974
100
AcDbArc
 50
347.3196165081802
 51
12.68038349181984
  0
ARC
  5
2AC
330
1F
100
AcDbEntity
  8
Layer0000
  6
Continuous
 62
     3
370
    25
100
AcDbCircle
 10
126.1584521556614
 20
-153.1567096947347
 30
0.0
 40
10.625
100
AcDbArc
 50
334.942384581697
 51
25.05761541830302
  0
LINE
  5
2AD
330
1F
100
AcDbEntity
  8
Layer0000
  6
Continuous
 62
     3
370
    25
100
AcDbLine
 10
123.7834520944334
 20
264.4152265574398
 30
0.0
 11
135.7834521556614
 21
264.4152265574398
 31
0.0
  0
LINE
  5
2AE
330
1F
100
AcDbEntity
  8
Layer0000
  6
Continuous
 62
     3
370
    25
100
AcDbLine
 10
136.7834521556614
 20
232.9152265574399
 30
0.0
 11
136.7834521556614
 21
259.9152265574398
 31
0.0
  0
LINE
  5
2AF
330
1F
100
AcDbEntity
  8
Layer0000
  6
Continuous
 62
     3
370
    25
100
AcDbLine
 10
174.2834521556655
 20
254.4152265574398
 30
0.0
 11
174.2834521556655
 21
238.4152265574398
 31
0.0
  0
LINE
  5
2B0
330
1F
100
AcDbEntity
  8
Layer0000
  6
Continuous
 62
     3
370
    25
100
AcDbLine
 10
157.2834521556655
 20
257.4152265574398
 30
0.0
 11
157.2834521556655
 21
235.4152265574398
 31
0.0
  0
LINE
  5
2B1
330
1F
100
AcDbEntity
  8
Layer0000
  6
Continuous
 62
     3
370
    25
100
AcDbLine
 10
157.2834521556655
 20
256.9152265574398
 30
0.0
 11
173.2834521556655
 21
256.9152265574398
 31
0.0
  0
LINE
  5
2B2
330
1F
100
AcDbEntity
  8
Layer0000
  6
Continuous
 62
     3
370
    25
100
AcDbLine
 10
157.2834521556655
 20
235.9152265574398
 30
0.0
 11
173.2834521556655
 21
235.9152265574398
 31
0.0
  0
LINE
  5
2B3
330
1F
100
AcDbEntity
  8
Layer0000
  6
Continuous
 62
     3
370
    25
100
AcDbLine
 10
146.7834521556655
 20
257.4152265574398
 30
0.0
 11
146.7834521556655
 21
235.4152265574398
 31
0.0
  0
LINE
  5
2B4
330
1F
100
AcDbEntity
  8
Layer0000
  6
Continuous
 62
     3
370
    25
100
AcDbLine
 10
143.7834521556655
 20
257.4152265574398
 30
0.0
 11
143.7834521556655
 21
235.4152265574398
 31
0.0
  0
LINE
  5
2B5
330
1F
100
AcDbEntity
  8
Layer0000
  6
Continuous
 62
     3
370
    25
100
AcDbLine
 10
140.7834521556655
 20
257.4152265574398
 30
0.0
 11
140.7834521556655
 21
235.4152265574398
 31
0.0
  0
LINE
  5
2B6
330
1F
100
AcDbEntity
  8
Layer0000
  6
Continuous
 62
     3
370
    25
100
AcDbLine
 10
147.2834521556655
 20
257.4152265574398
 30
0.0
 11
147.2834521556655
 21
235.4152265574398
 31
0.0
  0
LINE
  5
2B7
330
1F
100
AcDbEntity
  8
Layer0000
  6
Continuous
 62
     3
370
    25
100
AcDbLine
 10
144.2834521556655
 20
257.4152265574398
 30
0.0
 11
144.2834521556655
 21
235.4152265574398
 31
0.0
  0
LINE
  5
2B8
330
1F
100
AcDbEntity
  8
Layer0000
  6
Continuous
 62
     3
370
    25
100
AcDbLine
 10
141.2834521556655
 20
257.4152265574398
 30
0.0
 11
141.2834521556655
 21
235.4152265574398
 31
0.0
  0
LINE
  5
2B9
330
1F
100
AcDbEntity
  8
Layer0000
  6
Continuous
 62
     3
370
    25
100
AcDbLine
 10
140.7834521556655
 20
257.1652265574398
 30
0.0
 11
141.2834521556655
 21
257.1652265574398
 31
0.0
  0
LINE
  5
2BA
330
1F
100
AcDbEntity
  8
Layer0000
  6
Continuous
 62
     3
370
    25
100
AcDbLine
 10
143.7834521556655
 20
257.1652265574398
 30
0.0
 11
144.2834521556655
 21
257.1652265574398
 31
0.0
  0
LINE
  5
2BB
330
1F
100
AcDbEntity
  8
Layer0000
  6
Continuous
 62
     3
370
    25
100
AcDbLine
 10
146.7834521556655
 20
257.1652265574398
 30
0.0
 11
147.2834521556655
 21
257.1652265574398
 31
0.0
  0
LINE
  5
2BC
330
1F
100
AcDbEntity
  8
Layer0000
  6
Continuous
 62
     3
370
    25
100
AcDbLine
 10
136.7834521556614
 20
257.4152265574398
 30
0.0
 11
140.7834521556655
 21
257.4152265574398
 31
0.0
  0
LINE
  5
2BD
330
1F
100
AcDbEntity
  8
Layer0000
  6
Continuous
 62
     3
370
    25
100
AcDbLine
 10
141.2834521556655
 20
257.4152265574398
 30
0.0
 11
143.7834521556655
 21
257.4152265574398
 31
0.0
  0
LINE
  5
2BE
330
1F
100
AcDbEntity
  8
Layer0000
  6
Continuous
 62
     3
370
    25
100
AcDbLine
 10
144.2834521556655
 20
257.4152265574398
 30
0.0
 11
146.7834521556655
 21
257.4152265574398
 31
0.0
  0
LINE
  5
2BF
330
1F
100
AcDbEntity
  8
Layer0000
  6
Continuous
 62
     3
370
    25
100
AcDbLine
 10
147.2834521556655
 20
257.4152265574398
 30
0.0
 11
157.2834521556655
 21
257.4152265574398
 31
0.0
  0
LINE
  5
2C0
330
1F
100
AcDbEntity
  8
Layer0000
  6
Continuous
 62
     3
370
    25
100
AcDbLine
 10
136.7834521556614
 20
235.4152265574398
 30
0.0
 11
140.7834521556655
 21
235.4152265574398
 31
0.0
  0
LINE
  5
2C1
330
1F
100
AcDbEntity
  8
Layer0000
  6
Continuous
 62
     3
370
    25
100
AcDbLine
 10
147.2834521556655
 20
235.4152265574398
 30
0.0
 11
157.2834521556655
 21
235.4152265574398
 31
0.0
  0
LINE
  5
2C2
330
1F
100
AcDbEntity
  8
Layer0000
  6
Continuous
 62
     3
370
    25
100
AcDbLine
 10
140.7834521556655
 20
235.6652265574398
 30
0.0
 11
141.2834521556655
 21
235.6652265574398
 31
0.0
  0
LINE
  5
2C3
330
1F
100
AcDbEntity
  8
Layer0000
  6
Continuous
 62
     3
370
    25
100
AcDbLine
 10
143.7834521556655
 20
235.6652265574398
 30
0.0
 11
144.2834521556655
 21
235.6652265574398
 31
0.0
  0
LINE
  5
2C4
330
1F
100
AcDbEntity
  8
Layer0000
  6
Continuous
 62
     3
370
    25
100
AcDbLine
 10
146.7834521556655
 20
235.6652265574398
 30
0.0
 11
147.2834521556655
 21
235.6652265574398
 31
0.0
  0
LINE
  5
2C5
330
1F
100
AcDbEntity
  8
Layer0000
  6
Continuous
 62
     3
370
    25
100
AcDbLine
 10
141.2834521556655
 20
235.4152265574398
 30
0.0
 11
143.7834521556655
 21
235.4152265574398
 31
0.0
  0
LINE
  5
2C6
330
1F
100
AcDbEntity
  8
Layer0000
  6
Continuous
 62
     3
370
    25
100
AcDbLine
 10
144.2834521556655
 20
235.4152265574398
 30
0.0
 11
146.7834521556655
 21
235.4152265574398
 31
0.0
  0
LINE
  5
2C7
330
1F
100
AcDbEntity
  8
Layer0000
  6
Continuous
 62
     3
370
    25
100
AcDbLine
 10
173.2834521556655
 20
251.9152265574398
 30
0.0
 11
157.2834521556655
 21
251.9152265574398
 31
0.0
  0
LINE
  5
2C8
330
1F
100
AcDbEntity
  8
Layer0000
  6
Continuous
 62
     3
370
    25
100
AcDbLine
 10
173.2834521556655
 20
240.9152265574398
 30
0.0
 11
157.2834521556655
 21
240.9152265574398
 31
0.0
  0
ARC
  5
2C9
330
1F
100
AcDbEntity
  8
Layer0000
  6
Continuous
 62
     3
370
    25
100
AcDbCircle
 10
170.6584521556655
 20
254.4152265574398
 30
0.0
 40
3.625
100
AcDbArc
 50
316.3971810272964
 51
43.60281897270362
  0
ARC
  5
2CA
330
1F
100
AcDbEntity
  8
Layer0000
  6
Continuous
 62
     3
370
    25
100
AcDbCircle
 10
158.6584521556655
 20
246.4152265574398
 30
0.0
 40
15.625
100
AcDbArc
 50
339.390307062468
 51
20.60969293753205
  0
ARC
  5
2CB
330
1F
100
AcDbEntity
  8
Layer0000
  6
Continuous
 62
     3
370
    25
100
AcDbCircle
 10
170.6584521556655
 20
238.4152265574398
 30
0.0
 40
3.625
100
AcDbArc
 50
316.3971810272964
 51
43.60281897270362
  0
LINE
  5
2CC
330
1F
100
AcDbEntity
  8
Layer0000
  6
Continuous
 62
     3
370
    25
100
AcDbLine
 10
123.7834520944334
 20
228.4152265574398
 30
0.0
 11
135.7834521556614
 21
228.4152265574398
 31
0.0
  0
LINE
  5
2CD
330
1F
100
AcDbEntity
  8
Layer0000
  6
Continuous
 62
     3
370
    25
100
AcDbLine
 10
123.7834520944334
 20
255.4152265574398
 30
0.0
 11
135.7834521556614
 21
255.4152265574398
 31
0.0
  0
LINE
  5
2CE
330
1F
100
AcDbEntity
  8
Layer0000
  6
Continuous
 62
     3
370
    25
100
AcDbLine
 10
123.7834520944334
 20
237.4152265574399
 30
0.0
 11
135.7834521556614
 21
237.4152265574399
 31
0.0
  0
ARC
  5
2CF
330
1F
100
AcDbEntity
  8
Layer0000
  6
Continuous
 62
     3
370
    25
100
AcDbCircle
 10
126.1584521556614
 20
259.9152265574398
 30
0.0
 40
10.625
100
AcDbArc
 50
334.942384581697
 51
25.05761541830302
  0
ARC
  5
2D0
330
1F
100
AcDbEntity
  8
Layer0000
  6
Continuous
 62
     3
370
    25
100
AcDbCircle
 10
95.78345215566165
 20
246.4152265574398
 30
0.0
 40
40.99999999999974
100
AcDbArc
 50
347.3196165081802
 51
12.68038349181984
  0
ARC
  5
2D1
330
1F
100
AcDbEntity
  8
Layer0000
  6
Continuous
 62
     3
370
    25
100
AcDbCircle
 10
126.1584521556614
 20
232.9152265574399
 30
0.0
 40
10.625
100
AcDbArc
 50
334.942384581697
 51
25.05761541830302
  0
LINE
  5
2D2
330
1F
100
AcDbEntity
  8
Layer0000
  6
Continuous
 62
     3
370
    25
100
AcDbLine
 10
-331.2165479055637
 20
-227.6567096947347
 30
0.0
 11
-313.2165479055637
 21
-227.6567096947347
 31
0.0
  0
LINE
  5
2D3
330
1F
100
AcDbEntity
  8
Layer0000
  6
Continuous
 62
     3
370
    25
100
AcDbLine
 10
-514.2165479055637
 20
-219.6567096947347
 30
0.0
 11
-331.2165479055637
 21
-219.6567096947347
 31
0.0
  0
LINE
  5
2D4
330
1F
100
AcDbEntity
  8
Layer0000
  6
Continuous
 62
     3
370
    25
100
AcDbLine
 10
-313.2165479055637
 20
-219.6567096947347
 30
0.0
 11
91.78345209443518
 21
-219.6567096947347
 31
0.0
  0
LINE
  5
2D5
330
1F
100
AcDbEntity
  8
Layer0000
  6
Continuous
 62
     3
370
    25
100
AcDbLine
 10
91.78345209443495
 20
-134.6567096947347
 30
0.0
 11
-514.2165479055636
 21
-134.6567096947347
 31
0.0
  0
LINE
  5
2D6
330
1F
100
AcDbEntity
  8
Layer0000
  6
Continuous
 62
     3
370
    25
100
AcDbLine
 10
-514.2165479055637
 20
-197.6567096947347
 30
0.0
 11
91.78345209443515
 21
-197.6567096947347
 31
0.0
  0
LINE
  5
2D7
330
1F
100
AcDbEntity
  8
Layer0000
  6
Continuous
 62
     3
370
    25
100
AcDbLine
 10
-124.2165477831039
 20
-171.6567096947346
 30
0.0
 11
-124.2165477831039
 21
-149.6567096947347
 31
0.0
  0
LINE
  5
2D8
330
1F
100
AcDbEntity
  8
Layer0000
  6
Continuous
 62
     3
370
    25
100
AcDbLine
 10
-124.2165477831039
 20
-171.6567096947346
 30
0.0
 11
-48.80501338027705
 21
-171.6567096947346
 31
0.0
  0
LINE
  5
2D9
330
1F
100
AcDbEntity
  8
Layer0000
  6
Continuous
 62
     3
370
    25
100
AcDbLine
 10
-124.2165477831039
 20
-157.6567096947347
 30
0.0
 11
-285.4134863622639
 21
-157.6567096947347
 31
0.0
  0
LINE
  5
2DA
330
1F
100
AcDbEntity
  8
Layer0000
  6
Continuous
 62
     3
370
    25
100
AcDbLine
 10
-514.2165479055637
 20
348.4152265574398
 30
0.0
 11
-419.2165479055637
 21
348.4152265574398
 31
0.0
  0
LINE
  5
2DB
330
1F
100
AcDbEntity
  8
Layer0000
  6
Continuous
 62
     3
370
    25
100
AcDbLine
 10
-419.2165479055637
 20
348.4152265574398
 30
0.0
 11
-409.2165479055637
 21
348.4152265574398
 31
0.0
  0
LINE
  5
2DC
330
1F
100
AcDbEntity
  8
Layer0000
  6
Continuous
 62
     3
370
    25
100
AcDbLine
 10
-514.2165479055637
 20
144.4152265574398
 30
0.0
 11
-419.2165479055637
 21
144.4152265574398
 31
0.0
  0
LINE
  5
2DD
330
1F
100
AcDbEntity
  8
Layer0000
  6
Continuous
 62
     3
370
    25
100
AcDbLine
 10
-419.2165479055637
 20
144.4152265574398
 30
0.0
 11
-409.2165479055637
 21
144.4152265574398
 31
0.0
  0
LINE
  5
2DE
330
1F
100
AcDbEntity
  8
Layer0000
  6
Continuous
 62
     3
370
    25
100
AcDbLine
 10
75.78345209443495
 20
348.4152265574398
 30
0.0
 11
40.78345209443626
 21
348.4152265574398
 31
0.0
  0
LINE
  5
2DF
330
1F
100
AcDbEntity
  8
Layer0000
  6
Continuous
 62
     3
370
    25
100
AcDbLine
 10
40.78345209443626
 20
348.4152265574398
 30
0.0
 11
-34.21654790556374
 21
348.4152265574398
 31
0.0
  0
LINE
  5
2E0
330
1F
100
AcDbEntity
  8
Layer0000
  6
Continuous
 62
     3
370
    25
100
AcDbLine
 10
75.78345209443495
 20
144.4152265574398
 30
0.0
 11
40.78345209443626
 21
144.4152265574398
 31
0.0
  0
LINE
  5
2E1
330
1F
100
AcDbEntity
  8
Layer0000
  6
Continuous
 62
     3
370
    25
100
AcDbLine
 10
40.78345209443626
 20
144.4152265574398
 30
0.0
 11
-34.21654790556374
 21
144.4152265574398
 31
0.0
  0
CIRCLE
  5
2E2
330
1F
100
AcDbEntity
  8
Layer0000
  6
Continuous
 62
     3
370
    25
100
AcDbCircle
 10
318.4167854889995
 20
321.4152265574398
 30
0.0
 40
8.075128869403557
  0
CIRCLE
  5
2E3
330
1F
100
AcDbEntity
  8
Layer0000
  6
Continuous
 62
     3
370
    25
100
AcDbCircle
 10
318.4167854889995
 20
321.4152265574398
 30
0.0
 40
10.5
  0
LINE
  5
2E4
330
1F
100
AcDbEntity
  8
Layer0000
  6
Continuous
 62
     3
370
    25
100
AcDbLine
 10
311.488582258724
 20
321.4152265574398
 30
0.0
 11
314.9526838738618
 21
315.4152265574398
 31
0.0
  0
LINE
  5
2E5
330
1F
100
AcDbEntity
  8
Layer0000
  6
Continuous
 62
     3
370
    25
100
AcDbLine
 10
314.9526838738618
 20
315.4152265574398
 30
0.0
 11
321.8808871041373
 21
315.4152265574398
 31
0.0
  0
LINE
  5
2E6
330
1F
100
AcDbEntity
  8
Layer0000
  6
Continuous
 62
     3
370
    25
100
AcDbLine
 10
321.8808871041373
 20
315.4152265574398
 30
0.0
 11
325.3449887192751
 21
321.4152265574398
 31
0.0
  0
LINE
  5
2E7
330
1F
100
AcDbEntity
  8
Layer0000
  6
Continuous
 62
     3
370
    25
100
AcDbLine
 10
325.3449887192751
 20
321.4152265574398
 30
0.0
 11
321.8808871041373
 21
327.4152265574398
 31
0.0
  0
LINE
  5
2E8
330
1F
100
AcDbEntity
  8
Layer0000
  6
Continuous
 62
     3
370
    25
100
AcDbLine
 10
321.8808871041373
 20
327.4152265574398
 30
0.0
 11
314.9526838738618
 21
327.4152265574398
 31
0.0
  0
LINE
  5
2E9
330
1F
100
AcDbEntity
  8
Layer0000
  6
Continuous
 62
     3
370
    25
100
AcDbLine
 10
314.9526838738618
 20
327.4152265574398
 30
0.0
 11
311.488582258724
 21
321.4152265574398
 31
0.0
  0
CIRCLE
  5
2EA
330
1F
100
AcDbEntity
  8
Layer0000
  6
Continuous
 62
     3
370
    25
100
AcDbCircle
 10
378.4167854889995
 20
321.4152265574398
 30
0.0
 40
8.075128869403557
  0
CIRCLE
  5
2EB
330
1F
100
AcDbEntity
  8
Layer0000
  6
Continuous
 62
     3
370
    25
100
AcDbCircle
 10
378.4167854889995
 20
321.4152265574398
 30
0.0
 40
10.5
  0
LINE
  5
2EC
330
1F
100
AcDbEntity
  8
Layer0000
  6
Continuous
 62
     3
370
    25
100
AcDbLine
 10
371.488582258724
 20
321.4152265574398
 30
0.0
 11
374.9526838738618
 21
315.4152265574398
 31
0.0
  0
LINE
  5
2ED
330
1F
100
AcDbEntity
  8
Layer0000
  6
Continuous
 62
     3
370
    25
100
AcDbLine
 10
374.9526838738618
 20
315.4152265574398
 30
0.0
 11
381.8808871041373
 21
315.4152265574398
 31
0.0
  0
LINE
  5
2EE
330
1F
100
AcDbEntity
  8
Layer0000
  6
Continuous
 62
     3
370
    25
100
AcDbLine
 10
381.8808871041373
 20
315.4152265574398
 30
0.0
 11
385.3449887192751
 21
321.4152265574398
 31
0.0
  0
LINE
  5
2EF
330
1F
100
AcDbEntity
  8
Layer0000
  6
Continuous
 62
     3
370
    25
100
AcDbLine
 10
385.3449887192751
 20
321.4152265574398
 30
0.0
 11
381.8808871041373
 21
327.4152265574398
 31
0.0
  0
LINE
  5
2F0
330
1F
100
AcDbEntity
  8
Layer0000
  6
Continuous
 62
     3
370
    25
100
AcDbLine
 10
381.8808871041373
 20
327.4152265574398
 30
0.0
 11
374.9526838738618
 21
327.4152265574398
 31
0.0
  0
LINE
  5
2F1
330
1F
100
AcDbEntity
  8
Layer0000
  6
Continuous
 62
     3
370
    25
100
AcDbLine
 10
374.9526838738618
 20
327.4152265574398
 30
0.0
 11
371.488582258724
 21
321.4152265574398
 31
0.0
  0
CIRCLE
  5
2F2
330
1F
100
AcDbEntity
  8
Layer0000
  6
Continuous
 62
     3
370
    25
100
AcDbCircle
 10
318.4167854889995
 20
171.4152265574398
 30
0.0
 40
8.075128869403557
  0
CIRCLE
  5
2F3
330
1F
100
AcDbEntity
  8
Layer0000
  6
Continuous
 62
     3
370
    25
100
AcDbCircle
 10
318.4167854889995
 20
171.4152265574398
 30
0.0
 40
10.5
  0
LINE
  5
2F4
330
1F
100
AcDbEntity
  8
Layer0000
  6
Continuous
 62
     3
370
    25
100
AcDbLine
 10
311.488582258724
 20
171.4152265574398
 30
0.0
 11
314.9526838738618
 21
165.4152265574398
 31
0.0
  0
LINE
  5
2F5
330
1F
100
AcDbEntity
  8
Layer0000
  6
Continuous
 62
     3
370
    25
100
AcDbLine
 10
314.9526838738618
 20
165.4152265574398
 30
0.0
 11
321.8808871041373
 21
165.4152265574398
 31
0.0
  0
LINE
  5
2F6
330
1F
100
AcDbEntity
  8
Layer0000
  6
Continuous
 62
     3
370
    25
100
AcDbLine
 10
321.8808871041373
 20
165.4152265574398
 30
0.0
 11
325.3449887192751
 21
171.4152265574398
 31
0.0
  0
LINE
  5
2F7
330
1F
100
AcDbEntity
  8
Layer0000
  6
Continuous
 62
     3
370
    25
100
AcDbLine
 10
325.3449887192751
 20
171.4152265574398
 30
0.0
 11
321.8808871041373
 21
177.4152265574398
 31
0.0
  0
LINE
  5
2F8
330
1F
100
AcDbEntity
  8
Layer0000
  6
Continuous
 62
     3
370
    25
100
AcDbLine
 10
321.8808871041373
 20
177.4152265574398
 30
0.0
 11
314.9526838738618
 21
177.4152265574398
 31
0.0
  0
LINE
  5
2F9
330
1F
100
AcDbEntity
  8
Layer0000
  6
Continuous
 62
     3
370
    25
100
AcDbLine
 10
314.9526838738618
 20
177.4152265574398
 30
0.0
 11
311.488582258724
 21
171.4152265574398
 31
0.0
  0
CIRCLE
  5
2FA
330
1F
100
AcDbEntity
  8
Layer0000
  6
Continuous
 62
     3
370
    25
100
AcDbCircle
 10
378.4167854889995
 20
171.4152265574398
 30
0.0
 40
8.075128869403557
  0
CIRCLE
  5
2FB
330
1F
100
AcDbEntity
  8
Layer0000
  6
Continuous
 62
     3
370
    25
100
AcDbCircle
 10
378.4167854889995
 20
171.4152265574398
 30
0.0
 40
10.5
  0
LINE
  5
2FC
330
1F
100
AcDbEntity
  8
Layer0000
  6
Continuous
 62
     3
370
    25
100
AcDbLine
 10
371.488582258724
 20
171.4152265574398
 30
0.0
 11
374.9526838738618
 21
165.4152265574398
 31
0.0
  0
LINE
  5
2FD
330
1F
100
AcDbEntity
  8
Layer0000
  6
Continuous
 62
     3
370
    25
100
AcDbLine
 10
374.9526838738618
 20
165.4152265574398
 30
0.0
 11
381.8808871041373
 21
165.4152265574398
 31
0.0
  0
LINE
  5
2FE
330
1F
100
AcDbEntity
  8
Layer0000
  6
Continuous
 62
     3
370
    25
100
AcDbLine
 10
381.8808871041373
 20
165.4152265574398
 30
0.0
 11
385.3449887192751
 21
171.4152265574398
 31
0.0
  0
LINE
  5
2FF
330
1F
100
AcDbEntity
  8
Layer0000
  6
Continuous
 62
     3
370
    25
100
AcDbLine
 10
385.3449887192751
 20
171.4152265574398
 30
0.0
 11
381.8808871041373
 21
177.4152265574398
 31
0.0
  0
LINE
  5
300
330
1F
100
AcDbEntity
  8
Layer0000
  6
Continuous
 62
     3
370
    25
100
AcDbLine
 10
381.8808871041373
 20
177.4152265574398
 30
0.0
 11
374.9526838738618
 21
177.4152265574398
 31
0.0
  0
LINE
  5
301
330
1F
100
AcDbEntity
  8
Layer0000
  6
Continuous
 62
     3
370
    25
100
AcDbLine
 10
374.9526838738618
 20
177.4152265574398
 30
0.0
 11
371.488582258724
 21
171.4152265574398
 31
0.0
  0
CIRCLE
  5
302
330
1F
100
AcDbEntity
  8
Layer0000
  6
Continuous
 62
     3
370
    25
100
AcDbCircle
 10
343.4167854889995
 20
321.4152265574398
 30
0.0
 40
3.0
  0
CIRCLE
  5
303
330
1F
100
AcDbEntity
  8
Layer0000
  6
Continuous
 62
     3
370
    25
100
AcDbCircle
 10
343.4167854889995
 20
321.4152265574398
 30
0.0
 40
4.5
  0
CIRCLE
  5
304
330
1F
100
AcDbEntity
  8
Layer0000
  6
Continuous
 62
     3
370
    25
100
AcDbCircle
 10
343.4167854889995
 20
171.4152265574398
 30
0.0
 40
3.0
  0
CIRCLE
  5
305
330
1F
100
AcDbEntity
  8
Layer0000
  6
Continuous
 62
     3
370
    25
100
AcDbCircle
 10
343.4167854889995
 20
171.4152265574398
 30
0.0
 40
4.5
  0
CIRCLE
  5
306
330
1F
100
AcDbEntity
  8
Layer0000
  6
Continuous
 62
     3
370
    25
100
AcDbCircle
 10
-495.2165479055637
 20
327.4152265574398
 30
0.0
 40
14.5
  0
CIRCLE
  5
307
330
1F
100
AcDbEntity
  8
Layer0000
  6
Continuous
 62
     3
370
    25
100
AcDbCircle
 10
-495.2165479055637
 20
165.4152265574398
 30
0.0
 40
14.5
  0
LINE
  5
308
330
1F
100
AcDbEntity
  8
Layer0000
  6
Continuous
 62
     3
370
    25
100
AcDbLine
 10
-465.2165479055637
 20
144.4152265574398
 30
0.0
 11
-465.2165479055637
 21
348.4152265574398
 31
0.0
  0
LINE
  5
309
330
1F
100
AcDbEntity
  8
Layer0000
  6
Continuous
 62
     3
370
    25
100
AcDbLine
 10
-449.2165479055637
 20
144.4152265574398
 30
0.0
 11
-449.2165479055637
 21
348.4152265574398
 31
0.0
  0
CIRCLE
  5
30A
330
1F
100
AcDbEntity
  8
Layer0000
  6
Continuous
 62
     3
370
    25
100
AcDbCircle
 10
-441.2165479055637
 20
183.91522655744
 30
0.0
 40
4.324999999999989
  0
CIRCLE
  5
30B
330
1F
100
AcDbEntity
  8
Layer0000
  6
Continuous
 62
     3
370
    25
100
AcDbCircle
 10
-428.2165479055637
 20
165.4152265574398
 30
0.0
 40
14.5
  0
CIRCLE
  5
30C
330
1F
100
AcDbEntity
  8
Layer0000
  6
Continuous
 62
     3
370
    25
100
AcDbCircle
 10
-441.2165479055637
 20
246.4152265574397
 30
0.0
 40
4.324999999999989
  0
CIRCLE
  5
30D
330
1F
100
AcDbEntity
  8
Layer0000
  6
Continuous
 62
     3
370
    25
100
AcDbCircle
 10
-441.2165479055637
 20
308.9152265574397
 30
0.0
 40
4.324999999999989
  0
CIRCLE
  5
30E
330
1F
100
AcDbEntity
  8
Layer0000
  6
Continuous
 62
     3
370
    25
100
AcDbCircle
 10
-428.2165479055637
 20
327.4152265574398
 30
0.0
 40
14.5
  0
CIRCLE
  5
30F
330
1F
100
AcDbEntity
  8
Layer0000
  6
Continuous
 62
     3
370
    25
100
AcDbCircle
 10
59.28345209443535
 20
287.2838880186391
 30
0.0
 40
13.0
  0
CIRCLE
  5
310
330
1F
100
AcDbEntity
  8
Layer0000
  6
Continuous
 62
     3
370
    25
100
AcDbCircle
 10
-17.71654790556465
 20
287.2838880186391
 30
0.0
 40
13.0
  0
CIRCLE
  5
311
330
1F
100
AcDbEntity
  8
Layer0000
  6
Continuous
 62
     3
370
    25
100
AcDbCircle
 10
-2.216547905563743
 20
308.783888018639
 30
0.0
 40
4.190000000000001
  0
CIRCLE
  5
312
330
1F
100
AcDbEntity
  8
Layer0000
  6
Continuous
 62
     3
370
    25
100
AcDbCircle
 10
-2.216547905563743
 20
308.783888018639
 30
0.0
 40
5.0
  0
CIRCLE
  5
313
330
1F
100
AcDbEntity
  8
Layer0000
  6
Continuous
 62
     3
370
    25
100
AcDbCircle
 10
-2.216547905563758
 20
246.2838880186391
 30
0.0
 40
4.190000000000001
  0
CIRCLE
  5
314
330
1F
100
AcDbEntity
  8
Layer0000
  6
Continuous
 62
     3
370
    25
100
AcDbCircle
 10
-2.216547905563758
 20
246.2838880186391
 30
0.0
 40
5.0
  0
CIRCLE
  5
315
330
1F
100
AcDbEntity
  8
Layer0000
  6
Continuous
 62
     3
370
    25
100
AcDbCircle
 10
-2.216547905563758
 20
183.7838880186393
 30
0.0
 40
4.190000000000001
  0
CIRCLE
  5
316
330
1F
100
AcDbEntity
  8
Layer0000
  6
Continuous
 62
     3
370
    25
100
AcDbCircle
 10
-2.216547905563758
 20
183.7838880186393
 30
0.0
 40
5.0
  0
CIRCLE
  5
317
330
1F
100
AcDbEntity
  8
Layer0000
  6
Continuous
 62
     3
370
    25
100
AcDbCircle
 10
-17.71654790556467
 20
205.2838880186391
 30
0.0
 40
13.0
  0
LINE
  5
318
330
1F
100
AcDbEntity
  8
Layer0000
  6
Continuous
 62
     3
370
    25
100
AcDbLine
 10
5.783452094436242
 20
144.2838880186391
 30
0.0
 11
5.783452094436257
 21
348.2838880186391
 31
0.0
  0
LINE
  5
319
330
1F
100
AcDbEntity
  8
Layer0000
  6
Continuous
 62
     3
370
    25
100
AcDbLine
 10
21.78345209443624
 20
144.2838880186391
 30
0.0
 11
21.78345209443626
 21
348.2838880186391
 31
0.0
  0
CIRCLE
  5
31A
330
1F
100
AcDbEntity
  8
Layer0000
  6
Continuous
 62
     3
370
    25
100
AcDbCircle
 10
59.28345209443535
 20
205.5465650962406
 30
0.0
 40
13.0
  0
LINE
  5
31B
330
1F
100
AcDbEntity
  8
Layer0000
  6
Continuous
 62
     3
370
    25
100
AcDbLine
 10
-54.21654790556374
 20
349.1525494798384
 30
0.0
 11
-54.21654790556374
 21
143.4152265574398
 31
0.0
  0
LINE
  5
31C
330
1F
100
AcDbEntity
  8
Layer0000
  6
Continuous
 62
     3
370
    25
100
AcDbLine
 10
-389.2165479055637
 20
192.4152265574398
 30
0.0
 11
-54.21654790556374
 21
192.4152265574398
 31
0.0
  0
LINE
  5
31D
330
1F
100
AcDbEntity
  8
Layer0000
  6
CENTER
 62
     2
370
    25
100
AcDbLine
 10
-322.2165479055637
 20
-211.5744773720349
 30
0.0
 11
-322.2165479055637
 21
-231.6316714875713
 31
0.0
  0
LINE
  5
31E
330
1F
100
AcDbEntity
  8
Layer0000
  6
CENTER
 62
     2
370
    25
100
AcDbLine
 10
303.4167854889995
 20
246.4152265574398
 30
0.0
 11
423.4167854889995
 21
246.4152265574398
 31
0.0
  0
LINE
  5
31F
330
1F
100
AcDbEntity
  8
Layer0000
  6
CENTER
 62
     2
370
    25
100
AcDbLine
 10
343.4167854889995
 20
336.4152265574398
 30
0.0
 11
343.4167854889995
 21
156.4152265574398
 31
0.0
  0
LINE
  5
320
330
1F
100
AcDbEntity
  8
Layer0000
  6
CENTER
 62
     2
370
    25
100
AcDbLine
 10
177.2834521556654
 20
-139.6567096947348
 30
0.0
 11
121.7834520944334
 21
-139.6567096947348
 31
0.0
  0
LINE
  5
321
330
1F
100
AcDbEntity
  8
Layer0000
  6
CENTER
 62
     2
370
    25
100
AcDbLine
 10
329.4167854889995
 20
321.4152265574398
 30
0.0
 11
307.4167854889995
 21
321.4152265574398
 31
0.0
  0
LINE
  5
322
330
1F
100
AcDbEntity
  8
Layer0000
  6
CENTER
 62
     2
370
    25
100
AcDbLine
 10
318.4167854889995
 20
314.4152265574398
 30
0.0
 11
318.4167854889995
 21
328.4152265574398
 31
0.0
  0
LINE
  5
323
330
1F
100
AcDbEntity
  8
Layer0000
  6
CENTER
 62
     2
370
    25
100
AcDbLine
 10
-262.2165479055637
 20
-206.7994649188901
 30
0.0
 11
-262.2165479055637
 21
-228.4285544889905
 31
0.0
  0
LINE
  5
324
330
1F
100
AcDbEntity
  8
Layer0000
  6
CENTER
 62
     2
370
    25
100
AcDbLine
 10
-202.2165479055637
 20
-206.7994649188901
 30
0.0
 11
-202.2165479055637
 21
-228.4285544889905
 31
0.0
  0
LINE
  5
325
330
1F
100
AcDbEntity
  8
Layer0000
  6
CENTER
 62
     2
370
    25
100
AcDbLine
 10
389.4167854889995
 20
321.4152265574398
 30
0.0
 11
367.4167854889995
 21
321.4152265574398
 31
0.0
  0
LINE
  5
326
330
1F
100
AcDbEntity
  8
Layer0000
  6
CENTER
 62
     2
370
    25
100
AcDbLine
 10
298.4167854889995
 20
246.4152265574398
 30
0.0
 11
209.4167854889995
 21
246.4152265574398
 31
0.0
  0
LINE
  5
327
330
1F
100
AcDbEntity
  8
Layer0000
  6
CENTER
 62
     2
370
    25
100
AcDbLine
 10
298.4167854889995
 20
246.4152265574398
 30
0.0
 11
237.4167854889995
 21
246.4152265574398
 31
0.0
  0
LINE
  5
328
330
1F
100
AcDbEntity
  8
Layer0000
  6
CENTER
 62
     2
370
    25
100
AcDbLine
 10
378.4167854889995
 20
332.4152265574398
 30
0.0
 11
378.4167854889995
 21
310.4152265574398
 31
0.0
  0
LINE
  5
329
330
1F
100
AcDbEntity
  8
Layer0000
  6
CENTER
 62
     2
370
    25
100
AcDbLine
 10
307.4167854889995
 20
171.4152265574398
 30
0.0
 11
329.4167854889995
 21
171.4152265574398
 31
0.0
  0
LINE
  5
32A
330
1F
100
AcDbEntity
  8
Layer0000
  6
CENTER
 62
     2
370
    25
100
AcDbLine
 10
318.4167854889995
 20
160.4152265574398
 30
0.0
 11
318.4167854889995
 21
182.4152265574398
 31
0.0
  0
LINE
  5
32B
330
1F
100
AcDbEntity
  8
Layer0000
  6
CENTER
 62
     2
370
    25
100
AcDbLine
 10
389.4167854889995
 20
171.4152265574398
 30
0.0
 11
367.4167854889995
 21
171.4152265574398
 31
0.0
  0
LINE
  5
32C
330
1F
100
AcDbEntity
  8
Layer0000
  6
CENTER
 62
     2
370
    25
100
AcDbLine
 10
378.4167854889995
 20
160.4152265574398
 30
0.0
 11
378.4167854889995
 21
182.4152265574398
 31
0.0
  0
LINE
  5
32D
330
1F
100
AcDbEntity
  8
Layer0000
  6
CENTER
 62
     2
370
    25
100
AcDbLine
 10
-448.5659886951389
 20
-61.65670969473467
 30
0.0
 11
-467.6588469974424
 21
-61.65670969473467
 31
0.0
  0
LINE
  5
32E
330
1F
100
AcDbEntity
  8
Layer0000
  6
CENTER
 62
     2
370
    25
100
AcDbLine
 10
-458.2165479055637
 20
-51.56849628837052
 30
0.0
 11
-458.2165479055637
 21
-71.88656474911062
 31
0.0
  0
LINE
  5
32F
330
1F
100
AcDbEntity
  8
Layer0000
  6
CENTER
 62
     2
370
    25
100
AcDbLine
 10
336.6222681602001
 20
186.9152265574398
 30
0.0
 11
350.331786631046
 21
186.9152265574398
 31
0.0
  0
LINE
  5
330
330
1F
100
AcDbEntity
  8
Layer0000
  6
CENTER
 62
     2
370
    25
100
AcDbLine
 10
336.6222681602001
 20
305.9152265574398
 30
0.0
 11
350.331786631046
 21
305.9152265574398
 31
0.0
  0
LINE
  5
331
330
1F
100
AcDbEntity
  8
Layer0000
  6
CENTER
 62
     2
370
    25
100
AcDbLine
 10
336.6222681602001
 20
171.4152265574398
 30
0.0
 11
350.331786631046
 21
171.4152265574398
 31
0.0
  0
LINE
  5
332
330
1F
100
AcDbEntity
  8
Layer0000
  6
CENTER
 62
     2
370
    25
100
AcDbLine
 10
336.6222681602001
 20
321.4152265574398
 30
0.0
 11
350.331786631046
 21
321.4152265574398
 31
0.0
  0
LINE
  5
333
330
1F
100
AcDbEntity
  8
Layer0000
  6
CENTER
 62
     2
370
    25
100
AcDbLine
 10
-514.2165479055637
 20
246.4152265574398
 30
0.0
 11
-366.0708494980338
 21
246.4152265574398
 31
0.0
  0
LINE
  5
334
330
1F
100
AcDbEntity
  8
Layer0000
  6
CENTER
 62
     2
370
    25
100
AcDbLine
 10
-346.3209827779933
 20
246.4152265574398
 30
0.0
 11
-282.3041734095863
 21
246.4152265574398
 31
0.0
  0
LINE
  5
335
330
1F
100
AcDbEntity
  8
Layer0000
  6
CENTER
 62
     2
370
    25
100
AcDbLine
 10
-480.7165479055637
 20
327.4152265574398
 30
0.0
 11
-509.7165479055637
 21
327.4152265574398
 31
0.0
  0
LINE
  5
336
330
1F
100
AcDbEntity
  8
Layer0000
  6
CENTER
 62
     2
370
    25
100
AcDbLine
 10
-495.2165479055637
 20
312.9152265574398
 30
0.0
 11
-495.2165479055637
 21
341.9152265574398
 31
0.0
  0
LINE
  5
337
330
1F
100
AcDbEntity
  8
Layer0000
  6
CENTER
 62
     2
370
    25
100
AcDbLine
 10
-495.2165479055637
 20
179.9152265574398
 30
0.0
 11
-495.2165479055637
 21
150.9152265574398
 31
0.0
  0
LINE
  5
338
330
1F
100
AcDbEntity
  8
Layer0000
  6
CENTER
 62
     2
370
    25
100
AcDbLine
 10
-480.7165479055637
 20
165.4152265574398
 30
0.0
 11
-509.7165479055637
 21
165.4152265574398
 31
0.0
  0
LINE
  5
339
330
1F
100
AcDbEntity
  8
Layer0000
  6
CENTER
 62
     2
370
    25
100
AcDbLine
 10
-441.2165479055637
 20
178.91522655744
 30
0.0
 11
-441.2165479055637
 21
188.91522655744
 31
0.0
  0
LINE
  5
33A
330
1F
100
AcDbEntity
  8
Layer0000
  6
CENTER
 62
     2
370
    25
100
AcDbLine
 10
-413.7165479055637
 20
165.4152265574398
 30
0.0
 11
-442.7165479055637
 21
165.4152265574398
 31
0.0
  0
LINE
  5
33B
330
1F
100
AcDbEntity
  8
Layer0000
  6
CENTER
 62
     2
370
    25
100
AcDbLine
 10
-428.2165479055637
 20
179.9152265574398
 30
0.0
 11
-428.2165479055637
 21
150.9152265574398
 31
0.0
  0
LINE
  5
33C
330
1F
100
AcDbEntity
  8
Layer0000
  6
CENTER
 62
     2
370
    25
100
AcDbLine
 10
-441.2165479055637
 20
251.4152265574397
 30
0.0
 11
-441.2165479055637
 21
241.4152265574397
 31
0.0
  0
LINE
  5
33D
330
1F
100
AcDbEntity
  8
Layer0000
  6
CENTER
 62
     2
370
    25
100
AcDbLine
 10
-436.2165479055637
 20
308.9152265574397
 30
0.0
 11
-446.2165479055637
 21
308.9152265574397
 31
0.0
  0
LINE
  5
33E
330
1F
100
AcDbEntity
  8
Layer0000
  6
CENTER
 62
     2
370
    25
100
AcDbLine
 10
-441.2165479055637
 20
313.9152265574397
 30
0.0
 11
-441.2165479055637
 21
303.9152265574397
 31
0.0
  0
LINE
  5
33F
330
1F
100
AcDbEntity
  8
Layer0000
  6
CENTER
 62
     2
370
    25
100
AcDbLine
 10
-428.2165479055637
 20
312.9152265574398
 30
0.0
 11
-428.2165479055637
 21
341.9152265574398
 31
0.0
  0
LINE
  5
340
330
1F
100
AcDbEntity
  8
Layer0000
  6
CENTER
 62
     2
370
    25
100
AcDbLine
 10
-413.7165479055637
 20
327.4152265574398
 30
0.0
 11
-442.7165479055637
 21
327.4152265574398
 31
0.0
  0
LINE
  5
341
330
1F
100
AcDbEntity
  8
Layer0000
  6
CENTER
 62
     2
370
    25
100
AcDbLine
 10
72.28345209443535
 20
287.2838880186391
 30
0.0
 11
46.28345209443538
 21
287.2838880186391
 31
0.0
  0
LINE
  5
342
330
1F
100
AcDbEntity
  8
Layer0000
  6
CENTER
 62
     2
370
    25
100
AcDbLine
 10
59.28345209443535
 20
300.2838880186391
 30
0.0
 11
59.28345209443535
 21
274.2838880186391
 31
0.0
  0
LINE
  5
343
330
1F
100
AcDbEntity
  8
Layer0000
  6
CENTER
 62
     2
370
    25
100
AcDbLine
 10
-4.716547905564653
 20
287.2838880186391
 30
0.0
 11
-30.71654790556465
 21
287.2838880186391
 31
0.0
  0
LINE
  5
344
330
1F
100
AcDbEntity
  8
Layer0000
  6
CENTER
 62
     2
370
    25
100
AcDbLine
 10
-17.71654790556465
 20
300.2838880186391
 30
0.0
 11
-17.71654790556465
 21
274.2838880186391
 31
0.0
  0
LINE
  5
345
330
1F
100
AcDbEntity
  8
Layer0000
  6
CENTER
 62
     2
370
    25
100
AcDbLine
 10
-2.216547905563743
 20
313.783888018639
 30
0.0
 11
-2.216547905563743
 21
303.783888018639
 31
0.0
  0
LINE
  5
346
330
1F
100
AcDbEntity
  8
Layer0000
  6
CENTER
 62
     2
370
    25
100
AcDbLine
 10
-2.216547905563758
 20
241.2838880186391
 30
0.0
 11
-2.216547905563758
 21
251.2838880186391
 31
0.0
  0
LINE
  5
347
330
1F
100
AcDbEntity
  8
Layer0000
  6
CENTER
 62
     2
370
    25
100
AcDbLine
 10
-2.216547905563758
 20
178.7838880186392
 30
0.0
 11
-2.216547905563758
 21
188.7838880186393
 31
0.0
  0
LINE
  5
348
330
1F
100
AcDbEntity
  8
Layer0000
  6
CENTER
 62
     2
370
    25
100
AcDbLine
 10
-4.716547905564667
 20
205.2838880186391
 30
0.0
 11
-30.71654790556467
 21
205.2838880186391
 31
0.0
  0
LINE
  5
349
330
1F
100
AcDbEntity
  8
Layer0000
  6
CENTER
 62
     2
370
    25
100
AcDbLine
 10
-17.71654790556467
 20
192.2838880186391
 30
0.0
 11
-17.71654790556467
 21
218.2838880186391
 31
0.0
  0
LINE
  5
34A
330
1F
100
AcDbEntity
  8
Layer0000
  6
CENTER
 62
     2
370
    25
100
AcDbLine
 10
72.28345209443535
 20
205.5465650962406
 30
0.0
 11
46.28345209443538
 21
205.5465650962406
 31
0.0
  0
LINE
  5
34B
330
1F
100
AcDbEntity
  8
Layer0000
  6
CENTER
 62
     2
370
    25
100
AcDbLine
 10
59.28345209443535
 20
192.5465650962406
 30
0.0
 11
59.28345209443535
 21
218.5465650962406
 31
0.0
  0
LINE
  5
34C
330
1F
100
AcDbEntity
  8
Layer0000
  6
CENTER
 62
     2
370
    25
100
AcDbLine
 10
131.415192428042
 20
-139.6567096947348
 30
0.0
 11
181.6689336536685
 21
-139.6567096947348
 31
0.0
  0
LINE
  5
34D
330
1F
100
AcDbEntity
  8
Layer0000
  6
CENTER
 62
     2
370
    25
100
AcDbLine
 10
-262.5543066895457
 20
246.4152265574398
 30
0.0
 11
174.2834521556655
 21
246.4152265574398
 31
0.0
  0
CIRCLE
  5
34E
330
1F
100
AcDbEntity
  8
Layer0000
  6
Continuous
 62
     2
370
    25
100
AcDbCircle
 10
-441.2165479055637
 20
183.91522655744
 30
0.0
 40
5.0
  0
CIRCLE
  5
34F
330
1F
100
AcDbEntity
  8
Layer0000
  6
Continuous
 62
     2
370
    25
100
AcDbCircle
 10
-441.2165479055637
 20
246.4152265574397
 30
0.0
 40
5.0
  0
CIRCLE
  5
350
330
1F
100
AcDbEntity
  8
Layer0000
  6
Continuous
 62
     2
370
    25
100
AcDbCircle
 10
-441.2165479055637
 20
308.9152265574397
 30
0.0
 40
5.0
  0
LINE
  5
351
330
1F
100
AcDbEntity
  8
Layer0000
  6
DASHED2
 62
     2
370
    25
100
AcDbLine
 10
-427.2165479055637
 20
178.9152265574398
 30
0.0
 11
-428.6195090596945
 21
179.7252265574398
 31
0.0
  0
LINE
  5
352
330
1F
100
AcDbEntity
  8
Layer0000
  6
DIVIDE
 62
     4
370
    25
100
AcDbLine
 10
401.4167854889995
 20
142.4152265574398
 30
0.0
 11
401.4167854889995
 21
149.4152265574398
 31
0.0
  0
LINE
  5
353
330
1F
100
AcDbEntity
  8
Layer0000
  6
DIVIDE
 62
     4
370
    25
100
AcDbLine
 10
401.4167854889995
 20
350.4152265574398
 30
0.0
 11
401.4167854889995
 21
343.4152265574398
 31
0.0
  0
CIRCLE
  5
354
330
1F
100
AcDbEntity
  8
Layer0000
  6
Continuous
 62
     4
370
    25
100
AcDbCircle
 10
318.4167854889995
 20
321.4152265574398
 30
0.0
 40
11.0
  0
CIRCLE
  5
355
330
1F
100
AcDbEntity
  8
Layer0000
  6
Continuous
 62
     4
370
    25
100
AcDbCircle
 10
378.4167854889995
 20
321.4152265574398
 30
0.0
 40
11.0
  0
CIRCLE
  5
356
330
1F
100
AcDbEntity
  8
Layer0000
  6
Continuous
 62
     4
370
    25
100
AcDbCircle
 10
318.4167854889995
 20
171.4152265574398
 30
0.0
 40
11.0
  0
CIRCLE
  5
357
330
1F
100
AcDbEntity
  8
Layer0000
  6
Continuous
 62
     4
370
    25
100
AcDbCircle
 10
378.4167854889995
 20
171.4152265574398
 30
0.0
 40
11.0
  0
LINE
  5
358
330
1F
100
AcDbEntity
  8
Layer0000
  6
Continuous
 62
     4
370
    25
100
AcDbLine
 10
-124.2165477831039
 20
-155.6567096947346
 30
0.0
 11
-283.9074538638377
 21
-155.6567096947346
 31
0.0
  0
CIRCLE
  5
359
330
1F
100
AcDbEntity
  8
Layer0000
  6
Continuous
 62
     4
370
    25
100
AcDbCircle
 10
-458.2165479055637
 20
-61.65670969473467
 30
0.0
 40
8.0
  0
CIRCLE
  5
35A
330
1F
100
AcDbEntity
  8
Layer0000
  6
Continuous
 62
     4
370
    25
100
AcDbCircle
 10
343.4167854889995
 20
186.9152265574398
 30
0.0
 40
5.0
  0
CIRCLE
  5
35B
330
1F
100
AcDbEntity
  8
Layer0000
  6
Continuous
 62
     4
370
    25
100
AcDbCircle
 10
343.4167854889995
 20
305.9152265574398
 30
0.0
 40
5.0
  0
LINE
  5
35C
330
1F
100
AcDbEntity
  8
Layer0000
  6
DIVIDE
 62
    56
370
    25
100
AcDbLine
 10
-459.2165479055637
 20
-11.65670969473468
 30
0.0
 11
-419.2165479055637
 21
-11.65670969473468
 31
0.0
  0
LINE
  5
35D
330
1F
100
AcDbEntity
  8
Layer0000
  6
DIVIDE
 62
    56
370
    25
100
AcDbLine
 10
-459.2165479055637
 20
-11.65670969473468
 30
0.0
 11
-459.2165479055637
 21
-6.65670969473468
 31
0.0
  0
LINE
  5
35E
330
1F
100
AcDbEntity
  8
Layer0000
  6
DIVIDE
 62
    56
370
    25
100
AcDbLine
 10
-459.2165479055637
 20
-6.65670969473468
 30
0.0
 11
-484.2165479055637
 21
-6.65670969473468
 31
0.0
  0
LINE
  5
35F
330
1F
100
AcDbEntity
  8
Layer0000
  6
DIVIDE
 62
    56
370
    25
100
AcDbLine
 10
-484.2165479055637
 20
-6.65670969473468
 30
0.0
 11
-484.2165479055637
 21
-33.65670969473467
 31
0.0
  0
LINE
  5
360
330
1F
100
AcDbEntity
  8
Layer0000
  6
DIVIDE
 62
    56
370
    25
100
AcDbLine
 10
-419.2165479055637
 20
-11.65670969473468
 30
0.0
 11
-419.2165479055637
 21
-33.65670969473467
 31
0.0
  0
LINE
  5
361
330
1F
100
AcDbEntity
  8
Layer0000
  6
DIVIDE
 62
    56
370
    25
100
AcDbLine
 10
15.78345209443626
 20
-11.65670969473465
 30
0.0
 11
-24.21654790556374
 21
-11.65670969473465
 31
0.0
  0
LINE
  5
362
330
1F
100
AcDbEntity
  8
Layer0000
  6
DIVIDE
 62
    56
370
    25
100
AcDbLine
 10
15.78345209443626
 20
-11.65670969473465
 30
0.0
 11
15.78345209443626
 21
-6.656709694734651
 31
0.0
  0
LINE
  5
363
330
1F
100
AcDbEntity
  8
Layer0000
  6
DIVIDE
 62
    56
370
    25
100
AcDbLine
 10
15.78345209443626
 20
-6.656709694734651
 30
0.0
 11
40.78345209443626
 21
-6.656709694734651
 31
0.0
  0
LINE
  5
364
330
1F
100
AcDbEntity
  8
Layer0000
  6
DIVIDE
 62
    56
370
    25
100
AcDbLine
 10
40.78345209443626
 20
-6.656709694734651
 30
0.0
 11
40.78345209443626
 21
-33.65670969473464
 31
0.0
  0
LINE
  5
365
330
1F
100
AcDbEntity
  8
Layer0000
  6
DIVIDE
 62
    56
370
    25
100
AcDbLine
 10
-24.21654790556374
 20
-11.65670969473465
 30
0.0
 11
-24.21654790556374
 21
-33.65670969473464
 31
0.0
  0
LINE
  5
366
330
1F
100
AcDbEntity
  8
Layer0000
  6
DIVIDE
 62
    56
370
    25
100
AcDbLine
 10
209.4167854889995
 20
348.4152265574398
 30
0.0
 11
209.4167854889995
 21
144.4152265574398
 31
0.0
  0
LINE
  5
367
330
1F
100
AcDbEntity
  8
Layer0000
  6
DIVIDE
 62
    56
370
    25
100
AcDbLine
 10
209.4167854889995
 20
144.4152265574398
 30
0.0
 11
236.4167854889995
 21
144.4152265574398
 31
0.0
  0
LINE
  5
368
330
1F
100
AcDbEntity
  8
Layer0000
  6
DIVIDE
 62
    56
370
    25
100
AcDbLine
 10
236.4167854889995
 20
348.4152265574398
 30
0.0
 11
209.4167854889995
 21
348.4152265574398
 31
0.0
  0
LINE
  5
369
330
1F
100
AcDbEntity
  8
Layer0000
  6
Continuous
 62
    56
370
    25
100
AcDbLine
 10
150.2834521556651
 20
-123.6567096947335
 30
0.0
 11
163.2834521556648
 21
-123.6567096947329
 31
0.0
  0
LINE
  5
36A
330
1F
100
AcDbEntity
  8
Layer0000
  6
Continuous
 62
    56
370
    25
100
AcDbLine
 10
163.2834521556647
 20
-122.6567096947329
 30
0.0
 11
167.2834521556647
 21
-122.6567096947328
 31
0.0
  0
LINE
  5
36B
330
1F
100
AcDbEntity
  8
Layer0000
  6
Continuous
 62
    56
370
    25
100
AcDbLine
 10
167.2834521556663
 20
-120.6567096947326
 30
0.0
 11
175.2834521556647
 21
-120.6567096947324
 31
0.0
  0
LINE
  5
36C
330
1F
100
AcDbEntity
  8
Layer0000
  6
Continuous
 62
    56
370
    25
100
AcDbLine
 10
163.2834521556647
 20
-122.6567096947329
 30
0.0
 11
163.2834521556648
 21
-123.6567096947329
 31
0.0
  0
LINE
  5
36D
330
1F
100
AcDbEntity
  8
Layer0000
  6
Continuous
 62
    56
370
    25
100
AcDbLine
 10
150.2834521556652
 20
-128.6567096947348
 30
0.0
 11
150.2834521556651
 21
-123.6567096947335
 31
0.0
  0
LINE
  5
36E
330
1F
100
AcDbEntity
  8
Layer0000
  6
Continuous
 62
    56
370
    25
100
AcDbLine
 10
150.2834521556658
 20
-155.6567096947335
 30
0.0
 11
150.2834521556657
 21
-150.6567096947348
 31
0.0
  0
LINE
  5
36F
330
1F
100
AcDbEntity
  8
Layer0000
  6
Continuous
 62
    56
370
    25
100
AcDbLine
 10
150.2834521556658
 20
-155.6567096947335
 30
0.0
 11
163.2834521556663
 21
-155.6567096947328
 31
0.0
  0
LINE
  5
370
330
1F
100
AcDbEntity
  8
Layer0000
  6
Continuous
 62
    56
370
    25
100
AcDbLine
 10
163.2834521556663
 20
-156.6567096947328
 30
0.0
 11
167.2834521556663
 21
-156.6567096947327
 31
0.0
  0
LINE
  5
371
330
1F
100
AcDbEntity
  8
Layer0000
  6
Continuous
 62
    56
370
    25
100
AcDbLine
 10
163.2834521556663
 20
-155.6567096947328
 30
0.0
 11
163.2834521556663
 21
-156.6567096947328
 31
0.0
  0
LINE
  5
372
330
1F
100
AcDbEntity
  8
Layer0000
  6
Continuous
 62
    56
370
    25
100
AcDbLine
 10
167.2834521556663
 20
-122.6567096947328
 30
0.0
 11
167.2834521556663
 21
-120.6567096947326
 31
0.0
  0
LINE
  5
373
330
1F
100
AcDbEntity
  8
Layer0000
  6
Continuous
 62
    56
370
    25
100
AcDbLine
 10
175.2834521556647
 20
-120.6567096947324
 30
0.0
 11
175.2834521556711
 21
-288.6567096947323
 31
0.0
  0
LINE
  5
374
330
1F
100
AcDbEntity
  8
Layer0000
  6
Continuous
 62
    56
370
    25
100
AcDbLine
 10
169.283452155672
 20
-308.6567096947326
 30
0.0
 11
184.283452155672
 21
-308.6567096947319
 31
0.0
  0
LINE
  5
375
330
1F
100
AcDbEntity
  8
Layer0000
  6
Continuous
 62
    56
370
    25
100
AcDbLine
 10
184.283452155672
 20
-308.6567096947319
 30
0.0
 11
184.2834521556712
 21
-290.6567096947319
 31
0.0
  0
LINE
  5
376
330
1F
100
AcDbEntity
  8
Layer0000
  6
Continuous
 62
    56
370
    25
100
AcDbLine
 10
177.2834521556712
 20
-290.6567096947323
 30
0.0
 11
184.2834521556712
 21
-290.6567096947319
 31
0.0
  0
ARC
  5
377
330
1F
100
AcDbEntity
  8
Layer0000
  6
Continuous
 62
    56
370
    25
100
AcDbCircle
 10
177.2834521556711
 20
-288.6567096947323
 30
0.0
 40
2.0
100
AcDbArc
 50
180.0000000000026
 51
270.0000000000026
  0
ARC
  5
378
330
1F
100
AcDbEntity
  8
Layer0000
  6
Continuous
 62
    56
370
    25
100
AcDbCircle
 10
169.2834521556719
 20
-306.6567096947326
 30
0.0
 40
2.0
100
AcDbArc
 50
180.0000000000026
 51
270.0000000000026
  0
LINE
  5
379
330
1F
100
AcDbEntity
  8
Layer0000
  6
Continuous
 62
    56
370
    25
100
AcDbLine
 10
166.2834521556716
 20
-303.1567096947348
 30
0.0
 11
166.2834521556716
 21
-296.1567096947348
 31
0.0
  0
LINE
  5
37A
330
1F
100
AcDbEntity
  8
Layer0000
  6
Continuous
 62
    56
370
    25
100
AcDbLine
 10
191.2834521556716
 20
-291.6567096947348
 30
0.0
 11
191.2834521556716
 21
-307.6567096947348
 31
0.0
  0
LINE
  5
37B
330
1F
100
AcDbEntity
  8
Layer0000
  6
Continuous
 62
    56
370
    25
100
AcDbLine
 10
191.2834521556716
 20
-291.6567096947348
 30
0.0
 11
263.2834521556682
 21
-287.5987623276783
 31
0.0
  0
LINE
  5
37C
330
1F
100
AcDbEntity
  8
Layer0000
  6
Continuous
 62
    56
370
    25
100
AcDbLine
 10
191.2834521556716
 20
-307.6567096947348
 30
0.0
 11
263.2834521556682
 21
-311.7146570617913
 31
0.0
  0
LINE
  5
37D
330
1F
100
AcDbEntity
  8
Layer0000
  6
Continuous
 62
    56
370
    25
100
AcDbLine
 10
263.2834521556682
 20
-311.7146570617913
 30
0.0
 11
263.2834521556682
 21
-287.5987623276783
 31
0.0
  0
LINE
  5
37E
330
1F
100
AcDbEntity
  8
Layer0000
  6
Continuous
 62
    56
370
    25
100
AcDbLine
 10
185.2834521556716
 20
-291.6567096947348
 30
0.0
 11
191.2834521556716
 21
-291.6567096947348
 31
0.0
  0
LINE
  5
37F
330
1F
100
AcDbEntity
  8
Layer0000
  6
Continuous
 62
    56
370
    25
100
AcDbLine
 10
185.2834521556716
 20
-307.6567096947348
 30
0.0
 11
191.2834521556716
 21
-307.6567096947348
 31
0.0
  0
LINE
  5
380
330
1F
100
AcDbEntity
  8
Layer0000
  6
Continuous
 62
    56
370
    25
100
AcDbLine
 10
184.2834521556716
 20
-292.6567096947348
 30
0.0
 11
185.2834521556716
 21
-291.6567096947348
 31
0.0
  0
LINE
  5
381
330
1F
100
AcDbEntity
  8
Layer0000
  6
Continuous
 62
    56
370
    25
100
AcDbLine
 10
184.2834521556716
 20
-306.6567096947348
 30
0.0
 11
185.2834521556716
 21
-307.6567096947348
 31
0.0
  0
LINE
  5
382
330
1F
100
AcDbEntity
  8
Layer0000
  6
Continuous
 62
    56
370
    25
100
AcDbLine
 10
184.2834521556716
 20
-292.6567096947348
 30
0.0
 11
184.2834521556716
 21
-306.6567096947348
 31
0.0
  0
LINE
  5
383
330
1F
100
AcDbEntity
  8
Layer0000
  6
Continuous
 62
    56
370
    25
100
AcDbLine
 10
167.2834521556717
 20
-304.156709694728
 30
0.0
 11
166.2834521556716
 21
-303.1567096947348
 31
0.0
  0
LINE
  5
384
330
1F
100
AcDbEntity
  8
Layer0000
  6
Continuous
 62
    56
370
    25
100
AcDbLine
 10
167.2834521556713
 20
-295.1567096947417
 30
0.0
 11
166.2834521556716
 21
-296.1567096947348
 31
0.0
  0
LINE
  5
385
330
1F
100
AcDbEntity
  8
Layer0000
  6
Continuous
 62
    56
370
    25
100
AcDbLine
 10
167.2834521556663
 20
-156.6567096947327
 30
0.0
 11
167.2834521556719
 21
-306.6567096947328
 31
0.0
  0
LINE
  5
386
330
1F
100
AcDbEntity
  8
Layer0000
  6
Continuous
 62
    56
370
    25
100
AcDbLine
 10
-475.9071468288051
 20
89.41522655743981
 30
0.0
 11
-473.5977457520466
 21
93.41522655743981
 31
0.0
  0
LINE
  5
387
330
1F
100
AcDbEntity
  8
Layer0000
  6
Continuous
 62
    56
370
    25
100
AcDbLine
 10
-473.5977457520466
 20
93.41522655743981
 30
0.0
 11
-475.9071468288051
 21
97.41522655743981
 31
0.0
  0
LINE
  5
388
330
1F
100
AcDbEntity
  8
Layer0000
  6
Continuous
 62
    56
370
    25
100
AcDbLine
 10
-449.2165479055637
 20
82.41522655743981
 30
0.0
 11
-449.2165479055637
 21
45.41522655743981
 31
0.0
  0
LINE
  5
389
330
1F
100
AcDbEntity
  8
Layer0000
  6
Continuous
 62
    56
370
    25
100
AcDbLine
 10
-467.2165479055637
 20
82.41522655743981
 30
0.0
 11
-467.2165479055637
 21
45.41522655743981
 31
0.0
  0
LINE
  5
38A
330
1F
100
AcDbEntity
  8
Layer0000
  6
Continuous
 62
    56
370
    25
100
AcDbLine
 10
-447.8306495207015
 20
131.4152265574398
 30
0.0
 11
-468.602446290426
 21
131.4152265574398
 31
0.0
  0
ARC
  5
38B
330
1F
100
AcDbEntity
  8
Layer0000
  6
Continuous
 62
    56
370
    25
100
AcDbCircle
 10
-447.8306495207015
 20
136.5158705047645
 30
0.0
 40
5.100643947324726
100
AcDbArc
 50
227.2227543443626
 51
312.7772456556379
  0
ARC
  5
38C
330
1F
100
AcDbEntity
  8
Layer0000
  6
Continuous
 62
    56
370
    25
100
AcDbCircle
 10
-468.602446290426
 20
136.5158705047645
 30
0.0
 40
5.100643947324764
100
AcDbArc
 50
227.2227543443621
 51
312.7772456556374
  0
ARC
  5
38D
330
1F
100
AcDbEntity
  8
Layer0000
  6
Continuous
 62
    56
370
    25
100
AcDbCircle
 10
-458.2165479055637
 20
149.7499439318625
 30
0.0
 40
18.33471737442274
100
AcDbArc
 50
247.8195992645518
 51
292.1804007354482
  0
LINE
  5
38E
330
1F
100
AcDbEntity
  8
Layer0000
  6
Continuous
 62
    56
370
    25
100
AcDbLine
 10
-466.2165479055637
 20
124.4152265574398
 30
0.0
 11
-450.2165479055637
 21
124.4152265574398
 31
0.0
  0
LINE
  5
38F
330
1F
100
AcDbEntity
  8
Layer0000
  6
Continuous
 62
    56
370
    25
100
AcDbLine
 10
-466.2165479055637
 20
129.4152265574398
 30
0.0
 11
-450.2165479055637
 21
129.4152265574398
 31
0.0
  0
LINE
  5
390
330
1F
100
AcDbEntity
  8
Layer0000
  6
Continuous
 62
    56
370
    25
100
AcDbLine
 10
-466.2165479055637
 20
124.4152265574398
 30
0.0
 11
-466.2165479055637
 21
131.4152265574398
 31
0.0
  0
LINE
  5
391
330
1F
100
AcDbEntity
  8
Layer0000
  6
Continuous
 62
    56
370
    25
100
AcDbLine
 10
-465.1165479055637
 20
129.4152265574398
 30
0.0
 11
-465.1165479055637
 21
131.4152265574398
 31
0.0
  0
LINE
  5
392
330
1F
100
AcDbEntity
  8
Layer0000
  6
Continuous
 62
    56
370
    25
100
AcDbLine
 10
-450.2165479055637
 20
124.4152265574398
 30
0.0
 11
-450.2165479055637
 21
131.4152265574398
 31
0.0
  0
LINE
  5
393
330
1F
100
AcDbEntity
  8
Layer0000
  6
Continuous
 62
    56
370
    25
100
AcDbLine
 10
-451.3165479055638
 20
129.4152265574398
 30
0.0
 11
-451.3165479055638
 21
131.4152265574398
 31
0.0
  0
LINE
  5
394
330
1F
100
AcDbEntity
  8
Layer0000
  6
Continuous
 62
    56
370
    25
100
AcDbLine
 10
-450.2165479055637
 20
127.5099706691173
 30
0.0
 11
-451.3165479055618
 21
129.4152265574398
 31
0.0
  0
LINE
  5
395
330
1F
100
AcDbEntity
  8
Layer0000
  6
Continuous
 62
    56
370
    25
100
AcDbLine
 10
-465.1165479055637
 20
129.4152265574448
 30
0.0
 11
-466.2165479055637
 21
127.509970669119
 31
0.0
  0
LINE
  5
396
330
1F
100
AcDbEntity
  8
Layer0000
  6
Continuous
 62
    56
370
    25
100
AcDbLine
 10
-449.2165479055637
 20
123.4152265574398
 30
0.0
 11
-449.2165479055637
 21
104.4152265574398
 31
0.0
  0
LINE
  5
397
330
1F
100
AcDbEntity
  8
Layer0000
  6
Continuous
 62
    56
370
    25
100
AcDbLine
 10
-467.2165479055637
 20
123.4152265574398
 30
0.0
 11
-467.2165479055637
 21
104.4152265574398
 31
0.0
  0
LINE
  5
398
330
1F
100
AcDbEntity
  8
Layer0000
  6
Continuous
 62
    56
370
    25
100
AcDbLine
 10
-466.2165479055637
 20
124.4152265574398
 30
0.0
 11
-467.2165479055637
 21
123.4152265574398
 31
0.0
  0
LINE
  5
399
330
1F
100
AcDbEntity
  8
Layer0000
  6
Continuous
 62
    56
370
    25
100
AcDbLine
 10
-450.2165479055637
 20
124.4152265574398
 30
0.0
 11
-449.2165479055637
 21
123.4152265574398
 31
0.0
  0
LINE
  5
39A
330
1F
100
AcDbEntity
  8
Layer0000
  6
Continuous
 62
    56
370
    25
100
AcDbLine
 10
-449.2165479055637
 20
123.4152265574398
 30
0.0
 11
-467.2165479055637
 21
123.4152265574398
 31
0.0
  0
LINE
  5
39B
330
1F
100
AcDbEntity
  8
Layer0000
  6
Continuous
 62
    56
370
    25
100
AcDbLine
 10
-465.1383446752882
 20
144.4152265574398
 30
0.0
 11
-465.1383446752882
 21
132.7719996900354
 31
0.0
  0
LINE
  5
39C
330
1F
100
AcDbEntity
  8
Layer0000
  6
Continuous
 62
    56
370
    25
100
AcDbLine
 10
-472.0665479055638
 20
144.4152265574398
 30
0.0
 11
-472.0665479055638
 21
132.7719996900354
 31
0.0
  0
LINE
  5
39D
330
1F
100
AcDbEntity
  8
Layer0000
  6
Continuous
 62
    56
370
    25
100
AcDbLine
 10
-451.2947511358392
 20
132.7719996900354
 30
0.0
 11
-451.2947511358392
 21
144.4152265574398
 31
0.0
  0
LINE
  5
39E
330
1F
100
AcDbEntity
  8
Layer0000
  6
Continuous
 62
    56
370
    25
100
AcDbLine
 10
-444.3665479055637
 20
144.4152265574398
 30
0.0
 11
-444.3665479055637
 21
132.7719996900354
 31
0.0
  0
LINE
  5
39F
330
1F
100
AcDbEntity
  8
Layer0000
  6
Continuous
 62
    56
370
    25
100
AcDbLine
 10
-488.2165479055637
 20
83.41522655743981
 30
0.0
 11
-488.2165479055637
 21
103.4152265574398
 31
0.0
  0
LINE
  5
3A0
330
1F
100
AcDbEntity
  8
Layer0000
  6
Continuous
 62
    56
370
    25
100
AcDbLine
 10
-487.2165479055637
 20
82.41522655743981
 30
0.0
 11
-488.2165479055637
 21
83.41522655743981
 31
0.0
  0
LINE
  5
3A1
330
1F
100
AcDbEntity
  8
Layer0000
  6
Continuous
 62
    56
370
    25
100
AcDbLine
 10
-488.2165479055637
 20
103.4152265574398
 30
0.0
 11
-487.2165479055637
 21
104.4152265574398
 31
0.0
  0
CIRCLE
  5
3A2
330
1F
100
AcDbEntity
  8
Layer0000
  6
Continuous
 62
    56
370
    25
100
AcDbCircle
 10
-478.2165479055636
 20
93.41522655743981
 30
0.0
 40
6.267949192431104
  0
CIRCLE
  5
3A3
330
1F
100
AcDbEntity
  8
Layer0000
  6
Continuous
 62
    56
370
    25
100
AcDbCircle
 10
-478.2165479055636
 20
93.41522655743981
 30
0.0
 40
8.0
  0
LINE
  5
3A4
330
1F
100
AcDbEntity
  8
Layer0000
  6
Continuous
 62
    56
370
    25
100
AcDbLine
 10
-482.8353500590806
 20
93.41522655743981
 30
0.0
 11
-480.5259489823221
 21
89.41522655743981
 31
0.0
  0
LINE
  5
3A5
330
1F
100
AcDbEntity
  8
Layer0000
  6
Continuous
 62
    56
370
    25
100
AcDbLine
 10
-480.5259489823221
 20
89.41522655743981
 30
0.0
 11
-475.9071468288051
 21
89.41522655743981
 31
0.0
  0
LINE
  5
3A6
330
1F
100
AcDbEntity
  8
Layer0000
  6
Continuous
 62
    56
370
    25
100
AcDbLine
 10
-475.9071468288051
 20
97.41522655743981
 30
0.0
 11
-480.5259489823221
 21
97.41522655743981
 31
0.0
  0
LINE
  5
3A7
330
1F
100
AcDbEntity
  8
Layer0000
  6
Continuous
 62
    56
370
    25
100
AcDbLine
 10
-480.5259489823221
 20
97.41522655743981
 30
0.0
 11
-482.8353500590806
 21
93.41522655743981
 31
0.0
  0
LINE
  5
3A8
330
1F
100
AcDbEntity
  8
Layer0000
  6
Continuous
 62
    56
370
    25
100
AcDbLine
 10
-487.2165479055637
 20
82.41522655743981
 30
0.0
 11
-366.2165479055637
 21
82.41522655743981
 31
0.0
  0
LINE
  5
3A9
330
1F
100
AcDbEntity
  8
Layer0000
  6
Continuous
 62
    56
370
    25
100
AcDbLine
 10
-487.2165479055637
 20
104.4152265574398
 30
0.0
 11
-366.2165479055637
 21
104.4152265574398
 31
0.0
  0
LINE
  5
3AA
330
1F
100
AcDbEntity
  8
Layer0000
  6
Continuous
 62
    56
370
    25
100
AcDbLine
 10
-375.2165479055637
 20
73.91522655743981
 30
0.0
 11
-385.2165479055637
 21
73.91522655743981
 31
0.0
  0
LINE
  5
3AB
330
1F
100
AcDbEntity
  8
Layer0000
  6
Continuous
 62
    56
370
    25
100
AcDbLine
 10
-376.7165479055637
 20
72.41522655743981
 30
0.0
 11
-383.7165479055637
 21
72.41522655743981
 31
0.0
  0
LINE
  5
3AC
330
1F
100
AcDbEntity
  8
Layer0000
  6
Continuous
 62
    56
370
    25
100
AcDbLine
 10
-375.2165479055637
 20
73.91522655743981
 30
0.0
 11
-376.7165479055637
 21
72.41522655743981
 31
0.0
  0
LINE
  5
3AD
330
1F
100
AcDbEntity
  8
Layer0000
  6
Continuous
 62
    56
370
    25
100
AcDbLine
 10
-385.2165479055637
 20
73.91522655743981
 30
0.0
 11
-383.7165479055637
 21
72.41522655743981
 31
0.0
  0
LINE
  5
3AE
330
1F
100
AcDbEntity
  8
Layer0000
  6
Continuous
 62
    56
370
    25
100
AcDbLine
 10
-390.0165479055637
 20
104.4152265574398
 30
0.0
 11
-390.0165479055637
 21
111.5203336401959
 31
0.0
  0
LINE
  5
3AF
330
1F
100
AcDbEntity
  8
Layer0000
  6
Continuous
 62
    56
370
    25
100
AcDbLine
 10
-385.1090706174519
 20
111.5203336401959
 30
0.0
 11
-385.1090706174519
 21
104.4152265574398
 31
0.0
  0
ARC
  5
3B0
330
1F
100
AcDbEntity
  8
Layer0000
  6
Continuous
 62
    56
370
    25
100
AcDbCircle
 10
-387.5628092615078
 20
108.6037835706767
 30
0.0
 40
3.811442986763149
100
AcDbArc
 50
49.92557966161387
 51
130.0744203383854
  0
ARC
  5
3B1
330
1F
100
AcDbEntity
  8
Layer0000
  6
Continuous
 62
    56
370
    25
100
AcDbCircle
 10
-380.2165479055637
 20
98.59367799950641
 30
0.0
 40
13.82154855793342
100
AcDbArc
 50
69.26918485858411
 51
110.7308151414159
  0
LINE
  5
3B2
330
1F
100
AcDbEntity
  8
Layer0000
  6
Continuous
 62
    56
370
    25
100
AcDbLine
 10
-375.3240251936755
 20
104.4152265574398
 30
0.0
 11
-375.3240251936755
 21
111.5203336401959
 31
0.0
  0
LINE
  5
3B3
330
1F
100
AcDbEntity
  8
Layer0000
  6
Continuous
 62
    56
370
    25
100
AcDbLine
 10
-385.2165479055637
 20
82.41522655743981
 30
0.0
 11
-385.2165479055637
 21
73.91522655743981
 31
0.0
  0
LINE
  5
3B4
330
1F
100
AcDbEntity
  8
Layer0000
  6
Continuous
 62
    56
370
    25
100
AcDbLine
 10
-375.2165479055637
 20
82.41522655743981
 30
0.0
 11
-375.2165479055637
 21
73.91522655743981
 31
0.0
  0
LINE
  5
3B5
330
1F
100
AcDbEntity
  8
Layer0000
  6
Continuous
 62
    56
370
    25
100
AcDbLine
 10
-384.4065479055637
 20
82.41522655743981
 30
0.0
 11
-384.4065479055637
 21
73.1052265574398
 31
0.0
  0
LINE
  5
3B6
330
1F
100
AcDbEntity
  8
Layer0000
  6
Continuous
 62
    56
370
    25
100
AcDbLine
 10
-376.0265479055637
 20
82.41522655743981
 30
0.0
 11
-376.0265479055637
 21
73.1052265574398
 31
0.0
  0
LINE
  5
3B7
330
1F
100
AcDbEntity
  8
Layer0000
  6
Continuous
 62
    56
370
    25
100
AcDbLine
 10
-387.5628092615078
 20
112.4152265574398
 30
0.0
 11
-372.8702865496195
 21
112.4152265574398
 31
0.0
  0
ARC
  5
3B8
330
1F
100
AcDbEntity
  8
Layer0000
  6
Continuous
 62
    56
370
    25
100
AcDbCircle
 10
-372.8702865496195
 20
108.6037835706767
 30
0.0
 40
3.811442986763113
100
AcDbArc
 50
49.92557966161453
 51
130.0744203383861
  0
LINE
  5
3B9
330
1F
100
AcDbEntity
  8
Layer0000
  6
Continuous
 62
    56
370
    25
100
AcDbLine
 10
-370.4165479055637
 20
104.4152265574398
 30
0.0
 11
-370.4165479055637
 21
111.5203336401959
 31
0.0
  0
LINE
  5
3BA
330
1F
100
AcDbEntity
  8
Layer0000
  6
Continuous
 62
    56
370
    25
100
AcDbLine
 10
-365.2165479055637
 20
103.4152265574398
 30
0.0
 11
-365.2165479055637
 21
83.41522655743981
 31
0.0
  0
LINE
  5
3BB
330
1F
100
AcDbEntity
  8
Layer0000
  6
Continuous
 62
    56
370
    25
100
AcDbLine
 10
-366.2165479055637
 20
104.4152265574398
 30
0.0
 11
-365.2165479055637
 21
103.4152265574398
 31
0.0
  0
LINE
  5
3BC
330
1F
100
AcDbEntity
  8
Layer0000
  6
Continuous
 62
    56
370
    25
100
AcDbLine
 10
-366.2165479055637
 20
82.41522655743981
 30
0.0
 11
-365.2165479055637
 21
83.41522655743981
 31
0.0
  0
LINE
  5
3BD
330
1F
100
AcDbEntity
  8
Layer0000
  6
Continuous
 62
    56
370
    25
100
AcDbLine
 10
-375.3240251936755
 20
132.4152265574398
 30
0.0
 11
-375.3240251936755
 21
138.5203336401958
 31
0.0
  0
LINE
  5
3BE
330
1F
100
AcDbEntity
  8
Layer0000
  6
Continuous
 62
    56
370
    25
100
AcDbLine
 10
-390.0165479055637
 20
132.4152265574398
 30
0.0
 11
-390.0165479055637
 21
138.5203336401959
 31
0.0
  0
LINE
  5
3BF
330
1F
100
AcDbEntity
  8
Layer0000
  6
Continuous
 62
    56
370
    25
100
AcDbLine
 10
-385.1090706174519
 20
132.4152265574398
 30
0.0
 11
-385.1090706174519
 21
138.5203336401959
 31
0.0
  0
ARC
  5
3C0
330
1F
100
AcDbEntity
  8
Layer0000
  6
Continuous
 62
    56
370
    25
100
AcDbCircle
 10
-387.5628092615078
 20
135.6037835706767
 30
0.0
 40
3.811442986763149
100
AcDbArc
 50
49.92557966161389
 51
130.0744203383852
  0
ARC
  5
3C1
330
1F
100
AcDbEntity
  8
Layer0000
  6
Continuous
 62
    56
370
    25
100
AcDbCircle
 10
-380.2165479055637
 20
125.5936779995064
 30
0.0
 40
13.82154855793342
100
AcDbArc
 50
69.26918485858411
 51
110.7308151414159
  0
ARC
  5
3C2
330
1F
100
AcDbEntity
  8
Layer0000
  6
Continuous
 62
    56
370
    25
100
AcDbCircle
 10
-374.8165479055638
 20
132.0152265574398
 30
0.0
 40
0.4000000000000057
100
AcDbArc
 50
90.0
 51
180.0
  0
ARC
  5
3C3
330
1F
100
AcDbEntity
  8
Layer0000
  6
Continuous
 62
    56
370
    25
100
AcDbCircle
 10
-385.6165479055637
 20
132.0152265574398
 30
0.0
 40
0.3999999999999773
100
AcDbArc
 50
0.0
 51
90.0
  0
LINE
  5
3C4
330
1F
100
AcDbEntity
  8
Layer0000
  6
Continuous
 62
    56
370
    25
100
AcDbLine
 10
-385.2165479055637
 20
127.9152265574398
 30
0.0
 11
-375.2165479055637
 21
127.9152265574398
 31
0.0
  0
LINE
  5
3C5
330
1F
100
AcDbEntity
  8
Layer0000
  6
Continuous
 62
    56
370
    25
100
AcDbLine
 10
-376.0265479055666
 20
127.9152265574398
 30
0.0
 11
-375.2165479055637
 21
129.3181877115757
 31
0.0
  0
LINE
  5
3C6
330
1F
100
AcDbEntity
  8
Layer0000
  6
Continuous
 62
    56
370
    25
100
AcDbLine
 10
-384.4065479055637
 20
127.9152265574398
 30
0.0
 11
-385.2165479055637
 21
129.3181877115747
 31
0.0
  0
LINE
  5
3C7
330
1F
100
AcDbEntity
  8
Layer0000
  6
Continuous
 62
    56
370
    25
100
AcDbLine
 10
-384.4065479055637
 20
127.9152265574398
 30
0.0
 11
-384.4065479055637
 21
112.4152265574398
 31
0.0
  0
LINE
  5
3C8
330
1F
100
AcDbEntity
  8
Layer0000
  6
Continuous
 62
    56
370
    25
100
AcDbLine
 10
-385.2165479055637
 20
132.0152265574398
 30
0.0
 11
-385.2165479055637
 21
112.4152265574398
 31
0.0
  0
LINE
  5
3C9
330
1F
100
AcDbEntity
  8
Layer0000
  6
Continuous
 62
    56
370
    25
100
AcDbLine
 10
-376.0265479055637
 20
127.9152265574398
 30
0.0
 11
-376.0265479055637
 21
112.4152265574398
 31
0.0
  0
LINE
  5
3CA
330
1F
100
AcDbEntity
  8
Layer0000
  6
Continuous
 62
    56
370
    25
100
AcDbLine
 10
-375.2165479055637
 20
132.0152265574398
 30
0.0
 11
-375.2165479055637
 21
112.4152265574398
 31
0.0
  0
LINE
  5
3CB
330
1F
100
AcDbEntity
  8
Layer0000
  6
Continuous
 62
    56
370
    25
100
AcDbLine
 10
-370.4165479055637
 20
132.4152265574398
 30
0.0
 11
-390.0165479055637
 21
132.4152265574398
 31
0.0
  0
LINE
  5
3CC
330
1F
100
AcDbEntity
  8
Layer0000
  6
Continuous
 62
    56
370
    25
100
AcDbLine
 10
-370.4165479055637
 20
132.4152265574398
 30
0.0
 11
-370.4165479055637
 21
138.5203336401959
 31
0.0
  0
ARC
  5
3CD
330
1F
100
AcDbEntity
  8
Layer0000
  6
Continuous
 62
    56
370
    25
100
AcDbCircle
 10
-372.8702865496195
 20
135.6037835706767
 30
0.0
 40
3.811442986763113
100
AcDbArc
 50
49.92557966161454
 51
130.0744203383861
  0
LINE
  5
3CE
330
1F
100
AcDbEntity
  8
Layer0000
  6
Continuous
 62
    56
370
    25
100
AcDbLine
 10
-372.8702865496195
 20
139.4152265574398
 30
0.0
 11
-387.5628092615079
 21
139.4152265574398
 31
0.0
  0
LINE
  5
3CF
330
1F
100
AcDbEntity
  8
Layer0000
  6
Continuous
 62
    56
370
    25
100
AcDbLine
 10
-450.2165479055637
 20
44.41522655743981
 30
0.0
 11
-466.2165479055637
 21
44.41522655743981
 31
0.0
  0
LINE
  5
3D0
330
1F
100
AcDbEntity
  8
Layer0000
  6
Continuous
 62
    56
370
    25
100
AcDbLine
 10
-449.2165479055637
 20
45.41522655743981
 30
0.0
 11
-450.2165479055637
 21
44.41522655743981
 31
0.0
  0
LINE
  5
3D1
330
1F
100
AcDbEntity
  8
Layer0000
  6
Continuous
 62
    56
370
    25
100
AcDbLine
 10
-467.2165479055637
 20
45.41522655743981
 30
0.0
 11
-466.2165479055637
 21
44.41522655743981
 31
0.0
  0
LINE
  5
3D2
330
1F
100
AcDbEntity
  8
Layer0000
  6
Continuous
 62
    56
370
    25
100
AcDbLine
 10
-467.2165479055637
 20
45.41522655743981
 30
0.0
 11
-449.2165479055637
 21
45.41522655743981
 31
0.0
  0
LINE
  5
3D3
330
1F
100
AcDbEntity
  8
Layer0000
  6
CENTER
 62
    56
370
    25
100
AcDbLine
 10
165.2834521556716
 20
-299.6567096947348
 30
0.0
 11
264.2834521556682
 21
-299.6567096947348
 31
0.0
  0
LINE
  5
3D4
330
1F
100
AcDbEntity
  8
Layer0000
  6
CENTER
 62
    56
370
    25
100
AcDbLine
 10
-478.2165479055636
 20
102.4152265574398
 30
0.0
 11
-478.2165479055636
 21
84.41522655743981
 31
0.0
  0
LINE
  5
3D5
330
1F
100
AcDbEntity
  8
Layer0000
  6
CENTER
 62
    56
370
    25
100
AcDbLine
 10
-458.2165479055637
 20
147.2650557741174
 30
0.0
 11
-458.2165479055637
 21
42.41522655743981
 31
0.0
  0
LINE
  5
3D6
330
1F
100
AcDbEntity
  8
Layer0000
  6
CENTER
 62
    56
370
    25
100
AcDbLine
 10
-469.2165479055636
 20
93.41522655743981
 30
0.0
 11
-487.2165479055636
 21
93.41522655743981
 31
0.0
  0
LINE
  5
3D7
330
1F
100
AcDbEntity
  8
Layer0000
  6
CENTER
 62
    56
370
    25
100
AcDbLine
 10
-380.2165479055637
 20
140.4152265574398
 30
0.0
 11
-380.2165479055637
 21
71.41522655743981
 31
0.0
  0
LINE
  5
3D8
330
1F
100
AcDbEntity
  8
Layer0001
  6
Continuous
 62
    56
370
    25
100
AcDbLine
 10
421.4167854889995
 20
142.4152265574398
 30
0.0
 11
401.4167854889995
 21
142.4152265574398
 31
0.0
  0
LINE
  5
3D9
330
1F
100
AcDbEntity
  8
Layer0001
  6
Continuous
 62
    56
370
    25
100
AcDbLine
 10
401.4167854889995
 20
142.4152265574398
 30
0.0
 11
401.4167854889995
 21
148.4152265574397
 31
0.0
  0
LINE
  5
3DA
330
1F
100
AcDbEntity
  8
Layer0001
  6
Continuous
 62
    56
370
    25
100
AcDbLine
 10
422.4167854889995
 20
96.41522655743971
 30
0.0
 11
396.4167854889995
 21
96.41522655743971
 31
0.0
  0
LINE
  5
3DB
330
1F
100
AcDbEntity
  8
Layer0001
  6
Continuous
 62
    56
370
    25
100
AcDbLine
 10
391.4167854889995
 20
148.4152265574397
 30
0.0
 11
391.4167854889995
 21
101.4152265574397
 31
0.0
  0
LINE
  5
3DC
330
1F
100
AcDbEntity
  8
Layer0001
  6
Continuous
 62
    56
370
    25
100
AcDbLine
 10
391.4167854889995
 20
148.4152265574397
 30
0.0
 11
401.4167854889995
 21
148.4152265574397
 31
0.0
  0
LINE
  5
3DD
330
1F
100
AcDbEntity
  8
Layer0001
  6
Continuous
 62
    56
370
    25
100
AcDbLine
 10
422.4167854889995
 20
105.4152265574397
 30
0.0
 11
421.4167854889995
 21
105.4152265574397
 31
0.0
  0
LINE
  5
3DE
330
1F
100
AcDbEntity
  8
Layer0001
  6
Continuous
 62
    56
370
    25
100
AcDbLine
 10
421.4167854889995
 20
105.4152265574397
 30
0.0
 11
421.4167854889995
 21
142.4152265574398
 31
0.0
  0
LINE
  5
3DF
330
1F
100
AcDbEntity
  8
Layer0001
  6
Continuous
 62
    56
370
    25
100
AcDbLine
 10
423.4167854889995
 20
104.4152265574397
 30
0.0
 11
423.4167854889995
 21
97.41522655743971
 31
0.0
  0
LINE
  5
3E0
330
1F
100
AcDbEntity
  8
Layer0001
  6
Continuous
 62
    56
370
    25
100
AcDbLine
 10
422.4167854889995
 20
105.4152265574397
 30
0.0
 11
423.4167854889995
 21
104.4152265574397
 31
0.0
  0
LINE
  5
3E1
330
1F
100
AcDbEntity
  8
Layer0001
  6
Continuous
 62
    56
370
    25
100
AcDbLine
 10
422.4167854889995
 20
96.41522655743971
 30
0.0
 11
423.4167854889995
 21
97.41522655743971
 31
0.0
  0
LINE
  5
3E2
330
1F
100
AcDbEntity
  8
Layer0001
  6
Continuous
 62
    56
370
    25
100
AcDbLine
 10
396.4167854889995
 20
96.41522655743971
 30
0.0
 11
391.4167854889995
 21
101.4152265574397
 31
0.0
  0
LINE
  5
3E3
330
1F
100
AcDbEntity
  8
Layer0001
  6
Continuous
 62
    56
370
    25
100
AcDbLine
 10
421.4167854889995
 20
350.4152265574398
 30
0.0
 11
401.4167854889995
 21
350.4152265574398
 31
0.0
  0
LINE
  5
3E4
330
1F
100
AcDbEntity
  8
Layer0001
  6
Continuous
 62
    56
370
    25
100
AcDbLine
 10
401.4167854889995
 20
350.4152265574398
 30
0.0
 11
401.4167854889995
 21
344.41522655744
 31
0.0
  0
LINE
  5
3E5
330
1F
100
AcDbEntity
  8
Layer0001
  6
Continuous
 62
    56
370
    25
100
AcDbLine
 10
391.4167854889995
 20
344.41522655744
 30
0.0
 11
391.4167854889995
 21
391.41522655744
 31
0.0
  0
LINE
  5
3E6
330
1F
100
AcDbEntity
  8
Layer0001
  6
Continuous
 62
    56
370
    25
100
AcDbLine
 10
391.4167854889995
 20
344.41522655744
 30
0.0
 11
401.4167854889995
 21
344.41522655744
 31
0.0
  0
LINE
  5
3E7
330
1F
100
AcDbEntity
  8
Layer0001
  6
Continuous
 62
    56
370
    25
100
AcDbLine
 10
421.4167854889995
 20
387.41522655744
 30
0.0
 11
421.4167854889995
 21
350.4152265574398
 31
0.0
  0
LINE
  5
3E8
330
1F
100
AcDbEntity
  8
Layer0001
  6
Continuous
 62
    56
370
    25
100
AcDbLine
 10
396.4167854889995
 20
396.41522655744
 30
0.0
 11
391.4167854889995
 21
391.41522655744
 31
0.0
  0
LINE
  5
3E9
330
1F
100
AcDbEntity
  8
Layer0001
  6
Continuous
 62
    56
370
    25
100
AcDbLine
 10
422.4167854889995
 20
396.41522655744
 30
0.0
 11
396.4167854889995
 21
396.41522655744
 31
0.0
  0
LINE
  5
3EA
330
1F
100
AcDbEntity
  8
Layer0001
  6
Continuous
 62
    56
370
    25
100
AcDbLine
 10
422.4167854889995
 20
387.41522655744
 30
0.0
 11
421.4167854889995
 21
387.41522655744
 31
0.0
  0
LINE
  5
3EB
330
1F
100
AcDbEntity
  8
Layer0001
  6
Continuous
 62
    56
370
    25
100
AcDbLine
 10
423.4167854889995
 20
388.41522655744
 30
0.0
 11
423.4167854889995
 21
395.41522655744
 31
0.0
  0
LINE
  5
3EC
330
1F
100
AcDbEntity
  8
Layer0001
  6
Continuous
 62
    56
370
    25
100
AcDbLine
 10
422.4167854889995
 20
387.41522655744
 30
0.0
 11
423.4167854889995
 21
388.41522655744
 31
0.0
  0
LINE
  5
3ED
330
1F
100
AcDbEntity
  8
Layer0001
  6
Continuous
 62
    56
370
    25
100
AcDbLine
 10
422.4167854889995
 20
396.41522655744
 30
0.0
 11
423.4167854889995
 21
395.41522655744
 31
0.0
  0
LINE
  5
3EE
330
1F
100
AcDbEntity
  8
Layer0001
  6
Continuous
 62
    56
370
    25
100
AcDbLine
 10
-147.2165479055641
 20
395.41522655744
 30
0.0
 11
-146.2165479055641
 21
396.41522655744
 31
0.0
  0
LINE
  5
3EF
330
1F
100
AcDbEntity
  8
Layer0001
  6
Continuous
 62
    56
370
    25
100
AcDbLine
 10
-147.2165479055641
 20
354.4152265574398
 30
0.0
 11
-147.2165479055641
 21
395.41522655744
 31
0.0
  0
LINE
  5
3F0
330
1F
100
AcDbEntity
  8
Layer0001
  6
Continuous
 62
    56
370
    25
100
AcDbLine
 10
-97.216547905564
 20
395.41522655744
 30
0.0
 11
-98.216547905564
 21
396.41522655744
 31
0.0
  0
LINE
  5
3F1
330
1F
100
AcDbEntity
  8
Layer0001
  6
Continuous
 62
    56
370
    25
100
AcDbLine
 10
-146.2165479055641
 20
396.41522655744
 30
0.0
 11
-98.216547905564
 21
396.41522655744
 31
0.0
  0
LINE
  5
3F2
330
1F
100
AcDbEntity
  8
Layer0001
  6
Continuous
 62
    56
370
    25
100
AcDbLine
 10
-97.216547905564
 20
354.41522655744
 30
0.0
 11
-97.216547905564
 21
395.41522655744
 31
0.0
  0
CIRCLE
  5
3F3
330
1F
100
AcDbEntity
  8
Layer0001
  6
Continuous
 62
    56
370
    25
100
AcDbCircle
 10
-122.2165479055638
 20
370.41522655744
 30
0.0
 40
9.5
  0
CIRCLE
  5
3F4
330
1F
100
AcDbEntity
  8
Layer0001
  6
Continuous
 62
    56
370
    25
100
AcDbCircle
 10
-122.2165479055638
 20
370.41522655744
 30
0.0
 40
14.5
  0
LINE
  5
3F5
330
1F
100
AcDbEntity
  8
Layer0001
  6
Continuous
 62
    56
370
    25
100
AcDbLine
 10
-137.216547905564
 20
344.41522655744
 30
0.0
 11
-147.2165479055641
 21
354.4152265574398
 31
0.0
  0
LINE
  5
3F6
330
1F
100
AcDbEntity
  8
Layer0001
  6
Continuous
 62
    56
370
    25
100
AcDbLine
 10
-107.216547905564
 20
344.41522655744
 30
0.0
 11
-97.216547905564
 21
354.41522655744
 31
0.0
  0
LINE
  5
3F7
330
1F
100
AcDbEntity
  8
Layer0001
  6
Continuous
 62
    56
370
    25
100
AcDbLine
 10
-137.216547905564
 20
344.41522655744
 30
0.0
 11
-107.216547905564
 21
344.41522655744
 31
0.0
  0
LINE
  5
3F8
330
1F
100
AcDbEntity
  8
Layer0001
  6
Continuous
 62
    56
370
    25
100
AcDbLine
 10
-347.2165479055641
 20
395.41522655744
 30
0.0
 11
-346.2165479055641
 21
396.41522655744
 31
0.0
  0
LINE
  5
3F9
330
1F
100
AcDbEntity
  8
Layer0001
  6
Continuous
 62
    56
370
    25
100
AcDbLine
 10
-347.2165479055641
 20
354.4152265574398
 30
0.0
 11
-347.2165479055641
 21
395.41522655744
 31
0.0
  0
LINE
  5
3FA
330
1F
100
AcDbEntity
  8
Layer0001
  6
Continuous
 62
    56
370
    25
100
AcDbLine
 10
-297.216547905564
 20
395.41522655744
 30
0.0
 11
-298.216547905564
 21
396.41522655744
 31
0.0
  0
LINE
  5
3FB
330
1F
100
AcDbEntity
  8
Layer0001
  6
Continuous
 62
    56
370
    25
100
AcDbLine
 10
-346.2165479055641
 20
396.41522655744
 30
0.0
 11
-298.216547905564
 21
396.41522655744
 31
0.0
  0
LINE
  5
3FC
330
1F
100
AcDbEntity
  8
Layer0001
  6
Continuous
 62
    56
370
    25
100
AcDbLine
 10
-297.216547905564
 20
354.41522655744
 30
0.0
 11
-297.216547905564
 21
395.41522655744
 31
0.0
  0
CIRCLE
  5
3FD
330
1F
100
AcDbEntity
  8
Layer0001
  6
Continuous
 62
    56
370
    25
100
AcDbCircle
 10
-322.2165479055637
 20
370.41522655744
 30
0.0
 40
9.5
  0
CIRCLE
  5
3FE
330
1F
100
AcDbEntity
  8
Layer0001
  6
Continuous
 62
    56
370
    25
100
AcDbCircle
 10
-322.2165479055637
 20
370.41522655744
 30
0.0
 40
14.5
  0
LINE
  5
3FF
330
1F
100
AcDbEntity
  8
Layer0001
  6
Continuous
 62
    56
370
    25
100
AcDbLine
 10
-337.216547905564
 20
344.41522655744
 30
0.0
 11
-347.2165479055641
 21
354.4152265574398
 31
0.0
  0
LINE
  5
400
330
1F
100
AcDbEntity
  8
Layer0001
  6
Continuous
 62
    56
370
    25
100
AcDbLine
 10
-307.216547905564
 20
344.41522655744
 30
0.0
 11
-297.216547905564
 21
354.41522655744
 31
0.0
  0
LINE
  5
401
330
1F
100
AcDbEntity
  8
Layer0001
  6
Continuous
 62
    56
370
    25
100
AcDbLine
 10
-337.216547905564
 20
344.41522655744
 30
0.0
 11
-307.216547905564
 21
344.41522655744
 31
0.0
  0
LINE
  5
402
330
1F
100
AcDbEntity
  8
Layer0001
  6
Continuous
 62
    56
370
    25
100
AcDbLine
 10
-147.2165479055641
 20
97.41522655743972
 30
0.0
 11
-146.2165479055641
 21
96.41522655743972
 31
0.0
  0
LINE
  5
403
330
1F
100
AcDbEntity
  8
Layer0001
  6
Continuous
 62
    56
370
    25
100
AcDbLine
 10
-147.2165479055641
 20
138.4152265574398
 30
0.0
 11
-147.2165479055641
 21
97.41522655743972
 31
0.0
  0
LINE
  5
404
330
1F
100
AcDbEntity
  8
Layer0001
  6
Continuous
 62
    56
370
    25
100
AcDbLine
 10
-97.216547905564
 20
97.41522655743972
 30
0.0
 11
-98.216547905564
 21
96.41522655743972
 31
0.0
  0
LINE
  5
405
330
1F
100
AcDbEntity
  8
Layer0001
  6
Continuous
 62
    56
370
    25
100
AcDbLine
 10
-146.2165479055641
 20
96.41522655743972
 30
0.0
 11
-98.216547905564
 21
96.41522655743972
 31
0.0
  0
LINE
  5
406
330
1F
100
AcDbEntity
  8
Layer0001
  6
Continuous
 62
    56
370
    25
100
AcDbLine
 10
-97.216547905564
 20
138.4152265574397
 30
0.0
 11
-97.216547905564
 21
97.41522655743972
 31
0.0
  0
CIRCLE
  5
407
330
1F
100
AcDbEntity
  8
Layer0001
  6
Continuous
 62
    56
370
    25
100
AcDbCircle
 10
-122.2165479055638
 20
122.4152265574397
 30
0.0
 40
9.5
  0
CIRCLE
  5
408
330
1F
100
AcDbEntity
  8
Layer0001
  6
Continuous
 62
    56
370
    25
100
AcDbCircle
 10
-122.2165479055638
 20
122.4152265574397
 30
0.0
 40
14.5
  0
LINE
  5
409
330
1F
100
AcDbEntity
  8
Layer0001
  6
Continuous
 62
    56
370
    25
100
AcDbLine
 10
-137.216547905564
 20
148.4152265574397
 30
0.0
 11
-147.2165479055641
 21
138.4152265574398
 31
0.0
  0
LINE
  5
40A
330
1F
100
AcDbEntity
  8
Layer0001
  6
Continuous
 62
    56
370
    25
100
AcDbLine
 10
-107.216547905564
 20
148.4152265574397
 30
0.0
 11
-97.216547905564
 21
138.4152265574397
 31
0.0
  0
LINE
  5
40B
330
1F
100
AcDbEntity
  8
Layer0001
  6
Continuous
 62
    56
370
    25
100
AcDbLine
 10
-137.216547905564
 20
148.4152265574397
 30
0.0
 11
-107.216547905564
 21
148.4152265574397
 31
0.0
  0
LINE
  5
40C
330
1F
100
AcDbEntity
  8
Layer0001
  6
Continuous
 62
    56
370
    25
100
AcDbLine
 10
-347.2165479055641
 20
97.41522655743972
 30
0.0
 11
-346.2165479055641
 21
96.41522655743972
 31
0.0
  0
LINE
  5
40D
330
1F
100
AcDbEntity
  8
Layer0001
  6
Continuous
 62
    56
370
    25
100
AcDbLine
 10
-347.2165479055641
 20
138.4152265574398
 30
0.0
 11
-347.2165479055641
 21
97.41522655743972
 31
0.0
  0
LINE
  5
40E
330
1F
100
AcDbEntity
  8
Layer0001
  6
Continuous
 62
    56
370
    25
100
AcDbLine
 10
-297.216547905564
 20
97.41522655743972
 30
0.0
 11
-298.216547905564
 21
96.41522655743972
 31
0.0
  0
LINE
  5
40F
330
1F
100
AcDbEntity
  8
Layer0001
  6
Continuous
 62
    56
370
    25
100
AcDbLine
 10
-346.2165479055641
 20
96.41522655743972
 30
0.0
 11
-298.216547905564
 21
96.41522655743972
 31
0.0
  0
LINE
  5
410
330
1F
100
AcDbEntity
  8
Layer0001
  6
Continuous
 62
    56
370
    25
100
AcDbLine
 10
-297.216547905564
 20
138.4152265574397
 30
0.0
 11
-297.216547905564
 21
97.41522655743972
 31
0.0
  0
CIRCLE
  5
411
330
1F
100
AcDbEntity
  8
Layer0001
  6
Continuous
 62
    56
370
    25
100
AcDbCircle
 10
-322.2165479055637
 20
122.4152265574397
 30
0.0
 40
9.5
  0
CIRCLE
  5
412
330
1F
100
AcDbEntity
  8
Layer0001
  6
Continuous
 62
    56
370
    25
100
AcDbCircle
 10
-322.2165479055637
 20
122.4152265574397
 30
0.0
 40
14.5
  0
LINE
  5
413
330
1F
100
AcDbEntity
  8
Layer0001
  6
Continuous
 62
    56
370
    25
100
AcDbLine
 10
-337.216547905564
 20
148.4152265574397
 30
0.0
 11
-347.2165479055641
 21
138.4152265574398
 31
0.0
  0
LINE
  5
414
330
1F
100
AcDbEntity
  8
Layer0001
  6
Continuous
 62
    56
370
    25
100
AcDbLine
 10
-307.216547905564
 20
148.4152265574397
 30
0.0
 11
-297.216547905564
 21
138.4152265574397
 31
0.0
  0
LINE
  5
415
330
1F
100
AcDbEntity
  8
Layer0001
  6
Continuous
 62
    56
370
    25
100
AcDbLine
 10
-337.216547905564
 20
148.4152265574397
 30
0.0
 11
-307.216547905564
 21
148.4152265574397
 31
0.0
  0
LINE
  5
416
330
1F
100
AcDbEntity
  8
Layer0001
  6
CENTER
 62
    56
370
    25
100
AcDbLine
 10
391.4167854889995
 20
122.4152265574398
 30
0.0
 11
423.4167854889994
 21
122.4152265574398
 31
0.0
  0
LINE
  5
417
330
1F
100
AcDbEntity
  8
Layer0001
  6
CENTER
 62
    56
370
    25
100
AcDbLine
 10
-122.2165479055638
 20
344.41522655744
 30
0.0
 11
-122.2165479055638
 21
396.41522655744
 31
0.0
  0
LINE
  5
418
330
1F
100
AcDbEntity
  8
Layer0001
  6
CENTER
 62
    56
370
    25
100
AcDbLine
 10
-97.216547905564
 20
370.41522655744
 30
0.0
 11
-147.2165479055641
 21
370.41522655744
 31
0.0
  0
LINE
  5
419
330
1F
100
AcDbEntity
  8
Layer0001
  6
CENTER
 62
    56
370
    25
100
AcDbLine
 10
-322.2165479055637
 20
344.41522655744
 30
0.0
 11
-322.2165479055637
 21
396.41522655744
 31
0.0
  0
LINE
  5
41A
330
1F
100
AcDbEntity
  8
Layer0001
  6
CENTER
 62
    56
370
    25
100
AcDbLine
 10
-297.216547905564
 20
370.41522655744
 30
0.0
 11
-347.2165479055641
 21
370.41522655744
 31
0.0
  0
LINE
  5
41B
330
1F
100
AcDbEntity
  8
Layer0001
  6
CENTER
 62
    56
370
    25
100
AcDbLine
 10
-122.2165479055638
 20
148.4152265574397
 30
0.0
 11
-122.2165479055638
 21
96.41522655743972
 31
0.0
  0
LINE
  5
41C
330
1F
100
AcDbEntity
  8
Layer0001
  6
CENTER
 62
    56
370
    25
100
AcDbLine
 10
-97.216547905564
 20
122.4152265574397
 30
0.0
 11
-147.2165479055641
 21
122.4152265574397
 31
0.0
  0
LINE
  5
41D
330
1F
100
AcDbEntity
  8
Layer0001
  6
CENTER
 62
    56
370
    25
100
AcDbLine
 10
-322.2165479055637
 20
148.4152265574397
 30
0.0
 11
-322.2165479055637
 21
96.41522655743972
 31
0.0
  0
LINE
  5
41E
330
1F
100
AcDbEntity
  8
Layer0001
  6
CENTER
 62
    56
370
    25
100
AcDbLine
 10
-297.216547905564
 20
122.4152265574397
 30
0.0
 11
-347.2165479055641
 21
122.4152265574397
 31
0.0
  0
LINE
  5
41F
330
1F
100
AcDbEntity
  8
Layer0001
  6
CENTER
 62
    56
370
    25
100
AcDbLine
 10
391.4167854889995
 20
370.41522655744
 30
0.0
 11
423.4167854889995
 21
370.41522655744
 31
0.0
  0
LINE
  5
420
330
1F
100
AcDbEntity
  8
Layer0000
  6
DASHED2
 62
    30
370
    25
100
AcDbLine
 10
423.4167854889995
 20
237.4152265574398
 30
0.0
 11
419.4167854889995
 21
237.4152265574398
 31
0.0
  0
LINE
  5
421
330
1F
100
AcDbEntity
  8
Layer0000
  6
DASHED2
 62
    30
370
    25
100
AcDbLine
 10
419.4167854889995
 20
237.4152265574398
 30
0.0
 11
419.4167854889995
 21
255.4152265574398
 31
0.0
  0
LINE
  5
422
330
1F
100
AcDbEntity
  8
Layer0000
  6
DASHED2
 62
    30
370
    25
100
AcDbLine
 10
419.4167854889995
 20
255.4152265574398
 30
0.0
 11
423.4167854889995
 21
255.4152265574398
 31
0.0
  0
CIRCLE
  5
423
330
1F
100
AcDbEntity
  8
Layer0000
  6
Continuous
 62
    30
370
    25
100
AcDbCircle
 10
-458.2165479055637
 20
-61.65670969473467
 30
0.0
 40
7.187999999999988
  0
CIRCLE
  5
424
330
1F
100
AcDbEntity
  8
Layer0000
  6
Continuous
 62
    30
370
    25
100
AcDbCircle
 10
343.4167854889995
 20
186.9152265574398
 30
0.0
 40
4.458499999999987
  0
CIRCLE
  5
425
330
1F
100
AcDbEntity
  8
Layer0000
  6
Continuous
 62
    30
370
    25
100
AcDbCircle
 10
343.4167854889995
 20
305.9152265574398
 30
0.0
 40
4.458499999999987
  0
LINE
  5
426
330
1F
100
AcDbEntity
  8
Layer0000
  6
CENTER
 62
     2
370
    18
100
AcDbLine
 10
2.783452094436257
 20
308.783888018639
 30
0.0
 11
-7.216547905563743
 21
308.783888018639
 31
0.0
  0
LINE
  5
427
330
1F
100
AcDbEntity
  8
Layer0000
  6
CENTER
 62
     2
370
    18
100
AcDbLine
 10
2.783452094436242
 20
183.7838880186392
 30
0.0
 11
-7.216547905563758
 21
183.7838880186392
 31
0.0
  0
LINE
  5
428
330
1F
100
AcDbEntity
  8
Layer0000
  6
CENTER
 62
     2
370
    18
100
AcDbLine
 10
-390.2810939537528
 20
-367.3423455829388
 30
0.0
 11
-286.2810939537528
 21
-367.3423455829388
 31
0.0
  0
LINE
  5
429
330
1F
100
AcDbEntity
  8
Layer0000
  6
DASHED2
 62
    30
370
    18
100
AcDbLine
 10
-388.2810939537528
 20
-349.3423455829387
 30
0.0
 11
-363.2810939537528
 21
-349.3423455829387
 31
0.0
  0
LINE
  5
42A
330
1F
100
AcDbEntity
  8
Layer0000
  6
DASHED2
 62
    30
370
    18
100
AcDbLine
 10
-388.2810939537528
 20
-357.6090447480054
 30
0.0
 11
-363.2810939537528
 21
-357.6090447480054
 31
0.0
  0
LINE
  5
42B
330
1F
100
AcDbEntity
  8
Layer0000
  6
DASHED2
 62
    30
370
    18
100
AcDbLine
 10
-388.2810939537528
 20
-359.096134331704
 30
0.0
 11
-363.2810939537528
 21
-359.096134331704
 31
0.0
  0
LINE
  5
42C
330
1F
100
AcDbEntity
  8
Layer0000
  6
DASHED2
 62
    30
370
    18
100
AcDbLine
 10
-363.2810939537528
 20
-349.3423455829387
 30
0.0
 11
-363.2810939537528
 21
-367.3423455829388
 31
0.0
  0
ARC
  5
42D
330
1F
100
AcDbEntity
  8
Layer0000
  6
DASHED2
 62
    30
370
    18
100
AcDbCircle
 10
-391.5522386466099
 20
-353.4756951654721
 30
0.0
 40
5.271144692857096
100
AcDbArc
 50
308.3581926761688
 51
51.64180732383124
  0
ARC
  5
42E
330
1F
100
AcDbEntity
  8
Layer0000
  6
DASHED2
 62
    30
370
    18
100
AcDbCircle
 10
-404.2810939537506
 20
-367.3423455829388
 30
0.0
 40
17.99999999999785
100
AcDbArc
 50
0.000000000000007
 51
27.26604445073447
  0
LINE
  5
42F
330
1F
100
AcDbEntity
  8
Layer0000
  6
DASHED2
 62
    30
370
    18
100
AcDbLine
 10
-363.2810939537528
 20
-353.8423455829388
 30
0.0
 11
-324.2810939537528
 21
-353.8423455829388
 31
0.0
  0
LINE
  5
430
330
1F
100
AcDbEntity
  8
Layer0000
  6
DASHED2
 62
    30
370
    18
100
AcDbLine
 10
-323.2810939537528
 20
-354.8423455829388
 30
0.0
 11
-323.2810939537528
 21
-367.3423455829388
 31
0.0
  0
LINE
  5
431
330
1F
100
AcDbEntity
  8
Layer0000
  6
DASHED2
 62
    30
370
    18
100
AcDbLine
 10
-324.2810939537528
 20
-353.8423455829388
 30
0.0
 11
-323.2810939537528
 21
-354.8423455829388
 31
0.0
  0
LINE
  5
432
330
1F
100
AcDbEntity
  8
Layer0000
  6
DASHED2
 62
    30
370
    18
100
AcDbLine
 10
-388.2810939537528
 20
-385.3423455829388
 30
0.0
 11
-363.2810939537528
 21
-385.3423455829388
 31
0.0
  0
LINE
  5
433
330
1F
100
AcDbEntity
  8
Layer0000
  6
DASHED2
 62
    30
370
    18
100
AcDbLine
 10
-388.2810939537528
 20
-377.0756464178722
 30
0.0
 11
-363.2810939537528
 21
-377.0756464178722
 31
0.0
  0
LINE
  5
434
330
1F
100
AcDbEntity
  8
Layer0000
  6
DASHED2
 62
    30
370
    18
100
AcDbLine
 10
-388.2810939537528
 20
-375.5885568341735
 30
0.0
 11
-363.2810939537528
 21
-375.5885568341735
 31
0.0
  0
LINE
  5
435
330
1F
100
AcDbEntity
  8
Layer0000
  6
DASHED2
 62
    30
370
    18
100
AcDbLine
 10
-363.2810939537528
 20
-385.3423455829388
 30
0.0
 11
-363.2810939537528
 21
-367.3423455829388
 31
0.0
  0
ARC
  5
436
330
1F
100
AcDbEntity
  8
Layer0000
  6
DASHED2
 62
    30
370
    18
100
AcDbCircle
 10
-391.5522386466099
 20
-381.2089960004054
 30
0.0
 40
5.271144692857096
100
AcDbArc
 50
308.3581926761688
 51
51.64180732383124
  0
ARC
  5
437
330
1F
100
AcDbEntity
  8
Layer0000
  6
DASHED2
 62
    30
370
    18
100
AcDbCircle
 10
-404.2810939537506
 20
-367.3423455829388
 30
0.0
 40
17.99999999999785
100
AcDbArc
 50
332.7339555492655
 51
0.0
  0
LINE
  5
438
330
1F
100
AcDbEntity
  8
Layer0000
  6
DASHED2
 62
    30
370
    18
100
AcDbLine
 10
-363.2810939537528
 20
-380.8423455829388
 30
0.0
 11
-324.2810939537528
 21
-380.8423455829388
 31
0.0
  0
LINE
  5
439
330
1F
100
AcDbEntity
  8
Layer0000
  6
DASHED2
 62
    30
370
    18
100
AcDbLine
 10
-323.2810939537528
 20
-379.8423455829388
 30
0.0
 11
-323.2810939537528
 21
-367.3423455829388
 31
0.0
  0
LINE
  5
43A
330
1F
100
AcDbEntity
  8
Layer0000
  6
DASHED2
 62
    30
370
    18
100
AcDbLine
 10
-324.2810939537528
 20
-380.8423455829388
 30
0.0
 11
-323.2810939537528
 21
-379.8423455829388
 31
0.0
  0
LINE
  5
43B
330
1F
100
AcDbEntity
  8
Layer0014
  6
DIVIDE
 62
     4
370
    25
100
AcDbLine
 10
-69.21654790556376
 20
-33.15670969473468
 30
0.0
 11
-69.21654790556374
 21
-90.65670969473467
 31
0.0
  0
LINE
  5
43C
330
1F
100
AcDbEntity
  8
Layer0014
  6
DIVIDE
 62
     4
370
    25
100
AcDbLine
 10
-44.01622669049534
 20
-90.6567096947347
 30
0.0
 11
-62.86156907200396
 21
-32.65670969473468
 31
0.0
  0
LINE
  5
43D
330
1F
100
AcDbEntity
  8
Layer0014
  6
DIVIDE
 62
     4
370
    25
100
AcDbLine
 10
-34.21654790556376
 20
-32.65670969473468
 30
0.0
 11
-62.86156907200396
 21
-32.65670969473468
 31
0.0
  0
LINE
  5
43E
330
1F
100
AcDbEntity
  8
Layer0014
  6
DIVIDE
 62
     4
370
    25
100
AcDbLine
 10
-69.21654790556376
 20
-33.15670969473468
 30
0.0
 11
-62.6991092238875
 21
-33.15670969473468
 31
0.0
  0
LINE
  5
43F
330
1F
100
AcDbEntity
  8
Layer0014
  6
DIVIDE
 62
     4
370
    25
100
AcDbLine
 10
-45.41654790556374
 20
-94.65670969473467
 30
0.0
 11
-34.41654790556375
 21
-94.65670969473467
 31
0.0
  0
LINE
  5
440
330
1F
100
AcDbEntity
  8
Layer0014
  6
DIVIDE
 62
     4
370
    25
100
AcDbLine
 10
-44.01622669049534
 20
-90.6567096947347
 30
0.0
 11
-55.41654790556375
 21
-90.65670969473469
 31
0.0
  0
LINE
  5
441
330
1F
100
AcDbEntity
  8
Layer0014
  6
DIVIDE
 62
     4
370
    25
100
AcDbLine
 10
-45.41654790556374
 20
-94.65670969473467
 30
0.0
 11
-45.41654790556374
 21
-93.65670969473467
 31
0.0
  0
LINE
  5
442
330
1F
100
AcDbEntity
  8
Layer0014
  6
DIVIDE
 62
     4
370
    25
100
AcDbLine
 10
-45.41654790556374
 20
-93.65670969473467
 30
0.0
 11
-60.41654790556375
 21
-93.65670969473467
 31
0.0
  0
LINE
  5
443
330
1F
100
AcDbEntity
  8
Layer0014
  6
DIVIDE
 62
     4
370
    25
100
AcDbLine
 10
-60.41654790556375
 20
-90.65670969473467
 30
0.0
 11
-60.41654790556375
 21
-93.65670969473467
 31
0.0
  0
LINE
  5
444
330
1F
100
AcDbEntity
  8
Layer0014
  6
DIVIDE
 62
     4
370
    25
100
AcDbLine
 10
-55.41654790556375
 20
-90.65670969473464
 30
0.0
 11
-55.41654790556375
 21
-90.15670969473464
 31
0.0
  0
LINE
  5
445
330
1F
100
AcDbEntity
  8
Layer0014
  6
DIVIDE
 62
     4
370
    25
100
AcDbLine
 10
-55.41654790556375
 20
-90.15670969473464
 30
0.0
 11
-44.17868653861181
 21
-90.15670969473464
 31
0.0
  0
LINE
  5
446
330
1F
100
AcDbEntity
  8
Layer0014
  6
DIVIDE
 62
     4
370
    25
100
AcDbLine
 10
-34.21654790556374
 20
-90.65670969473467
 30
0.0
 11
-44.01622669049534
 21
-90.6567096947347
 31
0.0
  0
LINE
  5
447
330
1F
100
AcDbEntity
  8
Layer0014
  6
DIVIDE
 62
     4
370
    25
100
AcDbLine
 10
-55.41654790556375
 20
-90.65670969473467
 30
0.0
 11
-69.21654790556374
 21
-90.65670969473467
 31
0.0
  0
LINE
  5
448
330
1F
100
AcDbEntity
  8
Layer0014
  6
DIVIDE
 62
     4
370
    25
100
AcDbLine
 10
-34.41654790556375
 20
-90.65670969473467
 30
0.0
 11
-34.41654790556375
 21
-94.65670969473467
 31
0.0
  0
LINE
  5
449
330
1F
100
AcDbEntity
  8
Layer0014
  6
DIVIDE
 62
     4
370
    25
100
AcDbLine
 10
-34.21654790556376
 20
-32.65670969473468
 30
0.0
 11
-34.21654790556376
 21
-90.65670969473467
 31
0.0
  0
LINE
  5
44A
330
1F
100
AcDbEntity
  8
Layer0014
  6
Continuous
 62
     3
370
    25
100
AcDbLine
 10
316.1960745914403
 20
-184.6567096947348
 30
0.0
 11
316.1960745914403
 21
-99.65670969473473
 31
0.0
  0
LINE
  5
44B
330
1F
100
AcDbEntity
  8
Layer0014
  6
Continuous
 62
     3
370
    25
100
AcDbLine
 10
355.178143903818
 20
-101.6567096947348
 30
0.0
 11
387.4960745914397
 21
-120.3154756768848
 31
0.0
  0
LINE
  5
44C
330
1F
100
AcDbEntity
  8
Layer0014
  6
Continuous
 62
     3
370
    25
100
AcDbLine
 10
355.178143903818
 20
-101.6567096947348
 30
0.0
 11
316.1960745914403
 21
-101.6567096947348
 31
0.0
  0
LINE
  5
44D
330
1F
100
AcDbEntity
  8
Layer0014
  6
Continuous
 62
     3
370
    25
100
AcDbLine
 10
387.4960745914397
 20
-120.3154756768848
 30
0.0
 11
387.4960745914397
 21
-167.6567096947348
 31
0.0
  0
LINE
  5
44E
330
1F
100
AcDbEntity
  8
Layer0014
  6
Continuous
 62
     3
370
    25
100
AcDbLine
 10
316.1960745914403
 20
-167.6567096947348
 30
0.0
 11
387.4960745914397
 21
-167.6567096947348
 31
0.0
  0
LINE
  5
44F
330
1F
100
AcDbEntity
  8
Layer0014
  6
Continuous
 62
     3
370
    25
100
AcDbLine
 10
284.1960745302139
 20
-99.65670969473467
 30
0.0
 11
316.1960745302123
 21
-99.65670969473473
 31
0.0
  0
LINE
  5
450
330
1F
100
AcDbEntity
  8
Layer0014
  6
Continuous
 62
     3
370
    25
100
AcDbLine
 10
284.1960745302142
 20
-184.6567096947348
 30
0.0
 11
316.1960745302123
 21
-184.6567096947348
 31
0.0
  0
LINE
  5
451
330
1F
100
AcDbEntity
  8
Layer0014
  6
Continuous
 62
     3
370
    25
100
AcDbLine
 10
375.4028078517006
 20
-79.84710925631799
 30
0.0
 11
393.5893413311738
 21
-90.34710925631799
 31
0.0
  0
LINE
  5
452
330
1F
100
AcDbEntity
  8
Layer0014
  6
Continuous
 62
     3
370
    25
100
AcDbLine
 10
385.2723540330668
 20
-105.7525538225442
 30
0.0
 11
385.0893413311746
 21
-105.069541120652
 31
0.0
  0
LINE
  5
453
330
1F
100
AcDbEntity
  8
Layer0014
  6
Continuous
 62
     3
370
    25
100
AcDbLine
 10
385.0893413311745
 20
-105.0695411206519
 30
0.0
 11
394.5893413311748
 21
-88.61505844874728
 31
0.0
  0
LINE
  5
454
330
1F
100
AcDbEntity
  8
Layer0014
  6
Continuous
 62
     3
370
    25
100
AcDbLine
 10
366.2197951498092
 20
-94.7525538225442
 30
0.0
 11
366.9028078517014
 21
-94.56954112065199
 31
0.0
  0
LINE
  5
455
330
1F
100
AcDbEntity
  8
Layer0014
  6
Continuous
 62
     3
370
    25
100
AcDbLine
 10
366.9028078517013
 20
-94.56954112065193
 30
0.0
 11
376.402807851702
 21
-78.1150584487466
 31
0.0
  0
LINE
  5
456
330
1F
100
AcDbEntity
  8
Layer0014
  6
Continuous
 62
     3
370
    25
100
AcDbLine
 10
385.2723540330668
 20
-105.7525538225442
 30
0.0
 11
366.2197951498092
 21
-94.7525538225442
 31
0.0
  0
LINE
  5
457
330
1F
100
AcDbEntity
  8
Layer0014
  6
Continuous
 62
     3
370
    25
100
AcDbLine
 10
366.9028078517014
 20
-94.56954112065199
 30
0.0
 11
385.0893413311746
 21
-105.069541120652
 31
0.0
  0
LINE
  5
458
330
1F
100
AcDbEntity
  8
Layer0014
  6
Continuous
 62
     3
370
    25
100
AcDbLine
 10
385.2723540330666
 20
-105.7525538225442
 30
0.0
 11
379.5223540330666
 21
-115.7118459660653
 31
0.0
  0
LINE
  5
459
330
1F
100
AcDbEntity
  8
Layer0014
  6
Continuous
 62
     3
370
    25
100
AcDbLine
 10
366.219795149809
 20
-94.75255382254419
 30
0.0
 11
360.469795149809
 21
-104.7118459660653
 31
0.0
  0
LINE
  5
45A
330
1F
100
AcDbEntity
  8
Layer0014
  6
Continuous
 62
     3
370
    25
100
AcDbLine
 10
186.1958087770793
 20
-33.65670969473464
 30
0.0
 11
198.1960745302152
 21
-33.65670969473464
 31
0.0
  0
LINE
  5
45B
330
1F
100
AcDbEntity
  8
Layer0014
  6
Continuous
 62
     3
370
    25
100
AcDbLine
 10
214.1960745302152
 20
-33.65670969473464
 30
0.0
 11
268.1960745302139
 21
-33.65670969473464
 31
0.0
  0
LINE
  5
45C
330
1F
100
AcDbEntity
  8
Layer0014
  6
Continuous
 62
     3
370
    25
100
AcDbLine
 10
198.1960745302152
 20
-33.65670969473464
 30
0.0
 11
198.1960745302152
 21
-38.15670969473464
 31
0.0
  0
LINE
  5
45D
330
1F
100
AcDbEntity
  8
Layer0014
  6
Continuous
 62
     3
370
    25
100
AcDbLine
 10
198.1960745302152
 20
-38.15670969473464
 30
0.0
 11
214.1960745302152
 21
-38.15670969473464
 31
0.0
  0
LINE
  5
45E
330
1F
100
AcDbEntity
  8
Layer0014
  6
Continuous
 62
     3
370
    25
100
AcDbLine
 10
214.1960745302152
 20
-38.15670969473464
 30
0.0
 11
214.1960745302152
 21
-33.65670969473464
 31
0.0
  0
LINE
  5
45F
330
1F
100
AcDbEntity
  8
Layer0014
  6
Continuous
 62
     3
370
    25
100
AcDbLine
 10
268.1960745302139
 20
-33.65670969473464
 30
0.0
 11
268.1960745302139
 21
-94.65670969473464
 31
0.0
  0
LINE
  5
460
330
1F
100
AcDbEntity
  8
Layer0014
  6
Continuous
 62
     3
370
    25
100
AcDbLine
 10
186.1958087770793
 20
-94.65670969473467
 30
0.0
 11
284.1960745302139
 21
-94.65670969473467
 31
0.0
  0
LINE
  5
461
330
1F
100
AcDbEntity
  8
Layer0014
  6
Continuous
 62
     3
370
    25
100
AcDbLine
 10
186.1958087770793
 20
-219.6567096947347
 30
0.0
 11
284.1960745302142
 21
-219.6567096947347
 31
0.0
  0
LINE
  5
462
330
1F
100
AcDbEntity
  8
Layer0014
  6
Continuous
 62
     3
370
    25
100
AcDbLine
 10
284.1960745302139
 20
-94.65670969473467
 30
0.0
 11
284.1960745302142
 21
-219.6567096947347
 31
0.0
  0
LINE
  5
463
330
1F
100
AcDbEntity
  8
Layer0014
  6
Continuous
 62
    56
370
    25
100
AcDbLine
 10
236.1377813518735
 20
-4.061210871448566
 30
0.0
 11
243.6377813518741
 21
8.92917018531756
 31
0.0
  0
LINE
  5
464
330
1F
100
AcDbEntity
  8
Layer0014
  6
Continuous
 62
    56
370
    25
100
AcDbLine
 10
243.6377813518741
 20
8.92917018531756
 30
0.0
 11
259.2262386199936
 21
-0.0708298146831794
 31
0.0
  0
LINE
  5
465
330
1F
100
AcDbEntity
  8
Layer0014
  6
Continuous
 62
    56
370
    25
100
AcDbLine
 10
255.7262386199931
 20
-6.133007641173947
 30
0.0
 11
259.2262386199936
 21
-0.0708298146831794
 31
0.0
  0
ARC
  5
466
330
1F
100
AcDbEntity
  8
Layer0014
  6
Continuous
 62
    56
370
    25
100
AcDbCircle
 10
257.458289427562
 20
-7.133007641174174
 30
0.0
 40
2.0
100
AcDbArc
 50
149.9999999999973
 51
239.9999999999973
  0
ARC
  5
467
330
1F
100
AcDbEntity
  8
Layer0014
  6
Continuous
 62
    56
370
    25
100
AcDbCircle
 10
237.8698321594422
 20
-5.061210871448736
 30
0.0
 40
2.0
100
AcDbArc
 50
149.9999999999973
 51
239.9999999999973
  0
LINE
  5
468
330
1F
100
AcDbEntity
  8
Layer0014
  6
Continuous
 62
    56
370
    25
100
AcDbLine
 10
239.4009210726857
 20
-9.409287082801143
 30
0.0
 11
245.4630988991767
 21
-12.90928708280114
 31
0.0
  0
LINE
  5
469
330
1F
100
AcDbEntity
  8
Layer0014
  6
Continuous
 62
    56
370
    25
100
AcDbLine
 10
261.8602132162067
 20
6.491348011809805
 30
0.0
 11
248.0038067556557
 21
14.49134801180975
 31
0.0
  0
LINE
  5
46A
330
1F
100
AcDbEntity
  8
Layer0014
  6
Continuous
 62
    56
370
    25
100
AcDbLine
 10
261.8602132162067
 20
6.491348011809805
 30
0.0
 11
301.3744987232963
 21
66.81620340075807
 31
0.0
  0
LINE
  5
46B
330
1F
100
AcDbEntity
  8
Layer0014
  6
Continuous
 62
    56
370
    25
100
AcDbLine
 10
248.0038067556557
 20
14.49134801180975
 30
0.0
 11
280.4895212485631
 21
78.87415076781463
 31
0.0
  0
LINE
  5
46C
330
1F
100
AcDbEntity
  8
Layer0014
  6
Continuous
 62
    56
370
    25
100
AcDbLine
 10
280.4895212485631
 20
78.87415076781463
 30
0.0
 11
301.3744987232963
 21
66.81620340075807
 31
0.0
  0
LINE
  5
46D
330
1F
100
AcDbEntity
  8
Layer0014
  6
Continuous
 62
    56
370
    25
100
AcDbLine
 10
258.8602132162067
 20
1.29519558910323
 30
0.0
 11
261.8602132162067
 21
6.491348011809805
 31
0.0
  0
LINE
  5
46E
330
1F
100
AcDbEntity
  8
Layer0014
  6
Continuous
 62
    56
370
    25
100
AcDbLine
 10
245.0038067556557
 20
9.295195589103173
 30
0.0
 11
248.0038067556557
 21
14.49134801180975
 31
0.0
  0
LINE
  5
46F
330
1F
100
AcDbEntity
  8
Layer0014
  6
Continuous
 62
    56
370
    25
100
AcDbLine
 10
257.4941878124224
 20
0.9291701853185828
 30
0.0
 11
258.8602132162067
 21
1.29519558910323
 31
0.0
  0
LINE
  5
470
330
1F
100
AcDbEntity
  8
Layer0014
  6
Continuous
 62
    56
370
    25
100
AcDbLine
 10
245.3698321594401
 20
7.929170185318753
 30
0.0
 11
245.0038067556557
 21
9.295195589103173
 31
0.0
  0
LINE
  5
471
330
1F
100
AcDbEntity
  8
Layer0014
  6
Continuous
 62
    56
370
    25
100
AcDbLine
 10
257.4941878124224
 20
0.9291701853185828
 30
0.0
 11
245.3698321594401
 21
7.929170185318753
 31
0.0
  0
LINE
  5
472
330
1F
100
AcDbEntity
  8
Layer0014
  6
Continuous
 62
    56
370
    25
100
AcDbLine
 10
239.0348956689073
 20
-8.043261679019963
 30
0.0
 11
239.4009210726857
 21
-9.409287082801143
 31
0.0
  0
LINE
  5
473
330
1F
100
AcDbEntity
  8
Layer0014
  6
Continuous
 62
    56
370
    25
100
AcDbLine
 10
246.8291243029551
 20
-12.54326167901348
 30
0.0
 11
245.4630988991767
 21
-12.90928708280114
 31
0.0
  0
LINE
  5
474
330
1F
100
AcDbEntity
  8
Layer0014
  6
Continuous
 62
    56
370
    25
100
AcDbLine
 10
401.9505572633443
 20
-92.86505844874881
 30
0.0
 11
256.458289427562
 21
-8.8650584487429
 31
0.0
  0
LINE
  5
475
330
1F
100
AcDbEntity
  8
Layer0014
  6
Continuous
 62
    56
370
    25
100
AcDbLine
 10
366.773642727105
 20
-81.79326167902258
 30
0.0
 11
236.8698321594421
 21
-6.793261679017576
 31
0.0
  0
LINE
  5
476
330
1F
100
AcDbEntity
  8
Layer0014
  6
Continuous
 62
    56
370
    25
100
AcDbLine
 10
386.8524810519902
 20
-113.0156935433587
 30
0.0
 11
393.3524810519906
 21
-101.7573632941616
 31
0.0
  0
LINE
  5
477
330
1F
100
AcDbEntity
  8
Layer0014
  6
Continuous
 62
    56
370
    25
100
AcDbLine
 10
394.218506455775
 20
-102.2573632941617
 30
0.0
 11
396.2185064557751
 21
-98.79326167902394
 31
0.0
  0
LINE
  5
478
330
1F
100
AcDbEntity
  8
Layer0014
  6
Continuous
 62
    56
370
    25
100
AcDbLine
 10
397.9505572633449
 20
-99.79326167902269
 30
0.0
 11
401.9505572633443
 21
-92.86505844874881
 31
0.0
  0
LINE
  5
479
330
1F
100
AcDbEntity
  8
Layer0014
  6
Continuous
 62
    56
370
    25
100
AcDbLine
 10
394.218506455775
 20
-102.2573632941617
 30
0.0
 11
393.3524810519906
 21
-101.7573632941616
 31
0.0
  0
LINE
  5
47A
330
1F
100
AcDbEntity
  8
Layer0014
  6
Continuous
 62
    56
370
    25
100
AcDbLine
 10
382.522354033067
 20
-110.515693543358
 30
0.0
 11
386.8524810519901
 21
-113.0156935433586
 31
0.0
  0
LINE
  5
47B
330
1F
100
AcDbEntity
  8
Layer0014
  6
Continuous
 62
    56
370
    25
100
AcDbLine
 10
364.773642727105
 20
-85.25736329416026
 30
0.0
 11
366.773642727105
 21
-81.79326167902258
 31
0.0
  0
LINE
  5
47C
330
1F
100
AcDbEntity
  8
Layer0014
  6
Continuous
 62
    56
370
    25
100
AcDbLine
 10
365.6396681308894
 20
-85.75736329416031
 30
0.0
 11
364.773642727105
 21
-85.25736329416026
 31
0.0
  0
LINE
  5
47D
330
1F
100
AcDbEntity
  8
Layer0014
  6
Continuous
 62
    56
370
    25
100
AcDbLine
 10
396.2185064557758
 20
-98.79326167902258
 30
0.0
 11
397.9505572633449
 21
-99.79326167902269
 31
0.0
  0
LINE
  5
47E
330
1F
100
AcDbEntity
  8
Layer0014
  6
Continuous
 62
    56
370
    25
100
AcDbLine
 10
359.1396681308885
 20
-97.01569354335805
 30
0.0
 11
365.6396681308894
 21
-85.75736329416031
 31
0.0
  0
LINE
  5
47F
330
1F
100
AcDbEntity
  8
Layer0014
  6
Continuous
 62
    56
370
    25
100
AcDbLine
 10
363.4697951498094
 20
-99.51569354335788
 30
0.0
 11
359.1396681308863
 21
-97.01569354335743
 31
0.0
  0
LINE
  5
480
330
1F
100
AcDbEntity
  8
Layer0014
  6
Continuous
 62
    56
370
    25
100
AcDbLine
 10
528.85436783101
 20
-173.0612108714467
 30
0.0
 11
536.3543678310093
 21
-160.0708298146798
 31
0.0
  0
LINE
  5
481
330
1F
100
AcDbEntity
  8
Layer0014
  6
Continuous
 62
    56
370
    25
100
AcDbLine
 10
536.3543678310093
 20
-160.0708298146798
 30
0.0
 11
520.7659105628891
 21
-151.0708298146805
 31
0.0
  0
LINE
  5
482
330
1F
100
AcDbEntity
  8
Layer0014
  6
Continuous
 62
    56
370
    25
100
AcDbLine
 10
517.2659105628895
 20
-157.1330076411718
 30
0.0
 11
520.7659105628891
 21
-151.0708298146805
 31
0.0
  0
ARC
  5
483
330
1F
100
AcDbEntity
  8
Layer0014
  6
Continuous
 62
    56
370
    25
100
AcDbCircle
 10
515.5338597553205
 20
-156.1330076411719
 30
0.0
 40
2.0
100
AcDbArc
 50
240.0000000000026
 51
330.0000000000026
  0
ARC
  5
484
330
1F
100
AcDbEntity
  8
Layer0014
  6
Continuous
 62
    56
370
    25
100
AcDbCircle
 10
527.1223170234409
 20
-172.0612108714468
 30
0.0
 40
2.0
100
AcDbArc
 50
240.0000000000026
 51
330.0000000000026
  0
LINE
  5
485
330
1F
100
AcDbEntity
  8
Layer0014
  6
Continuous
 62
    56
370
    25
100
AcDbLine
 10
522.5912281101973
 20
-172.9092870828015
 30
0.0
 11
516.5290502837063
 21
-169.4092870828015
 31
0.0
  0
LINE
  5
486
330
1F
100
AcDbEntity
  8
Layer0014
  6
Continuous
 62
    56
370
    25
100
AcDbLine
 10
525.1319359666763
 20
-145.5086519881905
 30
0.0
 11
538.9883424272273
 21
-153.5086519881906
 31
0.0
  0
LINE
  5
487
330
1F
100
AcDbEntity
  8
Layer0014
  6
Continuous
 62
    56
370
    25
100
AcDbLine
 10
525.1319359666763
 20
-145.5086519881905
 30
0.0
 11
557.6176504595835
 21
-81.1258492321856
 31
0.0
  0
LINE
  5
488
330
1F
100
AcDbEntity
  8
Layer0014
  6
Continuous
 62
    56
370
    25
100
AcDbLine
 10
538.9883424272273
 20
-153.5086519881906
 30
0.0
 11
578.5026279343167
 21
-93.1837965992421
 31
0.0
  0
LINE
  5
489
330
1F
100
AcDbEntity
  8
Layer0014
  6
Continuous
 62
    56
370
    25
100
AcDbLine
 10
578.5026279343167
 20
-93.1837965992421
 30
0.0
 11
557.6176504595835
 21
-81.1258492321856
 31
0.0
  0
LINE
  5
48A
330
1F
100
AcDbEntity
  8
Layer0014
  6
Continuous
 62
    56
370
    25
100
AcDbLine
 10
522.1319359666763
 20
-150.7048044108971
 30
0.0
 11
525.1319359666763
 21
-145.5086519881905
 31
0.0
  0
LINE
  5
48B
330
1F
100
AcDbEntity
  8
Layer0014
  6
Continuous
 62
    56
370
    25
100
AcDbLine
 10
535.9883424272273
 20
-158.7048044108972
 30
0.0
 11
538.9883424272273
 21
-153.5086519881906
 31
0.0
  0
LINE
  5
48C
330
1F
100
AcDbEntity
  8
Layer0014
  6
Continuous
 62
    56
370
    25
100
AcDbLine
 10
522.4979613704606
 20
-152.0708298146816
 30
0.0
 11
522.1319359666763
 21
-150.7048044108971
 31
0.0
  0
LINE
  5
48D
330
1F
100
AcDbEntity
  8
Layer0014
  6
Continuous
 62
    56
370
    25
100
AcDbLine
 10
534.622317023443
 20
-159.0708298146816
 30
0.0
 11
535.9883424272273
 21
-158.7048044108972
 31
0.0
  0
LINE
  5
48E
330
1F
100
AcDbEntity
  8
Layer0014
  6
Continuous
 62
    56
370
    25
100
AcDbLine
 10
522.4979613704606
 20
-152.0708298146816
 30
0.0
 11
534.622317023443
 21
-159.0708298146816
 31
0.0
  0
LINE
  5
48F
330
1F
100
AcDbEntity
  8
Layer0014
  6
Continuous
 62
    56
370
    25
100
AcDbLine
 10
523.957253513976
 20
-172.5432616790135
 30
0.0
 11
522.5912281101973
 21
-172.9092870828015
 31
0.0
  0
LINE
  5
490
330
1F
100
AcDbEntity
  8
Layer0014
  6
Continuous
 62
    56
370
    25
100
AcDbLine
 10
516.1630248799277
 20
-168.0432616790207
 30
0.0
 11
516.5290502837063
 21
-169.4092870828015
 31
0.0
  0
LINE
  5
491
330
1F
100
AcDbEntity
  8
Layer0014
  6
Continuous
 62
    56
370
    25
100
AcDbLine
 10
490.9467635961303
 20
-153.4846464388655
 30
0.0
 11
526.1223170234414
 21
-173.7932616790159
 31
0.0
  0
LINE
  5
492
330
1F
100
AcDbEntity
  8
Layer0014
  6
Continuous
 62
    56
370
    25
100
AcDbLine
 10
494.94676359613
 20
-146.5564432085899
 30
0.0
 11
514.5338597553207
 21
-157.8650584487407
 31
0.0
  0
LINE
  5
493
330
1F
100
AcDbEntity
  8
Layer0014
  6
CENTER
 62
    56
370
    25
100
AcDbLine
 10
241.9320099859312
 20
-12.02531248658556
 30
0.0
 11
291.4320099859297
 21
73.71120248807085
 31
0.0
  0
LINE
  5
494
330
1F
100
AcDbEntity
  8
Layer0014
  6
CENTER
 62
    56
370
    25
100
AcDbLine
 10
519.0601391969519
 20
-172.0253124865859
 30
0.0
 11
568.5601391969501
 21
-86.28879751192937
 31
0.0
  0
LINE
  5
495
330
1F
100
AcDbEntity
  8
Layer0014
  6
DIVIDE
 62
    56
370
    25
100
AcDbLine
 10
208.1960745302152
 20
-11.65670969473465
 30
0.0
 11
186.1958087770793
 21
-11.65670969473465
 31
0.0
  0
LINE
  5
496
330
1F
100
AcDbEntity
  8
Layer0014
  6
DIVIDE
 62
    56
370
    25
100
AcDbLine
 10
208.1960745302152
 20
-11.65670969473465
 30
0.0
 11
208.1960745302152
 21
-6.656709694734651
 31
0.0
  0
LINE
  5
497
330
1F
100
AcDbEntity
  8
Layer0014
  6
DIVIDE
 62
    56
370
    25
100
AcDbLine
 10
208.1960745302152
 20
-6.656709694734651
 30
0.0
 11
233.1960745302152
 21
-6.656709694734651
 31
0.0
  0
LINE
  5
498
330
1F
100
AcDbEntity
  8
Layer0014
  6
DIVIDE
 62
    56
370
    25
100
AcDbLine
 10
233.1960745302152
 20
-6.656709694734651
 30
0.0
 11
233.1960745302152
 21
-33.65670969473464
 31
0.0
  0
LINE
  5
499
330
1F
100
AcDbEntity
  8
Layer0014
  6
CENTER
 62
     2
370
    25
100
AcDbLine
 10
352.9960745914386
 20
-139.6567096947348
 30
0.0
 11
385.4960745914382
 21
-83.36505844874699
 31
0.0
  0
LINE
  5
49A
330
1F
100
AcDbEntity
  8
Layer0014
  6
CENTER
 62
     2
370
    25
100
AcDbLine
 10
316.1960745914403
 20
-139.6567096947348
 30
0.0
 11
352.9960745914386
 21
-139.6567096947348
 31
0.0
  0
DIMENSION
  5
49B
330
1F
100
AcDbEntity
  8
Layer0015
  6
Continuous
370
    25
100
AcDbDimension
  2
*D1
 10
-554.1743998496419
 20
350.4152265574398
 30
0.0
 11
-554.1743998496419
 21
246.4152265574398
 31
0.0
 70
    32
 71
     8
 42
-1.0
  3
DaDimRotatedStyle
100
AcDbAlignedDimension
 13
-514.2165479055637
 23
142.4152265574398
 33
0.0
 14
-514.2165479055637
 24
350.4152265574398
 34
0.0
 50
90.0
100
AcDbRotatedDimension
1001
ACAD
1000
DSTYLE
1002
{
1070
   274
1070
     4
1070
    41
1040
4.499995307353803
1070
   289
1070
     0
1070
    79
1070
     2
1070
   343
1005
FB
1070
   344
1005
FB
1070
   176
1070
     2
1070
   177
1070
     2
1070
   178
1070
     2
1070
   271
1070
     3
1070
    44
1040
1.2
1070
    42
1040
1.5
1070
   147
1040
1.5
1070
   173
1070
     1
1070
    77
1070
     3
1070
    73
1070
     0
1070
   172
1070
     1
1070
    74
1070
     0
1070
   283
1070
     0
1070
   340
1005
105
1070
   140
1040
9.0
1070
   284
1070
     8
1070
   288
1070
     1
1070
    78
1070
     8
1002
}
  0
DIMENSION
  5
49D
330
1F
100
AcDbEntity
  8
Layer0015
  6
Continuous
370
    25
100
AcDbDimension
  2
*D2
 10
-350.2136876996941
 20
349.4152265574398
 30
0.0
 11
-350.2136876996941
 21
246.4152265574398
 31
0.0
 70
    32
 71
     8
 42
-1.0
  3
DaDimRotatedStyle
100
AcDbAlignedDimension
 13
-389.2165479055637
 23
143.4152265574398
 33
0.0
 14
-389.2165479055637
 24
349.4152265574398
 34
0.0
 50
90.0
100
AcDbRotatedDimension
1001
ACAD
1000
DSTYLE
1002
{
1070
   274
1070
     4
1070
    41
1040
4.499995307353803
1070
   289
1070
     0
1070
    79
1070
     2
1070
   343
1005
FB
1070
   344
1005
FB
1070
   176
1070
     2
1070
   177
1070
     2
1070
   178
1070
     2
1070
   271
1070
     3
1070
    44
1040
1.2
1070
    42
1040
1.5
1070
   147
1040
1.5
1070
   173
1070
     1
1070
    77
1070
     3
1070
    73
1070
     0
1070
   172
1070
     1
1070
    74
1070
     0
1070
   283
1070
     0
1070
   340
1005
105
1070
   140
1040
9.0
1070
   284
1070
     8
1070
   288
1070
     1
1070
    78
1070
     8
1002
}
  0
DIMENSION
  5
49E
330
1F
100
AcDbEntity
  8
Layer0015
  6
Continuous
370
    25
100
AcDbDimension
  2
*D3
 10
-268.1418473525039
 20
300.4152265574398
 30
0.0
 11
-268.1418473525039
 21
246.4152265574398
 31
0.0
 70
    32
 71
     8
 42
-1.0
  3
DaDimRotatedStyle
100
AcDbAlignedDimension
 13
-268.1418473525039
 23
192.4152265574398
 33
0.0
 14
-268.1418473525039
 24
300.4152265574398
 34
0.0
 50
90.0
100
AcDbRotatedDimension
1001
ACAD
1000
DSTYLE
1002
{
1070
   274
1070
     4
1070
    41
1040
4.499995307353803
1070
   289
1070
     0
1070
    79
1070
     2
1070
   343
1005
FB
1070
   344
1005
FB
1070
   176
1070
     2
1070
   177
1070
     7
1070
   178
1070
     2
1070
   271
1070
     3
1070
    44
1040
0.0
1070
    42
1040
1.5
1070
   147
1040
1.5
1070
   173
1070
     1
1070
    75
1070
     1
1070
    76
1070
     1
1070
    77
1070
     3
1070
    73
1070
     0
1070
   172
1070
     1
1070
    74
1070
     0
1070
   283
1070
     0
1070
   340
1005
105
1070
   140
1040
9.0
1070
   284
1070
     8
1070
   288
1070
     1
1070
    78
1070
     8
1002
}
  0
DIMENSION
  5
49F
330
1F
100
AcDbEntity
  8
Layer0015
  6
Continuous
370
    25
100
AcDbDimension
  2
*D4
 10
454.2296578177351
 20
142.4152265574398
 30
0.0
 11
454.2296578177351
 21
117.4152265574398
 31
0.0
 70
    32
 71
     8
 42
-1.0
  3
DaDimRotatedStyle
100
AcDbAlignedDimension
 13
422.4167854889995
 23
96.41522655743971
 33
0.0
 14
423.4167854889995
 24
142.4152265574398
 34
0.0
 50
90.0
100
AcDbRotatedDimension
1001
ACAD
1000
DSTYLE
1002
{
1070
   274
1070
     4
1070
    41
1040
4.499995307353803
1070
   289
1070
     0
1070
    79
1070
     2
1070
   343
1005
FB
1070
   344
1005
FB
1070
   176
1070
     2
1070
   177
1070
     2
1070
   178
1070
     2
1070
   271
1070
     3
1070
    44
1040
1.2
1070
    42
1040
1.5
1070
   147
1040
1.5
1070
   173
1070
     1
1070
    77
1070
     3
1070
    73
1070
     0
1070
   172
1070
     1
1070
    74
1070
     0
1070
   283
1070
     0
1070
   340
1005
105
1070
   140
1040
9.0
1070
   284
1070
     8
1070
   288
1070
     1
1070
    78
1070
     8
1002
}
  0
DIMENSION
  5
4A0
330
1F
100
AcDbEntity
  8
Layer0015
  6
Continuous
370
    25
100
AcDbDimension
  2
*D5
 10
454.2296578177351
 20
350.4152265574398
 30
0.0
 11
454.2296578177351
 21
246.4152265574398
 31
0.0
 70
    32
 71
     8
 42
-1.0
  3
DaDimRotatedStyle
100
AcDbAlignedDimension
 13
423.4167854889995
 23
142.4152265574398
 33
0.0
 14
423.4167854889995
 24
350.4152265574398
 34
0.0
 50
90.0
100
AcDbRotatedDimension
1001
ACAD
1000
DSTYLE
1002
{
1070
   274
1070
     4
1070
    41
1040
4.499995307353803
1070
   289
1070
     0
1070
    79
1070
     2
1070
   343
1005
FB
1070
   344
1005
FB
1070
   176
1070
     2
1070
   177
1070
     2
1070
   178
1070
     2
1070
   271
1070
     3
1070
    44
1040
1.2
1070
    42
1040
1.5
1070
   147
1040
1.5
1070
   173
1070
     1
1070
    77
1070
     3
1070
    73
1070
     0
1070
   172
1070
     1
1070
    74
1070
     0
1070
   283
1070
     0
1070
   340
1005
105
1070
   140
1040
9.0
1070
   284
1070
     8
1070
   288
1070
     1
1070
    78
1070
     8
1002
}
  0
DIMENSION
  5
4A1
330
1F
100
AcDbEntity
  8
Layer0015
  6
Continuous
370
    25
100
AcDbDimension
  2
*D6
 10
454.2296578177351
 20
396.41522655744
 30
0.0
 11
454.2296578177351
 21
375.4152265574399
 31
0.0
 70
    32
 71
     8
 42
-1.0
  3
DaDimRotatedStyle
100
AcDbAlignedDimension
 13
423.4167854889995
 23
350.4152265574398
 33
0.0
 14
422.4167854889995
 24
396.41522655744
 34
0.0
 50
90.0
100
AcDbRotatedDimension
1001
ACAD
1000
DSTYLE
1002
{
1070
   274
1070
     4
1070
    41
1040
4.499995307353803
1070
   289
1070
     0
1070
    79
1070
     2
1070
   343
1005
FB
1070
   344
1005
FB
1070
   176
1070
     2
1070
   177
1070
     2
1070
   178
1070
     2
1070
   271
1070
     3
1070
    44
1040
1.2
1070
    42
1040
1.5
1070
   147
1040
1.5
1070
   173
1070
     1
1070
    77
1070
     3
1070
    73
1070
     0
1070
   172
1070
     1
1070
    74
1070
     0
1070
   283
1070
     0
1070
   340
1005
105
1070
   140
1040
9.0
1070
   284
1070
     8
1070
   288
1070
     1
1070
    78
1070
     8
1002
}
  0
DIMENSION
  5
4A2
330
1F
100
AcDbEntity
  8
Layer0015
  6
Continuous
370
    25
100
AcDbDimension
  2
*D7
 10
467.7296578177351
 20
396.41522655744
 30
0.0
 11
467.7296578177351
 21
246.4152265574398
 31
0.0
 70
    32
 71
     8
 42
-1.0
  3
DaDimRotatedStyle
100
AcDbAlignedDimension
 13
422.4167854889995
 23
96.41522655743971
 33
0.0
 14
422.4167854889995
 24
396.41522655744
 34
0.0
 50
90.0
100
AcDbRotatedDimension
1001
ACAD
1000
DSTYLE
1002
{
1070
   274
1070
     4
1070
    41
1040
4.499995307353803
1070
   289
1070
     0
1070
    79
1070
     2
1070
   343
1005
FB
1070
   344
1005
FB
1070
   176
1070
     2
1070
   177
1070
     2
1070
   178
1070
     2
1070
   271
1070
     3
1070
    44
1040
1.2
1070
    42
1040
1.5
1070
   147
1040
1.5
1070
   173
1070
     1
1070
    77
1070
     3
1070
    73
1070
     0
1070
   172
1070
     1
1070
    74
1070
     0
1070
   283
1070
     0
1070
   340
1005
105
1070
   140
1040
9.0
1070
   284
1070
     8
1070
   288
1070
     1
1070
    78
1070
     8
1002
}
  0
DIMENSION
  5
4A3
330
1F
100
AcDbEntity
  8
Layer0015
  6
Continuous
370
    25
100
AcDbDimension
  2
*D8
 10
-544.8544729577188
 20
-33.65670969473467
 30
0.0
 11
-544.8544729577188
 21
-126.6567096947347
 31
0.0
 70
    32
 71
     8
 42
-1.0
  3
DaDimRotatedStyle
100
AcDbAlignedDimension
 13
-514.2165479055637
 23
-219.6567096947347
 33
0.0
 14
-514.2165479055637
 24
-33.65670969473467
 34
0.0
 50
90.0
100
AcDbRotatedDimension
1001
ACAD
1000
DSTYLE
1002
{
1070
   274
1070
     4
1070
    41
1040
4.499995307353803
1070
   289
1070
     0
1070
    79
1070
     2
1070
   343
1005
FB
1070
   344
1005
FB
1070
   176
1070
     2
1070
   177
1070
     2
1070
   178
1070
     2
1070
   271
1070
     3
1070
    44
1040
1.2
1070
    42
1040
1.5
1070
   147
1040
1.5
1070
   173
1070
     1
1070
    77
1070
     3
1070
    73
1070
     0
1070
   172
1070
     1
1070
    74
1070
     0
1070
   283
1070
     0
1070
   340
1005
105
1070
   140
1040
9.0
1070
   284
1070
     8
1070
   288
1070
     1
1070
    78
1070
     8
1002
}
  0
DIMENSION
  5
4A4
330
1F
100
AcDbEntity
  8
Layer0015
  6
Continuous
370
    25
100
AcDbDimension
  2
*D9
 10
-561.3544729577188
 20
-6.65670969473468
 30
0.0
 11
-561.3544729577188
 21
-113.1567096947347
 31
0.0
 70
    32
 71
     8
 42
-1.0
  3
DaDimRotatedStyle
100
AcDbAlignedDimension
 13
-514.2165479055637
 23
-219.6567096947347
 33
0.0
 14
-484.2165479055637
 24
-6.65670969473468
 34
0.0
 50
90.0
100
AcDbRotatedDimension
1001
ACAD
1000
DSTYLE
1002
{
1070
   274
1070
     4
1070
    41
1040
4.499995307353803
1070
   289
1070
     0
1070
    79
1070
     2
1070
   343
1005
FB
1070
   344
1005
FB
1070
   176
1070
     2
1070
   177
1070
     2
1070
   178
1070
     2
1070
   271
1070
     3
1070
    44
1040
1.2
1070
    42
1040
1.5
1070
   147
1040
1.5
1070
   173
1070
     1
1070
    77
1070
     3
1070
    73
1070
     0
1070
   172
1070
     1
1070
    74
1070
     0
1070
   283
1070
     0
1070
   340
1005
105
1070
   140
1040
9.0
1070
   284
1070
     8
1070
   288
1070
     1
1070
    78
1070
     8
1002
}
  0
INSERT
  5
4A5
330
1F
100
AcDbEntity
  8
Layer0015
  6
Continuous
100
AcDbBlockReference
  2
DA_IMAGEDIMGROUP_1
 10
0.0
 20
0.0
 30
0.0
  0
DIMENSION
  5
4A6
330
1F
100
AcDbEntity
  8
Layer0015
  6
Continuous
370
    13
100
AcDbDimension
  2
*D11
 10
-322.2165479055637
 20
-286.492707017807
 30
0.0
 11
-355.7165479055637
 21
-286.492707017807
 31
0.0
 70
    32
 71
     8
 42
-1.0
  3
DaDimRotatedStyle
100
AcDbAlignedDimension
 13
-389.2165479055637
 23
-94.65670969473467
 33
0.0
 14
-322.2165479055637
 24
-231.6316714875713
 34
0.0
100
AcDbRotatedDimension
1001
ACAD
1000
DSTYLE
1002
{
1070
   274
1070
     4
1070
    41
1040
4.499995307353803
1070
   289
1070
     0
1070
    79
1070
     2
1070
   343
1005
FB
1070
   344
1005
FB
1070
   176
1070
     2
1070
   177
1070
     2
1070
   178
1070
     2
1070
   271
1070
     3
1070
    44
1040
1.2
1070
    42
1040
1.5
1070
   147
1040
1.5
1070
   173
1070
     1
1070
    77
1070
     3
1070
    73
1070
     0
1070
   172
1070
     1
1070
    74
1070
     0
1070
   283
1070
     0
1070
   340
1005
105
1070
   140
1040
9.0
1070
   284
1070
     8
1070
   288
1070
     1
1070
    78
1070
     8
1002
}
  0
DIMENSION
  5
4A7
330
1F
100
AcDbEntity
  8
Layer0015
  6
Continuous
370
    13
100
AcDbDimension
  2
*D12
 10
-262.2165479055637
 20
-286.492707017807
 30
0.0
 11
-292.2165479055637
 21
-286.492707017807
 31
0.0
 70
    32
 71
     8
 42
-1.0
  3
DaDimRotatedStyle
100
AcDbAlignedDimension
 13
-322.2165479055637
 23
-231.6316714875713
 33
0.0
 14
-262.2165479055637
 24
-228.4285544889905
 34
0.0
100
AcDbRotatedDimension
1001
ACAD
1000
DSTYLE
1002
{
1070
   274
1070
     4
1070
    41
1040
4.499995307353803
1070
   289
1070
     0
1070
    79
1070
     2
1070
   343
1005
FB
1070
   344
1005
FB
1070
   176
1070
     2
1070
   177
1070
     2
1070
   178
1070
     2
1070
   271
1070
     3
1070
    44
1040
1.2
1070
    42
1040
1.5
1070
   147
1040
1.5
1070
   173
1070
     1
1070
    77
1070
     3
1070
    73
1070
     0
1070
   172
1070
     1
1070
    74
1070
     0
1070
   283
1070
     0
1070
   340
1005
105
1070
   140
1040
9.0
1070
   284
1070
     8
1070
   288
1070
     1
1070
    78
1070
     8
1002
}
  0
DIMENSION
  5
4A8
330
1F
100
AcDbEntity
  8
Layer0015
  6
Continuous
370
    13
100
AcDbDimension
  2
*D13
 10
-202.2165479055637
 20
-286.492707017807
 30
0.0
 11
-232.2165479055637
 21
-286.492707017807
 31
0.0
 70
    32
 71
     8
 42
-1.0
  3
DaDimRotatedStyle
100
AcDbAlignedDimension
 13
-262.2165479055637
 23
-228.4285544889905
 33
0.0
 14
-202.2165479055637
 24
-228.4285544889905
 34
0.0
100
AcDbRotatedDimension
1001
ACAD
1000
DSTYLE
1002
{
1070
   274
1070
     4
1070
    41
1040
4.499995307353803
1070
   289
1070
     0
1070
    79
1070
     2
1070
   343
1005
FB
1070
   344
1005
FB
1070
   176
1070
     2
1070
   177
1070
     2
1070
   178
1070
     2
1070
   271
1070
     3
1070
    44
1040
1.2
1070
    42
1040
1.5
1070
   147
1040
1.5
1070
   173
1070
     1
1070
    77
1070
     3
1070
    73
1070
     0
1070
   172
1070
     1
1070
    74
1070
     0
1070
   283
1070
     0
1070
   340
1005
105
1070
   140
1040
9.0
1070
   284
1070
     8
1070
   288
1070
     1
1070
    78
1070
     8
1002
}
  0
DIMENSION
  5
4A9
330
1F
100
AcDbEntity
  8
Layer0015
  6
Continuous
370
    13
100
AcDbDimension
  2
*D14
 10
91.78345209443518
 20
-333.2172804445552
 30
0.0
 11
-211.2165479055643
 21
-333.2172804445552
 31
0.0
 70
    32
 71
     8
 42
-1.0
  3
DaDimRotatedStyle
100
AcDbAlignedDimension
 13
-514.2165479055637
 23
-219.6567096947347
 33
0.0
 14
91.78345209443518
 24
-219.6567096947347
 34
0.0
100
AcDbRotatedDimension
1001
ACAD
1000
DSTYLE
1002
{
1070
   274
1070
     4
1070
    41
1040
4.499995307353803
1070
   289
1070
     0
1070
    79
1070
     2
1070
   343
1005
FB
1070
   344
1005
FB
1070
   176
1070
     2
1070
   177
1070
     2
1070
   178
1070
     2
1070
   271
1070
     3
1070
    44
1040
1.2
1070
    42
1040
1.5
1070
   147
1040
1.5
1070
   173
1070
     1
1070
    77
1070
     3
1070
    73
1070
     0
1070
   172
1070
     1
1070
    74
1070
     0
1070
   283
1070
     0
1070
   340
1005
105
1070
   140
1040
9.0
1070
   284
1070
     8
1070
   288
1070
     1
1070
    78
1070
     8
1002
}
  0
DIMENSION
  5
4AA
330
1F
100
AcDbEntity
  8
Layer0015
  6
Continuous
370
    13
100
AcDbDimension
  2
*D15
 10
174.2834521556655
 20
-333.2172804445552
 30
0.0
 11
133.0334521250504
 21
-333.2172804445552
 31
0.0
 70
    32
  1
83
 71
     8
 42
-1.0
  3
DaDimRotatedStyle
100
AcDbAlignedDimension
 13
91.78345209443518
 23
-219.6567096947347
 33
0.0
 14
174.2834521556655
 24
-147.6567096947348
 34
0.0
100
AcDbRotatedDimension
1001
ACAD
1000
DSTYLE
1002
{
1070
   274
1070
     4
1070
    41
1040
4.499995307353803
1070
   289
1070
     0
1070
    79
1070
     2
1070
   343
1005
FB
1070
   344
1005
FB
1070
   176
1070
     2
1070
   177
1070
     2
1070
   178
1070
     2
1070
   271
1070
     3
1070
    44
1040
1.2
1070
    42
1040
1.5
1070
   147
1040
1.5
1070
   173
1070
     1
1070
    77
1070
     3
1070
    73
1070
     0
1070
   172
1070
     1
1070
    74
1070
     0
1070
   283
1070
     0
1070
   340
1005
105
1070
   140
1040
9.0
1070
   284
1070
     8
1070
   288
1070
     1
1070
    78
1070
     8
1002
}
  0
DIMENSION
  5
4AB
330
1F
100
AcDbEntity
  8
Layer0015
  6
Continuous
370
    13
100
AcDbDimension
  2
*D16
 10
263.2834521556682
 20
-333.2172804445552
 30
0.0
 11
218.7834521556669
 21
-333.2172804445552
 31
0.0
 70
    32
 71
     8
 42
-1.0
  3
DaDimRotatedStyle
100
AcDbAlignedDimension
 13
174.2834521556655
 23
-147.6567096947348
 33
0.0
 14
263.2834521556682
 24
-313.3771050902174
 34
0.0
100
AcDbRotatedDimension
1001
ACAD
1000
DSTYLE
1002
{
1070
   274
1070
     4
1070
    41
1040
4.499995307353803
1070
   289
1070
     0
1070
    79
1070
     2
1070
   343
1005
FB
1070
   344
1005
FB
1070
   176
1070
     2
1070
   177
1070
     2
1070
   178
1070
     2
1070
   271
1070
     3
1070
    44
1040
1.2
1070
    42
1040
1.5
1070
   147
1040
1.5
1070
   173
1070
     1
1070
    77
1070
     3
1070
    73
1070
     0
1070
   172
1070
     1
1070
    74
1070
     0
1070
   283
1070
     0
1070
   340
1005
105
1070
   140
1040
9.0
1070
   284
1070
     8
1070
   288
1070
     1
1070
    78
1070
     8
1002
}
  0
DIMENSION
  5
4AC
330
1F
100
AcDbEntity
  8
Layer0015
  6
Continuous
370
    13
100
AcDbDimension
  2
*D17
 10
-355.090352960764
 20
-219.6567096947347
 30
0.0
 11
-355.090352960764
 21
-235.6883396947347
 31
0.0
 70
    32
 71
     8
 42
-1.0
  3
DaDimRotatedStyle
100
AcDbAlignedDimension
 13
-331.2165479055637
 23
-227.6567096947347
 33
0.0
 14
-355.090352960764
 24
-219.6567096947347
 34
0.0
 50
90.0
100
AcDbRotatedDimension
1001
ACAD
1000
DSTYLE
1002
{
1070
   274
1070
     4
1070
    41
1040
4.499995307353803
1070
   289
1070
     0
1070
    79
1070
     2
1070
   343
1005
FB
1070
   344
1005
FB
1070
   176
1070
     2
1070
   177
1070
     2
1070
   178
1070
     2
1070
   271
1070
     3
1070
    44
1040
0.0
1070
    42
1040
1.5
1070
   147
1040
1.5
1070
   173
1070
     1
1070
    76
1070
     1
1070
    77
1070
     3
1070
    73
1070
     0
1070
   172
1070
     1
1070
    74
1070
     0
1070
   283
1070
     0
1070
   340
1005
105
1070
   140
1040
9.0
1070
   284
1070
     8
1070
   288
1070
     1
1070
    78
1070
     8
1002
}
  0
DIMENSION
  5
4AD
330
1F
100
AcDbEntity
  8
Layer0015
  6
Continuous
370
    13
100
AcDbDimension
  2
*D18
 10
-355.090352960764
 20
-32.65670969473467
 30
0.0
 11
-355.090352960764
 21
-63.65670969473467
 31
0.0
 70
    32
 71
     8
 42
-1.0
  3
DaDimRotatedStyle
100
AcDbAlignedDimension
 13
-355.090352960764
 23
-94.65670969473467
 33
0.0
 14
-389.2165479055637
 24
-32.65670969473467
 34
0.0
 50
90.0
100
AcDbRotatedDimension
1001
ACAD
1000
DSTYLE
1002
{
1070
   274
1070
     4
1070
    41
1040
4.499995307353803
1070
   289
1070
     0
1070
    79
1070
     2
1070
   343
1005
FB
1070
   344
1005
FB
1070
   176
1070
     2
1070
   177
1070
     2
1070
   178
1070
     2
1070
   271
1070
     3
1070
    44
1040
1.2
1070
    42
1040
1.5
1070
   147
1040
1.5
1070
   173
1070
     1
1070
    75
1070
     1
1070
    77
1070
     3
1070
    73
1070
     0
1070
   172
1070
     1
1070
    74
1070
     0
1070
   283
1070
     0
1070
   340
1005
105
1070
   140
1040
9.0
1070
   284
1070
     8
1070
   288
1070
     1
1070
    78
1070
     8
1002
}
  0
DIMENSION
  5
4AE
330
1F
100
AcDbEntity
  8
Layer0015
  6
Continuous
370
    13
100
AcDbDimension
  2
*D19
 10
-355.090352960764
 20
-94.65670969473467
 30
0.0
 11
-355.090352960764
 21
-125.4270888967875
 31
0.0
 70
    32
 71
     8
 42
-1.0
  3
DaDimRotatedStyle
100
AcDbAlignedDimension
 13
-355.090352960764
 23
-219.6567096947347
 33
0.0
 14
-355.090352960764
 24
-94.65670969473467
 34
0.0
 50
90.0
100
AcDbRotatedDimension
1001
ACAD
1000
DSTYLE
1002
{
1070
   274
1070
     4
1070
    41
1040
4.499995307353803
1070
   289
1070
     0
1070
    79
1070
     2
1070
   343
1005
FB
1070
   344
1005
FB
1070
   176
1070
     2
1070
   177
1070
     7
1070
   178
1070
     2
1070
   271
1070
     3
1070
    44
1040
0.0
1070
    42
1040
1.5
1070
   147
1040
1.5
1070
   173
1070
     1
1070
    75
1070
     1
1070
    76
1070
     1
1070
    77
1070
     3
1070
    73
1070
     0
1070
   172
1070
     1
1070
    74
1070
     0
1070
   283
1070
     0
1070
   340
1005
105
1070
   140
1040
9.0
1070
   284
1070
     8
1070
   288
1070
     1
1070
    78
1070
     8
1002
}
  0
DIMENSION
  5
4AF
330
1F
100
AcDbEntity
  8
Layer0015
  6
Continuous
370
    13
100
AcDbDimension
  2
*D20
 10
-306.4105637552283
 20
-11.65670969473468
 30
0.0
 11
-306.4105637552283
 21
-115.6567096947347
 31
0.0
 70
    32
 71
     8
 42
-1.0
  3
DaDimRotatedStyle
100
AcDbAlignedDimension
 13
-306.4105637552283
 23
-219.6567096947347
 33
0.0
 14
-419.2165479055637
 24
-11.65670969473468
 34
0.0
 50
90.0
100
AcDbRotatedDimension
1001
ACAD
1000
DSTYLE
1002
{
1070
   274
1070
     4
1070
    41
1040
4.499995307353803
1070
   289
1070
     0
1070
    79
1070
     2
1070
   343
1005
FB
1070
   344
1005
FB
1070
   176
1070
     2
1070
   177
1070
     2
1070
   178
1070
     2
1070
   271
1070
     3
1070
    44
1040
1.2
1070
    42
1040
1.5
1070
   147
1040
1.5
1070
   173
1070
     1
1070
    75
1070
     1
1070
    77
1070
     3
1070
    73
1070
     0
1070
   172
1070
     1
1070
    74
1070
     0
1070
   283
1070
     0
1070
   340
1005
105
1070
   140
1040
9.0
1070
   284
1070
     8
1070
   288
1070
     1
1070
    78
1070
     8
1002
}
  0
DIMENSION
  5
4B0
330
1F
100
AcDbEntity
  8
Layer0015
  6
Continuous
370
    13
100
AcDbDimension
  2
*D21
 10
-389.2165479055637
 20
19.18731945637535
 30
0.0
 11
-451.7165479055637
 21
19.18731945637535
 31
0.0
 70
    32
 71
     8
 42
-1.0
  3
DaDimRotatedStyle
100
AcDbAlignedDimension
 13
-514.2165479055637
 23
-33.65670969473467
 33
0.0
 14
-389.2165479055637
 24
-32.65670969473467
 34
0.0
100
AcDbRotatedDimension
1001
ACAD
1000
DSTYLE
1002
{
1070
   274
1070
     4
1070
    41
1040
4.499995307353803
1070
   289
1070
     0
1070
    79
1070
     2
1070
   343
1005
FB
1070
   344
1005
FB
1070
   176
1070
     2
1070
   177
1070
     2
1070
   178
1070
     2
1070
   271
1070
     3
1070
    44
1040
1.2
1070
    42
1040
1.5
1070
   147
1040
1.5
1070
   173
1070
     1
1070
    77
1070
     3
1070
    73
1070
     0
1070
   172
1070
     1
1070
    74
1070
     0
1070
   283
1070
     0
1070
   340
1005
105
1070
   140
1040
9.0
1070
   284
1070
     8
1070
   288
1070
     1
1070
    78
1070
     8
1002
}
  0
DIMENSION
  5
4B1
330
1F
100
AcDbEntity
  8
Layer0015
  6
Continuous
370
    13
100
AcDbDimension
  2
*D22
 10
-54.21654790556374
 20
19.18731945637535
 30
0.0
 11
-221.7165479055637
 21
19.18731945637535
 31
0.0
 70
    32
  1
0～330
 71
     8
 42
-1.0
  3
DaDimRotatedStyle
100
AcDbAlignedDimension
 13
-389.2165479055637
 23
-32.65670969473467
 33
0.0
 14
-54.21654790556374
 24
-32.65670969473467
 34
0.0
100
AcDbRotatedDimension
1001
ACAD
1000
DSTYLE
1002
{
1070
   274
1070
     4
1070
    41
1040
4.499995307353803
1070
   289
1070
     0
1070
    79
1070
     2
1070
   343
1005
FB
1070
   344
1005
FB
1070
   176
1070
     2
1070
   177
1070
     2
1070
   178
1070
     2
1070
   271
1070
     3
1070
    44
1040
1.2
1070
    42
1040
1.5
1070
   147
1040
1.5
1070
   173
1070
     1
1070
    77
1070
     3
1070
    73
1070
     0
1070
   172
1070
     1
1070
    74
1070
     0
1070
   283
1070
     0
1070
   340
1005
105
1070
   140
1040
9.0
1070
   284
1070
     8
1070
   288
1070
     1
1070
    78
1070
     8
1002
}
  0
DIMENSION
  5
4B2
330
1F
100
AcDbEntity
  8
Layer0015
  6
Continuous
370
    13
100
AcDbDimension
  2
*D23
 10
174.2834521556655
 20
19.18731945637535
 30
0.0
 11
60.0334521250509
 21
19.18731945637535
 31
0.0
 70
    32
  1
234
 71
     8
 42
-1.0
  3
DaDimRotatedStyle
100
AcDbAlignedDimension
 13
-54.21654790556374
 23
-32.65670969473467
 33
0.0
 14
174.2834521556655
 24
-131.6567096947348
 34
0.0
100
AcDbRotatedDimension
1001
ACAD
1000
DSTYLE
1002
{
1070
   274
1070
     4
1070
    41
1040
4.499995307353803
1070
   289
1070
     0
1070
    79
1070
     2
1070
   343
1005
FB
1070
   344
1005
FB
1070
   176
1070
     2
1070
   177
1070
     2
1070
   178
1070
     2
1070
   271
1070
     3
1070
    44
1040
1.2
1070
    42
1040
1.5
1070
   147
1040
1.5
1070
   173
1070
     1
1070
    77
1070
     3
1070
    73
1070
     0
1070
   172
1070
     1
1070
    74
1070
     0
1070
   283
1070
     0
1070
   340
1005
105
1070
   140
1040
9.0
1070
   284
1070
     8
1070
   288
1070
     1
1070
    78
1070
     8
1002
}
  0
DIMENSION
  5
4B3
330
1F
100
AcDbEntity
  8
Layer0015
  6
Continuous
370
    13
100
AcDbDimension
  2
*D24
 10
-389.2165479055637
 20
-23.70218121079014
 30
0.0
 11
-399.2165479055637
 21
-23.70218121079014
 31
0.0
 70
    32
 71
     8
 42
-1.0
  3
DaDimRotatedStyle
100
AcDbAlignedDimension
 13
-409.2165479055637
 23
-32.65670969473467
 33
0.0
 14
-389.2165479055637
 24
-32.65670969473467
 34
0.0
100
AcDbRotatedDimension
1001
ACAD
1000
DSTYLE
1002
{
1070
   274
1070
     4
1070
    41
1040
4.499995307353803
1070
   289
1070
     0
1070
    79
1070
     2
1070
   343
1005
FB
1070
   344
1005
FB
1070
   176
1070
     2
1070
   177
1070
     2
1070
   178
1070
     2
1070
   271
1070
     3
1070
    44
1040
1.2
1070
    42
1040
1.5
1070
   147
1040
1.5
1070
   173
1070
     1
1070
    77
1070
     3
1070
    73
1070
     0
1070
   172
1070
     1
1070
    74
1070
     0
1070
   283
1070
     0
1070
   340
1005
105
1070
   140
1040
9.0
1070
   284
1070
     8
1070
   288
1070
     1
1070
    78
1070
     8
1002
}
  0
DIMENSION
  5
4B4
330
1F
100
AcDbEntity
  8
Layer0015
  6
Continuous
370
    13
100
AcDbDimension
  2
*D25
 10
174.2834521556655
 20
37.32082558776075
 30
0.0
 11
-169.9665478749491
 21
37.32082558776075
 31
0.0
 70
    32
  1
689
 71
     8
 42
-1.0
  3
DaDimRotatedStyle
100
AcDbAlignedDimension
 13
-514.2165479055637
 23
142.4152265574398
 33
0.0
 14
174.2834521556655
 24
238.4152265574398
 34
0.0
100
AcDbRotatedDimension
1001
ACAD
1000
DSTYLE
1002
{
1070
   274
1070
     4
1070
    41
1040
4.499995307353803
1070
   289
1070
     0
1070
    79
1070
     2
1070
   343
1005
FB
1070
   344
1005
FB
1070
   176
1070
     2
1070
   177
1070
     2
1070
   178
1070
     2
1070
   271
1070
     3
1070
    44
1040
1.2
1070
    42
1040
1.5
1070
   147
1040
1.5
1070
   173
1070
     1
1070
    77
1070
     3
1070
    73
1070
     0
1070
   172
1070
     1
1070
    74
1070
     0
1070
   283
1070
     0
1070
   340
1005
105
1070
   140
1040
9.0
1070
   284
1070
     8
1070
   288
1070
     1
1070
    78
1070
     8
1002
}
  0
DIMENSION
  5
4B5
330
1F
100
AcDbEntity
  8
Layer0015
  6
Continuous
370
    13
100
AcDbDimension
  2
*D26
 10
-288.2810939537528
 20
-424.1966833421342
 30
0.0
 11
-338.2810939537528
 21
-424.1966833421342
 31
0.0
 70
    32
 71
     8
 42
-1.0
  3
DaDimRotatedStyle
100
AcDbAlignedDimension
 13
-388.2810939537528
 23
-389.3423455829388
 33
0.0
 14
-288.2810939537528
 24
-376.0879322621649
 34
0.0
100
AcDbRotatedDimension
1001
ACAD
1000
DSTYLE
1002
{
1070
   274
1070
     4
1070
    41
1040
4.499995307353803
1070
   289
1070
     0
1070
    79
1070
     2
1070
   343
1005
FB
1070
   344
1005
FB
1070
   176
1070
     2
1070
   177
1070
     2
1070
   178
1070
     2
1070
   271
1070
     2
1070
    44
1040
1.600000000000023
1070
    42
1040
1.5
1070
   147
1040
2.0
1070
   173
1070
     1
1070
    77
1070
     3
1070
    73
1070
     0
1070
   172
1070
     1
1070
    74
1070
     0
1070
   283
1070
     0
1070
   340
1005
105
1070
   140
1040
9.0
1070
   284
1070
     8
1070
   288
1070
     1
1070
    78
1070
     8
1002
}
  0
INSERT
  5
4B6
330
1F
100
AcDbEntity
  8
Layer0015
  6
Continuous
100
AcDbBlockReference
  2
DA_IMAGEDIMGROUP_2
 10
0.0
 20
0.0
 30
0.0
  0
DIMENSION
  5
4B7
330
1F
100
AcDbEntity
  8
Layer0015
  6
Continuous
370
    13
100
AcDbDimension
  2
*D28
 10
-69.21654790556376
 20
1.499590989886504
 30
0.0
 11
-229.2165479055637
 21
1.499590989886504
 31
0.0
 70
    32
  1
0～315
 71
     8
 42
-1.0
  3
DaDimRotatedStyle
100
AcDbAlignedDimension
 13
-389.2165479055637
 23
-32.65670969473467
 33
0.0
 14
-69.21654790556376
 24
-33.15670969473468
 34
0.0
100
AcDbRotatedDimension
1001
ACAD
1000
DSTYLE
1002
{
1070
   274
1070
     4
1070
    41
1040
4.499995307353803
1070
   289
1070
     0
1070
    79
1070
     2
1070
   343
1005
FB
1070
   344
1005
FB
1070
   176
1070
     2
1070
   177
1070
     2
1070
   178
1070
     2
1070
   271
1070
     2
1070
    44
1040
1.2
1070
    42
1040
1.5
1070
   147
1040
1.5
1070
   173
1070
     1
1070
    77
1070
     3
1070
    73
1070
     0
1070
   172
1070
     1
1070
    74
1070
     0
1070
   283
1070
     0
1070
   340
1005
105
1070
   140
1040
9.0
1070
   284
1070
     8
1070
   288
1070
     1
1070
    78
1070
     8
1002
}
  0
DIMENSION
  5
4B8
330
1F
100
AcDbEntity
  8
Layer0015
  6
Continuous
370
    13
100
AcDbDimension
  2
*D29
 10
423.085492515247
 20
-79.84710925631799
 30
0.0
 11
423.085492515247
 21
-163.7945943448532
 31
0.0
 70
    32
  1
140
 71
     8
 42
-1.0
  3
DaDimRotatedStyle
100
AcDbAlignedDimension
 13
284.1960745302142
 23
-219.6567096947347
 33
0.0
 14
375.4028078517006
 24
-79.84710925631799
 34
0.0
 50
90.0
100
AcDbRotatedDimension
1001
ACAD
1000
DSTYLE
1002
{
1070
   274
1070
     4
1070
    41
1040
4.499995307353803
1070
   289
1070
     0
1070
    79
1070
     2
1070
   343
1005
FB
1070
   344
1005
FB
1070
   176
1070
     2
1070
   177
1070
     2
1070
   178
1070
     2
1070
   271
1070
     2
1070
    44
1040
1.2
1070
    42
1040
1.5
1070
   147
1040
1.5
1070
   173
1070
     1
1070
    77
1070
     3
1070
    73
1070
     0
1070
   172
1070
     1
1070
    74
1070
     0
1070
   283
1070
     0
1070
   340
1005
105
1070
   140
1040
9.0
1070
   284
1070
     8
1070
   288
1070
     1
1070
    78
1070
     8
1002
}
  0
DIMENSION
  5
4B9
330
1F
100
AcDbEntity
  8
Layer0015
  6
Continuous
370
    13
100
AcDbDimension
  2
*D30
 10
442.3988172241733
 20
78.87415076781463
 30
0.0
 11
442.3988172241733
 21
-70.39127946346002
 31
0.0
 70
    32
  1
299
 71
     8
 42
-1.0
  3
DaDimRotatedStyle
100
AcDbAlignedDimension
 13
284.1960745302142
 23
-219.6567096947347
 33
0.0
 14
280.4895212485631
 24
78.87415076781463
 34
0.0
 50
90.0
100
AcDbRotatedDimension
1001
ACAD
1000
DSTYLE
1002
{
1070
   274
1070
     4
1070
    41
1040
4.499995307353803
1070
   289
1070
     0
1070
    79
1070
     2
1070
   343
1005
FB
1070
   344
1005
FB
1070
   176
1070
     2
1070
   177
1070
     2
1070
   178
1070
     2
1070
   271
1070
     2
1070
    44
1040
1.2
1070
    42
1040
1.5
1070
   147
1040
1.5
1070
   173
1070
     1
1070
    77
1070
     3
1070
    73
1070
     0
1070
   172
1070
     1
1070
    74
1070
     0
1070
   283
1070
     0
1070
   340
1005
105
1070
   140
1040
9.0
1070
   284
1070
     8
1070
   288
1070
     1
1070
    78
1070
     8
1002
}
  0
INSERT
  5
4BA
330
1F
100
AcDbEntity
  8
Layer0015
  6
Continuous
100
AcDbBlockReference
  2
DC_GROUP_HCN200_1
 10
0.0
 20
0.0
 30
0.0
  0
INSERT
  5
4BB
330
1F
100
AcDbEntity
  8
Layer0015
  6
Continuous
100
AcDbBlockReference
  2
DC_GROUP_HCN200_2
 10
0.0
 20
0.0
 30
0.0
  0
DIMENSION
  5
4BC
330
1F
100
AcDbEntity
  8
Layer0015
  6
Continuous
370
    13
100
AcDbDimension
  2
*D33
 10
594.2520790981334
 20
-81.1258492321856
 30
0.0
 11
594.2520790981334
 21
-150.3912794634601
 31
0.0
 70
    32
  1
139
 71
     8
 42
-1.0
  3
DaDimRotatedStyle
100
AcDbAlignedDimension
 13
284.1960745302142
 23
-219.6567096947347
 33
0.0
 14
557.6176504595835
 24
-81.1258492321856
 34
0.0
 50
90.0
100
AcDbRotatedDimension
1001
ACAD
1000
DSTYLE
1002
{
1070
   274
1070
     4
1070
    41
1040
4.499995307353803
1070
   289
1070
     0
1070
    79
1070
     2
1070
   343
1005
FB
1070
   344
1005
FB
1070
   176
1070
     2
1070
   177
1070
     2
1070
   178
1070
     2
1070
   271
1070
     2
1070
    44
1040
1.2
1070
    42
1040
1.5
1070
   147
1040
1.5
1070
   173
1070
     1
1070
    77
1070
     3
1070
    73
1070
     0
1070
   172
1070
     1
1070
    74
1070
     0
1070
   283
1070
     0
1070
   340
1005
105
1070
   140
1040
9.0
1070
   284
1070
     8
1070
   288
1070
     1
1070
    78
1070
     8
1002
}
  0
INSERT
  5
4BD
330
1F
100
AcDbEntity
  8
Layer0015
  6
Continuous
100
AcDbBlockReference
  2
DC_GROUP_HCN200_3
 10
0.0
 20
0.0
 30
0.0
  0
INSERT
  5
4BE
330
1F
100
AcDbEntity
  8
Layer0004
  6
Continuous
100
AcDbBlockReference
  2
DC_GROUP_HCN200_4
 10
0.0
 20
0.0
 30
0.0
  0
INSERT
  5
4BF
330
1F
100
AcDbEntity
  8
Layer0004
  6
Continuous
100
AcDbBlockReference
  2
DC_GROUP_HCN200_5
 10
0.0
 20
0.0
 30
0.0
  0
INSERT
  5
4C0
330
1F
100
AcDbEntity
  8
Layer0004
  6
Continuous
100
AcDbBlockReference
  2
DC_GROUP_HCN200_6
 10
0.0
 20
0.0
 30
0.0
  0
INSERT
  5
4C1
330
1F
100
AcDbEntity
  8
Layer0004
  6
Continuous
100
AcDbBlockReference
  2
DC_GROUP_HCN200_7
 10
0.0
 20
0.0
 30
0.0
  0
INSERT
  5
4C2
330
1F
100
AcDbEntity
  8
Layer0004
  6
Continuous
100
AcDbBlockReference
  2
DC_GROUP_HCN200_11
 10
0.0
 20
0.0
 30
0.0
  0
INSERT
  5
4C3
330
1F
100
AcDbEntity
  8
Layer0004
  6
Continuous
100
AcDbBlockReference
  2
DC_GROUP_HCN200_12
 10
0.0
 20
0.0
 30
0.0
  0
INSERT
  5
4C4
330
1F
100
AcDbEntity
  8
Layer0004
  6
Continuous
100
AcDbBlockReference
  2
DC_GROUP_HCN200_13
 10
0.0
 20
0.0
 30
0.0
  0
INSERT
  5
4C5
330
1F
100
AcDbEntity
  8
Layer0014
  6
Continuous
100
AcDbBlockReference
  2
DC_GROUP_HCN200_8
 10
0.0
 20
0.0
 30
0.0
  0
INSERT
  5
4C6
330
1F
100
AcDbEntity
  8
Layer0014
  6
Continuous
100
AcDbBlockReference
  2
DC_GROUP_HCN200_9
 10
0.0
 20
0.0
 30
0.0
  0
INSERT
  5
4C7
330
1F
100
AcDbEntity
  8
Layer0014
  6
Continuous
100
AcDbBlockReference
  2
DC_GROUP_HCN200_10
 10
0.0
 20
0.0
 30
0.0
  0
VIEWPORT
  5
75
330
1B
100
AcDbEntity
 67
     1
  8
0
100
AcDbViewport
 10
11.79880307020733
 20
14.69072839234707
 30
0.0
 40
3501.919656167557
 41
2466.635729698723
 68
     1
 69
     1
 12
11.79880307020733
 22
14.69072839234707
 13
0.0
 23
0.0
 14
0.5
 24
0.5
 15
0.0
 25
0.0
 16
0.0
 26
0.0
 36
1.0
 17
0.0
 27
0.0
 37
0.0
 42
50.0
 43
0.0
 44
0.0
 45
2466.635729698723
 50
0.0
 51
0.0
 72
   100
 90
   557152
  1

281
     0
 71
     1
 74
     0
110
0.0
120
0.0
130
0.0
111
1.0
121
0.0
131
0.0
112
0.0
122
1.0
132
0.0
 79
     0
146
0.0
  0
ENDSEC
  0
SECTION
  2
OBJECTS
  0
DICTIONARY
  5
C
330
0
100
AcDbDictionary
281
     1
  3
ACAD_GROUP
350
D
  3
ACAD_LAYOUT
350
1A
  3
ACAD_MLEADERSTYLE
350
4C9
  3
ACAD_MLINESTYLE
350
17
  3
ACAD_PLOTSETTINGS
350
19
  3
ACAD_PLOTSTYLENAME
350
E
  3
ACAD_TABLESTYLE
350
4C8
  3
ACAD_VISUALSTYLE
350
2A
  0
DICTIONARY
  5
D
102
{ACAD_REACTORS
330
C
102
}
330
C
100
AcDbDictionary
281
     1
  0
DICTIONARY
  5
1A
102
{ACAD_REACTORS
330
C
102
}
330
C
100
AcDbDictionary
281
     1
  3
Layout1
350
1E
  3
Layout2
350
26
  3
Model
350
22
  0
DICTIONARY
  5
4C9
102
{ACAD_REACTORS
330
C
102
}
330
C
100
AcDbDictionary
281
     1
  0
DICTIONARY
  5
17
102
{ACAD_REACTORS
330
C
102
}
330
C
100
AcDbDictionary
281
     1
  3
Standard
350
18
  0
DICTIONARY
  5
19
102
{ACAD_REACTORS
330
C
102
}
330
C
100
AcDbDictionary
281
     1
  0
ACDBDICTIONARYWDFLT
  5
E
102
{ACAD_REACTORS
330
C
102
}
330
C
100
AcDbDictionary
281
     1
  3
Normal
350
F
100
AcDbDictionaryWithDefault
340
F
  0
DICTIONARY
  5
4C8
102
{ACAD_REACTORS
330
C
102
}
330
C
100
AcDbDictionary
281
     1
  0
DICTIONARY
  5
2A
102
{ACAD_REACTORS
330
C
102
}
330
C
100
AcDbDictionary
281
     1
  3
2dWireframe
350
2F
  3
3D Hidden
350
31
  3
3dWireframe
350
30
  3
Basic
350
32
  3
Brighten
350
36
  3
ColorChange
350
3A
  3
Conceptual
350
34
  3
Dim
350
35
  3
Facepattern
350
39
  3
Flat
350
2B
  3
FlatWithEdges
350
2C
  3
Gouraud
350
2D
  3
GouraudWithEdges
350
2E
  3
Linepattern
350
38
  3
Realistic
350
33
  3
Thicken
350
37
  0
LAYOUT
  5
1E
102
{ACAD_REACTORS
330
1A
102
}
330
1A
100
AcDbPlotSettings
  1

  2
none_device
  4

  6

 40
0.0
 41
0.0
 42
0.0
 43
0.0
 44
0.0
 45
0.0
 46
0.0
 47
0.0
 48
0.0
 49
0.0
140
0.0
141
0.0
142
1.0
143
1.0
 70
   688
 72
     0
 73
     0
 74
     5
  7

 75
    16
147
1.0
148
0.0
149
0.0
100
AcDbLayout
  1
Layout1
 70
     0
 71
     1
 10
0.0
 20
0.0
 11
12.0
 21
9.0
 12
0.0
 22
0.0
 32
0.0
 14
1.000000000000000E+20
 24
1.000000000000000E+20
 34
1.000000000000000E+20
 15
-1.000000000000000E+20
 25
-1.000000000000000E+20
 35
-1.000000000000000E+20
146
0.0
 13
0.0
 23
0.0
 33
0.0
 16
1.0
 26
0.0
 36
0.0
 17
0.0
 27
1.0
 37
0.0
 76
     0
330
1B
331
75
  0
LAYOUT
  5
26
102
{ACAD_REACTORS
330
1A
102
}
330
1A
100
AcDbPlotSettings
  1

  2
none_device
  4

  6

 40
0.0
 41
0.0
 42
0.0
 43
0.0
 44
0.0
 45
0.0
 46
0.0
 47
0.0
 48
0.0
 49
0.0
140
0.0
141
0.0
142
1.0
143
1.0
 70
   688
 72
     0
 73
     0
 74
     5
  7

 75
    16
147
1.0
148
0.0
149
0.0
100
AcDbLayout
  1
Layout2
 70
     1
 71
     2
 10
0.0
 20
0.0
 11
0.0
 21
0.0
 12
0.0
 22
0.0
 32
0.0
 14
0.0
 24
0.0
 34
0.0
 15
0.0
 25
0.0
 35
0.0
146
0.0
 13
0.0
 23
0.0
 33
0.0
 16
1.0
 26
0.0
 36
0.0
 17
0.0
 27
1.0
 37
0.0
 76
     0
330
23
  0
LAYOUT
  5
22
102
{ACAD_REACTORS
330
1A
102
}
330
1A
100
AcDbPlotSettings
  1

  2
none_device
  4

  6

 40
0.0
 41
0.0
 42
0.0
 43
0.0
 44
0.0
 45
0.0
 46
0.0
 47
0.0
 48
0.0
 49
0.0
140
0.0
141
0.0
142
1.0
143
1.0
 70
  1712
 72
     0
 73
     0
 74
     0
  7

 75
     0
147
1.0
148
0.0
149
0.0
100
AcDbLayout
  1
Model
 70
     1
 71
     0
 10
-601.5
 20
-429.0
 11
601.5
 21
429.0
 12
0.0
 22
0.0
 32
0.0
 14
-1739.161025013571
 24
-1218.627136457014
 34
0.0
 15
1762.758631153986
 25
1248.008593241708
 35
0.0
146
0.0
 13
0.0
 23
0.0
 33
0.0
 16
1.0
 26
0.0
 36
0.0
 17
0.0
 27
1.0
 37
0.0
 76
     0
330
1F
331
29
  0
MLINESTYLE
  5
18
102
{ACAD_REACTORS
330
17
102
}
330
17
100
AcDbMlineStyle
  2
Standard
 70
     0
  3

 62
   256
 51
90.0
 52
90.0
 71
     2
 49
0.5
 62
   256
  6
BYLAYER
 49
-0.5
 62
   256
  6
BYLAYER
  0
ACDBPLACEHOLDER
  5
F
102
{ACAD_REACTORS
330
E
102
}
330
E
  0
VISUALSTYLE
  5
2F
102
{ACAD_REACTORS
330
2A
102
}
330
2A
100
AcDbVisualStyle
  2
2dWireframe
 70
     4
 71
     0
 72
     2
 73
     0
 90
        0
 40
-0.6
 41
-30.0
 62
     5
 63
     7
 74
     1
 91
        4
 64
     7
 65
   257
 75
     1
175
     1
 42
1.0
 92
        0
 66
   257
 43
1.0
 76
     1
 77
     6
 78
     2
 67
     7
 79
     5
170
     0
171
     0
290
     0
174
     0
 93
        1
 44
0.0
173
     0
291
     0
 45
0.0
1001
ACAD
1000
AcDbSavedByObjectVersion
1070
     0
  0
VISUALSTYLE
  5
31
102
{ACAD_REACTORS
330
2A
102
}
330
2A
100
AcDbVisualStyle
  2
3D Hidden
 70
     6
 71
     1
 72
     2
 73
     2
 90
        0
 40
-0.6
 41
-30.0
 62
     5
 63
     7
 74
     2
 91
        2
 64
     7
 65
   257
 75
     2
175
     1
 42
40.0
 92
        0
 66
   257
 43
1.0
 76
     1
 77
     6
 78
     2
 67
     7
 79
     3
170
     0
171
     0
290
     0
174
     0
 93
        1
 44
0.0
173
     0
291
     0
 45
0.0
1001
ACAD
1000
AcDbSavedByObjectVersion
1070
     0
  0
VISUALSTYLE
  5
30
102
{ACAD_REACTORS
330
2A
102
}
330
2A
100
AcDbVisualStyle
  2
3dWireframe
 70
     5
 71
     0
 72
     2
 73
     0
 90
        0
 40
-0.6
 41
-30.0
 62
     5
 63
     7
 74
     1
 91
        4
 64
     7
 65
   257
 75
     1
175
     1
 42
1.0
 92
        0
 66
   257
 43
1.0
 76
     1
 77
     6
 78
     2
 67
     7
 79
     5
170
     0
171
     0
290
     0
174
     0
 93
        1
 44
0.0
173
     0
291
     0
 45
0.0
1001
ACAD
1000
AcDbSavedByObjectVersion
1070
     0
  0
VISUALSTYLE
  5
32
102
{ACAD_REACTORS
330
2A
102
}
330
2A
100
AcDbVisualStyle
  2
Basic
 70
     7
 71
     1
 72
     0
 73
     1
 90
        0
 40
-0.6
 41
-30.0
 62
     5
 63
     7
 74
     0
 91
        4
 64
     7
 65
   257
 75
     1
175
     1
 42
1.0
 92
        8
 66
     7
 43
1.0
 76
     1
 77
     6
 78
     2
 67
     7
 79
     5
170
     0
171
     0
290
     0
174
     0
 93
        1
 44
0.0
173
     0
291
     1
 45
0.0
1001
ACAD
1000
AcDbSavedByObjectVersion
1070
     0
  0
VISUALSTYLE
  5
36
102
{ACAD_REACTORS
330
2A
102
}
330
2A
100
AcDbVisualStyle
  2
Brighten
 70
    12
 71
     2
 72
     2
 73
     0
 90
        0
 40
-0.6
 41
-30.0
 62
     5
 63
     7
 74
     1
 91
        4
 64
     7
 65
   257
 75
     1
175
     1
 42
1.0
 92
        8
 66
     7
 43
1.0
 76
     1
 77
     6
 78
     2
 67
     7
 79
     5
170
     0
171
     0
290
     0
174
     0
 93
        1
 44
50.0
173
     0
291
     1
 45
0.0
1001
ACAD
1000
AcDbSavedByObjectVersion
1070
     0
  0
VISUALSTYLE
  5
3A
102
{ACAD_REACTORS
330
2A
102
}
330
2A
100
AcDbVisualStyle
  2
ColorChange
 70
    16
 71
     2
 72
     2
 73
     3
 90
        0
 40
-0.6
 41
-30.0
 62
     5
 63
     8
 74
     1
 91
        4
 64
     7
 65
   257
 75
     1
175
     1
 42
1.0
 92
        8
 66
     8
 43
1.0
 76
     1
 77
     6
 78
     2
 67
     7
 79
     5
170
     0
171
     0
290
     0
174
     0
 93
        1
 44
0.0
173
     0
291
     1
 45
0.0
1001
ACAD
1000
AcDbSavedByObjectVersion
1070
     0
  0
VISUALSTYLE
  5
34
102
{ACAD_REACTORS
330
2A
102
}
330
2A
100
AcDbVisualStyle
  2
Conceptual
 70
     9
 71
     3
 72
     2
 73
     0
 90
        0
 40
-0.6
 41
-30.0
 62
     5
 63
     7
 74
     2
 91
        2
 64
     7
 65
   257
 75
     1
175
     1
 42
40.0
 92
        8
 66
     7
 43
1.0
 76
     1
 77
     6
 78
     2
 67
     7
 79
     3
170
     0
171
     0
290
     0
174
     0
 93
        1
 44
0.0
173
     0
291
     0
 45
0.0
1001
ACAD
1000
AcDbSavedByObjectVersion
1070
     0
  0
VISUALSTYLE
  5
35
102
{ACAD_REACTORS
330
2A
102
}
330
2A
100
AcDbVisualStyle
  2
Dim
 70
    11
 71
     2
 72
     2
 73
     0
 90
        0
 40
-0.6
 41
-30.0
 62
     5
 63
     7
 74
     1
 91
        4
 64
     7
 65
   257
 75
     1
175
     1
 42
1.0
 92
        8
 66
     7
 43
1.0
 76
     1
 77
     6
 78
     2
 67
     7
 79
     5
170
     0
171
     0
290
     0
174
     0
 93
        1
 44
-50.0
173
     0
291
     1
 45
0.0
1001
ACAD
1000
AcDbSavedByObjectVersion
1070
     0
  0
VISUALSTYLE
  5
39
102
{ACAD_REACTORS
330
2A
102
}
330
2A
100
AcDbVisualStyle
  2
Facepattern
 70
    15
 71
     2
 72
     2
 73
     0
 90
        0
 40
-0.6
 41
-30.0
 62
     5
 63
     7
 74
     1
 91
        4
 64
     7
 65
   257
 75
     1
175
     1
 42
1.0
 92
        8
 66
     7
 43
1.0
 76
     1
 77
     6
 78
     2
 67
     7
 79
     5
170
     0
171
     0
290
     0
174
     0
 93
        1
 44
0.0
173
     0
291
     1
 45
0.0
1001
ACAD
1000
AcDbSavedByObjectVersion
1070
     0
  0
VISUALSTYLE
  5
2B
102
{ACAD_REACTORS
330
2A
102
}
330
2A
100
AcDbVisualStyle
  2
Flat
 70
     0
 71
     2
 72
     1
 73
     1
 90
        2
 40
-0.6
 41
30.0
 62
     5
 63
     7
 74
     0
 91
        4
 64
     7
 65
   257
 75
     1
175
     1
 42
1.0
 92
        8
 66
     7
 43
1.0
 76
     1
 77
     6
 78
     2
 67
     7
 79
     5
170
     0
171
     0
290
     0
174
     0
 93
       13
 44
0.0
173
     0
291
     1
 45
0.0
1001
ACAD
1000
AcDbSavedByObjectVersion
1070
     0
  0
VISUALSTYLE
  5
2C
102
{ACAD_REACTORS
330
2A
102
}
330
2A
100
AcDbVisualStyle
  2
FlatWithEdges
 70
     1
 71
     2
 72
     1
 73
     1
 90
        2
 40
-0.6
 41
30.0
 62
     5
 63
     7
 74
     1
 91
        4
 64
     7
 65
   257
 75
     1
175
     1
 42
1.0
 92
        0
 66
   257
 43
1.0
 76
     1
 77
     6
 78
     2
 67
     7
 79
     5
170
     0
171
     0
290
     0
174
     0
 93
       13
 44
0.0
173
     0
291
     1
 45
0.0
1001
ACAD
1000
AcDbSavedByObjectVersion
1070
     0
  0
VISUALSTYLE
  5
2D
102
{ACAD_REACTORS
330
2A
102
}
330
2A
100
AcDbVisualStyle
  2
Gouraud
 70
     2
 71
     2
 72
     2
 73
     1
 90
        2
 40
-0.6
 41
30.0
 62
     5
 63
     7
 74
     0
 91
        4
 64
     7
 65
   257
 75
     1
175
     1
 42
1.0
 92
        0
 66
     7
 43
1.0
 76
     1
 77
     6
 78
     2
 67
     7
 79
     5
170
     0
171
     0
290
     0
174
     0
 93
       13
 44
0.0
173
     0
291
     1
 45
0.0
1001
ACAD
1000
AcDbSavedByObjectVersion
1070
     0
  0
VISUALSTYLE
  5
2E
102
{ACAD_REACTORS
330
2A
102
}
330
2A
100
AcDbVisualStyle
  2
GouraudWithEdges
 70
     3
 71
     2
 72
     2
 73
     1
 90
        2
 40
-0.6
 41
30.0
 62
     5
 63
     7
 74
     1
 91
        4
 64
     7
 65
   257
 75
     1
175
     1
 42
1.0
 92
        0
 66
   257
 43
1.0
 76
     1
 77
     6
 78
     2
 67
     7
 79
     5
170
     0
171
     0
290
     0
174
     0
 93
       13
 44
0.0
173
     0
291
     1
 45
0.0
1001
ACAD
1000
AcDbSavedByObjectVersion
1070
     0
  0
VISUALSTYLE
  5
38
102
{ACAD_REACTORS
330
2A
102
}
330
2A
100
AcDbVisualStyle
  2
Linepattern
 70
    14
 71
     2
 72
     2
 73
     0
 90
        0
 40
-0.6
 41
-30.0
 62
     5
 63
     7
 74
     1
 91
        4
 64
     7
 65
   257
 75
     7
175
     7
 42
1.0
 92
        8
 66
     7
 43
1.0
 76
     1
 77
     6
 78
     2
 67
     7
 79
     5
170
     0
171
     0
290
     0
174
     0
 93
        1
 44
0.0
173
     0
291
     1
 45
0.0
1001
ACAD
1000
AcDbSavedByObjectVersion
1070
     0
  0
VISUALSTYLE
  5
33
102
{ACAD_REACTORS
330
2A
102
}
330
2A
100
AcDbVisualStyle
  2
Realistic
 70
     8
 71
     2
 72
     2
 73
     0
 90
        0
 40
-0.6
 41
-30.0
 62
     5
 63
     7
 74
     1
 91
        0
 64
     7
 65
   257
 75
     1
175
     1
 42
1.0
 92
        8
 66
     8
 43
1.0
 76
     1
 77
     6
 78
     2
 67
     7
 79
     5
170
     0
171
     0
290
     0
174
     0
 93
       13
 44
0.0
173
     0
291
     0
 45
0.0
1001
ACAD
1000
AcDbSavedByObjectVersion
1070
     0
  0
VISUALSTYLE
  5
37
102
{ACAD_REACTORS
330
2A
102
}
330
2A
100
AcDbVisualStyle
  2
Thicken
 70
    13
 71
     2
 72
     2
 73
     0
 90
        0
 40
-0.6
 41
-30.0
 62
     5
 63
     7
 74
     1
 91
        4
 64
     7
 65
   257
 75
     1
175
     1
 42
1.0
 92
       12
 66
     7
 43
1.0
 76
     1
 77
     6
 78
     2
 67
     7
 79
     5
170
     0
171
     0
290
     0
174
     0
 93
        1
 44
0.0
173
     0
291
     1
 45
0.0
1001
ACAD
1000
AcDbSavedByObjectVersion
1070
     0
  0
ENDSEC
  0
EOF
