  0
SECTION
  2
HEADER
  9
$ACADVER
  1
AC1015
  9
$ACADMAINTVER
 70
     6
  9
$DWGCODEPAGE
  3
ANSI_932
  9
$INSBASE
 10
0.0
 20
0.0
 30
0.0
  9
$EXTMIN
 10
-1391.624210573098
 20
-943.9454589219943
 30
0.0
  9
$EXTMAX
 10
1405.800401815061
 20
937.4983345350458
 30
0.0
  9
$LIMMIN
 10
-481.2
 20
-343.2
  9
$LIMMAX
 10
481.2
 20
343.2
  9
$ORTHOMODE
 70
     0
  9
$REGENMODE
 70
     1
  9
$FILLMODE
 70
     1
  9
$QTEXTMODE
 70
     0
  9
$MIRRTEXT
 70
     1
  9
$LTSCALE
 40
0.3
  9
$ATTMODE
 70
     1
  9
$TEXTSIZE
 40
0.2
  9
$TRACEWID
 40
0.05
  9
$TEXTSTYLE
  7
Standard
  9
$CLAYER
  8
0
  9
$CELTYPE
  6
ByLayer
  9
$CECOLOR
 62
   256
  9
$CELTSCALE
 40
1.0
  9
$DISPSILH
 70
     0
  9
$DIMSCALE
 40
1.0
  9
$DIMASZ
 40
3.0
  9
$DIMEXO
 40
0.0625
  9
$DIMDLI
 40
0.38
  9
$DIMRND
 40
0.0
  9
$DIMDLE
 40
0.0
  9
$DIMEXE
 40
0.18
  9
$DIMTP
 40
0.0
  9
$DIMTM
 40
0.0
  9
$DIMTXT
 40
0.18
  9
$DIMCEN
 40
0.09
  9
$DIMTSZ
 40
0.0
  9
$DIMTOL
 70
     0
  9
$DIMLIM
 70
     0
  9
$DIMTIH
 70
     1
  9
$DIMTOH
 70
     1
  9
$DIMSE1
 70
     0
  9
$DIMSE2
 70
     0
  9
$DIMTAD
 70
     3
  9
$DIMZIN
 70
     0
  9
$DIMBLK
  1

  9
$DIMASO
 70
     1
  9
$DIMSHO
 70
     1
  9
$DIMPOST
  1

  9
$DIMAPOST
  1

  9
$DIMALT
 70
     0
  9
$DIMALTD
 70
     2
  9
$DIMALTF
 40
25.4
  9
$DIMLFAC
 40
1.0
  9
$DIMTOFL
 70
     0
  9
$DIMTVP
 40
0.0
  9
$DIMTIX
 70
     0
  9
$DIMSOXD
 70
     0
  9
$DIMSAH
 70
     0
  9
$DIMBLK1
  1

  9
$DIMBLK2
  1

  9
$DIMSTYLE
  2
Standard
  9
$DIMCLRD
 70
     0
  9
$DIMCLRE
 70
     0
  9
$DIMCLRT
 70
     0
  9
$DIMTFAC
 40
1.0
  9
$DIMGAP
 40
0.09
  9
$DIMJUST
 70
     0
  9
$DIMSD1
 70
     0
  9
$DIMSD2
 70
     0
  9
$DIMTOLJ
 70
     1
  9
$DIMTZIN
 70
     0
  9
$DIMALTZ
 70
     0
  9
$DIMALTTZ
 70
     0
  9
$DIMUPT
 70
     0
  9
$DIMDEC
 70
     4
  9
$DIMTDEC
 70
     4
  9
$DIMALTU
 70
     2
  9
$DIMALTTD
 70
     2
  9
$DIMTXSTY
  7
Standard
  9
$DIMAUNIT
 70
     0
  9
$DIMADEC
 70
     0
  9
$DIMALTRND
 40
0.0
  9
$DIMAZIN
 70
     0
  9
$DIMDSEP
 70
    46
  9
$DIMATFIT
 70
     3
  9
$DIMFRAC
 70
     0
  9
$DIMLDRBLK
  1

  9
$DIMLUNIT
 70
     2
  9
$DIMLWD
 70
    -2
  9
$DIMLWE
 70
    -2
  9
$DIMTMOVE
 70
     0
  9
$LUNITS
 70
     2
  9
$LUPREC
 70
     4
  9
$SKETCHINC
 40
0.1
  9
$FILLETRAD
 40
0.5
  9
$AUNITS
 70
     0
  9
$AUPREC
 70
     0
  9
$MENU
  1
.
  9
$ELEVATION
 40
0.0
  9
$PELEVATION
 40
0.0
  9
$THICKNESS
 40
0.0
  9
$LIMCHECK
 70
     0
  9
$CHAMFERA
 40
0.5
  9
$CHAMFERB
 40
0.5
  9
$CHAMFERC
 40
1.0
  9
$CHAMFERD
 40
0.0
  9
$SKPOLY
 70
     0
  9
$TDCREATE
 40
2454973.737203773
  9
$TDUCREATE
 40
2454973.362203773
  9
$TDUPDATE
 40
2454973.737203785
  9
$TDUUPDATE
 40
2454973.362203785
  9
$TDINDWG
 40
0.0000000116
  9
$TDUSRTIMER
 40
0.0000000116
  9
$USRTIMER
 70
     1
  9
$ANGBASE
 50
0.0
  9
$ANGDIR
 70
     0
  9
$PDMODE
 70
     0
  9
$PDSIZE
 40
1.0
  9
$PLINEWID
 40
0.0
  9
$SPLFRAME
 70
     0
  9
$SPLINETYPE
 70
     6
  9
$SPLINESEGS
 70
     8
  9
$HANDSEED
  5
637
  9
$SURFTAB1
 70
     6
  9
$SURFTAB2
 70
     6
  9
$SURFTYPE
 70
     6
  9
$SURFU
 70
     6
  9
$SURFV
 70
     6
  9
$UCSBASE
  2

  9
$UCSNAME
  2

  9
$UCSORG
 10
0.0
 20
0.0
 30
0.0
  9
$UCSXDIR
 10
1.0
 20
0.0
 30
0.0
  9
$UCSYDIR
 10
0.0
 20
1.0
 30
0.0
  9
$UCSORTHOREF
  2

  9
$UCSORTHOVIEW
 70
     0
  9
$UCSORGTOP
 10
0.0
 20
0.0
 30
0.0
  9
$UCSORGBOTTOM
 10
0.0
 20
0.0
 30
0.0
  9
$UCSORGLEFT
 10
0.0
 20
0.0
 30
0.0
  9
$UCSORGRIGHT
 10
0.0
 20
0.0
 30
0.0
  9
$UCSORGFRONT
 10
0.0
 20
0.0
 30
0.0
  9
$UCSORGBACK
 10
0.0
 20
0.0
 30
0.0
  9
$PUCSBASE
  2

  9
$PUCSNAME
  2

  9
$PUCSORG
 10
0.0
 20
0.0
 30
0.0
  9
$PUCSXDIR
 10
1.0
 20
0.0
 30
0.0
  9
$PUCSYDIR
 10
0.0
 20
1.0
 30
0.0
  9
$PUCSORTHOREF
  2

  9
$PUCSORTHOVIEW
 70
     0
  9
$PUCSORGTOP
 10
0.0
 20
0.0
 30
0.0
  9
$PUCSORGBOTTOM
 10
0.0
 20
0.0
 30
0.0
  9
$PUCSORGLEFT
 10
0.0
 20
0.0
 30
0.0
  9
$PUCSORGRIGHT
 10
0.0
 20
0.0
 30
0.0
  9
$PUCSORGFRONT
 10
0.0
 20
0.0
 30
0.0
  9
$PUCSORGBACK
 10
0.0
 20
0.0
 30
0.0
  9
$USERI1
 70
     0
  9
$USERI2
 70
     0
  9
$USERI3
 70
     0
  9
$USERI4
 70
     0
  9
$USERI5
 70
     0
  9
$USERR1
 40
0.0
  9
$USERR2
 40
0.0
  9
$USERR3
 40
0.0
  9
$USERR4
 40
0.0
  9
$USERR5
 40
0.0
  9
$WORLDVIEW
 70
     1
  9
$SHADEDGE
 70
     3
  9
$SHADEDIF
 70
    70
  9
$TILEMODE
 70
     1
  9
$MAXACTVP
 70
    64
  9
$PINSBASE
 10
0.0
 20
0.0
 30
0.0
  9
$PLIMCHECK
 70
     0
  9
$PEXTMIN
 10
1.000000000000000E+20
 20
1.000000000000000E+20
 30
1.000000000000000E+20
  9
$PEXTMAX
 10
-1.000000000000000E+20
 20
-1.000000000000000E+20
 30
-1.000000000000000E+20
  9
$PLIMMIN
 10
0.0
 20
0.0
  9
$PLIMMAX
 10
12.0
 20
9.0
  9
$UNITMODE
 70
     0
  9
$VISRETAIN
 70
     0
  9
$PLINEGEN
 70
     1
  9
$PSLTSCALE
 70
     0
  9
$TREEDEPTH
 70
  3020
  9
$CMLSTYLE
  2
Standard
  9
$CMLJUST
 70
     0
  9
$CMLSCALE
 40
1.0
  9
$PROXYGRAPHICS
 70
     0
  9
$MEASUREMENT
 70
     1
  9
$CELWEIGHT
370
    -1
  9
$ENDCAPS
280
     0
  9
$JOINSTYLE
280
     0
  9
$LWDISPLAY
290
     1
  9
$INSUNITS
 70
     4
  9
$HYPERLINKBASE
  1

  9
$STYLESHEET
  1

  9
$XEDIT
290
     1
  9
$CEPSNTYPE
380
     0
  9
$PSTYLEMODE
290
     1
  9
$FINGERPRINTGUID
  2
{C1F7F47B-BC8A-4A8A-A127-A31AA8F49D2D}
  9
$VERSIONGUID
  2
{FAEB1C32-E019-11D5-929B-00C0DF256EC4}
  9
$EXTNAMES
290
     1
  9
$PSVPSCALE
 40
0.0
  9
$OLESTARTUP
290
     0
  0
ENDSEC
  0
SECTION
  2
CLASSES
  0
CLASS
  1
ACDBDICTIONARYWDFLT
  2
AcDbDictionaryWithDefault
  3
ObjectDBX Classes
 90
        0
280
     0
281
     0
  0
CLASS
  1
VISUALSTYLE
  2
AcDbVisualStyle
  3
ObjectDBX Classes
 90
     4095
280
     0
281
     0
  0
CLASS
  1
ACDBPLACEHOLDER
  2
AcDbPlaceHolder
  3
ObjectDBX Classes
 90
        0
280
     0
281
     0
  0
CLASS
  1
LAYOUT
  2
AcDbLayout
  3
ObjectDBX Classes
 90
        0
280
     0
281
     0
  0
ENDSEC
  0
SECTION
  2
TABLES
  0
TABLE
  2
VPORT
  5
8
330
0
100
AcDbSymbolTable
 70
     1
  0
VPORT
  5
29
330
8
100
AcDbSymbolTableRecord
100
AcDbViewportTableRecord
  2
*Active
 70
     0
 10
0.0
 20
0.0
 11
1.0
 21
1.0
 12
0.0
 22
0.0
 13
0.0
 23
0.0
 14
0.5
 24
0.5
 15
0.5
 25
0.5
 16
0.0
 26
0.0
 36
1.0
 17
7.088095620981729
 27
3.223562193474265
 37
0.0
 40
639.6908897753937
 41
1.486849951147389
 42
50.0
 43
0.0
 44
0.0
 50
0.0
 51
0.0
 71
     0
 72
  1000
 73
     1
 74
     1
 75
     0
 76
     0
 77
     0
 78
     0
281
     0
 65
     1
110
0.0
120
0.0
130
0.0
111
1.0
121
0.0
131
0.0
112
0.0
122
1.0
132
0.0
 79
     0
146
0.0
  0
ENDTAB
  0
TABLE
  2
LTYPE
  5
5
330
0
100
AcDbSymbolTable
 70
    53
  0
LTYPE
  5
14
330
5
100
AcDbSymbolTableRecord
100
AcDbLinetypeTableRecord
  2
ByBlock
 70
     0
  3

 72
    65
 73
     0
 40
0.0
  0
LTYPE
  5
15
330
5
100
AcDbSymbolTableRecord
100
AcDbLinetypeTableRecord
  2
ByLayer
 70
     0
  3

 72
    65
 73
     0
 40
0.0
  0
LTYPE
  5
16
330
5
100
AcDbSymbolTableRecord
100
AcDbLinetypeTableRecord
  2
Continuous
 70
     0
  3
Solid line
 72
    65
 73
     0
 40
0.0
  0
LTYPE
  5
3C
330
5
100
AcDbSymbolTableRecord
100
AcDbLinetypeTableRecord
  2
HIDDENX2
 70
     0
  3
Hidden (2x) ____ ____ ____ ____ ____ ____ ____ 
 72
    65
 73
     2
 40
19.05
 49
12.7
 74
     0
 49
-6.35
 74
     0
  0
LTYPE
  5
3D
330
5
100
AcDbSymbolTableRecord
100
AcDbLinetypeTableRecord
  2
HIDDEN
 70
     0
  3
Hidden __ __ __ __ __ __ __ __ __ __ __ __ __ __
 72
    65
 73
     2
 40
9.524999999999999
 49
6.35
 74
     0
 49
-3.175
 74
     0
  0
LTYPE
  5
3E
330
5
100
AcDbSymbolTableRecord
100
AcDbLinetypeTableRecord
  2
HIDDEN2
 70
     0
  3
Hidden (.5x) _ _ _ _ _ _ _ _ _ _ _ _ _ _ _ _ _ 
 72
    65
 73
     2
 40
4.762499999999999
 49
3.175
 74
     0
 49
-1.5875
 74
     0
  0
LTYPE
  5
3F
330
5
100
AcDbSymbolTableRecord
100
AcDbLinetypeTableRecord
  2
DASHED
 70
     0
  3
Dashed __ __ __ __ __ __ __ __ __ __ __ __ __ _
 72
    65
 73
     2
 40
19.05
 49
12.7
 74
     0
 49
-6.35
 74
     0
  0
LTYPE
  5
40
330
5
100
AcDbSymbolTableRecord
100
AcDbLinetypeTableRecord
  2
DASHED2
 70
     0
  3
Dashed (.5x) _ _ _ _ _ _ _ _ _ _ _ _ _ _ _ _ _ 
 72
    65
 73
     2
 40
9.524999999999999
 49
6.35
 74
     0
 49
-3.175
 74
     0
  0
LTYPE
  5
41
330
5
100
AcDbSymbolTableRecord
100
AcDbLinetypeTableRecord
  2
DASHEDX2
 70
     0
  3
Dashed (2x) ____  ____  ____  ____  ____  ___
 72
    65
 73
     2
 40
38.09999999999999
 49
25.4
 74
     0
 49
-12.7
 74
     0
  0
LTYPE
  5
42
330
5
100
AcDbSymbolTableRecord
100
AcDbLinetypeTableRecord
  2
DOTX2
 70
     0
  3
Dot (2x) .  .  .  .  .  .  .  .  .  .  .  .  .  .
 72
    65
 73
     2
 40
12.7
 49
0.0
 74
     0
 49
-12.7
 74
     0
  0
LTYPE
  5
43
330
5
100
AcDbSymbolTableRecord
100
AcDbLinetypeTableRecord
  2
DOT
 70
     0
  3
Dot . . . . . . . . . . . . . . . . . . . . . . . .
 72
    65
 73
     2
 40
6.35
 49
0.0
 74
     0
 49
-6.35
 74
     0
  0
LTYPE
  5
44
330
5
100
AcDbSymbolTableRecord
100
AcDbLinetypeTableRecord
  2
DOT2
 70
     0
  3
Dot (.5x) ........................................
 72
    65
 73
     2
 40
3.175
 49
0.0
 74
     0
 49
-3.175
 74
     0
  0
LTYPE
  5
45
330
5
100
AcDbSymbolTableRecord
100
AcDbLinetypeTableRecord
  2
CENTERX2
 70
     0
  3
Center (2x) ________  __  ________  __  _____
 72
    65
 73
     4
 40
101.6
 49
63.5
 74
     0
 49
-12.7
 74
     0
 49
12.7
 74
     0
 49
-12.7
 74
     0
  0
LTYPE
  5
46
330
5
100
AcDbSymbolTableRecord
100
AcDbLinetypeTableRecord
  2
CENTER
 70
     0
  3
Center ____ _ ____ _ ____ _ ____ _ ____ _ ____
 72
    65
 73
     4
 40
50.8
 49
31.75
 74
     0
 49
-6.35
 74
     0
 49
6.35
 74
     0
 49
-6.35
 74
     0
  0
LTYPE
  5
47
330
5
100
AcDbSymbolTableRecord
100
AcDbLinetypeTableRecord
  2
CENTER2
 70
     0
  3
Center (.5x) ___ _ ___ _ ___ _ ___ _ ___ _ ___
 72
    65
 73
     4
 40
28.575
 49
19.05
 74
     0
 49
-3.175
 74
     0
 49
3.175
 74
     0
 49
-3.175
 74
     0
  0
LTYPE
  5
48
330
5
100
AcDbSymbolTableRecord
100
AcDbLinetypeTableRecord
  2
DASHDOTX2
 70
     0
  3
Dash dot (2x) ____  .  ____  .  ____  .  ___
 72
    65
 73
     4
 40
50.8
 49
25.4
 74
     0
 49
-12.7
 74
     0
 49
0.0
 74
     0
 49
-12.7
 74
     0
  0
LTYPE
  5
49
330
5
100
AcDbSymbolTableRecord
100
AcDbLinetypeTableRecord
  2
DASHDOT
 70
     0
  3
Dash dot __ . __ . __ . __ . __ . __ . __ . __
 72
    65
 73
     4
 40
25.4
 49
12.7
 74
     0
 49
-6.35
 74
     0
 49
0.0
 74
     0
 49
-6.35
 74
     0
  0
LTYPE
  5
4A
330
5
100
AcDbSymbolTableRecord
100
AcDbLinetypeTableRecord
  2
DASHDOT2
 70
     0
  3
Dash dot (.5x) _._._._._._._._._._._._._._._.
 72
    65
 73
     4
 40
12.7
 49
6.35
 74
     0
 49
-3.175
 74
     0
 49
0.0
 74
     0
 49
-3.175
 74
     0
  0
LTYPE
  5
4B
330
5
100
AcDbSymbolTableRecord
100
AcDbLinetypeTableRecord
  2
DIVIDEX2
 70
     0
  3
Divide (2x) ________  .  .  ________  .  .  _
 72
    65
 73
     6
 40
63.5
 49
25.4
 74
     0
 49
-12.7
 74
     0
 49
0.0
 74
     0
 49
-12.7
 74
     0
 49
0.0
 74
     0
 49
-12.7
 74
     0
  0
LTYPE
  5
4C
330
5
100
AcDbSymbolTableRecord
100
AcDbLinetypeTableRecord
  2
DIVIDE
 70
     0
  3
Divide ____ . . ____ . . ____ . . ____ . . ____
 72
    65
 73
     6
 40
31.75
 49
12.7
 74
     0
 49
-6.35
 74
     0
 49
0.0
 74
     0
 49
-6.35
 74
     0
 49
0.0
 74
     0
 49
-6.35
 74
     0
  0
LTYPE
  5
4D
330
5
100
AcDbSymbolTableRecord
100
AcDbLinetypeTableRecord
  2
DIVIDE2
 70
     0
  3
Divide (.5x) __..__..__..__..__..__..__..__.._
 72
    65
 73
     6
 40
15.875
 49
6.35
 74
     0
 49
-3.175
 74
     0
 49
0.0
 74
     0
 49
-3.175
 74
     0
 49
0.0
 74
     0
 49
-3.175
 74
     0
  0
LTYPE
  5
4E
330
5
100
AcDbSymbolTableRecord
100
AcDbLinetypeTableRecord
  2
BORDERX2
 70
     0
  3
Border (2x) ____  ____  .  ____  ____  .  ___
 72
    65
 73
     6
 40
88.89999999999999
 49
25.4
 74
     0
 49
-12.7
 74
     0
 49
25.4
 74
     0
 49
-12.7
 74
     0
 49
0.0
 74
     0
 49
-12.7
 74
     0
  0
LTYPE
  5
4F
330
5
100
AcDbSymbolTableRecord
100
AcDbLinetypeTableRecord
  2
BORDER
 70
     0
  3
Border __ __ . __ __ . __ __ . __ __ . __ __ .
 72
    65
 73
     6
 40
44.45
 49
12.7
 74
     0
 49
-6.35
 74
     0
 49
12.7
 74
     0
 49
-6.35
 74
     0
 49
0.0
 74
     0
 49
-6.35
 74
     0
  0
LTYPE
  5
50
330
5
100
AcDbSymbolTableRecord
100
AcDbLinetypeTableRecord
  2
BORDER2
 70
     0
  3
Border (.5x) __.__.__.__.__.__.__.__.__.__.__.
 72
    65
 73
     6
 40
22.225
 49
6.35
 74
     0
 49
-3.175
 74
     0
 49
6.35
 74
     0
 49
-3.175
 74
     0
 49
0.0
 74
     0
 49
-3.175
 74
     0
  0
LTYPE
  5
51
330
5
100
AcDbSymbolTableRecord
100
AcDbLinetypeTableRecord
  2
PHANTOMX2
 70
     0
  3
Phantom (2x) ____________    ____    ____   _
 72
    65
 73
     6
 40
127.0
 49
63.5
 74
     0
 49
-12.7
 74
     0
 49
12.7
 74
     0
 49
-12.7
 74
     0
 49
12.7
 74
     0
 49
-12.7
 74
     0
  0
LTYPE
  5
52
330
5
100
AcDbSymbolTableRecord
100
AcDbLinetypeTableRecord
  2
PHANTOM
 70
     0
  3
Phantom ______  __  __  ______  __  __  ______ 
 72
    65
 73
     6
 40
63.5
 49
31.75
 74
     0
 49
-6.35
 74
     0
 49
6.35
 74
     0
 49
-6.35
 74
     0
 49
6.35
 74
     0
 49
-6.35
 74
     0
  0
LTYPE
  5
53
330
5
100
AcDbSymbolTableRecord
100
AcDbLinetypeTableRecord
  2
PHANTOM2
 70
     0
  3
Phantom (.5x) ___ _ _ ___ _ _ ___ _ _ ___ _ _
 72
    65
 73
     6
 40
31.75
 49
15.875
 74
     0
 49
-3.175
 74
     0
 49
3.175
 74
     0
 49
-3.175
 74
     0
 49
3.175
 74
     0
 49
-3.175
 74
     0
  0
LTYPE
  5
54
330
5
100
AcDbSymbolTableRecord
100
AcDbLinetypeTableRecord
  2
ACAD_ISO06W100
 70
     0
  3
ISO long-dash triple-dot ____ ... ____ ... ____
 72
    65
 73
     8
 40
36.0
 49
24.0
 74
     0
 49
-3.0
 74
     0
 49
0.0
 74
     0
 49
-3.0
 74
     0
 49
0.0
 74
     0
 49
-3.0
 74
     0
 49
0.0
 74
     0
 49
-3.0
 74
     0
  0
LTYPE
  5
55
330
5
100
AcDbSymbolTableRecord
100
AcDbLinetypeTableRecord
  2
ACAD_ISO13W100
 70
     0
  3
ISO double-dash double-dot __ __ . . __ __ . . _
 72
    65
 73
     8
 40
36.0
 49
12.0
 74
     0
 49
-3.0
 74
     0
 49
12.0
 74
     0
 49
-3.0
 74
     0
 49
0.0
 74
     0
 49
-3.0
 74
     0
 49
0.0
 74
     0
 49
-3.0
 74
     0
  0
LTYPE
  5
56
330
5
100
AcDbSymbolTableRecord
100
AcDbLinetypeTableRecord
  2
ACAD_ISO14W100
 70
     0
  3
ISO dash triple-dot __ . . . __ . . . __ . . . _
 72
    65
 73
     8
 40
24.0
 49
12.0
 74
     0
 49
-3.0
 74
     0
 49
0.0
 74
     0
 49
-3.0
 74
     0
 49
0.0
 74
     0
 49
-3.0
 74
     0
 49
0.0
 74
     0
 49
-3.0
 74
     0
  0
LTYPE
  5
57
330
5
100
AcDbSymbolTableRecord
100
AcDbLinetypeTableRecord
  2
ACAD_ISO02W100
 70
     0
  3
ISO dash __ __ __ __ __ __ __ __ __ __ __ __ __
 72
    65
 73
     2
 40
15.0
 49
12.0
 74
     0
 49
-3.0
 74
     0
  0
LTYPE
  5
58
330
5
100
AcDbSymbolTableRecord
100
AcDbLinetypeTableRecord
  2
ACAD_ISO03W100
 70
     0
  3
ISO dash space __    __    __    __    __    __
 72
    65
 73
     2
 40
30.0
 49
12.0
 74
     0
 49
-18.0
 74
     0
  0
LTYPE
  5
59
330
5
100
AcDbSymbolTableRecord
100
AcDbLinetypeTableRecord
  2
ACAD_ISO04W100
 70
     0
  3
ISO long-dash dot ____ . ____ . ____ . ____ . _
 72
    65
 73
     4
 40
30.0
 49
24.0
 74
     0
 49
-3.0
 74
     0
 49
0.0
 74
     0
 49
-3.0
 74
     0
  0
LTYPE
  5
5A
330
5
100
AcDbSymbolTableRecord
100
AcDbLinetypeTableRecord
  2
ACAD_ISO05W100
 70
     0
  3
ISO long-dash double-dot ____ .. ____ .. ____ . 
 72
    65
 73
     6
 40
33.0
 49
24.0
 74
     0
 49
-3.0
 74
     0
 49
0.0
 74
     0
 49
-3.0
 74
     0
 49
0.0
 74
     0
 49
-3.0
 74
     0
  0
LTYPE
  5
5B
330
5
100
AcDbSymbolTableRecord
100
AcDbLinetypeTableRecord
  2
ACAD_ISO07W100
 70
     0
  3
ISO dot . . . . . . . . . . . . . . . . . . . . 
 72
    65
 73
     2
 40
3.0
 49
0.0
 74
     0
 49
-3.0
 74
     0
  0
LTYPE
  5
5C
330
5
100
AcDbSymbolTableRecord
100
AcDbLinetypeTableRecord
  2
ACAD_ISO08W100
 70
     0
  3
ISO long-dash short-dash ____ __ ____ __ ____ _
 72
    65
 73
     4
 40
36.0
 49
24.0
 74
     0
 49
-3.0
 74
     0
 49
6.0
 74
     0
 49
-3.0
 74
     0
  0
LTYPE
  5
5D
330
5
100
AcDbSymbolTableRecord
100
AcDbLinetypeTableRecord
  2
ACAD_ISO09W100
 70
     0
  3
ISO long-dash double-short-dash ____ __ __ ____
 72
    65
 73
     6
 40
45.0
 49
24.0
 74
     0
 49
-3.0
 74
     0
 49
6.0
 74
     0
 49
-3.0
 74
     0
 49
6.0
 74
     0
 49
-3.0
 74
     0
  0
LTYPE
  5
5E
330
5
100
AcDbSymbolTableRecord
100
AcDbLinetypeTableRecord
  2
ACAD_ISO10W100
 70
     0
  3
ISO dash dot __ . __ . __ . __ . __ . __ . __ . 
 72
    65
 73
     4
 40
18.0
 49
12.0
 74
     0
 49
-3.0
 74
     0
 49
0.0
 74
     0
 49
-3.0
 74
     0
  0
LTYPE
  5
5F
330
5
100
AcDbSymbolTableRecord
100
AcDbLinetypeTableRecord
  2
ACAD_ISO11W100
 70
     0
  3
ISO double-dash dot __ __ . __ __ . __ __ . __ _
 72
    65
 73
     6
 40
33.0
 49
12.0
 74
     0
 49
-3.0
 74
     0
 49
12.0
 74
     0
 49
-3.0
 74
     0
 49
0.0
 74
     0
 49
-3.0
 74
     0
  0
LTYPE
  5
60
330
5
100
AcDbSymbolTableRecord
100
AcDbLinetypeTableRecord
  2
ACAD_ISO12W100
 70
     0
  3
ISO dash double-dot __ . . __ . . __ . . __ . . 
 72
    65
 73
     6
 40
21.0
 49
12.0
 74
     0
 49
-3.0
 74
     0
 49
0.0
 74
     0
 49
-3.0
 74
     0
 49
0.0
 74
     0
 49
-3.0
 74
     0
  0
LTYPE
  5
61
330
5
100
AcDbSymbolTableRecord
100
AcDbLinetypeTableRecord
  2
ACAD_ISO15W100
 70
     0
  3
ISO double-dash triple-dot __ __ . . . __ __ . .
 72
    65
 73
    10
 40
39.0
 49
12.0
 74
     0
 49
-3.0
 74
     0
 49
12.0
 74
     0
 49
-3.0
 74
     0
 49
0.0
 74
     0
 49
-3.0
 74
     0
 49
0.0
 74
     0
 49
-3.0
 74
     0
 49
0.0
 74
     0
 49
-3.0
 74
     0
  0
LTYPE
  5
62
330
5
100
AcDbSymbolTableRecord
100
AcDbLinetypeTableRecord
  2
JIS_02_0.7
 70
     0
  3
HIDDEN0.75 _ _ _ _ _ _ _ _ _ _ _ _ _ _ _ _ _ 
 72
    65
 73
     2
 40
1.35
 49
0.75
 74
     0
 49
-0.6
 74
     0
  0
LTYPE
  5
63
330
5
100
AcDbSymbolTableRecord
100
AcDbLinetypeTableRecord
  2
JIS_02_1.0
 70
     0
  3
HIDDEN01 _ _ _ _ _ _ _ _ _ _ _ _ _ _ _ _ _ 
 72
    65
 73
     2
 40
2.0
 49
1.0
 74
     0
 49
-1.0
 74
     0
  0
LTYPE
  5
64
330
5
100
AcDbSymbolTableRecord
100
AcDbLinetypeTableRecord
  2
JIS_02_1.2
 70
     0
  3
HIDDEN01.25  _ _ _ _ _ _ _ _ _ _ _ _ _ _ _ _ _ 
 72
    65
 73
     2
 40
2.5
 49
1.25
 74
     0
 49
-1.25
 74
     0
  0
LTYPE
  5
65
330
5
100
AcDbSymbolTableRecord
100
AcDbLinetypeTableRecord
  2
JIS_02_2.0
 70
     0
  3
HIDDEN02 __ __ __ __ __ __ __ __ __ __ __ 
 72
    65
 73
     2
 40
3.0
 49
2.0
 74
     0
 49
-1.0
 74
     0
  0
LTYPE
  5
66
330
5
100
AcDbSymbolTableRecord
100
AcDbLinetypeTableRecord
  2
JIS_02_4.0
 70
     0
  3
HIDDEN04 ____ ____ ____ ____ ____ ____ ____ 
 72
    65
 73
     2
 40
5.5
 49
4.0
 74
     0
 49
-1.5
 74
     0
  0
LTYPE
  5
67
330
5
100
AcDbSymbolTableRecord
100
AcDbLinetypeTableRecord
  2
JIS_08_11
 70
     0
  3
1SASEN11 ___ _ ___ _ ___ _ ___ _ ___ _ ___
 72
    65
 73
     4
 40
12.8
 49
11.0
 74
     0
 49
-0.6
 74
     0
 49
0.6
 74
     0
 49
-0.6
 74
     0
  0
LTYPE
  5
68
330
5
100
AcDbSymbolTableRecord
100
AcDbLinetypeTableRecord
  2
JIS_08_15
 70
     0
  3
1SASEN15 ____ _ ____ _ ____ _ ____ _ ____ 
 72
    65
 73
     4
 40
17.25
 49
15.0
 74
     0
 49
-0.75
 74
     0
 49
0.75
 74
     0
 49
-0.75
 74
     0
  0
LTYPE
  5
69
330
5
100
AcDbSymbolTableRecord
100
AcDbLinetypeTableRecord
  2
JIS_08_25
 70
     0
  3
1SASEN25 ________  __  ________  __  _____
 72
    65
 73
     4
 40
28.0
 49
25.0
 74
     0
 49
-1.125
 74
     0
 49
0.75
 74
     0
 49
-1.125
 74
     0
  0
LTYPE
  5
6A
330
5
100
AcDbSymbolTableRecord
100
AcDbLinetypeTableRecord
  2
JIS_08_37
 70
     0
  3
1SASEN37 ________  __  ________  __  _____
 72
    65
 73
     4
 40
40.5
 49
37.5
 74
     0
 49
-1.125
 74
     0
 49
0.75
 74
     0
 49
-1.125
 74
     0
  0
LTYPE
  5
6B
330
5
100
AcDbSymbolTableRecord
100
AcDbLinetypeTableRecord
  2
JIS_08_50
 70
     0
  3
1SASEN50 _______________  __  ____________
 72
    65
 73
     4
 40
53.0
 49
50.0
 74
     0
 49
-1.125
 74
     0
 49
0.75
 74
     0
 49
-1.125
 74
     0
  0
LTYPE
  5
6C
330
5
100
AcDbSymbolTableRecord
100
AcDbLinetypeTableRecord
  2
JIS_09_08
 70
     0
  3
2SASEN8 __ _ _ __ _ _ __ _ _ __ _ _ __ _ _ 
 72
    65
 73
     6
 40
10.75
 49
8.0
 74
     0
 49
-0.55
 74
     0
 49
0.55
 74
     0
 49
-0.55
 74
     0
 49
0.55
 74
     0
 49
-0.55
 74
     0
  0
LTYPE
  5
6D
330
5
100
AcDbSymbolTableRecord
100
AcDbLinetypeTableRecord
  2
JIS_09_15
 70
     0
  3
2SASEN15 ___ _ _ ___ _ _ ___ _ _ ___ _ _ ___ 
 72
    65
 73
     6
 40
18.9
 49
15.0
 74
     0
 49
-0.9
 74
     0
 49
0.6
 74
     0
 49
-0.9
 74
     0
 49
0.6
 74
     0
 49
-0.9
 74
     0
  0
LTYPE
  5
6E
330
5
100
AcDbSymbolTableRecord
100
AcDbLinetypeTableRecord
  2
JIS_09_29
 70
     0
  3
2SASEN29 ______　__  __  ______　__  __  ___
 72
    65
 73
     6
 40
34.0
 49
29.0
 74
     0
 49
-1.2
 74
     0
 49
0.7
 74
     0
 49
-1.2
 74
     0
 49
0.7
 74
     0
 49
-1.2
 74
     0
  0
LTYPE
  5
6F
330
5
100
AcDbSymbolTableRecord
100
AcDbLinetypeTableRecord
  2
JIS_09_50
 70
     0
  3
2SASEN50 ____________　__  __  _____________
 72
    65
 73
     6
 40
55.0
 49
50.0
 74
     0
 49
-1.2
 74
     0
 49
0.7
 74
     0
 49
-1.2
 74
     0
 49
0.7
 74
     0
 49
-1.2
 74
     0
  0
ENDTAB
  0
TABLE
  2
LAYER
  5
2
330
0
100
AcDbSymbolTable
 70
     6
  0
LAYER
  5
10
330
2
100
AcDbSymbolTableRecord
100
AcDbLayerTableRecord
  2
0
 70
     0
 62
     7
  6
Continuous
370
    -3
390
F
  0
LAYER
  5
70
330
2
100
AcDbSymbolTableRecord
100
AcDbLayerTableRecord
  2
Layer0000
 70
     0
 62
     7
  6
Continuous
370
    -3
390
F
  0
LAYER
  5
71
330
2
100
AcDbSymbolTableRecord
100
AcDbLayerTableRecord
  2
Layer0001
 70
     0
 62
     7
  6
Continuous
370
    -3
390
F
  0
LAYER
  5
72
330
2
100
AcDbSymbolTableRecord
100
AcDbLayerTableRecord
  2
Layer0004
 70
     0
 62
     7
  6
Continuous
370
    -3
390
F
  0
LAYER
  5
73
330
2
100
AcDbSymbolTableRecord
100
AcDbLayerTableRecord
  2
Layer0014
 70
     0
 62
     7
  6
Continuous
370
    -3
390
F
  0
LAYER
  5
74
330
2
100
AcDbSymbolTableRecord
100
AcDbLayerTableRecord
  2
Layer0015
 70
     0
 62
     7
  6
Continuous
370
    -3
390
F
  0
ENDTAB
  0
TABLE
  2
STYLE
  5
3
330
0
100
AcDbSymbolTable
 70
     2
  0
STYLE
  5
11
330
3
100
AcDbSymbolTableRecord
100
AcDbTextStyleTableRecord
  2
Standard
 70
     0
 40
0.0
 41
1.0
 50
0.0
 71
     0
 42
0.2
  3
txt
  4

  0
STYLE
  5
3F4
330
3
100
AcDbSymbolTableRecord
100
AcDbTextStyleTableRecord
  2
dcStyle0
 70
     0
 40
0.0
 41
0.8000000000000009
 50
0.0
 71
     0
 42
0.2
  3
txt.shx
  4
bigfont
  0
ENDTAB
  0
TABLE
  2
VIEW
  5
6
330
0
100
AcDbSymbolTable
 70
     0
  0
ENDTAB
  0
TABLE
  2
UCS
  5
7
330
0
100
AcDbSymbolTable
 70
     0
  0
ENDTAB
  0
TABLE
  2
APPID
  5
9
330
0
100
AcDbSymbolTable
 70
     2
  0
APPID
  5
12
330
9
100
AcDbSymbolTableRecord
100
AcDbRegAppTableRecord
  2
ACAD
 70
     0
  0
APPID
  5
3B
330
9
100
AcDbSymbolTableRecord
100
AcDbRegAppTableRecord
  2
DaFusionOut
 70
     0
  0
ENDTAB
  0
TABLE
  2
DIMSTYLE
  5
A
330
0
100
AcDbSymbolTable
 70
     2
100
AcDbDimStyleTable
  0
DIMSTYLE
105
27
330
A
100
AcDbSymbolTableRecord
100
AcDbDimStyleTableRecord
  2
Standard
 70
     0
340
11
  0
DIMSTYLE
105
609
102
{ACAD_REACTORS
330
608
330
60A
330
60B
330
60C
330
60D
330
60E
330
60F
330
610
330
611
330
612
330
613
330
614
330
615
330
616
330
617
330
618
330
619
330
61A
330
61B
330
61D
330
61E
330
61F
330
620
330
621
330
622
330
623
330
624
330
625
330
626
330
627
330
62A
330
62B
102
}
330
A
100
AcDbSymbolTableRecord
100
AcDbDimStyleTableRecord
  2
DaDimRotatedStyle
 70
     0
 41
3.599996245883042
 42
1.2
 44
0.96
 73
     0
 74
     0
 77
     3
 78
     8
 79
     2
140
8.4
147
1.199999999999989
172
     1
173
     1
176
     2
177
     2
178
     2
271
     7
274
     4
283
     0
284
     8
288
     1
289
     0
340
3F4
343
3EA
344
3EA
  0
ENDTAB
  0
TABLE
  2
BLOCK_RECORD
  5
1
330
0
100
AcDbSymbolTable
 70
   105
  0
BLOCK_RECORD
  5
1F
330
1
100
AcDbSymbolTableRecord
100
AcDbBlockTableRecord
  2
*Model_Space
340
22
  0
BLOCK_RECORD
  5
1B
330
1
100
AcDbSymbolTableRecord
100
AcDbBlockTableRecord
  2
*Paper_Space
340
1E
  0
BLOCK_RECORD
  5
23
330
1
100
AcDbSymbolTableRecord
100
AcDbBlockTableRecord
  2
*Paper_Space0
340
26
  0
BLOCK_RECORD
  5
76
330
1
100
AcDbSymbolTableRecord
100
AcDbBlockTableRecord
  2
DC_GROUP_COM125_1
340
0
102
{BLKREFS
331
5D0
102
}
  0
BLOCK_RECORD
  5
79
330
1
100
AcDbSymbolTableRecord
100
AcDbBlockTableRecord
  2
DC_GROUP_COM125_2
340
0
102
{BLKREFS
331
5D1
102
}
  0
BLOCK_RECORD
  5
7C
330
1
100
AcDbSymbolTableRecord
100
AcDbBlockTableRecord
  2
DC_GROUP_COM125_3
340
0
102
{BLKREFS
331
5D2
102
}
  0
BLOCK_RECORD
  5
7F
330
1
100
AcDbSymbolTableRecord
100
AcDbBlockTableRecord
  2
DC_GROUP_COM125_4
340
0
102
{BLKREFS
331
5D3
102
}
  0
BLOCK_RECORD
  5
82
330
1
100
AcDbSymbolTableRecord
100
AcDbBlockTableRecord
  2
DC_GROUP_COM125_5
340
0
102
{BLKREFS
331
5D4
102
}
  0
BLOCK_RECORD
  5
85
330
1
100
AcDbSymbolTableRecord
100
AcDbBlockTableRecord
  2
DC_GROUP_COM125_6
340
0
102
{BLKREFS
331
5D5
102
}
  0
BLOCK_RECORD
  5
88
330
1
100
AcDbSymbolTableRecord
100
AcDbBlockTableRecord
  2
DC_GROUP_COM125_7
340
0
102
{BLKREFS
331
5D6
102
}
  0
BLOCK_RECORD
  5
8B
330
1
100
AcDbSymbolTableRecord
100
AcDbBlockTableRecord
  2
DC_GROUP_COM125_8
340
0
102
{BLKREFS
331
5D7
102
}
  0
BLOCK_RECORD
  5
8E
330
1
100
AcDbSymbolTableRecord
100
AcDbBlockTableRecord
  2
DC_GROUP_COM125_9
340
0
102
{BLKREFS
331
5DE
102
}
  0
BLOCK_RECORD
  5
91
330
1
100
AcDbSymbolTableRecord
100
AcDbBlockTableRecord
  2
DC_GROUP_COM125_10
340
0
102
{BLKREFS
331
5DF
102
}
  0
BLOCK_RECORD
  5
94
330
1
100
AcDbSymbolTableRecord
100
AcDbBlockTableRecord
  2
DC_GROUP_COM125_11
340
0
102
{BLKREFS
331
5E0
102
}
  0
BLOCK_RECORD
  5
97
330
1
100
AcDbSymbolTableRecord
100
AcDbBlockTableRecord
  2
DC_GROUP_COM125_12
340
0
102
{BLKREFS
331
5E1
102
}
  0
BLOCK_RECORD
  5
9A
330
1
100
AcDbSymbolTableRecord
100
AcDbBlockTableRecord
  2
DC_GROUP_COM125_13
340
0
102
{BLKREFS
331
5E2
102
}
  0
BLOCK_RECORD
  5
9D
330
1
100
AcDbSymbolTableRecord
100
AcDbBlockTableRecord
  2
DC_GROUP_COM125_14
340
0
102
{BLKREFS
331
5E3
102
}
  0
BLOCK_RECORD
  5
A0
330
1
100
AcDbSymbolTableRecord
100
AcDbBlockTableRecord
  2
DC_GROUP_COM125_15
340
0
102
{BLKREFS
331
5E4
102
}
  0
BLOCK_RECORD
  5
A3
330
1
100
AcDbSymbolTableRecord
100
AcDbBlockTableRecord
  2
DC_GROUP_COM125_16
340
0
102
{BLKREFS
331
2B9
102
}
  0
BLOCK_RECORD
  5
A6
330
1
100
AcDbSymbolTableRecord
100
AcDbBlockTableRecord
  2
DC_GROUP_COM125_17
340
0
102
{BLKREFS
331
5E5
102
}
  0
BLOCK_RECORD
  5
A9
330
1
100
AcDbSymbolTableRecord
100
AcDbBlockTableRecord
  2
DC_GROUP_COM125_18
340
0
102
{BLKREFS
331
5E6
102
}
  0
BLOCK_RECORD
  5
AC
330
1
100
AcDbSymbolTableRecord
100
AcDbBlockTableRecord
  2
DC_GROUP_COM125_19
340
0
102
{BLKREFS
331
2F0
102
}
  0
BLOCK_RECORD
  5
AF
330
1
100
AcDbSymbolTableRecord
100
AcDbBlockTableRecord
  2
DC_GROUP_COM125_20
340
0
102
{BLKREFS
331
5E7
102
}
  0
BLOCK_RECORD
  5
B2
330
1
100
AcDbSymbolTableRecord
100
AcDbBlockTableRecord
  2
DC_GROUP_COM125_21
340
0
102
{BLKREFS
331
5E8
102
}
  0
BLOCK_RECORD
  5
B5
330
1
100
AcDbSymbolTableRecord
100
AcDbBlockTableRecord
  2
DC_GROUP_COM125_22
340
0
102
{BLKREFS
331
5E9
102
}
  0
BLOCK_RECORD
  5
B8
330
1
100
AcDbSymbolTableRecord
100
AcDbBlockTableRecord
  2
DC_GROUP_COM125_23
340
0
102
{BLKREFS
331
5EA
102
}
  0
BLOCK_RECORD
  5
BB
330
1
100
AcDbSymbolTableRecord
100
AcDbBlockTableRecord
  2
DC_GROUP_COM125_24
340
0
102
{BLKREFS
331
5EB
102
}
  0
BLOCK_RECORD
  5
BE
330
1
100
AcDbSymbolTableRecord
100
AcDbBlockTableRecord
  2
DC_GROUP_COM125_25
340
0
102
{BLKREFS
331
5EC
102
}
  0
BLOCK_RECORD
  5
C1
330
1
100
AcDbSymbolTableRecord
100
AcDbBlockTableRecord
  2
DC_GROUP_COM125_26
340
0
102
{BLKREFS
331
5ED
102
}
  0
BLOCK_RECORD
  5
C4
330
1
100
AcDbSymbolTableRecord
100
AcDbBlockTableRecord
  2
DC_GROUP_COM125_27
340
0
102
{BLKREFS
331
5EE
102
}
  0
BLOCK_RECORD
  5
C7
330
1
100
AcDbSymbolTableRecord
100
AcDbBlockTableRecord
  2
DC_GROUP_COM125_28
340
0
102
{BLKREFS
331
5EF
102
}
  0
BLOCK_RECORD
  5
CA
330
1
100
AcDbSymbolTableRecord
100
AcDbBlockTableRecord
  2
DC_GROUP_COM125_29
340
0
102
{BLKREFS
331
5F0
102
}
  0
BLOCK_RECORD
  5
CD
330
1
100
AcDbSymbolTableRecord
100
AcDbBlockTableRecord
  2
DC_GROUP_COM125_30
340
0
102
{BLKREFS
331
5F1
102
}
  0
BLOCK_RECORD
  5
D0
330
1
100
AcDbSymbolTableRecord
100
AcDbBlockTableRecord
  2
DC_GROUP_COM125_31
340
0
102
{BLKREFS
331
5F2
102
}
  0
BLOCK_RECORD
  5
D3
330
1
100
AcDbSymbolTableRecord
100
AcDbBlockTableRecord
  2
DC_GROUP_COM125_32
340
0
102
{BLKREFS
331
5F3
102
}
  0
BLOCK_RECORD
  5
D6
330
1
100
AcDbSymbolTableRecord
100
AcDbBlockTableRecord
  2
DC_GROUP_COM125_33
340
0
102
{BLKREFS
331
5F4
102
}
  0
BLOCK_RECORD
  5
D9
330
1
100
AcDbSymbolTableRecord
100
AcDbBlockTableRecord
  2
DC_GROUP_COM125_34
340
0
102
{BLKREFS
331
5F5
102
}
  0
BLOCK_RECORD
  5
DC
330
1
100
AcDbSymbolTableRecord
100
AcDbBlockTableRecord
  2
DC_GROUP_COM125_35
340
0
102
{BLKREFS
331
5F6
102
}
  0
BLOCK_RECORD
  5
DF
330
1
100
AcDbSymbolTableRecord
100
AcDbBlockTableRecord
  2
DC_GROUP_COM125_36
340
0
102
{BLKREFS
331
5F7
102
}
  0
BLOCK_RECORD
  5
E2
330
1
100
AcDbSymbolTableRecord
100
AcDbBlockTableRecord
  2
*D37
340
0
  0
BLOCK_RECORD
  5
E5
330
1
100
AcDbSymbolTableRecord
100
AcDbBlockTableRecord
  2
*D38
340
0
  0
BLOCK_RECORD
  5
E8
330
1
100
AcDbSymbolTableRecord
100
AcDbBlockTableRecord
  2
DC_GROUP_COM125_37
340
0
102
{BLKREFS
331
5D8
102
}
  0
BLOCK_RECORD
  5
EB
330
1
100
AcDbSymbolTableRecord
100
AcDbBlockTableRecord
  2
DC_GROUP_COM125_38
340
0
102
{BLKREFS
331
5D9
102
}
  0
BLOCK_RECORD
  5
EE
330
1
100
AcDbSymbolTableRecord
100
AcDbBlockTableRecord
  2
DC_GROUP_COM125_39
340
0
102
{BLKREFS
331
5DA
102
}
  0
BLOCK_RECORD
  5
F1
330
1
100
AcDbSymbolTableRecord
100
AcDbBlockTableRecord
  2
DC_GROUP_COM125_40
340
0
102
{BLKREFS
331
5DB
102
}
  0
BLOCK_RECORD
  5
F4
330
1
100
AcDbSymbolTableRecord
100
AcDbBlockTableRecord
  2
*D43
340
0
  0
BLOCK_RECORD
  5
F7
330
1
100
AcDbSymbolTableRecord
100
AcDbBlockTableRecord
  2
*D44
340
0
  0
BLOCK_RECORD
  5
FA
330
1
100
AcDbSymbolTableRecord
100
AcDbBlockTableRecord
  2
*D45
340
0
  0
BLOCK_RECORD
  5
FD
330
1
100
AcDbSymbolTableRecord
100
AcDbBlockTableRecord
  2
*D46
340
0
  0
BLOCK_RECORD
  5
100
330
1
100
AcDbSymbolTableRecord
100
AcDbBlockTableRecord
  2
*D47
340
0
  0
BLOCK_RECORD
  5
103
330
1
100
AcDbSymbolTableRecord
100
AcDbBlockTableRecord
  2
*D48
340
0
  0
BLOCK_RECORD
  5
106
330
1
100
AcDbSymbolTableRecord
100
AcDbBlockTableRecord
  2
*D49
340
0
  0
BLOCK_RECORD
  5
109
330
1
100
AcDbSymbolTableRecord
100
AcDbBlockTableRecord
  2
*D50
340
0
  0
BLOCK_RECORD
  5
10C
330
1
100
AcDbSymbolTableRecord
100
AcDbBlockTableRecord
  2
*D51
340
0
  0
BLOCK_RECORD
  5
10F
330
1
100
AcDbSymbolTableRecord
100
AcDbBlockTableRecord
  2
*D52
340
0
  0
BLOCK_RECORD
  5
112
330
1
100
AcDbSymbolTableRecord
100
AcDbBlockTableRecord
  2
*D53
340
0
  0
BLOCK_RECORD
  5
115
330
1
100
AcDbSymbolTableRecord
100
AcDbBlockTableRecord
  2
*D54
340
0
  0
BLOCK_RECORD
  5
118
330
1
100
AcDbSymbolTableRecord
100
AcDbBlockTableRecord
  2
*D55
340
0
  0
BLOCK_RECORD
  5
11B
330
1
100
AcDbSymbolTableRecord
100
AcDbBlockTableRecord
  2
*D56
340
0
  0
BLOCK_RECORD
  5
11E
330
1
100
AcDbSymbolTableRecord
100
AcDbBlockTableRecord
  2
*D57
340
0
  0
BLOCK_RECORD
  5
121
330
1
100
AcDbSymbolTableRecord
100
AcDbBlockTableRecord
  2
*D58
340
0
  0
BLOCK_RECORD
  5
124
330
1
100
AcDbSymbolTableRecord
100
AcDbBlockTableRecord
  2
*D59
340
0
  0
BLOCK_RECORD
  5
127
330
1
100
AcDbSymbolTableRecord
100
AcDbBlockTableRecord
  2
DC_GROUP_COM125_41
340
0
102
{BLKREFS
331
5DC
102
}
  0
BLOCK_RECORD
  5
12A
330
1
100
AcDbSymbolTableRecord
100
AcDbBlockTableRecord
  2
DC_GROUP_COM125_42
340
0
102
{BLKREFS
331
5DD
102
}
  0
BLOCK_RECORD
  5
12D
330
1
100
AcDbSymbolTableRecord
100
AcDbBlockTableRecord
  2
DA_IMAGEDIMGROUP_1
340
0
102
{BLKREFS
331
61C
102
}
  0
BLOCK_RECORD
  5
130
330
1
100
AcDbSymbolTableRecord
100
AcDbBlockTableRecord
  2
*D63
340
0
  0
BLOCK_RECORD
  5
133
330
1
100
AcDbSymbolTableRecord
100
AcDbBlockTableRecord
  2
*D64
340
0
  0
BLOCK_RECORD
  5
136
330
1
100
AcDbSymbolTableRecord
100
AcDbBlockTableRecord
  2
*D65
340
0
  0
BLOCK_RECORD
  5
139
330
1
100
AcDbSymbolTableRecord
100
AcDbBlockTableRecord
  2
*D66
340
0
  0
BLOCK_RECORD
  5
13C
330
1
100
AcDbSymbolTableRecord
100
AcDbBlockTableRecord
  2
*D67
340
0
  0
BLOCK_RECORD
  5
13F
330
1
100
AcDbSymbolTableRecord
100
AcDbBlockTableRecord
  2
*D68
340
0
  0
BLOCK_RECORD
  5
142
330
1
100
AcDbSymbolTableRecord
100
AcDbBlockTableRecord
  2
*D69
340
0
  0
BLOCK_RECORD
  5
145
330
1
100
AcDbSymbolTableRecord
100
AcDbBlockTableRecord
  2
*D70
340
0
  0
BLOCK_RECORD
  5
148
330
1
100
AcDbSymbolTableRecord
100
AcDbBlockTableRecord
  2
DC_GROUP_COM125_43
340
0
102
{BLKREFS
331
5F8
102
}
  0
BLOCK_RECORD
  5
14B
330
1
100
AcDbSymbolTableRecord
100
AcDbBlockTableRecord
  2
DC_GROUP_COM125_44
340
0
102
{BLKREFS
331
5F9
102
}
  0
BLOCK_RECORD
  5
14E
330
1
100
AcDbSymbolTableRecord
100
AcDbBlockTableRecord
  2
DC_GROUP_COM125_45
340
0
102
{BLKREFS
331
5FA
102
}
  0
BLOCK_RECORD
  5
151
330
1
100
AcDbSymbolTableRecord
100
AcDbBlockTableRecord
  2
DC_GROUP_COM125_46
340
0
102
{BLKREFS
331
5FB
102
}
  0
BLOCK_RECORD
  5
154
330
1
100
AcDbSymbolTableRecord
100
AcDbBlockTableRecord
  2
DC_GROUP_COM125_47
340
0
102
{BLKREFS
331
5FC
102
}
  0
BLOCK_RECORD
  5
157
330
1
100
AcDbSymbolTableRecord
100
AcDbBlockTableRecord
  2
DC_GROUP_COM125_48
340
0
102
{BLKREFS
331
5FD
102
}
  0
BLOCK_RECORD
  5
15A
330
1
100
AcDbSymbolTableRecord
100
AcDbBlockTableRecord
  2
DC_GROUP_COM125_49
340
0
102
{BLKREFS
331
5FE
102
}
  0
BLOCK_RECORD
  5
15D
330
1
100
AcDbSymbolTableRecord
100
AcDbBlockTableRecord
  2
DC_GROUP_COM125_50
340
0
102
{BLKREFS
331
5FF
102
}
  0
BLOCK_RECORD
  5
160
330
1
100
AcDbSymbolTableRecord
100
AcDbBlockTableRecord
  2
DC_GROUP_COM125_51
340
0
102
{BLKREFS
331
50A
102
}
  0
BLOCK_RECORD
  5
163
330
1
100
AcDbSymbolTableRecord
100
AcDbBlockTableRecord
  2
DC_GROUP_COM125_52
340
0
102
{BLKREFS
331
600
102
}
  0
BLOCK_RECORD
  5
166
330
1
100
AcDbSymbolTableRecord
100
AcDbBlockTableRecord
  2
DC_GROUP_COM125_53
340
0
102
{BLKREFS
331
601
102
}
  0
BLOCK_RECORD
  5
169
330
1
100
AcDbSymbolTableRecord
100
AcDbBlockTableRecord
  2
DC_GROUP_COM125_54
340
0
102
{BLKREFS
331
602
102
}
  0
BLOCK_RECORD
  5
16C
330
1
100
AcDbSymbolTableRecord
100
AcDbBlockTableRecord
  2
DC_GROUP_COM125_55
340
0
102
{BLKREFS
331
603
102
}
  0
BLOCK_RECORD
  5
16F
330
1
100
AcDbSymbolTableRecord
100
AcDbBlockTableRecord
  2
DC_GROUP_COM125_56
340
0
102
{BLKREFS
331
604
102
}
  0
BLOCK_RECORD
  5
172
330
1
100
AcDbSymbolTableRecord
100
AcDbBlockTableRecord
  2
DC_GROUP_COM125_57
340
0
102
{BLKREFS
331
605
102
}
  0
BLOCK_RECORD
  5
175
330
1
100
AcDbSymbolTableRecord
100
AcDbBlockTableRecord
  2
DC_GROUP_COM125_58
340
0
102
{BLKREFS
331
606
102
}
  0
BLOCK_RECORD
  5
178
330
1
100
AcDbSymbolTableRecord
100
AcDbBlockTableRecord
  2
*D87
340
0
  0
BLOCK_RECORD
  5
17B
330
1
100
AcDbSymbolTableRecord
100
AcDbBlockTableRecord
  2
*D88
340
0
  0
BLOCK_RECORD
  5
17E
330
1
100
AcDbSymbolTableRecord
100
AcDbBlockTableRecord
  2
*D89
340
0
  0
BLOCK_RECORD
  5
181
330
1
100
AcDbSymbolTableRecord
100
AcDbBlockTableRecord
  2
DA_IMAGEDIMGROUP_2
340
0
102
{BLKREFS
331
628
102
}
  0
BLOCK_RECORD
  5
184
330
1
100
AcDbSymbolTableRecord
100
AcDbBlockTableRecord
  2
DA_IMAGEDIMGROUP_3
340
0
102
{BLKREFS
331
629
102
}
  0
BLOCK_RECORD
  5
187
330
1
100
AcDbSymbolTableRecord
100
AcDbBlockTableRecord
  2
*D92
340
0
  0
BLOCK_RECORD
  5
18A
330
1
100
AcDbSymbolTableRecord
100
AcDbBlockTableRecord
  2
*D93
340
0
  0
BLOCK_RECORD
  5
18D
330
1
100
AcDbSymbolTableRecord
100
AcDbBlockTableRecord
  2
DC_GROUP_COM125_59
340
0
102
{BLKREFS
331
62D
102
}
  0
BLOCK_RECORD
  5
190
330
1
100
AcDbSymbolTableRecord
100
AcDbBlockTableRecord
  2
DC_GROUP_COM125_60
340
0
102
{BLKREFS
331
607
102
}
  0
BLOCK_RECORD
  5
193
330
1
100
AcDbSymbolTableRecord
100
AcDbBlockTableRecord
  2
DC_GROUP_COM125_61
340
0
102
{BLKREFS
331
62C
102
}
  0
BLOCK_RECORD
  5
196
330
1
100
AcDbSymbolTableRecord
100
AcDbBlockTableRecord
  2
DC_GROUP_COM125_62
340
0
102
{BLKREFS
331
62E
102
}
  0
BLOCK_RECORD
  5
199
330
1
100
AcDbSymbolTableRecord
100
AcDbBlockTableRecord
  2
DC_GROUP_COM125_63
340
0
102
{BLKREFS
331
630
102
}
  0
BLOCK_RECORD
  5
19C
330
1
100
AcDbSymbolTableRecord
100
AcDbBlockTableRecord
  2
DC_GROUP_COM125_64
340
0
102
{BLKREFS
331
631
102
}
  0
BLOCK_RECORD
  5
19F
330
1
100
AcDbSymbolTableRecord
100
AcDbBlockTableRecord
  2
DC_GROUP_COM125_65
340
0
102
{BLKREFS
331
632
102
}
  0
BLOCK_RECORD
  5
1A2
330
1
100
AcDbSymbolTableRecord
100
AcDbBlockTableRecord
  2
DC_GROUP_COM125_66
340
0
102
{BLKREFS
331
62F
102
}
  0
BLOCK_RECORD
  5
1A5
330
1
100
AcDbSymbolTableRecord
100
AcDbBlockTableRecord
  2
DC_GROUP_COM125_67
340
0
102
{BLKREFS
331
633
102
}
  0
BLOCK_RECORD
  5
1A8
330
1
100
AcDbSymbolTableRecord
100
AcDbBlockTableRecord
  2
DC_GROUP_COM125_68
340
0
102
{BLKREFS
331
634
102
}
  0
BLOCK_RECORD
  5
3EA
330
1
100
AcDbSymbolTableRecord
100
AcDbBlockTableRecord
  2
_OPEN30
340
0
102
{BLKREFS
331
3F0
331
3F1
331
3F7
331
3F8
331
41F
331
420
331
425
331
426
331
42B
331
42C
331
431
331
432
331
437
331
438
331
43D
331
43E
331
443
331
444
331
449
331
44A
331
44F
331
450
331
455
331
456
331
45B
331
45C
331
461
331
462
331
467
331
468
331
46D
331
46E
331
473
331
474
331
479
331
47A
331
47F
331
480
331
49C
331
49E
331
4A1
331
4A2
331
4A7
331
4A8
331
4AD
331
4AE
331
4B3
331
4B4
331
4B9
331
4BA
331
4BF
331
4C0
331
4C5
331
4C6
331
4CB
331
4CC
331
550
331
551
331
556
331
557
331
55C
331
55D
331
564
331
566
331
56B
331
56D
331
570
331
571
331
576
331
577
331
5B8
331
5C0
102
}
  0
ENDTAB
  0
ENDSEC
  0
SECTION
  2
BLOCKS
  0
BLOCK
  5
20
330
1F
100
AcDbEntity
  8
0
100
AcDbBlockBegin
  2
*Model_Space
 70
     0
 10
0.0
 20
0.0
 30
0.0
  3
*Model_Space
  1

  0
ENDBLK
  5
21
330
1F
100
AcDbEntity
  8
0
100
AcDbBlockEnd
  0
BLOCK
  5
1C
330
1B
100
AcDbEntity
 67
     1
  8
0
100
AcDbBlockBegin
  2
*Paper_Space
 70
     0
 10
0.0
 20
0.0
 30
0.0
  3
*Paper_Space
  1

  0
ENDBLK
  5
1D
330
1B
100
AcDbEntity
 67
     1
  8
0
100
AcDbBlockEnd
  0
BLOCK
  5
24
330
23
100
AcDbEntity
  8
0
100
AcDbBlockBegin
  2
*Paper_Space0
 70
     0
 10
0.0
 20
0.0
 30
0.0
  3
*Paper_Space0
  1

  0
ENDBLK
  5
25
330
23
100
AcDbEntity
  8
0
100
AcDbBlockEnd
  0
BLOCK
  5
77
330
76
100
AcDbEntity
  8
0
100
AcDbBlockBegin
  2
DC_GROUP_COM125_1
 70
     0
 10
0.0
 20
0.0
 30
0.0
  3
DC_GROUP_COM125_1
  1

  0
LINE
  5
1AB
330
76
100
AcDbEntity
  8
Layer0001
  6
Continuous
 62
    56
370
    18
100
AcDbLine
 10
-458.1493397770448
 20
156.8202911454411
 30
0.0
 11
-459.1493397770448
 21
157.8202911454411
 31
0.0
  0
LINE
  5
1AC
330
76
100
AcDbEntity
  8
Layer0001
  6
Continuous
 62
    56
370
    18
100
AcDbLine
 10
-417.1493397770446
 20
156.8202911454411
 30
0.0
 11
-458.1493397770448
 21
156.8202911454411
 31
0.0
  0
LINE
  5
1AD
330
76
100
AcDbEntity
  8
Layer0001
  6
Continuous
 62
    56
370
    18
100
AcDbLine
 10
-458.1493397770448
 20
206.8202911454412
 30
0.0
 11
-459.1493397770448
 21
205.8202911454412
 31
0.0
  0
LINE
  5
1AE
330
76
100
AcDbEntity
  8
Layer0001
  6
Continuous
 62
    56
370
    18
100
AcDbLine
 10
-459.1493397770448
 20
157.8202911454411
 30
0.0
 11
-459.1493397770448
 21
205.8202911454412
 31
0.0
  0
LINE
  5
1AF
330
76
100
AcDbEntity
  8
Layer0001
  6
Continuous
 62
    56
370
    18
100
AcDbLine
 10
-417.1493397770448
 20
206.8202911454412
 30
0.0
 11
-458.1493397770448
 21
206.8202911454412
 31
0.0
  0
CIRCLE
  5
1B0
330
76
100
AcDbEntity
  8
Layer0001
  6
Continuous
 62
    56
370
    18
100
AcDbCircle
 10
-433.1493397770448
 20
181.8202911454414
 30
0.0
 40
9.5
  0
CIRCLE
  5
1B1
330
76
100
AcDbEntity
  8
Layer0001
  6
Continuous
 62
    56
370
    18
100
AcDbCircle
 10
-433.1493397770448
 20
181.8202911454414
 30
0.0
 40
14.5
  0
LINE
  5
1B2
330
76
100
AcDbEntity
  8
Layer0001
  6
Continuous
 62
    56
370
    18
100
AcDbLine
 10
-407.1493397770448
 20
166.8202911454412
 30
0.0
 11
-417.1493397770446
 21
156.8202911454411
 31
0.0
  0
LINE
  5
1B3
330
76
100
AcDbEntity
  8
Layer0001
  6
Continuous
 62
    56
370
    18
100
AcDbLine
 10
-407.1493397770448
 20
166.8202911454412
 30
0.0
 11
-407.1493397770448
 21
196.8202911454412
 31
0.0
  0
LINE
  5
1B4
330
76
100
AcDbEntity
  8
Layer0001
  6
Continuous
 62
    56
370
    18
100
AcDbLine
 10
-407.1493397770448
 20
196.8202911454412
 30
0.0
 11
-417.1493397770448
 21
206.8202911454412
 31
0.0
  0
LINE
  5
1B5
330
76
100
AcDbEntity
  8
Layer0001
  6
CENTER
 62
    56
370
    25
100
AcDbLine
 10
-433.1493397770448
 20
206.8202911454412
 30
0.0
 11
-433.1493397770448
 21
156.8202911454411
 31
0.0
  0
LINE
  5
1B6
330
76
100
AcDbEntity
  8
Layer0001
  6
CENTER
 62
    56
370
    25
100
AcDbLine
 10
-407.1493397770448
 20
181.8202911454414
 30
0.0
 11
-459.1493397770448
 21
181.8202911454414
 31
0.0
  0
ENDBLK
  5
78
330
76
100
AcDbEntity
  8
0
100
AcDbBlockEnd
  0
BLOCK
  5
7A
330
79
100
AcDbEntity
  8
0
100
AcDbBlockBegin
  2
DC_GROUP_COM125_2
 70
     0
 10
0.0
 20
0.0
 30
0.0
  3
DC_GROUP_COM125_2
  1

  0
LINE
  5
1B7
330
79
100
AcDbEntity
  8
Layer0001
  6
Continuous
 62
    56
370
    18
100
AcDbLine
 10
-178.1493397770445
 20
156.8202911454411
 30
0.0
 11
-177.1493397770445
 21
157.8202911454411
 31
0.0
  0
LINE
  5
1B8
330
79
100
AcDbEntity
  8
Layer0001
  6
Continuous
 62
    56
370
    18
100
AcDbLine
 10
-219.1493397770446
 20
156.8202911454411
 30
0.0
 11
-178.1493397770445
 21
156.8202911454411
 31
0.0
  0
LINE
  5
1B9
330
79
100
AcDbEntity
  8
Layer0001
  6
Continuous
 62
    56
370
    18
100
AcDbLine
 10
-178.1493397770445
 20
206.8202911454412
 30
0.0
 11
-177.1493397770445
 21
205.8202911454412
 31
0.0
  0
LINE
  5
1BA
330
79
100
AcDbEntity
  8
Layer0001
  6
Continuous
 62
    56
370
    18
100
AcDbLine
 10
-177.1493397770445
 20
157.8202911454411
 30
0.0
 11
-177.1493397770445
 21
205.8202911454412
 31
0.0
  0
LINE
  5
1BB
330
79
100
AcDbEntity
  8
Layer0001
  6
Continuous
 62
    56
370
    18
100
AcDbLine
 10
-219.1493397770445
 20
206.8202911454412
 30
0.0
 11
-178.1493397770445
 21
206.8202911454412
 31
0.0
  0
CIRCLE
  5
1BC
330
79
100
AcDbEntity
  8
Layer0001
  6
Continuous
 62
    56
370
    18
100
AcDbCircle
 10
-203.1493397770445
 20
181.8202911454414
 30
0.0
 40
9.5
  0
CIRCLE
  5
1BD
330
79
100
AcDbEntity
  8
Layer0001
  6
Continuous
 62
    56
370
    18
100
AcDbCircle
 10
-203.1493397770445
 20
181.8202911454414
 30
0.0
 40
14.5
  0
LINE
  5
1BE
330
79
100
AcDbEntity
  8
Layer0001
  6
Continuous
 62
    56
370
    18
100
AcDbLine
 10
-229.1493397770445
 20
166.8202911454412
 30
0.0
 11
-219.1493397770446
 21
156.8202911454411
 31
0.0
  0
LINE
  5
1BF
330
79
100
AcDbEntity
  8
Layer0001
  6
Continuous
 62
    56
370
    18
100
AcDbLine
 10
-229.1493397770445
 20
166.8202911454412
 30
0.0
 11
-229.1493397770445
 21
196.8202911454412
 31
0.0
  0
LINE
  5
1C0
330
79
100
AcDbEntity
  8
Layer0001
  6
Continuous
 62
    56
370
    18
100
AcDbLine
 10
-229.1493397770445
 20
196.8202911454412
 30
0.0
 11
-219.1493397770445
 21
206.8202911454412
 31
0.0
  0
LINE
  5
1C1
330
79
100
AcDbEntity
  8
Layer0001
  6
CENTER
 62
    56
370
    25
100
AcDbLine
 10
-203.1493397770445
 20
206.8202911454412
 30
0.0
 11
-203.1493397770445
 21
156.8202911454411
 31
0.0
  0
LINE
  5
1C2
330
79
100
AcDbEntity
  8
Layer0001
  6
CENTER
 62
    56
370
    25
100
AcDbLine
 10
-229.1493397770445
 20
181.8202911454414
 30
0.0
 11
-177.1493397770445
 21
181.8202911454414
 31
0.0
  0
ENDBLK
  5
7B
330
79
100
AcDbEntity
  8
0
100
AcDbBlockEnd
  0
BLOCK
  5
7D
330
7C
100
AcDbEntity
  8
0
100
AcDbBlockBegin
  2
DC_GROUP_COM125_3
 70
     0
 10
0.0
 20
0.0
 30
0.0
  3
DC_GROUP_COM125_3
  1

  0
LINE
  5
1C3
330
7C
100
AcDbEntity
  8
Layer0001
  6
Continuous
 62
    56
370
    25
100
AcDbLine
 10
-343.1493397770449
 20
289.3202911454414
 30
0.0
 11
-342.1493397770449
 21
290.3202911454414
 31
0.0
  0
LINE
  5
1C4
330
7C
100
AcDbEntity
  8
Layer0001
  6
Continuous
 62
    56
370
    25
100
AcDbLine
 10
-343.1493397770449
 20
248.3202911454414
 30
0.0
 11
-343.1493397770449
 21
289.3202911454414
 31
0.0
  0
LINE
  5
1C5
330
7C
100
AcDbEntity
  8
Layer0001
  6
Continuous
 62
    56
370
    25
100
AcDbLine
 10
-293.1493397770449
 20
289.3202911454414
 30
0.0
 11
-294.1493397770449
 21
290.3202911454414
 31
0.0
  0
LINE
  5
1C6
330
7C
100
AcDbEntity
  8
Layer0001
  6
Continuous
 62
    56
370
    25
100
AcDbLine
 10
-342.1493397770449
 20
290.3202911454414
 30
0.0
 11
-294.1493397770449
 21
290.3202911454414
 31
0.0
  0
LINE
  5
1C7
330
7C
100
AcDbEntity
  8
Layer0001
  6
Continuous
 62
    56
370
    25
100
AcDbLine
 10
-293.1493397770449
 20
248.3202911454416
 30
0.0
 11
-293.1493397770449
 21
289.3202911454414
 31
0.0
  0
CIRCLE
  5
1C8
330
7C
100
AcDbEntity
  8
Layer0001
  6
Continuous
 62
    56
370
    25
100
AcDbCircle
 10
-318.1493397770446
 20
264.3202911454415
 30
0.0
 40
9.5
  0
CIRCLE
  5
1C9
330
7C
100
AcDbEntity
  8
Layer0001
  6
Continuous
 62
    56
370
    25
100
AcDbCircle
 10
-318.1493397770446
 20
264.3202911454415
 30
0.0
 40
14.5
  0
LINE
  5
1CA
330
7C
100
AcDbEntity
  8
Layer0001
  6
Continuous
 62
    56
370
    25
100
AcDbLine
 10
-333.1493397770449
 20
238.3202911454415
 30
0.0
 11
-343.1493397770449
 21
248.3202911454414
 31
0.0
  0
LINE
  5
1CB
330
7C
100
AcDbEntity
  8
Layer0001
  6
Continuous
 62
    56
370
    25
100
AcDbLine
 10
-333.1493397770449
 20
238.3202911454415
 30
0.0
 11
-303.1493397770449
 21
238.3202911454415
 31
0.0
  0
LINE
  5
1CC
330
7C
100
AcDbEntity
  8
Layer0001
  6
Continuous
 62
    56
370
    25
100
AcDbLine
 10
-303.1493397770449
 20
238.3202911454415
 30
0.0
 11
-293.1493397770449
 21
248.3202911454416
 31
0.0
  0
LINE
  5
1CD
330
7C
100
AcDbEntity
  8
Layer0001
  6
CENTER
 62
    56
370
    25
100
AcDbLine
 10
-293.1493397770449
 20
264.3202911454415
 30
0.0
 11
-343.1493397770449
 21
264.3202911454415
 31
0.0
  0
LINE
  5
1CE
330
7C
100
AcDbEntity
  8
Layer0001
  6
CENTER
 62
    56
370
    25
100
AcDbLine
 10
-318.1493397770446
 20
238.3202911454415
 30
0.0
 11
-318.1493397770446
 21
290.3202911454414
 31
0.0
  0
ENDBLK
  5
7E
330
7C
100
AcDbEntity
  8
0
100
AcDbBlockEnd
  0
BLOCK
  5
80
330
7F
100
AcDbEntity
  8
0
100
AcDbBlockBegin
  2
DC_GROUP_COM125_4
 70
     0
 10
0.0
 20
0.0
 30
0.0
  3
DC_GROUP_COM125_4
  1

  0
LINE
  5
1CF
330
7F
100
AcDbEntity
  8
Layer0001
  6
Continuous
 62
    56
370
    25
100
AcDbLine
 10
-333.1493397770449
 20
125.3202911454413
 30
0.0
 11
-343.1493397770449
 21
115.3202911454414
 31
0.0
  0
LINE
  5
1D0
330
7F
100
AcDbEntity
  8
Layer0001
  6
Continuous
 62
    56
370
    25
100
AcDbLine
 10
-333.1493397770449
 20
125.3202911454413
 30
0.0
 11
-303.1493397770449
 21
125.3202911454413
 31
0.0
  0
LINE
  5
1D1
330
7F
100
AcDbEntity
  8
Layer0001
  6
Continuous
 62
    56
370
    25
100
AcDbLine
 10
-303.1493397770449
 20
125.3202911454413
 30
0.0
 11
-293.1493397770449
 21
115.3202911454412
 31
0.0
  0
LINE
  5
1D2
330
7F
100
AcDbEntity
  8
Layer0001
  6
Continuous
 62
    56
370
    25
100
AcDbLine
 10
-343.1493397770449
 20
74.32029114544127
 30
0.0
 11
-342.1493397770449
 21
73.3202911454413
 31
0.0
  0
LINE
  5
1D3
330
7F
100
AcDbEntity
  8
Layer0001
  6
Continuous
 62
    56
370
    25
100
AcDbLine
 10
-343.1493397770449
 20
115.3202911454414
 30
0.0
 11
-343.1493397770449
 21
74.32029114544127
 31
0.0
  0
LINE
  5
1D4
330
7F
100
AcDbEntity
  8
Layer0001
  6
Continuous
 62
    56
370
    25
100
AcDbLine
 10
-293.1493397770449
 20
74.3202911454413
 30
0.0
 11
-294.1493397770449
 21
73.3202911454413
 31
0.0
  0
LINE
  5
1D5
330
7F
100
AcDbEntity
  8
Layer0001
  6
Continuous
 62
    56
370
    25
100
AcDbLine
 10
-342.1493397770449
 20
73.3202911454413
 30
0.0
 11
-294.1493397770449
 21
73.3202911454413
 31
0.0
  0
LINE
  5
1D6
330
7F
100
AcDbEntity
  8
Layer0001
  6
Continuous
 62
    56
370
    25
100
AcDbLine
 10
-293.1493397770449
 20
115.3202911454412
 30
0.0
 11
-293.1493397770449
 21
74.3202911454413
 31
0.0
  0
CIRCLE
  5
1D7
330
7F
100
AcDbEntity
  8
Layer0001
  6
Continuous
 62
    56
370
    25
100
AcDbCircle
 10
-318.1493397770446
 20
99.3202911454413
 30
0.0
 40
9.5
  0
CIRCLE
  5
1D8
330
7F
100
AcDbEntity
  8
Layer0001
  6
Continuous
 62
    56
370
    25
100
AcDbCircle
 10
-318.1493397770446
 20
99.3202911454413
 30
0.0
 40
14.5
  0
LINE
  5
1D9
330
7F
100
AcDbEntity
  8
Layer0001
  6
CENTER
 62
    56
370
    25
100
AcDbLine
 10
-293.1493397770449
 20
99.3202911454413
 30
0.0
 11
-343.1493397770449
 21
99.3202911454413
 31
0.0
  0
LINE
  5
1DA
330
7F
100
AcDbEntity
  8
Layer0001
  6
CENTER
 62
    56
370
    25
100
AcDbLine
 10
-318.1493397770446
 20
125.3202911454413
 30
0.0
 11
-318.1493397770446
 21
73.3202911454413
 31
0.0
  0
ENDBLK
  5
81
330
7F
100
AcDbEntity
  8
0
100
AcDbBlockEnd
  0
BLOCK
  5
83
330
82
100
AcDbEntity
  8
0
100
AcDbBlockBegin
  2
DC_GROUP_COM125_5
 70
     0
 10
0.0
 20
0.0
 30
0.0
  3
DC_GROUP_COM125_5
  1

  0
LINE
  5
1DB
330
82
100
AcDbEntity
  8
Layer0001
  6
Continuous
 62
    56
370
    18
100
AcDbLine
 10
-40.17363001965936
 20
156.8202911454411
 30
0.0
 11
-41.17363001965936
 21
157.8202911454411
 31
0.0
  0
LINE
  5
1DC
330
82
100
AcDbEntity
  8
Layer0001
  6
Continuous
 62
    56
370
    18
100
AcDbLine
 10
0.8263699803407576
 20
156.8202911454411
 30
0.0
 11
-40.17363001965936
 21
156.8202911454411
 31
0.0
  0
LINE
  5
1DD
330
82
100
AcDbEntity
  8
Layer0001
  6
Continuous
 62
    56
370
    18
100
AcDbLine
 10
-40.17363001965936
 20
206.8202911454412
 30
0.0
 11
-41.17363001965936
 21
205.8202911454412
 31
0.0
  0
LINE
  5
1DE
330
82
100
AcDbEntity
  8
Layer0001
  6
Continuous
 62
    56
370
    18
100
AcDbLine
 10
-41.17363001965936
 20
157.8202911454411
 30
0.0
 11
-41.17363001965936
 21
205.8202911454412
 31
0.0
  0
LINE
  5
1DF
330
82
100
AcDbEntity
  8
Layer0001
  6
Continuous
 62
    56
370
    18
100
AcDbLine
 10
0.8263699803405871
 20
206.8202911454412
 30
0.0
 11
-40.17363001965936
 21
206.8202911454412
 31
0.0
  0
CIRCLE
  5
1E0
330
82
100
AcDbEntity
  8
Layer0001
  6
Continuous
 62
    56
370
    18
100
AcDbCircle
 10
-15.17363001965936
 20
181.8202911454414
 30
0.0
 40
9.5
  0
CIRCLE
  5
1E1
330
82
100
AcDbEntity
  8
Layer0001
  6
Continuous
 62
    56
370
    18
100
AcDbCircle
 10
-15.17363001965936
 20
181.8202911454414
 30
0.0
 40
14.5
  0
LINE
  5
1E2
330
82
100
AcDbEntity
  8
Layer0001
  6
Continuous
 62
    56
370
    18
100
AcDbLine
 10
10.82636998034064
 20
166.8202911454412
 30
0.0
 11
10.82636998034064
 21
196.8202911454412
 31
0.0
  0
LINE
  5
1E3
330
82
100
AcDbEntity
  8
Layer0001
  6
Continuous
 62
    56
370
    18
100
AcDbLine
 10
10.82636998034064
 20
166.8202911454412
 30
0.0
 11
0.8263699803407576
 21
156.8202911454411
 31
0.0
  0
LINE
  5
1E4
330
82
100
AcDbEntity
  8
Layer0001
  6
Continuous
 62
    56
370
    18
100
AcDbLine
 10
10.82636998034064
 20
196.8202911454412
 30
0.0
 11
0.8263699803405871
 21
206.8202911454412
 31
0.0
  0
LINE
  5
1E5
330
82
100
AcDbEntity
  8
Layer0001
  6
CENTER
 62
    56
370
    25
100
AcDbLine
 10
-15.17363001965936
 20
206.8202911454412
 30
0.0
 11
-15.17363001965936
 21
156.8202911454411
 31
0.0
  0
LINE
  5
1E6
330
82
100
AcDbEntity
  8
Layer0001
  6
CENTER
 62
    56
370
    25
100
AcDbLine
 10
10.82636998034064
 20
181.8202911454414
 30
0.0
 11
-41.17363001965936
 21
181.8202911454414
 31
0.0
  0
ENDBLK
  5
84
330
82
100
AcDbEntity
  8
0
100
AcDbBlockEnd
  0
BLOCK
  5
86
330
85
100
AcDbEntity
  8
0
100
AcDbBlockBegin
  2
DC_GROUP_COM125_6
 70
     0
 10
0.0
 20
0.0
 30
0.0
  3
DC_GROUP_COM125_6
  1

  0
LINE
  5
1E7
330
85
100
AcDbEntity
  8
Layer0001
  6
Continuous
 62
    56
370
    25
100
AcDbLine
 10
99.82636998034053
 20
238.3202911454414
 30
0.0
 11
89.82636998034042
 21
248.3202911454413
 31
0.0
  0
LINE
  5
1E8
330
85
100
AcDbEntity
  8
Layer0001
  6
Continuous
 62
    56
370
    25
100
AcDbLine
 10
99.82636998034053
 20
238.3202911454414
 30
0.0
 11
129.8263699803405
 21
238.3202911454414
 31
0.0
  0
LINE
  5
1E9
330
85
100
AcDbEntity
  8
Layer0001
  6
Continuous
 62
    56
370
    25
100
AcDbLine
 10
129.8263699803405
 20
238.3202911454414
 30
0.0
 11
139.8263699803405
 21
248.3202911454415
 31
0.0
  0
LINE
  5
1EA
330
85
100
AcDbEntity
  8
Layer0001
  6
Continuous
 62
    56
370
    25
100
AcDbLine
 10
89.82636998034042
 20
289.3202911454414
 30
0.0
 11
90.82636998034042
 21
290.3202911454414
 31
0.0
  0
LINE
  5
1EB
330
85
100
AcDbEntity
  8
Layer0001
  6
Continuous
 62
    56
370
    25
100
AcDbLine
 10
89.82636998034042
 20
248.3202911454413
 30
0.0
 11
89.82636998034042
 21
289.3202911454414
 31
0.0
  0
LINE
  5
1EC
330
85
100
AcDbEntity
  8
Layer0001
  6
Continuous
 62
    56
370
    25
100
AcDbLine
 10
139.8263699803405
 20
289.3202911454414
 30
0.0
 11
138.8263699803405
 21
290.3202911454414
 31
0.0
  0
LINE
  5
1ED
330
85
100
AcDbEntity
  8
Layer0001
  6
Continuous
 62
    56
370
    25
100
AcDbLine
 10
90.82636998034042
 20
290.3202911454414
 30
0.0
 11
138.8263699803405
 21
290.3202911454414
 31
0.0
  0
LINE
  5
1EE
330
85
100
AcDbEntity
  8
Layer0001
  6
Continuous
 62
    56
370
    25
100
AcDbLine
 10
139.8263699803405
 20
248.3202911454415
 30
0.0
 11
139.8263699803405
 21
289.3202911454414
 31
0.0
  0
CIRCLE
  5
1EF
330
85
100
AcDbEntity
  8
Layer0001
  6
Continuous
 62
    56
370
    25
100
AcDbCircle
 10
114.8263699803408
 20
264.3202911454415
 30
0.0
 40
9.5
  0
CIRCLE
  5
1F0
330
85
100
AcDbEntity
  8
Layer0001
  6
Continuous
 62
    56
370
    25
100
AcDbCircle
 10
114.8263699803408
 20
264.3202911454415
 30
0.0
 40
14.5
  0
LINE
  5
1F1
330
85
100
AcDbEntity
  8
Layer0001
  6
CENTER
 62
    56
370
    25
100
AcDbLine
 10
139.8263699803405
 20
264.3202911454415
 30
0.0
 11
89.82636998034042
 21
264.3202911454415
 31
0.0
  0
LINE
  5
1F2
330
85
100
AcDbEntity
  8
Layer0001
  6
CENTER
 62
    56
370
    25
100
AcDbLine
 10
114.8263699803408
 20
238.3202911454414
 30
0.0
 11
114.8263699803408
 21
290.3202911454414
 31
0.0
  0
ENDBLK
  5
87
330
85
100
AcDbEntity
  8
0
100
AcDbBlockEnd
  0
BLOCK
  5
89
330
88
100
AcDbEntity
  8
0
100
AcDbBlockBegin
  2
DC_GROUP_COM125_7
 70
     0
 10
0.0
 20
0.0
 30
0.0
  3
DC_GROUP_COM125_7
  1

  0
LINE
  5
1F3
330
88
100
AcDbEntity
  8
Layer0001
  6
Continuous
 62
    56
370
    25
100
AcDbLine
 10
99.82636998034053
 20
125.3202911454413
 30
0.0
 11
89.82636998034042
 21
115.3202911454414
 31
0.0
  0
LINE
  5
1F4
330
88
100
AcDbEntity
  8
Layer0001
  6
Continuous
 62
    56
370
    25
100
AcDbLine
 10
99.82636998034053
 20
125.3202911454413
 30
0.0
 11
129.8263699803405
 21
125.3202911454413
 31
0.0
  0
LINE
  5
1F5
330
88
100
AcDbEntity
  8
Layer0001
  6
Continuous
 62
    56
370
    25
100
AcDbLine
 10
129.8263699803405
 20
125.3202911454413
 30
0.0
 11
139.8263699803405
 21
115.3202911454413
 31
0.0
  0
LINE
  5
1F6
330
88
100
AcDbEntity
  8
Layer0001
  6
Continuous
 62
    56
370
    25
100
AcDbLine
 10
89.82636998034042
 20
74.3202911454413
 30
0.0
 11
90.82636998034042
 21
73.32029114544133
 31
0.0
  0
LINE
  5
1F7
330
88
100
AcDbEntity
  8
Layer0001
  6
Continuous
 62
    56
370
    25
100
AcDbLine
 10
89.82636998034042
 20
115.3202911454414
 30
0.0
 11
89.82636998034042
 21
74.3202911454413
 31
0.0
  0
LINE
  5
1F8
330
88
100
AcDbEntity
  8
Layer0001
  6
Continuous
 62
    56
370
    25
100
AcDbLine
 10
139.8263699803405
 20
74.32029114544133
 30
0.0
 11
138.8263699803405
 21
73.32029114544133
 31
0.0
  0
LINE
  5
1F9
330
88
100
AcDbEntity
  8
Layer0001
  6
Continuous
 62
    56
370
    25
100
AcDbLine
 10
90.82636998034042
 20
73.32029114544133
 30
0.0
 11
138.8263699803405
 21
73.32029114544133
 31
0.0
  0
LINE
  5
1FA
330
88
100
AcDbEntity
  8
Layer0001
  6
Continuous
 62
    56
370
    25
100
AcDbLine
 10
139.8263699803405
 20
115.3202911454413
 30
0.0
 11
139.8263699803405
 21
74.32029114544133
 31
0.0
  0
CIRCLE
  5
1FB
330
88
100
AcDbEntity
  8
Layer0001
  6
Continuous
 62
    56
370
    25
100
AcDbCircle
 10
114.8263699803408
 20
99.32029114544133
 30
0.0
 40
9.5
  0
CIRCLE
  5
1FC
330
88
100
AcDbEntity
  8
Layer0001
  6
Continuous
 62
    56
370
    25
100
AcDbCircle
 10
114.8263699803408
 20
99.32029114544133
 30
0.0
 40
14.5
  0
LINE
  5
1FD
330
88
100
AcDbEntity
  8
Layer0001
  6
CENTER
 62
    56
370
    25
100
AcDbLine
 10
139.8263699803405
 20
99.32029114544133
 30
0.0
 11
89.82636998034042
 21
99.32029114544133
 31
0.0
  0
LINE
  5
1FE
330
88
100
AcDbEntity
  8
Layer0001
  6
CENTER
 62
    56
370
    25
100
AcDbLine
 10
114.8263699803408
 20
125.3202911454413
 30
0.0
 11
114.8263699803408
 21
73.32029114544133
 31
0.0
  0
ENDBLK
  5
8A
330
88
100
AcDbEntity
  8
0
100
AcDbBlockEnd
  0
BLOCK
  5
8C
330
8B
100
AcDbEntity
  8
0
100
AcDbBlockBegin
  2
DC_GROUP_COM125_8
 70
     0
 10
0.0
 20
0.0
 30
0.0
  3
DC_GROUP_COM125_8
  1

  0
LINE
  5
1FF
330
8B
100
AcDbEntity
  8
Layer0001
  6
Continuous
 62
    56
370
    18
100
AcDbLine
 10
269.8263699803408
 20
156.8202911454411
 30
0.0
 11
270.8263699803408
 21
157.8202911454411
 31
0.0
  0
LINE
  5
200
330
8B
100
AcDbEntity
  8
Layer0001
  6
Continuous
 62
    56
370
    18
100
AcDbLine
 10
228.8263699803407
 20
156.8202911454411
 30
0.0
 11
269.8263699803408
 21
156.8202911454411
 31
0.0
  0
LINE
  5
201
330
8B
100
AcDbEntity
  8
Layer0001
  6
Continuous
 62
    56
370
    18
100
AcDbLine
 10
269.8263699803408
 20
206.8202911454412
 30
0.0
 11
270.8263699803408
 21
205.8202911454412
 31
0.0
  0
LINE
  5
202
330
8B
100
AcDbEntity
  8
Layer0001
  6
Continuous
 62
    56
370
    18
100
AcDbLine
 10
270.8263699803408
 20
157.8202911454411
 30
0.0
 11
270.8263699803408
 21
205.8202911454412
 31
0.0
  0
LINE
  5
203
330
8B
100
AcDbEntity
  8
Layer0001
  6
Continuous
 62
    56
370
    18
100
AcDbLine
 10
228.8263699803409
 20
206.8202911454412
 30
0.0
 11
269.8263699803408
 21
206.8202911454412
 31
0.0
  0
CIRCLE
  5
204
330
8B
100
AcDbEntity
  8
Layer0001
  6
Continuous
 62
    56
370
    18
100
AcDbCircle
 10
244.8263699803408
 20
181.8202911454414
 30
0.0
 40
9.5
  0
CIRCLE
  5
205
330
8B
100
AcDbEntity
  8
Layer0001
  6
Continuous
 62
    56
370
    18
100
AcDbCircle
 10
244.8263699803408
 20
181.8202911454414
 30
0.0
 40
14.5
  0
LINE
  5
206
330
8B
100
AcDbEntity
  8
Layer0001
  6
Continuous
 62
    56
370
    18
100
AcDbLine
 10
218.8263699803408
 20
166.8202911454412
 30
0.0
 11
228.8263699803407
 21
156.8202911454411
 31
0.0
  0
LINE
  5
207
330
8B
100
AcDbEntity
  8
Layer0001
  6
Continuous
 62
    56
370
    18
100
AcDbLine
 10
218.8263699803408
 20
166.8202911454412
 30
0.0
 11
218.8263699803408
 21
196.8202911454412
 31
0.0
  0
LINE
  5
208
330
8B
100
AcDbEntity
  8
Layer0001
  6
Continuous
 62
    56
370
    18
100
AcDbLine
 10
218.8263699803408
 20
196.8202911454412
 30
0.0
 11
228.8263699803409
 21
206.8202911454412
 31
0.0
  0
LINE
  5
209
330
8B
100
AcDbEntity
  8
Layer0001
  6
CENTER
 62
    56
370
    25
100
AcDbLine
 10
244.8263699803408
 20
206.8202911454412
 30
0.0
 11
244.8263699803408
 21
156.8202911454411
 31
0.0
  0
LINE
  5
20A
330
8B
100
AcDbEntity
  8
Layer0001
  6
CENTER
 62
    56
370
    25
100
AcDbLine
 10
218.8263699803408
 20
181.8202911454414
 30
0.0
 11
270.8263699803408
 21
181.8202911454414
 31
0.0
  0
ENDBLK
  5
8D
330
8B
100
AcDbEntity
  8
0
100
AcDbBlockEnd
  0
BLOCK
  5
8F
330
8E
100
AcDbEntity
  8
0
100
AcDbBlockBegin
  2
DC_GROUP_COM125_9
 70
     0
 10
0.0
 20
0.0
 30
0.0
  3
DC_GROUP_COM125_9
  1

  0
LINE
  5
20B
330
8E
100
AcDbEntity
  8
Layer0000
  6
Continuous
 62
     3
370
    25
100
AcDbLine
 10
-223.1493397770446
 20
119.3202911454414
 30
0.0
 11
-413.1493397770446
 21
119.3202911454414
 31
0.0
  0
LINE
  5
20C
330
8E
100
AcDbEntity
  8
Layer0000
  6
Continuous
 62
     3
370
    25
100
AcDbLine
 10
-223.1493397770446
 20
244.3202911454414
 30
0.0
 11
-413.1493397770446
 21
244.3202911454414
 31
0.0
  0
LINE
  5
20D
330
8E
100
AcDbEntity
  8
Layer0000
  6
Continuous
 62
     3
370
    25
100
AcDbLine
 10
-223.1493397770446
 20
119.3202911454414
 30
0.0
 11
-223.1493397770446
 21
244.3202911454414
 31
0.0
  0
LINE
  5
20E
330
8E
100
AcDbEntity
  8
Layer0000
  6
Continuous
 62
     3
370
    25
100
AcDbLine
 10
-413.1493397770446
 20
244.3202911454414
 30
0.0
 11
-413.1493397770446
 21
119.3202911454414
 31
0.0
  0
CIRCLE
  5
20F
330
8E
100
AcDbEntity
  8
Layer0000
  6
Continuous
 62
     3
370
    25
100
AcDbCircle
 10
-391.1493397770446
 20
181.8202911454414
 30
0.0
 40
9.5
  0
CIRCLE
  5
210
330
8E
100
AcDbEntity
  8
Layer0000
  6
Continuous
 62
     3
370
    25
100
AcDbCircle
 10
-391.1493397770446
 20
181.8202911454414
 30
0.0
 40
14.0
  0
CIRCLE
  5
211
330
8E
100
AcDbEntity
  8
Layer0000
  6
Continuous
 62
     3
370
    25
100
AcDbCircle
 10
-245.1493397770446
 20
181.8202911454414
 30
0.0
 40
9.5
  0
CIRCLE
  5
212
330
8E
100
AcDbEntity
  8
Layer0000
  6
Continuous
 62
     3
370
    25
100
AcDbCircle
 10
-245.1493397770446
 20
181.8202911454414
 30
0.0
 40
14.0
  0
LINE
  5
213
330
8E
100
AcDbEntity
  8
Layer0000
  6
Continuous
 62
     3
370
    25
100
AcDbLine
 10
-223.1493397770446
 20
159.3202911454414
 30
0.0
 11
-258.1493397770447
 21
159.3202911454414
 31
0.0
  0
LINE
  5
214
330
8E
100
AcDbEntity
  8
Layer0000
  6
Continuous
 62
     3
370
    25
100
AcDbLine
 10
-378.1493397770446
 20
159.3202911454414
 30
0.0
 11
-413.1493397770446
 21
159.3202911454414
 31
0.0
  0
LINE
  5
215
330
8E
100
AcDbEntity
  8
Layer0000
  6
Continuous
 62
     3
370
    25
100
AcDbLine
 10
-223.1493397770446
 20
132.8202911454414
 30
0.0
 11
-258.1493397770447
 21
132.8202911454414
 31
0.0
  0
LINE
  5
216
330
8E
100
AcDbEntity
  8
Layer0000
  6
Continuous
 62
     3
370
    25
100
AcDbLine
 10
-378.1493397770446
 20
132.8202911454414
 30
0.0
 11
-413.1493397770446
 21
132.8202911454414
 31
0.0
  0
LINE
  5
217
330
8E
100
AcDbEntity
  8
Layer0000
  6
Continuous
 62
     3
370
    25
100
AcDbLine
 10
-223.1493397770446
 20
204.3202911454414
 30
0.0
 11
-258.1493397770447
 21
204.3202911454414
 31
0.0
  0
LINE
  5
218
330
8E
100
AcDbEntity
  8
Layer0000
  6
Continuous
 62
     3
370
    25
100
AcDbLine
 10
-378.1493397770446
 20
204.3202911454414
 30
0.0
 11
-413.1493397770446
 21
204.3202911454414
 31
0.0
  0
LINE
  5
219
330
8E
100
AcDbEntity
  8
Layer0000
  6
Continuous
 62
     3
370
    25
100
AcDbLine
 10
-223.1493397770446
 20
230.8202911454414
 30
0.0
 11
-258.1493397770447
 21
230.8202911454414
 31
0.0
  0
LINE
  5
21A
330
8E
100
AcDbEntity
  8
Layer0000
  6
Continuous
 62
     3
370
    25
100
AcDbLine
 10
-378.1493397770446
 20
230.8202911454414
 30
0.0
 11
-413.1493397770446
 21
230.8202911454414
 31
0.0
  0
CIRCLE
  5
21B
330
8E
100
AcDbEntity
  8
Layer0000
  6
Continuous
 62
     3
370
    25
100
AcDbCircle
 10
-318.1493397770446
 20
181.8202911454414
 30
0.0
 40
14.0
  0
CIRCLE
  5
21C
330
8E
100
AcDbEntity
  8
Layer0000
  6
Continuous
 62
     3
370
    25
100
AcDbCircle
 10
-318.1493397770446
 20
181.8202911454414
 30
0.0
 40
9.5
  0
ARC
  5
21D
330
8E
100
AcDbEntity
  8
Layer0000
  6
Continuous
 62
     3
370
    25
100
AcDbCircle
 10
-414.1493397770446
 20
196.8872567717821
 30
0.0
 40
7.5
100
AcDbArc
 50
0.0
 51
82.33774433923392
  0
ARC
  5
21E
330
8E
100
AcDbEntity
  8
Layer0000
  6
Continuous
 62
     3
370
    25
100
AcDbCircle
 10
-414.1493397770446
 20
166.7533255191007
 30
0.0
 40
7.5
100
AcDbArc
 50
277.662255660766
 51
0.0
  0
LINE
  5
21F
330
8E
100
AcDbEntity
  8
Layer0000
  6
Continuous
 62
     3
370
    25
100
AcDbLine
 10
-406.6493397770446
 20
196.8872567717821
 30
0.0
 11
-406.6493397770446
 21
166.7533255191007
 31
0.0
  0
ARC
  5
220
330
8E
100
AcDbEntity
  8
Layer0000
  6
Continuous
 62
     3
370
    25
100
AcDbCircle
 10
-222.1493397770446
 20
196.8872567717821
 30
0.0
 40
7.5
100
AcDbArc
 50
97.66225566076608
 51
180.0
  0
LINE
  5
221
330
8E
100
AcDbEntity
  8
Layer0000
  6
Continuous
 62
     3
370
    25
100
AcDbLine
 10
-229.6493397770446
 20
196.8872567717821
 30
0.0
 11
-229.6493397770446
 21
166.7533255191007
 31
0.0
  0
ARC
  5
222
330
8E
100
AcDbEntity
  8
Layer0000
  6
Continuous
 62
     3
370
    25
100
AcDbCircle
 10
-222.1493397770446
 20
166.7533255191007
 30
0.0
 40
7.5
100
AcDbArc
 50
180.0
 51
262.337744339234
  0
LINE
  5
223
330
8E
100
AcDbEntity
  8
Layer0000
  6
CENTER
 62
     2
370
    25
100
AcDbLine
 10
-318.1493397770446
 20
244.3202911454414
 30
0.0
 11
-318.1493397770446
 21
119.3202911454414
 31
0.0
  0
LINE
  5
224
330
8E
100
AcDbEntity
  8
Layer0000
  6
CENTER
 62
     2
370
    25
100
AcDbLine
 10
-223.1493397770446
 20
181.8202911454414
 30
0.0
 11
-413.1493397770446
 21
181.8202911454414
 31
0.0
  0
LINE
  5
225
330
8E
100
AcDbEntity
  8
Layer0000
  6
CENTER
 62
     2
370
    25
100
AcDbLine
 10
-327.1493397770446
 20
229.3202911454414
 30
0.0
 11
-309.1493397770446
 21
229.3202911454414
 31
0.0
  0
LINE
  5
226
330
8E
100
AcDbEntity
  8
Layer0000
  6
CENTER
 62
     2
370
    25
100
AcDbLine
 10
-327.1493397770446
 20
134.3202911454414
 30
0.0
 11
-309.1493397770446
 21
134.3202911454414
 31
0.0
  0
LINE
  5
227
330
8E
100
AcDbEntity
  8
Layer0000
  6
CENTER
 62
     2
370
    25
100
AcDbLine
 10
-359.1493397770446
 20
190.8202911454414
 30
0.0
 11
-359.1493397770446
 21
172.8202911454414
 31
0.0
  0
LINE
  5
228
330
8E
100
AcDbEntity
  8
Layer0000
  6
CENTER
 62
     2
370
    25
100
AcDbLine
 10
-391.1493397770446
 20
194.8202911454414
 30
0.0
 11
-391.1493397770446
 21
168.8202911454414
 31
0.0
  0
LINE
  5
229
330
8E
100
AcDbEntity
  8
Layer0000
  6
CENTER
 62
     2
370
    25
100
AcDbLine
 10
-277.1493397770446
 20
190.8202911454414
 30
0.0
 11
-277.1493397770446
 21
172.8202911454414
 31
0.0
  0
LINE
  5
22A
330
8E
100
AcDbEntity
  8
Layer0000
  6
CENTER
 62
     2
370
    25
100
AcDbLine
 10
-245.1493397770446
 20
194.8202911454414
 30
0.0
 11
-245.1493397770446
 21
168.8202911454414
 31
0.0
  0
LINE
  5
22B
330
8E
100
AcDbEntity
  8
Layer0000
  6
DASHED2
 62
     5
370
    18
100
AcDbLine
 10
-327.1493397770446
 20
213.3202911454416
 30
0.0
 11
-327.1493397770446
 21
244.3202911454414
 31
0.0
  0
LINE
  5
22C
330
8E
100
AcDbEntity
  8
Layer0000
  6
DASHED2
 62
     5
370
    18
100
AcDbLine
 10
-309.1493397770446
 20
213.3202911454414
 30
0.0
 11
-309.1493397770446
 21
244.3202911454414
 31
0.0
  0
CIRCLE
  5
22D
330
8E
100
AcDbEntity
  8
Layer0000
  6
DASHED2
 62
     5
370
    18
100
AcDbCircle
 10
-318.1493397770446
 20
229.3202911454414
 30
0.0
 40
2.594999999999999
  0
CIRCLE
  5
22E
330
8E
100
AcDbEntity
  8
Layer0000
  6
DASHED2
 62
     5
370
    18
100
AcDbCircle
 10
-318.1493397770446
 20
229.3202911454414
 30
0.0
 40
3.0
  0
ARC
  5
22F
330
8E
100
AcDbEntity
  8
Layer0000
  6
DASHED2
 62
     5
370
    18
100
AcDbCircle
 10
-318.1493397770446
 20
213.3202911454414
 30
0.0
 40
9.0
100
AcDbArc
 50
180.0
 51
0.0
  0
LINE
  5
230
330
8E
100
AcDbEntity
  8
Layer0000
  6
DASHED2
 62
     5
370
    18
100
AcDbLine
 10
-327.1493397770446
 20
150.3202911454412
 30
0.0
 11
-327.1493397770446
 21
119.3202911454414
 31
0.0
  0
LINE
  5
231
330
8E
100
AcDbEntity
  8
Layer0000
  6
DASHED2
 62
     5
370
    18
100
AcDbLine
 10
-309.1493397770446
 20
150.3202911454414
 30
0.0
 11
-309.1493397770446
 21
119.3202911454414
 31
0.0
  0
ARC
  5
232
330
8E
100
AcDbEntity
  8
Layer0000
  6
DASHED2
 62
     5
370
    18
100
AcDbCircle
 10
-318.1493397770446
 20
150.3202911454414
 30
0.0
 40
9.0
100
AcDbArc
 50
0.0
 51
180.0
  0
CIRCLE
  5
233
330
8E
100
AcDbEntity
  8
Layer0000
  6
DASHED2
 62
     5
370
    18
100
AcDbCircle
 10
-318.1493397770446
 20
134.3202911454414
 30
0.0
 40
2.594999999999999
  0
CIRCLE
  5
234
330
8E
100
AcDbEntity
  8
Layer0000
  6
DASHED2
 62
     5
370
    18
100
AcDbCircle
 10
-318.1493397770446
 20
134.3202911454414
 30
0.0
 40
3.0
  0
LINE
  5
235
330
8E
100
AcDbEntity
  8
Layer0000
  6
DASHED2
 62
     5
370
    18
100
AcDbLine
 10
-345.1493397770446
 20
190.8202911454414
 30
0.0
 11
-373.1493397770446
 21
190.8202911454414
 31
0.0
  0
LINE
  5
236
330
8E
100
AcDbEntity
  8
Layer0000
  6
DASHED2
 62
     5
370
    18
100
AcDbLine
 10
-345.1493397770446
 20
172.8202911454414
 30
0.0
 11
-373.1493397770446
 21
172.8202911454414
 31
0.0
  0
ARC
  5
237
330
8E
100
AcDbEntity
  8
Layer0000
  6
DASHED2
 62
     5
370
    18
100
AcDbCircle
 10
-345.1493397770446
 20
181.8202911454414
 30
0.0
 40
9.0
100
AcDbArc
 50
270.0
 51
90.0
  0
ARC
  5
238
330
8E
100
AcDbEntity
  8
Layer0000
  6
DASHED2
 62
     5
370
    18
100
AcDbCircle
 10
-373.1493397770446
 20
181.8202911454414
 30
0.0
 40
9.0
100
AcDbArc
 50
90.0
 51
166.2761905599855
  0
ARC
  5
239
330
8E
100
AcDbEntity
  8
Layer0000
  6
DASHED2
 62
     5
370
    18
100
AcDbCircle
 10
-373.1493397770446
 20
181.8202911454414
 30
0.0
 40
9.0
100
AcDbArc
 50
193.7238094400145
 51
270.0
  0
CIRCLE
  5
23A
330
8E
100
AcDbEntity
  8
Layer0000
  6
DASHED2
 62
     5
370
    18
100
AcDbCircle
 10
-359.1493397770446
 20
181.8202911454414
 30
0.0
 40
2.594999999999999
  0
CIRCLE
  5
23B
330
8E
100
AcDbEntity
  8
Layer0000
  6
DASHED2
 62
     5
370
    18
100
AcDbCircle
 10
-359.1493397770446
 20
181.8202911454414
 30
0.0
 40
3.0
  0
LINE
  5
23C
330
8E
100
AcDbEntity
  8
Layer0000
  6
DASHED2
 62
     5
370
    18
100
AcDbLine
 10
-291.1493397770446
 20
190.8202911454414
 30
0.0
 11
-263.1493397770446
 21
190.8202911454414
 31
0.0
  0
LINE
  5
23D
330
8E
100
AcDbEntity
  8
Layer0000
  6
DASHED2
 62
     5
370
    18
100
AcDbLine
 10
-291.1493397770446
 20
172.8202911454414
 30
0.0
 11
-263.1493397770446
 21
172.8202911454414
 31
0.0
  0
ARC
  5
23E
330
8E
100
AcDbEntity
  8
Layer0000
  6
DASHED2
 62
     5
370
    18
100
AcDbCircle
 10
-291.1493397770446
 20
181.8202911454414
 30
0.0
 40
9.0
100
AcDbArc
 50
90.0
 51
270.0
  0
ARC
  5
23F
330
8E
100
AcDbEntity
  8
Layer0000
  6
DASHED2
 62
     5
370
    18
100
AcDbCircle
 10
-263.1493397770446
 20
181.8202911454414
 30
0.0
 40
9.0
100
AcDbArc
 50
13.72380944001451
 51
90.0
  0
ARC
  5
240
330
8E
100
AcDbEntity
  8
Layer0000
  6
DASHED2
 62
     5
370
    18
100
AcDbCircle
 10
-263.1493397770446
 20
181.8202911454414
 30
0.0
 40
9.0
100
AcDbArc
 50
270.0
 51
346.2761905599855
  0
CIRCLE
  5
241
330
8E
100
AcDbEntity
  8
Layer0000
  6
DASHED2
 62
     5
370
    18
100
AcDbCircle
 10
-277.1493397770446
 20
181.8202911454414
 30
0.0
 40
2.594999999999999
  0
CIRCLE
  5
242
330
8E
100
AcDbEntity
  8
Layer0000
  6
DASHED2
 62
     5
370
    18
100
AcDbCircle
 10
-277.1493397770446
 20
181.8202911454414
 30
0.0
 40
3.0
  0
ENDBLK
  5
90
330
8E
100
AcDbEntity
  8
0
100
AcDbBlockEnd
  0
BLOCK
  5
92
330
91
100
AcDbEntity
  8
0
100
AcDbBlockBegin
  2
DC_GROUP_COM125_10
 70
     0
 10
0.0
 20
0.0
 30
0.0
  3
DC_GROUP_COM125_10
  1

  0
LINE
  5
243
330
91
100
AcDbEntity
  8
Layer0000
  6
Continuous
 62
     3
370
    25
100
AcDbLine
 10
-67.80794145614368
 20
132.8202911454414
 30
0.0
 11
-67.80794145614368
 21
230.8202911454414
 31
0.0
  0
LINE
  5
244
330
91
100
AcDbEntity
  8
Layer0000
  6
Continuous
 62
     3
370
    25
100
AcDbLine
 10
-117.8079414561437
 20
132.8202911454414
 30
0.0
 11
-117.8079414561437
 21
230.8202911454414
 31
0.0
  0
CIRCLE
  5
245
330
91
100
AcDbEntity
  8
Layer0000
  6
Continuous
 62
     3
370
    25
100
AcDbCircle
 10
-92.80794145614368
 20
181.8202911454414
 30
0.0
 40
9.5
  0
CIRCLE
  5
246
330
91
100
AcDbEntity
  8
Layer0000
  6
Continuous
 62
     3
370
    25
100
AcDbCircle
 10
-92.80794145614368
 20
181.8202911454414
 30
0.0
 40
14.0
  0
LINE
  5
247
330
91
100
AcDbEntity
  8
Layer0000
  6
Continuous
 62
     3
370
    25
100
AcDbLine
 10
-67.80794145614368
 20
230.8202911454414
 30
0.0
 11
-117.8079414561437
 21
230.8202911454414
 31
0.0
  0
LINE
  5
248
330
91
100
AcDbEntity
  8
Layer0000
  6
Continuous
 62
     3
370
    25
100
AcDbLine
 10
-67.80794145614368
 20
132.8202911454414
 30
0.0
 11
-117.8079414561437
 21
132.8202911454414
 31
0.0
  0
LINE
  5
249
330
91
100
AcDbEntity
  8
Layer0000
  6
CENTER
 62
     2
370
    25
100
AcDbLine
 10
-117.8079414561437
 20
181.8202911454414
 30
0.0
 11
-67.80794145614368
 21
181.8202911454414
 31
0.0
  0
LINE
  5
24A
330
91
100
AcDbEntity
  8
Layer0000
  6
CENTER
 62
     2
370
    25
100
AcDbLine
 10
-92.80794145614368
 20
194.8202911454414
 30
0.0
 11
-92.80794145614368
 21
168.8202911454414
 31
0.0
  0
LINE
  5
24B
330
91
100
AcDbEntity
  8
Layer0000
  6
CENTER
 62
     2
370
    25
100
AcDbLine
 10
-104.2367446951046
 20
211.8202911454414
 30
0.0
 11
-81.67576920258372
 21
211.8202911454414
 31
0.0
  0
LINE
  5
24C
330
91
100
AcDbEntity
  8
Layer0000
  6
CENTER
 62
     2
370
    25
100
AcDbLine
 10
-92.80794145614368
 20
222.3458104028664
 30
0.0
 11
-92.80794145614368
 21
201.456018280162
 31
0.0
  0
LINE
  5
24D
330
91
100
AcDbEntity
  8
Layer0000
  6
CENTER
 62
     2
370
    25
100
AcDbLine
 10
-104.2367446951046
 20
151.8202911454414
 30
0.0
 11
-81.67576920258372
 21
151.8202911454414
 31
0.0
  0
LINE
  5
24E
330
91
100
AcDbEntity
  8
Layer0000
  6
CENTER
 62
     2
370
    25
100
AcDbLine
 10
-92.80794145614368
 20
141.2947718880163
 30
0.0
 11
-92.80794145614368
 21
162.1845640107208
 31
0.0
  0
LINE
  5
24F
330
91
100
AcDbEntity
  8
Layer0000
  6
Continuous
 62
     3
370
    18
100
AcDbLine
 10
-82.99298687992004
 20
211.8202911454414
 30
0.0
 11
-87.90046416803187
 21
220.3202911454414
 31
0.0
  0
LINE
  5
250
330
91
100
AcDbEntity
  8
Layer0000
  6
Continuous
 62
     3
370
    18
100
AcDbLine
 10
-87.90046416803187
 20
220.3202911454414
 30
0.0
 11
-97.71541874425549
 21
220.3202911454414
 31
0.0
  0
LINE
  5
251
330
91
100
AcDbEntity
  8
Layer0000
  6
Continuous
 62
     3
370
    18
100
AcDbLine
 10
-97.71541874425549
 20
220.3202911454414
 30
0.0
 11
-102.6228960323673
 21
211.8202911454414
 31
0.0
  0
LINE
  5
252
330
91
100
AcDbEntity
  8
Layer0000
  6
Continuous
 62
     3
370
    18
100
AcDbLine
 10
-102.6228960323673
 20
211.8202911454414
 30
0.0
 11
-97.71541874425549
 21
203.3202911454414
 31
0.0
  0
LINE
  5
253
330
91
100
AcDbEntity
  8
Layer0000
  6
Continuous
 62
     3
370
    18
100
AcDbLine
 10
-97.71541874425549
 20
203.3202911454414
 30
0.0
 11
-87.90046416803187
 21
203.3202911454414
 31
0.0
  0
LINE
  5
254
330
91
100
AcDbEntity
  8
Layer0000
  6
Continuous
 62
     3
370
    18
100
AcDbLine
 10
-87.90046416803187
 20
203.3202911454414
 30
0.0
 11
-82.99298687992004
 21
211.8202911454414
 31
0.0
  0
CIRCLE
  5
255
330
91
100
AcDbEntity
  8
Layer0000
  6
Continuous
 62
     3
370
    18
100
AcDbCircle
 10
-92.80794145614368
 20
211.8202911454414
 30
0.0
 40
8.5
  0
LINE
  5
256
330
91
100
AcDbEntity
  8
Layer0000
  6
Continuous
 62
     3
370
    18
100
AcDbLine
 10
-82.99298687992004
 20
151.8202911454414
 30
0.0
 11
-87.90046416803187
 21
143.3202911454414
 31
0.0
  0
LINE
  5
257
330
91
100
AcDbEntity
  8
Layer0000
  6
Continuous
 62
     3
370
    18
100
AcDbLine
 10
-87.90046416803187
 20
143.3202911454414
 30
0.0
 11
-97.71541874425549
 21
143.3202911454414
 31
0.0
  0
LINE
  5
258
330
91
100
AcDbEntity
  8
Layer0000
  6
Continuous
 62
     3
370
    18
100
AcDbLine
 10
-97.71541874425549
 20
143.3202911454414
 30
0.0
 11
-102.6228960323673
 21
151.8202911454414
 31
0.0
  0
LINE
  5
259
330
91
100
AcDbEntity
  8
Layer0000
  6
Continuous
 62
     3
370
    18
100
AcDbLine
 10
-102.6228960323673
 20
151.8202911454414
 30
0.0
 11
-97.71541874425549
 21
160.3202911454414
 31
0.0
  0
LINE
  5
25A
330
91
100
AcDbEntity
  8
Layer0000
  6
Continuous
 62
     3
370
    18
100
AcDbLine
 10
-97.71541874425549
 20
160.3202911454414
 30
0.0
 11
-87.90046416803187
 21
160.3202911454414
 31
0.0
  0
LINE
  5
25B
330
91
100
AcDbEntity
  8
Layer0000
  6
Continuous
 62
     3
370
    18
100
AcDbLine
 10
-87.90046416803187
 20
160.3202911454414
 30
0.0
 11
-82.99298687992004
 21
151.8202911454414
 31
0.0
  0
CIRCLE
  5
25C
330
91
100
AcDbEntity
  8
Layer0000
  6
Continuous
 62
     3
370
    18
100
AcDbCircle
 10
-92.80794145614368
 20
151.8202911454414
 30
0.0
 40
8.5
  0
ENDBLK
  5
93
330
91
100
AcDbEntity
  8
0
100
AcDbBlockEnd
  0
BLOCK
  5
95
330
94
100
AcDbEntity
  8
0
100
AcDbBlockBegin
  2
DC_GROUP_COM125_11
 70
     0
 10
0.0
 20
0.0
 30
0.0
  3
DC_GROUP_COM125_11
  1

  0
LINE
  5
25D
330
94
100
AcDbEntity
  8
Layer0000
  6
Continuous
 62
     3
370
    25
100
AcDbLine
 10
-117.8079414561437
 20
-182.7987127625206
 30
0.0
 11
-117.8079414561437
 21
-237.7987127625206
 31
0.0
  0
LINE
  5
25E
330
94
100
AcDbEntity
  8
Layer0000
  6
Continuous
 62
     3
370
    25
100
AcDbLine
 10
-117.8079414561437
 20
-237.7987127625206
 30
0.0
 11
-67.80794145614368
 21
-237.7987127625206
 31
0.0
  0
LINE
  5
25F
330
94
100
AcDbEntity
  8
Layer0000
  6
Continuous
 62
     3
370
    25
100
AcDbLine
 10
-67.80794145614368
 20
-182.7987127625206
 30
0.0
 11
-67.80794145614368
 21
-237.7987127625206
 31
0.0
  0
LINE
  5
260
330
94
100
AcDbEntity
  8
Layer0000
  6
Continuous
 62
     3
370
    25
100
AcDbLine
 10
-117.8079414561437
 20
-182.7987127625206
 30
0.0
 11
-67.80794145614368
 21
-182.7987127625206
 31
0.0
  0
LINE
  5
261
330
94
100
AcDbEntity
  8
Layer0000
  6
CENTER
 62
     2
370
    25
100
AcDbLine
 10
-92.80794145614368
 20
-152.7616610356234
 30
0.0
 11
-92.80794145614368
 21
-193.1693128194492
 31
0.0
  0
ENDBLK
  5
96
330
94
100
AcDbEntity
  8
0
100
AcDbBlockEnd
  0
BLOCK
  5
98
330
97
100
AcDbEntity
  8
0
100
AcDbBlockBegin
  2
DC_GROUP_COM125_12
 70
     0
 10
0.0
 20
0.0
 30
0.0
  3
DC_GROUP_COM125_12
  1

  0
LINE
  5
262
330
97
100
AcDbEntity
  8
Layer0000
  6
Continuous
 62
     3
370
    25
100
AcDbLine
 10
-328.1493397770446
 20
-157.7987127625206
 30
0.0
 11
-328.1493397770446
 21
-165.7987127625206
 31
0.0
  0
LINE
  5
263
330
97
100
AcDbEntity
  8
Layer0000
  6
Continuous
 62
     3
370
    25
100
AcDbLine
 10
-328.1493397770446
 20
-165.7987127625206
 30
0.0
 11
-308.1493397770446
 21
-165.7987127625206
 31
0.0
  0
LINE
  5
264
330
97
100
AcDbEntity
  8
Layer0000
  6
Continuous
 62
     3
370
    25
100
AcDbLine
 10
-308.1493397770446
 20
-165.7987127625206
 30
0.0
 11
-308.1493397770446
 21
-157.7987127625206
 31
0.0
  0
LINE
  5
265
330
97
100
AcDbEntity
  8
Layer0000
  6
Continuous
 62
     3
370
    25
100
AcDbLine
 10
-413.1493397770446
 20
-157.7987127625206
 30
0.0
 11
-328.1493397770446
 21
-157.7987127625206
 31
0.0
  0
LINE
  5
266
330
97
100
AcDbEntity
  8
Layer0000
  6
Continuous
 62
     3
370
    25
100
AcDbLine
 10
-413.1493397770446
 20
-157.7987127625206
 30
0.0
 11
-413.1493397770446
 21
-237.7987127625206
 31
0.0
  0
LINE
  5
267
330
97
100
AcDbEntity
  8
Layer0000
  6
Continuous
 62
     3
370
    25
100
AcDbLine
 10
-308.1493397770446
 20
-157.7987127625206
 30
0.0
 11
-223.1493397770446
 21
-157.7987127625206
 31
0.0
  0
LINE
  5
268
330
97
100
AcDbEntity
  8
Layer0000
  6
Continuous
 62
     3
370
    25
100
AcDbLine
 10
-223.1493397770446
 20
-157.7987127625206
 30
0.0
 11
-223.1493397770446
 21
-237.7987127625206
 31
0.0
  0
LINE
  5
269
330
97
100
AcDbEntity
  8
Layer0000
  6
Continuous
 62
     3
370
    25
100
AcDbLine
 10
-327.1493397770446
 20
-245.7987127625206
 30
0.0
 11
-327.1493397770446
 21
-233.7987127625206
 31
0.0
  0
LINE
  5
26A
330
97
100
AcDbEntity
  8
Layer0000
  6
Continuous
 62
     3
370
    25
100
AcDbLine
 10
-327.1493397770446
 20
-233.7987127625206
 30
0.0
 11
-309.1493397770446
 21
-233.7987127625206
 31
0.0
  0
LINE
  5
26B
330
97
100
AcDbEntity
  8
Layer0000
  6
Continuous
 62
     3
370
    25
100
AcDbLine
 10
-309.1493397770446
 20
-233.7987127625206
 30
0.0
 11
-309.1493397770446
 21
-245.7987127625206
 31
0.0
  0
LINE
  5
26C
330
97
100
AcDbEntity
  8
Layer0000
  6
Continuous
 62
     3
370
    25
100
AcDbLine
 10
-223.1493397770446
 20
-215.7987127625206
 30
0.0
 11
-413.1493397770446
 21
-215.7987127625206
 31
0.0
  0
LINE
  5
26D
330
97
100
AcDbEntity
  8
Layer0000
  6
Continuous
 62
     3
370
    25
100
AcDbLine
 10
-223.1493397770446
 20
-207.2987127625206
 30
0.0
 11
-413.1493397770446
 21
-207.2987127625206
 31
0.0
  0
LINE
  5
26E
330
97
100
AcDbEntity
  8
Layer0000
  6
Continuous
 62
     3
370
    25
100
AcDbLine
 10
-223.1493397770446
 20
-169.7987127625206
 30
0.0
 11
-413.1493397770446
 21
-169.7987127625206
 31
0.0
  0
LINE
  5
26F
330
97
100
AcDbEntity
  8
Layer0000
  6
Continuous
 62
     3
370
    25
100
AcDbLine
 10
-223.1493397770446
 20
-171.9987127625206
 30
0.0
 11
-413.1493397770446
 21
-171.9987127625206
 31
0.0
  0
LINE
  5
270
330
97
100
AcDbEntity
  8
Layer0000
  6
Continuous
 62
     3
370
    25
100
AcDbLine
 10
-327.1493397770446
 20
-245.7987127625206
 30
0.0
 11
-309.1493397770446
 21
-245.7987127625206
 31
0.0
  0
LINE
  5
271
330
97
100
AcDbEntity
  8
Layer0000
  6
Continuous
 62
     3
370
    25
100
AcDbLine
 10
-413.1493397770446
 20
-237.7987127625206
 30
0.0
 11
-327.1493397770446
 21
-237.7987127625206
 31
0.0
  0
LINE
  5
272
330
97
100
AcDbEntity
  8
Layer0000
  6
Continuous
 62
     3
370
    25
100
AcDbLine
 10
-309.1493397770446
 20
-237.7987127625206
 30
0.0
 11
-223.1493397770446
 21
-237.7987127625206
 31
0.0
  0
LINE
  5
273
330
97
100
AcDbEntity
  8
Layer0000
  6
CENTER
 62
     2
370
    25
100
AcDbLine
 10
-318.1493397770446
 20
-112.2987127625206
 30
0.0
 11
-318.1493397770446
 21
-245.7987127625206
 31
0.0
  0
ENDBLK
  5
99
330
97
100
AcDbEntity
  8
0
100
AcDbBlockEnd
  0
BLOCK
  5
9B
330
9A
100
AcDbEntity
  8
0
100
AcDbBlockBegin
  2
DC_GROUP_COM125_13
 70
     0
 10
0.0
 20
0.0
 30
0.0
  3
DC_GROUP_COM125_13
  1

  0
LINE
  5
274
330
9A
100
AcDbEntity
  8
Layer0000
  6
Continuous
 62
     3
370
    25
100
AcDbLine
 10
4.826369980340743
 20
204.3202911454414
 30
0.0
 11
78.12636998034074
 21
204.3202911454414
 31
0.0
  0
LINE
  5
275
330
9A
100
AcDbEntity
  8
Layer0000
  6
Continuous
 62
     3
370
    25
100
AcDbLine
 10
4.826369980340743
 20
230.8202911454414
 30
0.0
 11
78.12636998034074
 21
230.8202911454414
 31
0.0
  0
LINE
  5
276
330
9A
100
AcDbEntity
  8
Layer0000
  6
Continuous
 62
     3
370
    25
100
AcDbLine
 10
224.8263699803408
 20
244.3202911454414
 30
0.0
 11
4.826369980340743
 21
244.3202911454414
 31
0.0
  0
LINE
  5
277
330
9A
100
AcDbEntity
  8
Layer0000
  6
Continuous
 62
     3
370
    25
100
AcDbLine
 10
4.826369980340743
 20
159.3202911454414
 30
0.0
 11
78.12636998034074
 21
159.3202911454414
 31
0.0
  0
LINE
  5
278
330
9A
100
AcDbEntity
  8
Layer0000
  6
Continuous
 62
     3
370
    25
100
AcDbLine
 10
4.826369980340743
 20
132.8202911454414
 30
0.0
 11
78.12636998034074
 21
132.8202911454414
 31
0.0
  0
LINE
  5
279
330
9A
100
AcDbEntity
  8
Layer0000
  6
Continuous
 62
     3
370
    25
100
AcDbLine
 10
224.8263699803408
 20
119.3202911454414
 30
0.0
 11
4.826369980340743
 21
119.3202911454414
 31
0.0
  0
LINE
  5
27A
330
9A
100
AcDbEntity
  8
Layer0000
  6
Continuous
 62
     3
370
    25
100
AcDbLine
 10
4.826369980340743
 20
119.3202911454414
 30
0.0
 11
4.826369980340743
 21
244.3202911454414
 31
0.0
  0
CIRCLE
  5
27B
330
9A
100
AcDbEntity
  8
Layer0000
  6
Continuous
 62
     3
370
    25
100
AcDbCircle
 10
26.82636998034074
 20
181.8202911454414
 30
0.0
 40
9.5
  0
CIRCLE
  5
27C
330
9A
100
AcDbEntity
  8
Layer0000
  6
Continuous
 62
     3
370
    25
100
AcDbCircle
 10
26.82636998034074
 20
181.8202911454414
 30
0.0
 40
14.0
  0
ARC
  5
27D
330
9A
100
AcDbEntity
  8
Layer0000
  6
Continuous
 62
     3
370
    25
100
AcDbCircle
 10
3.826369980340758
 20
196.8872567717821
 30
0.0
 40
7.5
100
AcDbArc
 50
0.0
 51
82.33774433923392
  0
ARC
  5
27E
330
9A
100
AcDbEntity
  8
Layer0000
  6
Continuous
 62
     3
370
    25
100
AcDbCircle
 10
3.826369980340758
 20
166.7533255191007
 30
0.0
 40
7.5
100
AcDbArc
 50
277.662255660766
 51
0.0
  0
LINE
  5
27F
330
9A
100
AcDbEntity
  8
Layer0000
  6
Continuous
 62
     3
370
    25
100
AcDbLine
 10
11.32636998034076
 20
196.8872567717821
 30
0.0
 11
11.32636998034076
 21
166.7533255191007
 31
0.0
  0
LINE
  5
280
330
9A
100
AcDbEntity
  8
Layer0000
  6
DASHED2
 62
     5
370
    18
100
AcDbLine
 10
105.8263699803408
 20
213.3202911454416
 30
0.0
 11
105.8263699803408
 21
244.3202911454414
 31
0.0
  0
LINE
  5
281
330
9A
100
AcDbEntity
  8
Layer0000
  6
DASHED2
 62
     5
370
    18
100
AcDbLine
 10
123.8263699803408
 20
213.3202911454414
 30
0.0
 11
123.8263699803408
 21
244.3202911454414
 31
0.0
  0
ARC
  5
282
330
9A
100
AcDbEntity
  8
Layer0000
  6
DASHED2
 62
     5
370
    18
100
AcDbCircle
 10
114.8263699803408
 20
213.3202911454414
 30
0.0
 40
9.0
100
AcDbArc
 50
180.0
 51
0.0
  0
CIRCLE
  5
283
330
9A
100
AcDbEntity
  8
Layer0000
  6
DASHED2
 62
     5
370
    18
100
AcDbCircle
 10
114.8263699803408
 20
229.3202911454414
 30
0.0
 40
2.594999999999999
  0
CIRCLE
  5
284
330
9A
100
AcDbEntity
  8
Layer0000
  6
DASHED2
 62
     5
370
    18
100
AcDbCircle
 10
114.8263699803408
 20
229.3202911454414
 30
0.0
 40
3.0
  0
LINE
  5
285
330
9A
100
AcDbEntity
  8
Layer0000
  6
DASHED2
 62
     5
370
    18
100
AcDbLine
 10
105.8263699803408
 20
150.3202911454412
 30
0.0
 11
105.8263699803408
 21
119.3202911454414
 31
0.0
  0
LINE
  5
286
330
9A
100
AcDbEntity
  8
Layer0000
  6
DASHED2
 62
     5
370
    18
100
AcDbLine
 10
123.8263699803408
 20
150.3202911454414
 30
0.0
 11
123.8263699803408
 21
119.3202911454414
 31
0.0
  0
ARC
  5
287
330
9A
100
AcDbEntity
  8
Layer0000
  6
DASHED2
 62
     5
370
    18
100
AcDbCircle
 10
114.8263699803408
 20
150.3202911454414
 30
0.0
 40
9.0
100
AcDbArc
 50
0.0
 51
180.0
  0
CIRCLE
  5
288
330
9A
100
AcDbEntity
  8
Layer0000
  6
DASHED2
 62
     5
370
    18
100
AcDbCircle
 10
114.8263699803408
 20
134.3202911454414
 30
0.0
 40
2.594999999999999
  0
CIRCLE
  5
289
330
9A
100
AcDbEntity
  8
Layer0000
  6
DASHED2
 62
     5
370
    18
100
AcDbCircle
 10
114.8263699803408
 20
134.3202911454414
 30
0.0
 40
3.0
  0
LINE
  5
28A
330
9A
100
AcDbEntity
  8
Layer0000
  6
DASHED2
 62
     5
370
    18
100
AcDbLine
 10
72.82636998034074
 20
190.8202911454414
 30
0.0
 11
44.82636998034074
 21
190.8202911454414
 31
0.0
  0
LINE
  5
28B
330
9A
100
AcDbEntity
  8
Layer0000
  6
DASHED2
 62
     5
370
    18
100
AcDbLine
 10
72.82636998034074
 20
172.8202911454414
 30
0.0
 11
44.82636998034074
 21
172.8202911454414
 31
0.0
  0
ARC
  5
28C
330
9A
100
AcDbEntity
  8
Layer0000
  6
DASHED2
 62
     5
370
    18
100
AcDbCircle
 10
72.82636998034074
 20
181.8202911454414
 30
0.0
 40
9.0
100
AcDbArc
 50
270.0
 51
90.0
  0
ARC
  5
28D
330
9A
100
AcDbEntity
  8
Layer0000
  6
DASHED2
 62
     5
370
    18
100
AcDbCircle
 10
44.82636998034074
 20
181.8202911454414
 30
0.0
 40
9.0
100
AcDbArc
 50
90.0
 51
166.2761905599855
  0
ARC
  5
28E
330
9A
100
AcDbEntity
  8
Layer0000
  6
DASHED2
 62
     5
370
    18
100
AcDbCircle
 10
44.82636998034074
 20
181.8202911454414
 30
0.0
 40
9.0
100
AcDbArc
 50
193.7238094400145
 51
270.0
  0
CIRCLE
  5
28F
330
9A
100
AcDbEntity
  8
Layer0000
  6
DASHED2
 62
     5
370
    18
100
AcDbCircle
 10
58.82636998034074
 20
181.8202911454414
 30
0.0
 40
2.594999999999999
  0
CIRCLE
  5
290
330
9A
100
AcDbEntity
  8
Layer0000
  6
DASHED2
 62
     5
370
    18
100
AcDbCircle
 10
58.82636998034074
 20
181.8202911454414
 30
0.0
 40
3.0
  0
LINE
  5
291
330
9A
100
AcDbEntity
  8
Layer0000
  6
DASHED2
 62
     5
370
    18
100
AcDbLine
 10
156.8263699803407
 20
190.8202911454414
 30
0.0
 11
184.8263699803407
 21
190.8202911454414
 31
0.0
  0
LINE
  5
292
330
9A
100
AcDbEntity
  8
Layer0000
  6
DASHED2
 62
     5
370
    18
100
AcDbLine
 10
156.8263699803407
 20
172.8202911454414
 30
0.0
 11
184.8263699803407
 21
172.8202911454414
 31
0.0
  0
ARC
  5
293
330
9A
100
AcDbEntity
  8
Layer0000
  6
DASHED2
 62
     5
370
    18
100
AcDbCircle
 10
156.8263699803407
 20
181.8202911454414
 30
0.0
 40
9.0
100
AcDbArc
 50
90.0
 51
270.0
  0
ARC
  5
294
330
9A
100
AcDbEntity
  8
Layer0000
  6
DASHED2
 62
     5
370
    18
100
AcDbCircle
 10
184.8263699803407
 20
181.8202911454414
 30
0.0
 40
9.0
100
AcDbArc
 50
13.72380944001451
 51
90.0
  0
ARC
  5
295
330
9A
100
AcDbEntity
  8
Layer0000
  6
DASHED2
 62
     5
370
    18
100
AcDbCircle
 10
184.8263699803407
 20
181.8202911454414
 30
0.0
 40
9.0
100
AcDbArc
 50
270.0
 51
346.2761905599855
  0
CIRCLE
  5
296
330
9A
100
AcDbEntity
  8
Layer0000
  6
DASHED2
 62
     5
370
    18
100
AcDbCircle
 10
170.8263699803407
 20
181.8202911454414
 30
0.0
 40
2.594999999999999
  0
CIRCLE
  5
297
330
9A
100
AcDbEntity
  8
Layer0000
  6
DASHED2
 62
     5
370
    18
100
AcDbCircle
 10
170.8263699803407
 20
181.8202911454414
 30
0.0
 40
3.0
  0
CIRCLE
  5
298
330
9A
100
AcDbEntity
  8
Layer0000
  6
DASHED2
 62
     5
370
    18
100
AcDbCircle
 10
202.8263699803407
 20
181.8202911454414
 30
0.0
 40
9.5
  0
CIRCLE
  5
299
330
9A
100
AcDbEntity
  8
Layer0000
  6
DASHED2
 62
     5
370
    18
100
AcDbCircle
 10
202.8263699803407
 20
181.8202911454414
 30
0.0
 40
14.0
  0
CIRCLE
  5
29A
330
9A
100
AcDbEntity
  8
Layer0000
  6
DASHED2
 62
     5
370
    18
100
AcDbCircle
 10
114.8263699803407
 20
181.8202911454414
 30
0.0
 40
9.5
  0
CIRCLE
  5
29B
330
9A
100
AcDbEntity
  8
Layer0000
  6
DASHED2
 62
     5
370
    18
100
AcDbCircle
 10
114.8263699803407
 20
181.8202911454414
 30
0.0
 40
14.0
  0
LINE
  5
29C
330
9A
100
AcDbEntity
  8
Layer0000
  6
DASHED2
 62
     5
370
    18
100
AcDbLine
 10
224.8263699803408
 20
244.0702911454414
 30
0.0
 11
224.8263699803408
 21
119.5702911454414
 31
0.0
  0
ARC
  5
29D
330
9A
100
AcDbEntity
  8
Layer0000
  6
DASHED2
 62
     5
370
    18
100
AcDbCircle
 10
225.8263699803407
 20
196.8872567717821
 30
0.0
 40
7.5
100
AcDbArc
 50
97.66225566076608
 51
180.0
  0
ARC
  5
29E
330
9A
100
AcDbEntity
  8
Layer0000
  6
DASHED2
 62
     5
370
    18
100
AcDbCircle
 10
225.8263699803407
 20
166.7533255191007
 30
0.0
 40
7.5
100
AcDbArc
 50
180.0
 51
262.337744339234
  0
LINE
  5
29F
330
9A
100
AcDbEntity
  8
Layer0000
  6
DASHED2
 62
     5
370
    18
100
AcDbLine
 10
218.3263699803407
 20
196.8872567717821
 30
0.0
 11
218.3263699803407
 21
166.7533255191007
 31
0.0
  0
LINE
  5
2A0
330
9A
100
AcDbEntity
  8
Layer0000
  6
CENTER
 62
     2
370
    25
100
AcDbLine
 10
105.8263699803408
 20
229.3202911454414
 30
0.0
 11
123.8263699803408
 21
229.3202911454414
 31
0.0
  0
LINE
  5
2A1
330
9A
100
AcDbEntity
  8
Layer0000
  6
CENTER
 62
     2
370
    25
100
AcDbLine
 10
105.8263699803408
 20
134.3202911454414
 30
0.0
 11
123.8263699803408
 21
134.3202911454414
 31
0.0
  0
LINE
  5
2A2
330
9A
100
AcDbEntity
  8
Layer0000
  6
CENTER
 62
     2
370
    25
100
AcDbLine
 10
58.82636998034074
 20
190.8202911454414
 30
0.0
 11
58.82636998034074
 21
172.8202911454414
 31
0.0
  0
LINE
  5
2A3
330
9A
100
AcDbEntity
  8
Layer0000
  6
CENTER
 62
     2
370
    25
100
AcDbLine
 10
26.82636998034074
 20
194.8202911454414
 30
0.0
 11
26.82636998034074
 21
168.8202911454414
 31
0.0
  0
LINE
  5
2A4
330
9A
100
AcDbEntity
  8
Layer0000
  6
CENTER
 62
     2
370
    25
100
AcDbLine
 10
114.8263699803407
 20
244.3202911454414
 30
0.0
 11
114.8263699803407
 21
119.3202911454414
 31
0.0
  0
LINE
  5
2A5
330
9A
100
AcDbEntity
  8
Layer0000
  6
CENTER
 62
     2
370
    25
100
AcDbLine
 10
170.8263699803407
 20
190.8202911454414
 30
0.0
 11
170.8263699803407
 21
172.8202911454414
 31
0.0
  0
LINE
  5
2A6
330
9A
100
AcDbEntity
  8
Layer0000
  6
CENTER
 62
     2
370
    25
100
AcDbLine
 10
202.8263699803407
 20
194.8202911454414
 30
0.0
 11
202.8263699803407
 21
168.8202911454414
 31
0.0
  0
ENDBLK
  5
9C
330
9A
100
AcDbEntity
  8
0
100
AcDbBlockEnd
  0
BLOCK
  5
9E
330
9D
100
AcDbEntity
  8
0
100
AcDbBlockBegin
  2
DC_GROUP_COM125_14
 70
     0
 10
0.0
 20
0.0
 30
0.0
  3
DC_GROUP_COM125_14
  1

  0
LINE
  5
2A7
330
9D
100
AcDbEntity
  8
Layer0000
  6
Continuous
 62
     3
370
    25
100
AcDbLine
 10
224.8263699803408
 20
-169.7987127625206
 30
0.0
 11
224.8263699803408
 21
-237.7987127625206
 31
0.0
  0
LINE
  5
2A8
330
9D
100
AcDbEntity
  8
Layer0000
  6
Continuous
 62
     3
370
    25
100
AcDbLine
 10
4.826369980340743
 20
-157.7987127625206
 30
0.0
 11
93.12636998034074
 21
-157.7987127625206
 31
0.0
  0
LINE
  5
2A9
330
9D
100
AcDbEntity
  8
Layer0000
  6
Continuous
 62
     3
370
    25
100
AcDbLine
 10
4.826369980340743
 20
-157.7987127625206
 30
0.0
 11
4.826369980340743
 21
-237.7987127625206
 31
0.0
  0
LINE
  5
2AA
330
9D
100
AcDbEntity
  8
Layer0000
  6
Continuous
 62
     3
370
    25
100
AcDbLine
 10
105.8263699803408
 20
-233.7987127625206
 30
0.0
 11
123.8263699803408
 21
-233.7987127625206
 31
0.0
  0
LINE
  5
2AB
330
9D
100
AcDbEntity
  8
Layer0000
  6
Continuous
 62
     3
370
    25
100
AcDbLine
 10
123.8263699803408
 20
-233.7987127625206
 30
0.0
 11
123.8263699803408
 21
-245.7987127625206
 31
0.0
  0
LINE
  5
2AC
330
9D
100
AcDbEntity
  8
Layer0000
  6
Continuous
 62
     3
370
    25
100
AcDbLine
 10
105.8263699803408
 20
-233.7987127625206
 30
0.0
 11
105.8263699803408
 21
-245.7987127625206
 31
0.0
  0
LINE
  5
2AD
330
9D
100
AcDbEntity
  8
Layer0000
  6
Continuous
 62
     3
370
    25
100
AcDbLine
 10
4.826369980340743
 20
-215.7987127625206
 30
0.0
 11
224.8263699803408
 21
-215.7987127625206
 31
0.0
  0
LINE
  5
2AE
330
9D
100
AcDbEntity
  8
Layer0000
  6
Continuous
 62
     3
370
    25
100
AcDbLine
 10
224.8263699803408
 20
-207.2987127625206
 30
0.0
 11
4.826369980340743
 21
-207.2987127625206
 31
0.0
  0
LINE
  5
2AF
330
9D
100
AcDbEntity
  8
Layer0000
  6
Continuous
 62
     3
370
    25
100
AcDbLine
 10
224.8263699803408
 20
-169.7987127625206
 30
0.0
 11
4.826369980340743
 21
-169.7987127625206
 31
0.0
  0
CIRCLE
  5
2B0
330
9D
100
AcDbEntity
  8
Layer0000
  6
Continuous
 62
     3
370
    25
100
AcDbCircle
 10
76.82636998034073
 20
-188.7987127625206
 30
0.0
 40
8.0
  0
LINE
  5
2B1
330
9D
100
AcDbEntity
  8
Layer0000
  6
Continuous
 62
     3
370
    25
100
AcDbLine
 10
105.8263699803408
 20
-245.7987127625206
 30
0.0
 11
123.8263699803408
 21
-245.7987127625206
 31
0.0
  0
LINE
  5
2B2
330
9D
100
AcDbEntity
  8
Layer0000
  6
Continuous
 62
     3
370
    25
100
AcDbLine
 10
4.826369980340743
 20
-237.7987127625206
 30
0.0
 11
105.8263699803408
 21
-237.7987127625206
 31
0.0
  0
LINE
  5
2B3
330
9D
100
AcDbEntity
  8
Layer0000
  6
Continuous
 62
     3
370
    25
100
AcDbLine
 10
123.8263699803408
 20
-237.7987127625206
 30
0.0
 11
224.8263699803408
 21
-237.7987127625206
 31
0.0
  0
LINE
  5
2B4
330
9D
100
AcDbEntity
  8
Layer0000
  6
Continuous
 62
     3
370
    25
100
AcDbLine
 10
224.8263699803408
 20
-171.9987127625206
 30
0.0
 11
161.1263699803407
 21
-171.9987127625206
 31
0.0
  0
LINE
  5
2B5
330
9D
100
AcDbEntity
  8
Layer0000
  6
Continuous
 62
     3
370
    25
100
AcDbLine
 10
93.12636998034074
 20
-171.9987127625206
 30
0.0
 11
4.826369980340743
 21
-171.9987127625206
 31
0.0
  0
LINE
  5
2B6
330
9D
100
AcDbEntity
  8
Layer0000
  6
CENTER
 62
     2
370
    25
100
AcDbLine
 10
84.82636998034073
 20
-188.7987127625206
 30
0.0
 11
68.82636998034073
 21
-188.7987127625206
 31
0.0
  0
LINE
  5
2B7
330
9D
100
AcDbEntity
  8
Layer0000
  6
CENTER
 62
     2
370
    25
100
AcDbLine
 10
76.82636998034073
 20
-180.7987127625206
 30
0.0
 11
76.82636998034073
 21
-196.7987127625206
 31
0.0
  0
LINE
  5
2B8
330
9D
100
AcDbEntity
  8
Layer0000
  6
CENTER
 62
     2
370
    25
100
AcDbLine
 10
114.8263699803408
 20
-245.7987127625206
 30
0.0
 11
114.8263699803408
 21
-199.0059960064267
 31
0.0
  0
ENDBLK
  5
9F
330
9D
100
AcDbEntity
  8
0
100
AcDbBlockEnd
  0
BLOCK
  5
A1
330
A0
100
AcDbEntity
  8
0
100
AcDbBlockBegin
  2
DC_GROUP_COM125_15
 70
     0
 10
0.0
 20
0.0
 30
0.0
  3
DC_GROUP_COM125_15
  1

  0
INSERT
  5
2B9
330
A0
100
AcDbEntity
  8
Layer0000
  6
Continuous
100
AcDbBlockReference
  2
DC_GROUP_COM125_16
 10
0.0
 20
0.0
 30
0.0
  0
ENDBLK
  5
A2
330
A0
100
AcDbEntity
  8
0
100
AcDbBlockEnd
  0
BLOCK
  5
A4
330
A3
100
AcDbEntity
  8
0
100
AcDbBlockBegin
  2
DC_GROUP_COM125_16
 70
     0
 10
0.0
 20
0.0
 30
0.0
  3
DC_GROUP_COM125_16
  1

  0
LINE
  5
2BA
330
A3
100
AcDbEntity
  8
Layer0000
  6
CENTER
 62
     2
370
    25
100
AcDbLine
 10
314.5914549045166
 20
181.8202911454414
 30
0.0
 11
440.5914549045166
 21
181.8202911454414
 31
0.0
  0
LINE
  5
2BB
330
A3
100
AcDbEntity
  8
Layer0000
  6
Continuous
 62
     3
370
    25
100
AcDbLine
 10
440.5914549045166
 20
119.3202911454414
 30
0.0
 11
440.5914549045166
 21
244.3202911454414
 31
0.0
  0
LINE
  5
2BC
330
A3
100
AcDbEntity
  8
Layer0000
  6
Continuous
 62
     3
370
    25
100
AcDbLine
 10
440.5914549045166
 20
244.3202911454414
 30
0.0
 11
418.5914549045166
 21
244.3202911454414
 31
0.0
  0
LINE
  5
2BD
330
A3
100
AcDbEntity
  8
Layer0000
  6
Continuous
 62
     3
370
    25
100
AcDbLine
 10
360.5914549045166
 20
204.3202911454414
 30
0.0
 11
360.5914549045166
 21
230.8202911454414
 31
0.0
  0
LINE
  5
2BE
330
A3
100
AcDbEntity
  8
Layer0000
  6
Continuous
 62
     3
370
    25
100
AcDbLine
 10
360.5914549045166
 20
230.8202911454414
 30
0.0
 11
372.5914549045166
 21
230.8202911454414
 31
0.0
  0
LINE
  5
2BF
330
A3
100
AcDbEntity
  8
Layer0000
  6
Continuous
 62
     3
370
    25
100
AcDbLine
 10
372.5914549045166
 20
230.8202911454414
 30
0.0
 11
372.5914549045166
 21
224.8202911454414
 31
0.0
  0
LINE
  5
2C0
330
A3
100
AcDbEntity
  8
Layer0000
  6
Continuous
 62
     3
370
    25
100
AcDbLine
 10
418.5914549045166
 20
244.3202911454414
 30
0.0
 11
418.5914549045166
 21
229.8202911454414
 31
0.0
  0
LINE
  5
2C1
330
A3
100
AcDbEntity
  8
Layer0000
  6
Continuous
 62
     3
370
    25
100
AcDbLine
 10
410.0914549045166
 20
224.8202911454414
 30
0.0
 11
410.0914549045166
 21
223.8202911454414
 31
0.0
  0
LINE
  5
2C2
330
A3
100
AcDbEntity
  8
Layer0000
  6
Continuous
 62
     3
370
    25
100
AcDbLine
 10
410.0914549045166
 20
223.8202911454414
 30
0.0
 11
375.0914549045166
 21
223.8202911454414
 31
0.0
  0
LINE
  5
2C3
330
A3
100
AcDbEntity
  8
Layer0000
  6
Continuous
 62
     3
370
    25
100
AcDbLine
 10
375.0914549045166
 20
223.8202911454414
 30
0.0
 11
375.0914549045166
 21
224.8202911454414
 31
0.0
  0
LINE
  5
2C4
330
A3
100
AcDbEntity
  8
Layer0000
  6
Continuous
 62
     3
370
    25
100
AcDbLine
 10
372.5914549045166
 20
224.8202911454414
 30
0.0
 11
375.0914549045166
 21
224.8202911454414
 31
0.0
  0
LINE
  5
2C5
330
A3
100
AcDbEntity
  8
Layer0000
  6
Continuous
 62
     3
370
    25
100
AcDbLine
 10
413.5914549045166
 20
224.8202911454414
 30
0.0
 11
410.0914549045166
 21
224.8202911454414
 31
0.0
  0
LINE
  5
2C6
330
A3
100
AcDbEntity
  8
Layer0000
  6
Continuous
 62
     3
370
    25
100
AcDbLine
 10
360.5914549045166
 20
204.3202911454414
 30
0.0
 11
418.5914549045166
 21
204.3202911454414
 31
0.0
  0
LINE
  5
2C7
330
A3
100
AcDbEntity
  8
Layer0000
  6
Continuous
 62
     3
370
    25
100
AcDbLine
 10
407.5914549045166
 20
201.3202911454414
 30
0.0
 11
407.5914549045166
 21
162.3202911454414
 31
0.0
  0
ARC
  5
2C8
330
A3
100
AcDbEntity
  8
Layer0000
  6
Continuous
 62
     3
370
    25
100
AcDbCircle
 10
413.5914549045166
 20
229.8202911454414
 30
0.0
 40
5.0
100
AcDbArc
 50
270.0
 51
0.0
  0
LINE
  5
2C9
330
A3
100
AcDbEntity
  8
Layer0000
  6
Continuous
 62
     3
370
    25
100
AcDbLine
 10
440.5914549045166
 20
119.3202911454414
 30
0.0
 11
418.5914549045166
 21
119.3202911454414
 31
0.0
  0
LINE
  5
2CA
330
A3
100
AcDbEntity
  8
Layer0000
  6
Continuous
 62
     3
370
    25
100
AcDbLine
 10
360.5914549045166
 20
159.3202911454414
 30
0.0
 11
360.5914549045166
 21
132.8202911454414
 31
0.0
  0
LINE
  5
2CB
330
A3
100
AcDbEntity
  8
Layer0000
  6
Continuous
 62
     3
370
    25
100
AcDbLine
 10
360.5914549045166
 20
132.8202911454414
 30
0.0
 11
372.5914549045166
 21
132.8202911454414
 31
0.0
  0
LINE
  5
2CC
330
A3
100
AcDbEntity
  8
Layer0000
  6
Continuous
 62
     3
370
    25
100
AcDbLine
 10
372.5914549045166
 20
132.8202911454414
 30
0.0
 11
372.5914549045166
 21
138.8202911454414
 31
0.0
  0
LINE
  5
2CD
330
A3
100
AcDbEntity
  8
Layer0000
  6
Continuous
 62
     3
370
    25
100
AcDbLine
 10
418.5914549045166
 20
119.3202911454414
 30
0.0
 11
418.5914549045166
 21
133.8202911454414
 31
0.0
  0
LINE
  5
2CE
330
A3
100
AcDbEntity
  8
Layer0000
  6
Continuous
 62
     3
370
    25
100
AcDbLine
 10
410.0914549045166
 20
138.8202911454414
 30
0.0
 11
410.0914549045166
 21
139.8202911454414
 31
0.0
  0
LINE
  5
2CF
330
A3
100
AcDbEntity
  8
Layer0000
  6
Continuous
 62
     3
370
    25
100
AcDbLine
 10
410.0914549045166
 20
139.8202911454414
 30
0.0
 11
375.0914549045166
 21
139.8202911454414
 31
0.0
  0
LINE
  5
2D0
330
A3
100
AcDbEntity
  8
Layer0000
  6
Continuous
 62
     3
370
    25
100
AcDbLine
 10
375.0914549045166
 20
139.8202911454414
 30
0.0
 11
375.0914549045166
 21
138.8202911454414
 31
0.0
  0
LINE
  5
2D1
330
A3
100
AcDbEntity
  8
Layer0000
  6
Continuous
 62
     3
370
    25
100
AcDbLine
 10
372.5914549045166
 20
138.8202911454414
 30
0.0
 11
375.0914549045166
 21
138.8202911454414
 31
0.0
  0
LINE
  5
2D2
330
A3
100
AcDbEntity
  8
Layer0000
  6
Continuous
 62
     3
370
    25
100
AcDbLine
 10
413.5914549045166
 20
138.8202911454414
 30
0.0
 11
410.0914549045166
 21
138.8202911454414
 31
0.0
  0
LINE
  5
2D3
330
A3
100
AcDbEntity
  8
Layer0000
  6
Continuous
 62
     3
370
    25
100
AcDbLine
 10
360.5914549045166
 20
159.3202911454414
 30
0.0
 11
418.5914549045166
 21
159.3202911454414
 31
0.0
  0
ARC
  5
2D4
330
A3
100
AcDbEntity
  8
Layer0000
  6
Continuous
 62
     3
370
    25
100
AcDbCircle
 10
413.5914549045166
 20
133.8202911454414
 30
0.0
 40
5.0
100
AcDbArc
 50
0.0
 51
90.0
  0
ARC
  5
2D5
330
A3
100
AcDbEntity
  8
Layer0000
  6
Continuous
 62
     3
370
    25
100
AcDbCircle
 10
404.5914549045166
 20
201.3202911454414
 30
0.0
 40
3.0
100
AcDbArc
 50
0.0
 51
90.0
  0
ARC
  5
2D6
330
A3
100
AcDbEntity
  8
Layer0000
  6
Continuous
 62
     3
370
    25
100
AcDbCircle
 10
404.5914549045166
 20
162.3202911454414
 30
0.0
 40
3.0
100
AcDbArc
 50
270.0
 51
0.0
  0
LINE
  5
2D7
330
A3
100
AcDbEntity
  8
Layer0000
  6
Continuous
 62
     3
370
    25
100
AcDbLine
 10
418.5914549045166
 20
204.3202911454414
 30
0.0
 11
418.5914549045166
 21
159.3202911454414
 31
0.0
  0
ENDBLK
  5
A5
330
A3
100
AcDbEntity
  8
0
100
AcDbBlockEnd
  0
BLOCK
  5
A7
330
A6
100
AcDbEntity
  8
0
100
AcDbBlockBegin
  2
DC_GROUP_COM125_17
 70
     0
 10
0.0
 20
0.0
 30
0.0
  3
DC_GROUP_COM125_17
  1

  0
LINE
  5
2D8
330
A6
100
AcDbEntity
  8
Layer0000
  6
Continuous
 62
     3
370
    18
100
AcDbLine
 10
-363.1493397770446
 20
244.0702911454414
 30
0.0
 11
-363.1493397770446
 21
119.5702911454414
 31
0.0
  0
LINE
  5
2D9
330
A6
100
AcDbEntity
  8
Layer0000
  6
Continuous
 62
     3
370
    18
100
AcDbLine
 10
-273.1493397770447
 20
244.0702911454414
 30
0.0
 11
-273.1493397770447
 21
119.5702911454414
 31
0.0
  0
LINE
  5
2DA
330
A6
100
AcDbEntity
  8
Layer0000
  6
Continuous
 62
     3
370
    18
100
AcDbLine
 10
-363.1493397770446
 20
244.0702911454414
 30
0.0
 11
-273.1493397770447
 21
244.0702911454414
 31
0.0
  0
LINE
  5
2DB
330
A6
100
AcDbEntity
  8
Layer0000
  6
Continuous
 62
     3
370
    18
100
AcDbLine
 10
-363.1493397770446
 20
119.5702911454414
 30
0.0
 11
-273.1493397770447
 21
119.5702911454414
 31
0.0
  0
CIRCLE
  5
2DC
330
A6
100
AcDbEntity
  8
Layer0000
  6
Continuous
 62
     3
370
    18
100
AcDbCircle
 10
-348.1493397770446
 20
148.3202911454414
 30
0.0
 40
11.5
  0
CIRCLE
  5
2DD
330
A6
100
AcDbEntity
  8
Layer0000
  6
Continuous
 62
     3
370
    18
100
AcDbCircle
 10
-288.1493397770447
 20
148.3202911454414
 30
0.0
 40
11.5
  0
CIRCLE
  5
2DE
330
A6
100
AcDbEntity
  8
Layer0000
  6
Continuous
 62
     3
370
    18
100
AcDbCircle
 10
-348.1493397770446
 20
215.3202911454414
 30
0.0
 40
11.5
  0
CIRCLE
  5
2DF
330
A6
100
AcDbEntity
  8
Layer0000
  6
Continuous
 62
     3
370
    18
100
AcDbCircle
 10
-288.1493397770447
 20
215.3202911454414
 30
0.0
 40
11.5
  0
CIRCLE
  5
2E0
330
A6
100
AcDbEntity
  8
Layer0000
  6
Continuous
 62
     3
370
    18
100
AcDbCircle
 10
-318.1493397770446
 20
181.8202911454414
 30
0.0
 40
15.0
  0
LINE
  5
2E1
330
A6
100
AcDbEntity
  8
Layer0000
  6
CENTER
 62
     2
370
    25
100
AcDbLine
 10
-348.1493397770446
 20
159.8202911454414
 30
0.0
 11
-348.1493397770446
 21
136.8202911454414
 31
0.0
  0
LINE
  5
2E2
330
A6
100
AcDbEntity
  8
Layer0000
  6
CENTER
 62
     2
370
    25
100
AcDbLine
 10
-359.6493397770446
 20
148.3202911454414
 30
0.0
 11
-336.6493397770446
 21
148.3202911454414
 31
0.0
  0
LINE
  5
2E3
330
A6
100
AcDbEntity
  8
Layer0000
  6
CENTER
 62
     2
370
    25
100
AcDbLine
 10
-288.1493397770447
 20
159.8202911454414
 30
0.0
 11
-288.1493397770447
 21
136.8202911454414
 31
0.0
  0
LINE
  5
2E4
330
A6
100
AcDbEntity
  8
Layer0000
  6
CENTER
 62
     2
370
    25
100
AcDbLine
 10
-276.6493397770447
 20
148.3202911454414
 30
0.0
 11
-299.6493397770446
 21
148.3202911454414
 31
0.0
  0
LINE
  5
2E5
330
A6
100
AcDbEntity
  8
Layer0000
  6
CENTER
 62
     2
370
    25
100
AcDbLine
 10
-348.1493397770446
 20
203.8202911454414
 30
0.0
 11
-348.1493397770446
 21
226.8202911454414
 31
0.0
  0
LINE
  5
2E6
330
A6
100
AcDbEntity
  8
Layer0000
  6
CENTER
 62
     2
370
    25
100
AcDbLine
 10
-359.6493397770446
 20
215.3202911454414
 30
0.0
 11
-336.6493397770446
 21
215.3202911454414
 31
0.0
  0
LINE
  5
2E7
330
A6
100
AcDbEntity
  8
Layer0000
  6
CENTER
 62
     2
370
    25
100
AcDbLine
 10
-288.1493397770447
 20
203.8202911454414
 30
0.0
 11
-288.1493397770447
 21
226.8202911454414
 31
0.0
  0
LINE
  5
2E8
330
A6
100
AcDbEntity
  8
Layer0000
  6
CENTER
 62
     2
370
    25
100
AcDbLine
 10
-276.6493397770447
 20
215.3202911454414
 30
0.0
 11
-299.6493397770446
 21
215.3202911454414
 31
0.0
  0
ENDBLK
  5
A8
330
A6
100
AcDbEntity
  8
0
100
AcDbBlockEnd
  0
BLOCK
  5
AA
330
A9
100
AcDbEntity
  8
0
100
AcDbBlockBegin
  2
DC_GROUP_COM125_18
 70
     0
 10
0.0
 20
0.0
 30
0.0
  3
DC_GROUP_COM125_18
  1

  0
LINE
  5
2E9
330
A9
100
AcDbEntity
  8
Layer0000
  6
Continuous
 62
     3
370
    18
100
AcDbLine
 10
-273.1493397770446
 20
-152.7987127625206
 30
0.0
 11
-273.1493397770446
 21
-112.2987127625206
 31
0.0
  0
LINE
  5
2EA
330
A9
100
AcDbEntity
  8
Layer0000
  6
Continuous
 62
     3
370
    18
100
AcDbLine
 10
-273.1493397770446
 20
-112.2987127625206
 30
0.0
 11
-363.1493397770446
 21
-112.2987127625206
 31
0.0
  0
LINE
  5
2EB
330
A9
100
AcDbEntity
  8
Layer0000
  6
Continuous
 62
     3
370
    18
100
AcDbLine
 10
-363.1493397770446
 20
-157.7987127625206
 30
0.0
 11
-273.3493397770447
 21
-157.7987127625206
 31
0.0
  0
LINE
  5
2EC
330
A9
100
AcDbEntity
  8
Layer0000
  6
Continuous
 62
     3
370
    18
100
AcDbLine
 10
-328.1493397770446
 20
-157.7987127625206
 30
0.0
 11
-328.1493397770446
 21
-165.2987127625206
 31
0.0
  0
LINE
  5
2ED
330
A9
100
AcDbEntity
  8
Layer0000
  6
Continuous
 62
     3
370
    18
100
AcDbLine
 10
-328.1493397770446
 20
-165.2987127625206
 30
0.0
 11
-308.1493397770446
 21
-165.2987127625206
 31
0.0
  0
LINE
  5
2EE
330
A9
100
AcDbEntity
  8
Layer0000
  6
Continuous
 62
     3
370
    18
100
AcDbLine
 10
-308.1493397770446
 20
-165.2987127625206
 30
0.0
 11
-308.1493397770446
 21
-157.7987127625206
 31
0.0
  0
LINE
  5
2EF
330
A9
100
AcDbEntity
  8
Layer0000
  6
Continuous
 62
     3
370
    18
100
AcDbLine
 10
-363.1493397770446
 20
-152.7987127625206
 30
0.0
 11
-363.1493397770446
 21
-112.2987127625206
 31
0.0
  0
INSERT
  5
2F0
330
A9
100
AcDbEntity
  8
Layer0000
  6
Continuous
100
AcDbBlockReference
  2
DC_GROUP_COM125_19
 10
0.0
 20
0.0
 30
0.0
  0
ENDBLK
  5
AB
330
A9
100
AcDbEntity
  8
0
100
AcDbBlockEnd
  0
BLOCK
  5
AD
330
AC
100
AcDbEntity
  8
0
100
AcDbBlockBegin
  2
DC_GROUP_COM125_19
 70
     0
 10
0.0
 20
0.0
 30
0.0
  3
DC_GROUP_COM125_19
  1

  0
CIRCLE
  5
2F1
330
AC
100
AcDbEntity
  8
Layer0000
  6
Continuous
 62
     4
370
    18
100
AcDbCircle
 10
-318.1493397770446
 20
-132.2987127625206
 30
0.0
 40
6.917500000000018
  0
CIRCLE
  5
2F2
330
AC
100
AcDbEntity
  8
Layer0000
  6
Continuous
 62
   150
370
    18
100
AcDbCircle
 10
-318.1493397770446
 20
-132.2987127625206
 30
0.0
 40
8.0
  0
LINE
  5
2F3
330
AC
100
AcDbEntity
  8
Layer0000
  6
CENTER
 62
     2
370
    18
100
AcDbLine
 10
-330.1493397770446
 20
-132.2987127625206
 30
0.0
 11
-306.1493397770446
 21
-132.2987127625206
 31
0.0
  0
ENDBLK
  5
AE
330
AC
100
AcDbEntity
  8
0
100
AcDbBlockEnd
  0
BLOCK
  5
B0
330
AF
100
AcDbEntity
  8
0
100
AcDbBlockBegin
  2
DC_GROUP_COM125_20
 70
     0
 10
0.0
 20
0.0
 30
0.0
  3
DC_GROUP_COM125_20
  1

  0
LINE
  5
2F4
330
AF
100
AcDbEntity
  8
Layer0000
  6
Continuous
 62
     3
370
    25
100
AcDbLine
 10
-82.99298687992004
 20
-164.7987127625206
 30
0.0
 11
-82.99298687992004
 21
-158.7022397083729
 31
0.0
  0
LINE
  5
2F5
330
AF
100
AcDbEntity
  8
Layer0000
  6
Continuous
 62
     3
370
    25
100
AcDbLine
 10
-87.90046416803187
 20
-164.7987127625206
 30
0.0
 11
-87.90046416803187
 21
-158.7022397083729
 31
0.0
  0
LINE
  5
2F6
330
AF
100
AcDbEntity
  8
Layer0000
  6
Continuous
 62
     3
370
    25
100
AcDbLine
 10
-82.99298687992004
 20
-164.7987127625206
 30
0.0
 11
-102.6228960323673
 21
-164.7987127625206
 31
0.0
  0
LINE
  5
2F7
330
AF
100
AcDbEntity
  8
Layer0000
  6
Continuous
 62
     3
370
    25
100
AcDbLine
 10
-85.44672552397597
 20
-157.7987127625206
 30
0.0
 11
-100.1691573883114
 21
-157.7987127625206
 31
0.0
  0
LINE
  5
2F8
330
AF
100
AcDbEntity
  8
Layer0000
  6
Continuous
 62
     3
370
    25
100
AcDbLine
 10
-102.6228960323673
 20
-164.7987127625206
 30
0.0
 11
-102.6228960323673
 21
-158.7022397083729
 31
0.0
  0
LINE
  5
2F9
330
AF
100
AcDbEntity
  8
Layer0000
  6
Continuous
 62
     3
370
    25
100
AcDbLine
 10
-97.71541874425549
 20
-164.7987127625206
 30
0.0
 11
-97.71541874425549
 21
-158.7022397083729
 31
0.0
  0
ARC
  5
2FA
330
AF
100
AcDbEntity
  8
Layer0000
  6
Continuous
 62
     3
370
    25
100
AcDbCircle
 10
-85.44672552397597
 20
-161.5823266915802
 30
0.0
 40
3.78361392905956
100
AcDbArc
 50
49.57010315517248
 51
130.4298968448272
  0
ARC
  5
2FB
330
AF
100
AcDbEntity
  8
Layer0000
  6
Continuous
 62
     3
370
    25
100
AcDbCircle
 10
-100.1691573883114
 20
-161.5823266915802
 30
0.0
 40
3.783613929059542
100
AcDbArc
 50
49.5701031551728
 51
130.4298968448275
  0
ARC
  5
2FC
330
AF
100
AcDbEntity
  8
Layer0000
  6
Continuous
 62
     3
370
    25
100
AcDbCircle
 10
-92.80794145614368
 20
-171.5778780599804
 30
0.0
 40
13.7791652974598
100
AcDbArc
 50
69.13593563608066
 51
110.8640643639193
  0
LINE
  5
2FD
330
AF
100
AcDbEntity
  8
Layer0000
  6
Continuous
 62
     3
370
    25
100
AcDbLine
 10
-87.80794145614368
 20
-165.1987127625206
 30
0.0
 11
-87.80794145614368
 21
-174.7987127625206
 31
0.0
  0
LINE
  5
2FE
330
AF
100
AcDbEntity
  8
Layer0000
  6
Continuous
 62
     3
370
    25
100
AcDbLine
 10
-88.61994145614369
 20
-164.7987127625206
 30
0.0
 11
-88.61994145614369
 21
-174.7987127625206
 31
0.0
  0
LINE
  5
2FF
330
AF
100
AcDbEntity
  8
Layer0000
  6
Continuous
 62
     3
370
    25
100
AcDbLine
 10
-97.80794145614368
 20
-165.1987127625206
 30
0.0
 11
-97.80794145614368
 21
-174.7987127625206
 31
0.0
  0
LINE
  5
300
330
AF
100
AcDbEntity
  8
Layer0000
  6
Continuous
 62
     3
370
    25
100
AcDbLine
 10
-96.99594145614367
 20
-164.7987127625206
 30
0.0
 11
-96.99594145614367
 21
-174.7987127625206
 31
0.0
  0
ARC
  5
301
330
AF
100
AcDbEntity
  8
Layer0000
  6
Continuous
 62
     3
370
    25
100
AcDbCircle
 10
-87.40794145614367
 20
-165.1987127625206
 30
0.0
 40
0.4000000000000057
100
AcDbArc
 50
90.0
 51
180.0
  0
ARC
  5
302
330
AF
100
AcDbEntity
  8
Layer0000
  6
Continuous
 62
     3
370
    25
100
AcDbCircle
 10
-98.20794145614369
 20
-165.1987127625206
 30
0.0
 40
0.4000000000000057
100
AcDbArc
 50
0.0
 51
90.0
  0
LINE
  5
303
330
AF
100
AcDbEntity
  8
Layer0000
  6
Continuous
 62
     3
370
    25
100
AcDbLine
 10
-102.6228960323673
 20
-182.7987127625206
 30
0.0
 11
-102.6228960323673
 21
-175.7022397083729
 31
0.0
  0
LINE
  5
304
330
AF
100
AcDbEntity
  8
Layer0000
  6
Continuous
 62
     3
370
    25
100
AcDbLine
 10
-97.71541874425549
 20
-175.7022397083729
 30
0.0
 11
-97.71541874425549
 21
-182.7987127625206
 31
0.0
  0
LINE
  5
305
330
AF
100
AcDbEntity
  8
Layer0000
  6
Continuous
 62
     3
370
    25
100
AcDbLine
 10
-102.6228960323673
 20
-182.7987127625206
 30
0.0
 11
-82.99298687992004
 21
-182.7987127625206
 31
0.0
  0
LINE
  5
306
330
AF
100
AcDbEntity
  8
Layer0000
  6
Continuous
 62
     3
370
    25
100
AcDbLine
 10
-100.1691573883114
 20
-174.7987127625206
 30
0.0
 11
-85.44672552397597
 21
-174.7987127625206
 31
0.0
  0
LINE
  5
307
330
AF
100
AcDbEntity
  8
Layer0000
  6
Continuous
 62
     3
370
    25
100
AcDbLine
 10
-82.99298687992004
 20
-182.7987127625206
 30
0.0
 11
-82.99298687992004
 21
-175.7022397083729
 31
0.0
  0
LINE
  5
308
330
AF
100
AcDbEntity
  8
Layer0000
  6
Continuous
 62
     3
370
    25
100
AcDbLine
 10
-87.90046416803187
 20
-182.7987127625206
 30
0.0
 11
-87.90046416803187
 21
-175.7022397083729
 31
0.0
  0
ARC
  5
309
330
AF
100
AcDbEntity
  8
Layer0000
  6
Continuous
 62
     3
370
    25
100
AcDbCircle
 10
-100.1691573883114
 20
-178.5823266915802
 30
0.0
 40
3.783613929059542
100
AcDbArc
 50
49.5701031551728
 51
130.4298968448275
  0
ARC
  5
30A
330
AF
100
AcDbEntity
  8
Layer0000
  6
Continuous
 62
     3
370
    25
100
AcDbCircle
 10
-85.44672552397597
 20
-178.5823266915802
 30
0.0
 40
3.78361392905956
100
AcDbArc
 50
49.57010315517247
 51
130.4298968448272
  0
ARC
  5
30B
330
AF
100
AcDbEntity
  8
Layer0000
  6
Continuous
 62
     3
370
    25
100
AcDbCircle
 10
-92.80794145614368
 20
-188.5778780599804
 30
0.0
 40
13.77916529745979
100
AcDbArc
 50
69.13593563608065
 51
110.8640643639194
  0
ENDBLK
  5
B1
330
AF
100
AcDbEntity
  8
0
100
AcDbBlockEnd
  0
BLOCK
  5
B3
330
B2
100
AcDbEntity
  8
0
100
AcDbBlockBegin
  2
DC_GROUP_COM125_21
 70
     0
 10
0.0
 20
0.0
 30
0.0
  3
DC_GROUP_COM125_21
  1

  0
LINE
  5
30C
330
B2
100
AcDbEntity
  8
Layer0000
  6
Continuous
 62
     3
370
    18
100
AcDbLine
 10
-258.1493397770447
 20
244.3202911454414
 30
0.0
 11
-258.1493397770447
 21
119.3202911454414
 31
0.0
  0
LINE
  5
30D
330
B2
100
AcDbEntity
  8
Layer0000
  6
Continuous
 62
     3
370
    18
100
AcDbLine
 10
-273.1493397770447
 20
119.3202911454414
 30
0.0
 11
-273.1493397770447
 21
244.3202911454414
 31
0.0
  0
LINE
  5
30E
330
B2
100
AcDbEntity
  8
Layer0000
  6
Continuous
 62
     3
370
    18
100
AcDbLine
 10
-273.1493397770447
 20
244.3202911454414
 30
0.0
 11
-258.1493397770447
 21
244.3202911454414
 31
0.0
  0
LINE
  5
30F
330
B2
100
AcDbEntity
  8
Layer0000
  6
Continuous
 62
     3
370
    18
100
AcDbLine
 10
-273.1493397770447
 20
119.3202911454414
 30
0.0
 11
-258.1493397770447
 21
119.3202911454414
 31
0.0
  0
ENDBLK
  5
B4
330
B2
100
AcDbEntity
  8
0
100
AcDbBlockEnd
  0
BLOCK
  5
B6
330
B5
100
AcDbEntity
  8
0
100
AcDbBlockBegin
  2
DC_GROUP_COM125_22
 70
     0
 10
0.0
 20
0.0
 30
0.0
  3
DC_GROUP_COM125_22
  1

  0
LINE
  5
310
330
B5
100
AcDbEntity
  8
Layer0000
  6
Continuous
 62
     3
370
    18
100
AcDbLine
 10
-378.1493397770446
 20
244.3202911454414
 30
0.0
 11
-378.1493397770446
 21
119.3202911454414
 31
0.0
  0
LINE
  5
311
330
B5
100
AcDbEntity
  8
Layer0000
  6
Continuous
 62
     3
370
    18
100
AcDbLine
 10
-363.1493397770446
 20
119.3202911454414
 30
0.0
 11
-363.1493397770446
 21
244.3202911454414
 31
0.0
  0
LINE
  5
312
330
B5
100
AcDbEntity
  8
Layer0000
  6
Continuous
 62
     3
370
    18
100
AcDbLine
 10
-363.1493397770446
 20
244.3202911454414
 30
0.0
 11
-378.1493397770446
 21
244.3202911454414
 31
0.0
  0
LINE
  5
313
330
B5
100
AcDbEntity
  8
Layer0000
  6
Continuous
 62
     3
370
    18
100
AcDbLine
 10
-363.1493397770446
 20
119.3202911454414
 30
0.0
 11
-378.1493397770446
 21
119.3202911454414
 31
0.0
  0
ENDBLK
  5
B7
330
B5
100
AcDbEntity
  8
0
100
AcDbBlockEnd
  0
BLOCK
  5
B9
330
B8
100
AcDbEntity
  8
0
100
AcDbBlockBegin
  2
DC_GROUP_COM125_23
 70
     0
 10
0.0
 20
0.0
 30
0.0
  3
DC_GROUP_COM125_23
  1

  0
LINE
  5
314
330
B8
100
AcDbEntity
  8
Layer0000
  6
Continuous
 62
     3
370
    18
100
AcDbLine
 10
-363.1493397770446
 20
-111.7987127625206
 30
0.0
 11
-363.1493397770446
 21
-157.7987127625206
 31
0.0
  0
LINE
  5
315
330
B8
100
AcDbEntity
  8
Layer0000
  6
Continuous
 62
     3
370
    18
100
AcDbLine
 10
-363.1493397770446
 20
-157.7987127625206
 30
0.0
 11
-378.1493397770446
 21
-157.7987127625206
 31
0.0
  0
LINE
  5
316
330
B8
100
AcDbEntity
  8
Layer0000
  6
Continuous
 62
     3
370
    18
100
AcDbLine
 10
-378.1493397770446
 20
-157.7987127625206
 30
0.0
 11
-378.1493397770446
 21
-111.7987127625206
 31
0.0
  0
LINE
  5
317
330
B8
100
AcDbEntity
  8
Layer0000
  6
Continuous
 62
     3
370
    18
100
AcDbLine
 10
-378.1493397770446
 20
-111.7987127625206
 30
0.0
 11
-363.1493397770446
 21
-111.7987127625206
 31
0.0
  0
ENDBLK
  5
BA
330
B8
100
AcDbEntity
  8
0
100
AcDbBlockEnd
  0
BLOCK
  5
BC
330
BB
100
AcDbEntity
  8
0
100
AcDbBlockBegin
  2
DC_GROUP_COM125_24
 70
     0
 10
0.0
 20
0.0
 30
0.0
  3
DC_GROUP_COM125_24
  1

  0
LINE
  5
318
330
BB
100
AcDbEntity
  8
Layer0000
  6
Continuous
 62
     3
370
    18
100
AcDbLine
 10
-273.1493397770446
 20
-111.7987127625206
 30
0.0
 11
-273.1493397770446
 21
-157.7987127625206
 31
0.0
  0
LINE
  5
319
330
BB
100
AcDbEntity
  8
Layer0000
  6
Continuous
 62
     3
370
    18
100
AcDbLine
 10
-273.1493397770446
 20
-157.7987127625206
 30
0.0
 11
-258.1493397770446
 21
-157.7987127625206
 31
0.0
  0
LINE
  5
31A
330
BB
100
AcDbEntity
  8
Layer0000
  6
Continuous
 62
     3
370
    18
100
AcDbLine
 10
-258.1493397770446
 20
-157.7987127625206
 30
0.0
 11
-258.1493397770446
 21
-111.7987127625206
 31
0.0
  0
LINE
  5
31B
330
BB
100
AcDbEntity
  8
Layer0000
  6
Continuous
 62
     3
370
    18
100
AcDbLine
 10
-258.1493397770446
 20
-111.7987127625206
 30
0.0
 11
-273.1493397770446
 21
-111.7987127625206
 31
0.0
  0
ENDBLK
  5
BD
330
BB
100
AcDbEntity
  8
0
100
AcDbBlockEnd
  0
BLOCK
  5
BF
330
BE
100
AcDbEntity
  8
0
100
AcDbBlockBegin
  2
DC_GROUP_COM125_25
 70
     0
 10
0.0
 20
0.0
 30
0.0
  3
DC_GROUP_COM125_25
  1

  0
LINE
  5
31C
330
BE
100
AcDbEntity
  8
Layer0000
  6
Continuous
 62
     3
370
    18
100
AcDbLine
 10
402.5914549045166
 20
204.3202911454414
 30
0.0
 11
367.5914549045166
 21
204.3202911454414
 31
0.0
  0
LINE
  5
31D
330
BE
100
AcDbEntity
  8
Layer0000
  6
Continuous
 62
     3
370
    18
100
AcDbLine
 10
407.5914549045166
 20
199.3202911454414
 30
0.0
 11
407.5914549045166
 21
164.3202911454414
 31
0.0
  0
LINE
  5
31E
330
BE
100
AcDbEntity
  8
Layer0000
  6
Continuous
 62
     3
370
    18
100
AcDbLine
 10
402.5914549045166
 20
204.3202911454414
 30
0.0
 11
407.5914549045166
 21
199.3202911454414
 31
0.0
  0
ARC
  5
31F
330
BE
100
AcDbEntity
  8
Layer0000
  6
Continuous
 62
     3
370
    18
100
AcDbCircle
 10
364.5914549045166
 20
204.3202911454414
 30
0.0
 40
3.0
100
AcDbArc
 50
270.0
 51
0.0
  0
LINE
  5
320
330
BE
100
AcDbEntity
  8
Layer0000
  6
Continuous
 62
     3
370
    18
100
AcDbLine
 10
402.5914549045166
 20
159.3202911454414
 30
0.0
 11
367.5914549045166
 21
159.3202911454414
 31
0.0
  0
ARC
  5
321
330
BE
100
AcDbEntity
  8
Layer0000
  6
Continuous
 62
     3
370
    18
100
AcDbCircle
 10
364.5914549045166
 20
159.3202911454414
 30
0.0
 40
3.0
100
AcDbArc
 50
0.0
 51
90.0
  0
LINE
  5
322
330
BE
100
AcDbEntity
  8
Layer0000
  6
Continuous
 62
     3
370
    18
100
AcDbLine
 10
402.5914549045166
 20
159.3202911454414
 30
0.0
 11
407.5914549045166
 21
164.3202911454414
 31
0.0
  0
ENDBLK
  5
C0
330
BE
100
AcDbEntity
  8
0
100
AcDbBlockEnd
  0
BLOCK
  5
C2
330
C1
100
AcDbEntity
  8
0
100
AcDbBlockBegin
  2
DC_GROUP_COM125_26
 70
     0
 10
0.0
 20
0.0
 30
0.0
  3
DC_GROUP_COM125_26
  1

  0
LINE
  5
323
330
C1
100
AcDbEntity
  8
Layer0000
  6
Continuous
 62
     3
370
    18
100
AcDbLine
 10
382.5914549045166
 20
139.8202911454414
 30
0.0
 11
382.5914549045165
 21
121.3202911454414
 31
0.0
  0
LINE
  5
324
330
C1
100
AcDbEntity
  8
Layer0000
  6
Continuous
 62
     3
370
    18
100
AcDbLine
 10
400.5914549045166
 20
121.3202911454414
 30
0.0
 11
400.5914549045166
 21
139.8202911454414
 31
0.0
  0
LINE
  5
325
330
C1
100
AcDbEntity
  8
Layer0000
  6
Continuous
 62
     3
370
    18
100
AcDbLine
 10
382.5914549045166
 20
139.8202911454414
 30
0.0
 11
400.5914549045166
 21
139.8202911454414
 31
0.0
  0
LINE
  5
326
330
C1
100
AcDbEntity
  8
Layer0000
  6
Continuous
 62
     3
370
    18
100
AcDbLine
 10
384.931200866672
 20
231.8202911454413
 30
0.0
 11
398.251708942361
 21
231.8202911454414
 31
0.0
  0
LINE
  5
327
330
C1
100
AcDbEntity
  8
Layer0000
  6
Continuous
 62
     3
370
    18
100
AcDbLine
 10
383.5914549045166
 20
226.8202911454414
 30
0.0
 11
399.5914549045166
 21
226.8202911454414
 31
0.0
  0
LINE
  5
328
330
C1
100
AcDbEntity
  8
Layer0000
  6
Continuous
 62
     3
370
    18
100
AcDbLine
 10
399.5914549045166
 20
226.8202911454416
 30
0.0
 11
398.251708942361
 21
231.8202911454414
 31
0.0
  0
LINE
  5
329
330
C1
100
AcDbEntity
  8
Layer0000
  6
Continuous
 62
     3
370
    18
100
AcDbLine
 10
383.5914549045166
 20
226.8202911454416
 30
0.0
 11
384.931200866672
 21
231.8202911454413
 31
0.0
  0
LINE
  5
32A
330
C1
100
AcDbEntity
  8
Layer0000
  6
Continuous
 62
     3
370
    18
100
AcDbLine
 10
382.5914549045165
 20
121.3202911454414
 30
0.0
 11
383.0914549045165
 21
120.8202911454414
 31
0.0
  0
LINE
  5
32B
330
C1
100
AcDbEntity
  8
Layer0000
  6
Continuous
 62
     3
370
    18
100
AcDbLine
 10
382.5914549045165
 20
110.8202911454414
 30
0.0
 11
382.5914549045165
 21
113.3202911454414
 31
0.0
  0
LINE
  5
32C
330
C1
100
AcDbEntity
  8
Layer0000
  6
Continuous
 62
     3
370
    18
100
AcDbLine
 10
382.5914549045165
 20
113.3202911454414
 30
0.0
 11
383.0914549045165
 21
113.8202911454414
 31
0.0
  0
LINE
  5
32D
330
C1
100
AcDbEntity
  8
Layer0000
  6
Continuous
 62
     3
370
    18
100
AcDbLine
 10
382.5914549045165
 20
110.8202911454414
 30
0.0
 11
383.5914549045165
 21
109.8202911454414
 31
0.0
  0
LINE
  5
32E
330
C1
100
AcDbEntity
  8
Layer0000
  6
Continuous
 62
     3
370
    18
100
AcDbLine
 10
383.5914549045165
 20
109.8202911454414
 30
0.0
 11
399.5914549045165
 21
109.8202911454414
 31
0.0
  0
LINE
  5
32F
330
C1
100
AcDbEntity
  8
Layer0000
  6
Continuous
 62
     3
370
    18
100
AcDbLine
 10
399.5914549045165
 20
109.8202911454414
 30
0.0
 11
400.5914549045165
 21
110.8202911454414
 31
0.0
  0
LINE
  5
330
330
C1
100
AcDbEntity
  8
Layer0000
  6
Continuous
 62
     3
370
    18
100
AcDbLine
 10
400.5914549045165
 20
121.3202911454414
 30
0.0
 11
400.0914549045165
 21
120.8202911454414
 31
0.0
  0
LINE
  5
331
330
C1
100
AcDbEntity
  8
Layer0000
  6
Continuous
 62
     3
370
    18
100
AcDbLine
 10
400.5914549045165
 20
110.8202911454414
 30
0.0
 11
400.5914549045165
 21
113.3202911454414
 31
0.0
  0
LINE
  5
332
330
C1
100
AcDbEntity
  8
Layer0000
  6
Continuous
 62
     3
370
    18
100
AcDbLine
 10
400.5914549045165
 20
113.3202911454414
 30
0.0
 11
400.0914549045166
 21
113.8202911454414
 31
0.0
  0
LINE
  5
333
330
C1
100
AcDbEntity
  8
Layer0000
  6
Continuous
 62
     3
370
    18
100
AcDbLine
 10
382.5914549045165
 20
110.8202911454414
 30
0.0
 11
400.5914549045165
 21
110.8202911454414
 31
0.0
  0
LINE
  5
334
330
C1
100
AcDbEntity
  8
Layer0000
  6
Continuous
 62
     3
370
    18
100
AcDbLine
 10
383.0914549045165
 20
113.8202911454414
 30
0.0
 11
400.0914549045166
 21
113.8202911454414
 31
0.0
  0
LINE
  5
335
330
C1
100
AcDbEntity
  8
Layer0000
  6
Continuous
 62
     3
370
    18
100
AcDbLine
 10
383.0914549045165
 20
120.8202911454414
 30
0.0
 11
400.0914549045165
 21
120.8202911454414
 31
0.0
  0
LINE
  5
336
330
C1
100
AcDbEntity
  8
Layer0000
  6
Continuous
 62
     3
370
    18
100
AcDbLine
 10
382.5914549045165
 20
121.3202911454414
 30
0.0
 11
400.5914549045165
 21
121.3202911454414
 31
0.0
  0
LINE
  5
337
330
C1
100
AcDbEntity
  8
Layer0000
  6
Continuous
 62
     3
370
    18
100
AcDbLine
 10
382.5914549045165
 20
113.3202911454414
 30
0.0
 11
400.5914549045165
 21
113.3202911454414
 31
0.0
  0
ARC
  5
338
330
C1
100
AcDbEntity
  8
Layer0000
  6
Continuous
 62
     3
370
    18
100
AcDbCircle
 10
381.8914549045165
 20
117.3202911454414
 30
0.0
 40
3.700000000000005
100
AcDbArc
 50
288.9246444160511
 51
71.07535558394896
  0
ARC
  5
339
330
C1
100
AcDbEntity
  8
Layer0000
  6
Continuous
 62
     3
370
    18
100
AcDbCircle
 10
401.2914549045165
 20
117.3202911454414
 30
0.0
 40
3.700000000000006
100
AcDbArc
 50
108.9246444160512
 51
251.0753555839489
  0
LINE
  5
33A
330
C1
100
AcDbEntity
  8
Layer0000
  6
Continuous
 62
     3
370
    18
100
AcDbLine
 10
383.5914549045166
 20
223.8202911454414
 30
0.0
 11
383.5914549045166
 21
226.8202911454414
 31
0.0
  0
LINE
  5
33B
330
C1
100
AcDbEntity
  8
Layer0000
  6
Continuous
 62
     3
370
    18
100
AcDbLine
 10
399.5914549045166
 20
226.8202911454415
 30
0.0
 11
399.5914549045166
 21
223.8202911454414
 31
0.0
  0
LINE
  5
33C
330
C1
100
AcDbEntity
  8
Layer0000
  6
CENTER
 62
     2
370
    25
100
AcDbLine
 10
391.5914549045166
 20
109.8202911454414
 30
0.0
 11
391.5914549045166
 21
231.8202911454414
 31
0.0
  0
ENDBLK
  5
C3
330
C1
100
AcDbEntity
  8
0
100
AcDbBlockEnd
  0
BLOCK
  5
C5
330
C4
100
AcDbEntity
  8
0
100
AcDbBlockBegin
  2
DC_GROUP_COM125_27
 70
     0
 10
0.0
 20
0.0
 30
0.0
  3
DC_GROUP_COM125_27
  1

  0
LINE
  5
33D
330
C4
100
AcDbEntity
  8
Layer0000
  6
Continuous
 62
     3
370
    18
100
AcDbLine
 10
93.12636998034074
 20
244.0702911454414
 30
0.0
 11
93.12636998034074
 21
119.5702911454414
 31
0.0
  0
LINE
  5
33E
330
C4
100
AcDbEntity
  8
Layer0000
  6
Continuous
 62
     3
370
    18
100
AcDbLine
 10
93.12636998034074
 20
119.5702911454414
 30
0.0
 11
252.1263699803408
 21
119.5702911454414
 31
0.0
  0
LINE
  5
33F
330
C4
100
AcDbEntity
  8
Layer0000
  6
Continuous
 62
     3
370
    18
100
AcDbLine
 10
252.1263699803408
 20
119.5702911454414
 30
0.0
 11
252.1263699803408
 21
244.0702911454414
 31
0.0
  0
LINE
  5
340
330
C4
100
AcDbEntity
  8
Layer0000
  6
Continuous
 62
     3
370
    18
100
AcDbLine
 10
252.1263699803408
 20
244.0702911454414
 30
0.0
 11
93.12636998034074
 21
244.0702911454414
 31
0.0
  0
LINE
  5
341
330
C4
100
AcDbEntity
  8
Layer0000
  6
Continuous
 62
     3
370
    18
100
AcDbLine
 10
243.1263699803408
 20
244.0702911454414
 30
0.0
 11
243.1263699803408
 21
244.3202911454414
 31
0.0
  0
LINE
  5
342
330
C4
100
AcDbEntity
  8
Layer0000
  6
Continuous
 62
     3
370
    18
100
AcDbLine
 10
252.1263699803408
 20
218.8202911454414
 30
0.0
 11
235.1263699803408
 21
218.8202911454414
 31
0.0
  0
LINE
  5
343
330
C4
100
AcDbEntity
  8
Layer0000
  6
Continuous
 62
     3
370
    25
100
AcDbLine
 10
133.1263699803407
 20
144.8202911454414
 30
0.0
 11
93.12636998034071
 21
144.8202911454414
 31
0.0
  0
LINE
  5
344
330
C4
100
AcDbEntity
  8
Layer0000
  6
Continuous
 62
     3
370
    25
100
AcDbLine
 10
93.12636998034074
 20
156.8202911454414
 30
0.0
 11
252.1263699803408
 21
156.8202911454414
 31
0.0
  0
LINE
  5
345
330
C4
100
AcDbEntity
  8
Layer0000
  6
Continuous
 62
     3
370
    25
100
AcDbLine
 10
223.1263699803407
 20
144.8202911454414
 30
0.0
 11
145.1263699803407
 21
144.8202911454414
 31
0.0
  0
LINE
  5
346
330
C4
100
AcDbEntity
  8
Layer0000
  6
Continuous
 62
     3
370
    25
100
AcDbLine
 10
252.1263699803408
 20
144.8202911454414
 30
0.0
 11
235.1263699803408
 21
144.8202911454414
 31
0.0
  0
LINE
  5
347
330
C4
100
AcDbEntity
  8
Layer0000
  6
Continuous
 62
     3
370
    25
100
AcDbLine
 10
145.1263699803407
 20
144.8202911454414
 30
0.0
 11
145.1263699803407
 21
119.5702911454414
 31
0.0
  0
LINE
  5
348
330
C4
100
AcDbEntity
  8
Layer0000
  6
Continuous
 62
     3
370
    25
100
AcDbLine
 10
133.1263699803407
 20
144.8202911454414
 30
0.0
 11
133.1263699803407
 21
119.5702911454414
 31
0.0
  0
CIRCLE
  5
349
330
C4
100
AcDbEntity
  8
Layer0000
  6
Continuous
 62
     3
370
    25
100
AcDbCircle
 10
123.1263699803407
 20
136.8202911454414
 30
0.0
 40
4.325000000000003
  0
CIRCLE
  5
34A
330
C4
100
AcDbEntity
  8
Layer0000
  6
Continuous
 62
     3
370
    25
100
AcDbCircle
 10
213.1263699803407
 20
136.8202911454414
 30
0.0
 40
4.325000000000003
  0
LINE
  5
34B
330
C4
100
AcDbEntity
  8
Layer0000
  6
Continuous
 62
     3
370
    25
100
AcDbLine
 10
235.1263699803408
 20
144.8202911454414
 30
0.0
 11
235.1263699803408
 21
119.5702911454414
 31
0.0
  0
LINE
  5
34C
330
C4
100
AcDbEntity
  8
Layer0000
  6
Continuous
 62
     3
370
    25
100
AcDbLine
 10
223.1263699803407
 20
144.8202911454414
 30
0.0
 11
223.1263699803407
 21
119.5702911454414
 31
0.0
  0
LINE
  5
34D
330
C4
100
AcDbEntity
  8
Layer0000
  6
Continuous
 62
     3
370
    25
100
AcDbLine
 10
235.1263699803408
 20
218.8202911454414
 30
0.0
 11
235.1263699803408
 21
244.0702911454414
 31
0.0
  0
LINE
  5
34E
330
C4
100
AcDbEntity
  8
Layer0000
  6
Continuous
 62
     3
370
    25
100
AcDbLine
 10
223.1263699803407
 20
218.8202911454414
 30
0.0
 11
223.1263699803407
 21
244.0702911454414
 31
0.0
  0
CIRCLE
  5
34F
330
C4
100
AcDbEntity
  8
Layer0000
  6
Continuous
 62
     3
370
    25
100
AcDbCircle
 10
213.1263699803407
 20
226.8202911454414
 30
0.0
 40
4.324999999999989
  0
LINE
  5
350
330
C4
100
AcDbEntity
  8
Layer0000
  6
Continuous
 62
     3
370
    25
100
AcDbLine
 10
145.1263699803407
 20
218.8202911454414
 30
0.0
 11
145.1263699803407
 21
244.0702911454414
 31
0.0
  0
LINE
  5
351
330
C4
100
AcDbEntity
  8
Layer0000
  6
Continuous
 62
     3
370
    25
100
AcDbLine
 10
133.1263699803408
 20
218.8202911454414
 30
0.0
 11
133.1263699803408
 21
244.0702911454414
 31
0.0
  0
CIRCLE
  5
352
330
C4
100
AcDbEntity
  8
Layer0000
  6
Continuous
 62
     3
370
    25
100
AcDbCircle
 10
123.1263699803407
 20
226.8202911454414
 30
0.0
 40
4.324999999999989
  0
LINE
  5
353
330
C4
100
AcDbEntity
  8
Layer0000
  6
Continuous
 62
     3
370
    25
100
AcDbLine
 10
93.12636998034074
 20
206.8202911454414
 30
0.0
 11
252.1263699803408
 21
206.8202911454414
 31
0.0
  0
LINE
  5
354
330
C4
100
AcDbEntity
  8
Layer0000
  6
Continuous
 62
     3
370
    25
100
AcDbLine
 10
133.1263699803408
 20
218.8202911454414
 30
0.0
 11
93.12636998034071
 21
218.8202911454414
 31
0.0
  0
LINE
  5
355
330
C4
100
AcDbEntity
  8
Layer0000
  6
Continuous
 62
     3
370
    25
100
AcDbLine
 10
223.1263699803407
 20
218.8202911454414
 30
0.0
 11
145.1263699803407
 21
218.8202911454414
 31
0.0
  0
LINE
  5
356
330
C4
100
AcDbEntity
  8
Layer0000
  6
CENTER
 62
     2
370
    25
100
AcDbLine
 10
127.1263699803407
 20
136.8202911454414
 30
0.0
 11
119.1263699803407
 21
136.8202911454414
 31
0.0
  0
LINE
  5
357
330
C4
100
AcDbEntity
  8
Layer0000
  6
CENTER
 62
     2
370
    25
100
AcDbLine
 10
123.1263699803407
 20
132.8202911454414
 30
0.0
 11
123.1263699803407
 21
140.8202911454414
 31
0.0
  0
LINE
  5
358
330
C4
100
AcDbEntity
  8
Layer0000
  6
CENTER
 62
     2
370
    25
100
AcDbLine
 10
217.1263699803407
 20
136.8202911454414
 30
0.0
 11
209.1263699803407
 21
136.8202911454414
 31
0.0
  0
LINE
  5
359
330
C4
100
AcDbEntity
  8
Layer0000
  6
CENTER
 62
     2
370
    25
100
AcDbLine
 10
213.1263699803407
 20
132.8202911454414
 30
0.0
 11
213.1263699803407
 21
140.8202911454414
 31
0.0
  0
LINE
  5
35A
330
C4
100
AcDbEntity
  8
Layer0000
  6
CENTER
 62
     2
370
    25
100
AcDbLine
 10
217.1263699803407
 20
226.8202911454414
 30
0.0
 11
209.1263699803407
 21
226.8202911454414
 31
0.0
  0
LINE
  5
35B
330
C4
100
AcDbEntity
  8
Layer0000
  6
CENTER
 62
     2
370
    25
100
AcDbLine
 10
213.1263699803407
 20
230.8202911454414
 30
0.0
 11
213.1263699803407
 21
222.8202911454414
 31
0.0
  0
LINE
  5
35C
330
C4
100
AcDbEntity
  8
Layer0000
  6
CENTER
 62
     2
370
    25
100
AcDbLine
 10
127.1263699803407
 20
226.8202911454414
 30
0.0
 11
119.1263699803407
 21
226.8202911454414
 31
0.0
  0
LINE
  5
35D
330
C4
100
AcDbEntity
  8
Layer0000
  6
CENTER
 62
     2
370
    25
100
AcDbLine
 10
123.1263699803407
 20
230.8202911454414
 30
0.0
 11
123.1263699803407
 21
222.8202911454414
 31
0.0
  0
LINE
  5
35E
330
C4
100
AcDbEntity
  8
Layer0000
  6
CENTER
 62
     2
370
    25
100
AcDbLine
 10
306.8263699803409
 20
181.8202911454414
 30
0.0
 11
55.17517904090636
 21
181.8202911454414
 31
0.0
  0
LINE
  5
35F
330
C4
100
AcDbEntity
  8
Layer0000
  6
CENTER
 62
     2
370
    25
100
AcDbLine
 10
42.34221242351515
 20
181.8202911454414
 30
0.0
 11
4.826369980340743
 21
181.8202911454414
 31
0.0
  0
CIRCLE
  5
360
330
C4
100
AcDbEntity
  8
Layer0000
  6
Continuous
 62
     4
370
    25
100
AcDbCircle
 10
123.1263699803407
 20
136.8202911454414
 30
0.0
 40
5.0
  0
CIRCLE
  5
361
330
C4
100
AcDbEntity
  8
Layer0000
  6
Continuous
 62
     4
370
    25
100
AcDbCircle
 10
213.1263699803407
 20
136.8202911454414
 30
0.0
 40
5.0
  0
CIRCLE
  5
362
330
C4
100
AcDbEntity
  8
Layer0000
  6
Continuous
 62
     4
370
    25
100
AcDbCircle
 10
213.1263699803407
 20
226.8202911454414
 30
0.0
 40
5.0
  0
CIRCLE
  5
363
330
C4
100
AcDbEntity
  8
Layer0000
  6
Continuous
 62
     4
370
    25
100
AcDbCircle
 10
123.1263699803407
 20
226.8202911454414
 30
0.0
 40
5.0
  0
ENDBLK
  5
C6
330
C4
100
AcDbEntity
  8
0
100
AcDbBlockEnd
  0
BLOCK
  5
C8
330
C7
100
AcDbEntity
  8
0
100
AcDbBlockBegin
  2
DC_GROUP_COM125_28
 70
     0
 10
0.0
 20
0.0
 30
0.0
  3
DC_GROUP_COM125_28
  1

  0
LINE
  5
364
330
C7
100
AcDbEntity
  8
Layer0000
  6
Continuous
 62
     3
370
    18
100
AcDbLine
 10
315.0914549045166
 20
244.0702911454414
 30
0.0
 11
372.5914549045166
 21
244.0702911454414
 31
0.0
  0
LINE
  5
365
330
C7
100
AcDbEntity
  8
Layer0000
  6
Continuous
 62
     3
370
    18
100
AcDbLine
 10
372.5914549045166
 20
244.0702911454414
 30
0.0
 11
372.5914549045166
 21
230.8202911454414
 31
0.0
  0
LINE
  5
366
330
C7
100
AcDbEntity
  8
Layer0000
  6
Continuous
 62
     3
370
    18
100
AcDbLine
 10
372.5914549045166
 20
230.8202911454414
 30
0.0
 11
360.5914549045166
 21
230.8202911454414
 31
0.0
  0
LINE
  5
367
330
C7
100
AcDbEntity
  8
Layer0000
  6
Continuous
 62
     3
370
    18
100
AcDbLine
 10
360.5914549045166
 20
230.8202911454414
 30
0.0
 11
360.5914549045166
 21
203.3202911454414
 31
0.0
  0
LINE
  5
368
330
C7
100
AcDbEntity
  8
Layer0000
  6
Continuous
 62
     3
370
    18
100
AcDbLine
 10
364.3114549045169
 20
203.3202911454414
 30
0.0
 11
360.5914549045166
 21
203.3202911454414
 31
0.0
  0
LINE
  5
369
330
C7
100
AcDbEntity
  8
Layer0000
  6
Continuous
 62
     3
370
    18
100
AcDbLine
 10
364.3114549045169
 20
203.3202911454414
 30
0.0
 11
364.951454904517
 21
202.3202911454414
 31
0.0
  0
LINE
  5
36A
330
C7
100
AcDbEntity
  8
Layer0000
  6
Continuous
 62
     3
370
    18
100
AcDbLine
 10
372.5914549045166
 20
119.5702911454414
 30
0.0
 11
372.5914549045166
 21
132.8202911454414
 31
0.0
  0
LINE
  5
36B
330
C7
100
AcDbEntity
  8
Layer0000
  6
Continuous
 62
     3
370
    18
100
AcDbLine
 10
372.5914549045166
 20
132.8202911454414
 30
0.0
 11
360.5914549045166
 21
132.8202911454414
 31
0.0
  0
LINE
  5
36C
330
C7
100
AcDbEntity
  8
Layer0000
  6
Continuous
 62
     3
370
    18
100
AcDbLine
 10
360.5914549045166
 20
132.8202911454414
 30
0.0
 11
360.5914549045166
 21
160.3202911454414
 31
0.0
  0
LINE
  5
36D
330
C7
100
AcDbEntity
  8
Layer0000
  6
Continuous
 62
     3
370
    18
100
AcDbLine
 10
364.3114549045169
 20
160.3202911454414
 30
0.0
 11
360.5914549045166
 21
160.3202911454414
 31
0.0
  0
LINE
  5
36E
330
C7
100
AcDbEntity
  8
Layer0000
  6
Continuous
 62
     3
370
    18
100
AcDbLine
 10
364.9514549045169
 20
161.3202911454414
 30
0.0
 11
364.3114549045169
 21
160.3202911454414
 31
0.0
  0
LINE
  5
36F
330
C7
100
AcDbEntity
  8
Layer0000
  6
Continuous
 62
     3
370
    18
100
AcDbLine
 10
315.0914549045166
 20
244.0702911454414
 30
0.0
 11
315.0914549045166
 21
119.5702911454414
 31
0.0
  0
LINE
  5
370
330
C7
100
AcDbEntity
  8
Layer0000
  6
Continuous
 62
     3
370
    18
100
AcDbLine
 10
315.0914549045166
 20
119.5702911454414
 30
0.0
 11
372.5914549045166
 21
119.5702911454414
 31
0.0
  0
LINE
  5
371
330
C7
100
AcDbEntity
  8
Layer0000
  6
CENTER
 62
     2
370
    25
100
AcDbLine
 10
345.5914549045166
 20
244.0702911454414
 30
0.0
 11
345.5914549045166
 21
119.3202911454414
 31
0.0
  0
ENDBLK
  5
C9
330
C7
100
AcDbEntity
  8
0
100
AcDbBlockEnd
  0
BLOCK
  5
CB
330
CA
100
AcDbEntity
  8
0
100
AcDbBlockBegin
  2
DC_GROUP_COM125_29
 70
     0
 10
0.0
 20
0.0
 30
0.0
  3
DC_GROUP_COM125_29
  1

  0
LINE
  5
372
330
CA
100
AcDbEntity
  8
Layer0000
  6
Continuous
 62
     3
370
    18
100
AcDbLine
 10
93.12636998034074
 20
-112.2987127625206
 30
0.0
 11
252.1263699803408
 21
-112.2987127625206
 31
0.0
  0
LINE
  5
373
330
CA
100
AcDbEntity
  8
Layer0000
  6
Continuous
 62
     3
370
    18
100
AcDbLine
 10
93.12636998034074
 20
-112.2987127625206
 30
0.0
 11
93.12636998034074
 21
-169.7987127625206
 31
0.0
  0
LINE
  5
374
330
CA
100
AcDbEntity
  8
Layer0000
  6
Continuous
 62
     3
370
    18
100
AcDbLine
 10
93.12636998034074
 20
-169.7987127625206
 30
0.0
 11
252.1263699803408
 21
-169.7987127625206
 31
0.0
  0
LINE
  5
375
330
CA
100
AcDbEntity
  8
Layer0000
  6
Continuous
 62
     3
370
    18
100
AcDbLine
 10
252.1263699803408
 20
-112.2987127625206
 30
0.0
 11
252.1263699803408
 21
-169.7987127625206
 31
0.0
  0
ENDBLK
  5
CC
330
CA
100
AcDbEntity
  8
0
100
AcDbBlockEnd
  0
BLOCK
  5
CE
330
CD
100
AcDbEntity
  8
0
100
AcDbBlockBegin
  2
DC_GROUP_COM125_30
 70
     0
 10
0.0
 20
0.0
 30
0.0
  3
DC_GROUP_COM125_30
  1

  0
CIRCLE
  5
376
330
CD
100
AcDbEntity
  8
Layer0000
  6
CENTER
 62
     2
370
    25
100
AcDbCircle
 10
345.5914549045166
 20
181.8202911454414
 30
0.0
 40
24.0
  0
CIRCLE
  5
377
330
CD
100
AcDbEntity
  8
Layer0000
  6
Continuous
 62
     3
370
    18
100
AcDbCircle
 10
345.5914549045166
 20
205.8202911454414
 30
0.0
 40
2.807179676972453
  0
CIRCLE
  5
378
330
CD
100
AcDbEntity
  8
Layer0000
  6
Continuous
 62
     3
370
    18
100
AcDbCircle
 10
345.5914549045166
 20
205.8202911454414
 30
0.0
 40
3.5
  0
LINE
  5
379
330
CD
100
AcDbEntity
  8
Layer0000
  6
Continuous
 62
     3
370
    18
100
AcDbLine
 10
343.8594040969476
 20
205.8202911454414
 30
0.0
 11
344.7254295007322
 21
204.3202911454414
 31
0.0
  0
LINE
  5
37A
330
CD
100
AcDbEntity
  8
Layer0000
  6
Continuous
 62
     3
370
    18
100
AcDbLine
 10
344.7254295007322
 20
204.3202911454414
 30
0.0
 11
346.457480308301
 21
204.3202911454414
 31
0.0
  0
LINE
  5
37B
330
CD
100
AcDbEntity
  8
Layer0000
  6
Continuous
 62
     3
370
    18
100
AcDbLine
 10
346.457480308301
 20
204.3202911454414
 30
0.0
 11
347.3235057120854
 21
205.8202911454414
 31
0.0
  0
LINE
  5
37C
330
CD
100
AcDbEntity
  8
Layer0000
  6
Continuous
 62
     3
370
    18
100
AcDbLine
 10
347.3235057120854
 20
205.8202911454414
 30
0.0
 11
346.457480308301
 21
207.3202911454414
 31
0.0
  0
LINE
  5
37D
330
CD
100
AcDbEntity
  8
Layer0000
  6
Continuous
 62
     3
370
    18
100
AcDbLine
 10
346.457480308301
 20
207.3202911454414
 30
0.0
 11
344.7254295007322
 21
207.3202911454414
 31
0.0
  0
LINE
  5
37E
330
CD
100
AcDbEntity
  8
Layer0000
  6
Continuous
 62
     3
370
    18
100
AcDbLine
 10
344.7254295007322
 20
207.3202911454414
 30
0.0
 11
343.8594040969476
 21
205.8202911454414
 31
0.0
  0
CIRCLE
  5
37F
330
CD
100
AcDbEntity
  8
Layer0000
  6
Continuous
 62
     3
370
    18
100
AcDbCircle
 10
321.5914549045166
 20
181.8202911454414
 30
0.0
 40
2.807179676972453
  0
CIRCLE
  5
380
330
CD
100
AcDbEntity
  8
Layer0000
  6
Continuous
 62
     3
370
    18
100
AcDbCircle
 10
321.5914549045166
 20
181.8202911454414
 30
0.0
 40
3.5
  0
LINE
  5
381
330
CD
100
AcDbEntity
  8
Layer0000
  6
Continuous
 62
     3
370
    18
100
AcDbLine
 10
319.8594040969477
 20
181.8202911454414
 30
0.0
 11
320.7254295007322
 21
180.3202911454414
 31
0.0
  0
LINE
  5
382
330
CD
100
AcDbEntity
  8
Layer0000
  6
Continuous
 62
     3
370
    18
100
AcDbLine
 10
320.7254295007322
 20
180.3202911454414
 30
0.0
 11
322.457480308301
 21
180.3202911454414
 31
0.0
  0
LINE
  5
383
330
CD
100
AcDbEntity
  8
Layer0000
  6
Continuous
 62
     3
370
    18
100
AcDbLine
 10
322.457480308301
 20
180.3202911454414
 30
0.0
 11
323.3235057120854
 21
181.8202911454414
 31
0.0
  0
LINE
  5
384
330
CD
100
AcDbEntity
  8
Layer0000
  6
Continuous
 62
     3
370
    18
100
AcDbLine
 10
323.3235057120854
 20
181.8202911454414
 30
0.0
 11
322.457480308301
 21
183.3202911454414
 31
0.0
  0
LINE
  5
385
330
CD
100
AcDbEntity
  8
Layer0000
  6
Continuous
 62
     3
370
    18
100
AcDbLine
 10
322.457480308301
 20
183.3202911454414
 30
0.0
 11
320.7254295007322
 21
183.3202911454414
 31
0.0
  0
LINE
  5
386
330
CD
100
AcDbEntity
  8
Layer0000
  6
Continuous
 62
     3
370
    18
100
AcDbLine
 10
320.7254295007322
 20
183.3202911454414
 30
0.0
 11
319.8594040969477
 21
181.8202911454414
 31
0.0
  0
CIRCLE
  5
387
330
CD
100
AcDbEntity
  8
Layer0000
  6
Continuous
 62
     3
370
    18
100
AcDbCircle
 10
345.5914549045166
 20
157.8202911454414
 30
0.0
 40
2.807179676972453
  0
CIRCLE
  5
388
330
CD
100
AcDbEntity
  8
Layer0000
  6
Continuous
 62
     3
370
    18
100
AcDbCircle
 10
345.5914549045166
 20
157.8202911454414
 30
0.0
 40
3.5
  0
LINE
  5
389
330
CD
100
AcDbEntity
  8
Layer0000
  6
Continuous
 62
     3
370
    18
100
AcDbLine
 10
343.8594040969476
 20
157.8202911454414
 30
0.0
 11
344.7254295007322
 21
156.3202911454414
 31
0.0
  0
LINE
  5
38A
330
CD
100
AcDbEntity
  8
Layer0000
  6
Continuous
 62
     3
370
    18
100
AcDbLine
 10
344.7254295007322
 20
156.3202911454414
 30
0.0
 11
346.457480308301
 21
156.3202911454414
 31
0.0
  0
LINE
  5
38B
330
CD
100
AcDbEntity
  8
Layer0000
  6
Continuous
 62
     3
370
    18
100
AcDbLine
 10
346.457480308301
 20
156.3202911454414
 30
0.0
 11
347.3235057120854
 21
157.8202911454414
 31
0.0
  0
LINE
  5
38C
330
CD
100
AcDbEntity
  8
Layer0000
  6
Continuous
 62
     3
370
    18
100
AcDbLine
 10
347.3235057120854
 20
157.8202911454414
 30
0.0
 11
346.457480308301
 21
159.3202911454414
 31
0.0
  0
LINE
  5
38D
330
CD
100
AcDbEntity
  8
Layer0000
  6
Continuous
 62
     3
370
    18
100
AcDbLine
 10
346.457480308301
 20
159.3202911454414
 30
0.0
 11
344.7254295007322
 21
159.3202911454414
 31
0.0
  0
LINE
  5
38E
330
CD
100
AcDbEntity
  8
Layer0000
  6
Continuous
 62
     3
370
    18
100
AcDbLine
 10
344.7254295007322
 20
159.3202911454414
 30
0.0
 11
343.8594040969476
 21
157.8202911454414
 31
0.0
  0
CIRCLE
  5
38F
330
CD
100
AcDbEntity
  8
Layer0000
  6
Continuous
 62
     3
370
    18
100
AcDbCircle
 10
369.5914549045166
 20
181.8202911454414
 30
0.0
 40
2.807179676972453
  0
CIRCLE
  5
390
330
CD
100
AcDbEntity
  8
Layer0000
  6
Continuous
 62
     3
370
    18
100
AcDbCircle
 10
369.5914549045166
 20
181.8202911454414
 30
0.0
 40
3.5
  0
LINE
  5
391
330
CD
100
AcDbEntity
  8
Layer0000
  6
Continuous
 62
     3
370
    18
100
AcDbLine
 10
367.8594040969476
 20
181.8202911454414
 30
0.0
 11
368.7254295007322
 21
180.3202911454414
 31
0.0
  0
LINE
  5
392
330
CD
100
AcDbEntity
  8
Layer0000
  6
Continuous
 62
     3
370
    18
100
AcDbLine
 10
368.7254295007322
 20
180.3202911454414
 30
0.0
 11
370.457480308301
 21
180.3202911454414
 31
0.0
  0
LINE
  5
393
330
CD
100
AcDbEntity
  8
Layer0000
  6
Continuous
 62
     3
370
    18
100
AcDbLine
 10
370.457480308301
 20
180.3202911454414
 30
0.0
 11
371.3235057120854
 21
181.8202911454414
 31
0.0
  0
LINE
  5
394
330
CD
100
AcDbEntity
  8
Layer0000
  6
Continuous
 62
     3
370
    18
100
AcDbLine
 10
371.3235057120854
 20
181.8202911454414
 30
0.0
 11
370.457480308301
 21
183.3202911454414
 31
0.0
  0
LINE
  5
395
330
CD
100
AcDbEntity
  8
Layer0000
  6
Continuous
 62
     3
370
    18
100
AcDbLine
 10
370.457480308301
 20
183.3202911454414
 30
0.0
 11
368.7254295007322
 21
183.3202911454414
 31
0.0
  0
LINE
  5
396
330
CD
100
AcDbEntity
  8
Layer0000
  6
Continuous
 62
     3
370
    18
100
AcDbLine
 10
368.7254295007322
 20
183.3202911454414
 30
0.0
 11
367.8594040969476
 21
181.8202911454414
 31
0.0
  0
LINE
  5
397
330
CD
100
AcDbEntity
  8
Layer0000
  6
Continuous
 62
     3
370
    18
100
AcDbLine
 10
359.5914549045166
 20
206.6446743200542
 30
0.0
 11
359.5914549045166
 21
202.3202911454414
 31
0.0
  0
LINE
  5
398
330
CD
100
AcDbEntity
  8
Layer0000
  6
Continuous
 62
     3
370
    18
100
AcDbLine
 10
359.5914549045166
 20
202.3202911454414
 30
0.0
 11
365.3904447777398
 21
202.3202911454414
 31
0.0
  0
LINE
  5
399
330
CD
100
AcDbEntity
  8
Layer0000
  6
Continuous
 62
     3
370
    18
100
AcDbLine
 10
359.5914549045166
 20
156.9959079708286
 30
0.0
 11
359.5914549045166
 21
161.3202911454414
 31
0.0
  0
LINE
  5
39A
330
CD
100
AcDbEntity
  8
Layer0000
  6
Continuous
 62
     3
370
    18
100
AcDbLine
 10
359.5914549045166
 20
161.3202911454414
 30
0.0
 11
365.3904447777398
 21
161.3202911454414
 31
0.0
  0
CIRCLE
  5
39B
330
CD
100
AcDbEntity
  8
Layer0000
  6
Continuous
 62
     3
370
    18
100
AcDbCircle
 10
345.5914549045166
 20
181.8202911454414
 30
0.0
 40
15.0
  0
ARC
  5
39C
330
CD
100
AcDbEntity
  8
Layer0000
  6
Continuous
 62
     3
370
    18
100
AcDbCircle
 10
345.5914549045166
 20
181.8202911454414
 30
0.0
 40
28.5
100
AcDbArc
 50
314.0034273488996
 51
45.99657265110038
  0
ARC
  5
39D
330
CD
100
AcDbEntity
  8
Layer0000
  6
Continuous
 62
     3
370
    18
100
AcDbCircle
 10
345.5914549045166
 20
181.8202911454414
 30
0.0
 40
28.5
100
AcDbArc
 50
60.57866893341304
 51
299.421331066587
  0
ENDBLK
  5
CF
330
CD
100
AcDbEntity
  8
0
100
AcDbBlockEnd
  0
BLOCK
  5
D1
330
D0
100
AcDbEntity
  8
0
100
AcDbBlockBegin
  2
DC_GROUP_COM125_31
 70
     0
 10
0.0
 20
0.0
 30
0.0
  3
DC_GROUP_COM125_31
  1

  0
LINE
  5
39E
330
D0
100
AcDbEntity
  8
Layer0000
  6
Continuous
 62
     3
370
    25
100
AcDbLine
 10
269.3263699803385
 20
190.8202911454414
 30
0.0
 11
273.3263699803385
 21
190.8202911454414
 31
0.0
  0
LINE
  5
39F
330
D0
100
AcDbEntity
  8
Layer0000
  6
Continuous
 62
     3
370
    25
100
AcDbLine
 10
269.3263699803385
 20
172.8202911454414
 30
0.0
 11
273.3263699803385
 21
172.8202911454414
 31
0.0
  0
LINE
  5
3A0
330
D0
100
AcDbEntity
  8
Layer0000
  6
Continuous
 62
     3
370
    25
100
AcDbLine
 10
273.3263699803385
 20
172.8202911454414
 30
0.0
 11
273.3263699803385
 21
190.8202911454414
 31
0.0
  0
LINE
  5
3A1
330
D0
100
AcDbEntity
  8
Layer0000
  6
Continuous
 62
     3
370
    25
100
AcDbLine
 10
273.3263699803385
 20
190.6202911454414
 30
0.0
 11
273.8263699803385
 21
190.6202911454414
 31
0.0
  0
LINE
  5
3A2
330
D0
100
AcDbEntity
  8
Layer0000
  6
Continuous
 62
     3
370
    25
100
AcDbLine
 10
276.3263699803385
 20
190.6202911454414
 30
0.0
 11
276.8263699803385
 21
190.6202911454414
 31
0.0
  0
LINE
  5
3A3
330
D0
100
AcDbEntity
  8
Layer0000
  6
Continuous
 62
     3
370
    25
100
AcDbLine
 10
279.3263699803384
 20
190.6202911454414
 30
0.0
 11
279.8263699803384
 21
190.6202911454414
 31
0.0
  0
LINE
  5
3A4
330
D0
100
AcDbEntity
  8
Layer0000
  6
Continuous
 62
     3
370
    25
100
AcDbLine
 10
279.8263699803384
 20
190.6202911454414
 30
0.0
 11
279.8263699803384
 21
190.8202911454414
 31
0.0
  0
LINE
  5
3A5
330
D0
100
AcDbEntity
  8
Layer0000
  6
Continuous
 62
     3
370
    25
100
AcDbLine
 10
273.8263699803385
 20
190.8202911454414
 30
0.0
 11
276.3263699803385
 21
190.8202911454414
 31
0.0
  0
LINE
  5
3A6
330
D0
100
AcDbEntity
  8
Layer0000
  6
Continuous
 62
     3
370
    25
100
AcDbLine
 10
276.8263699803385
 20
190.8202911454414
 30
0.0
 11
279.3263699803384
 21
190.8202911454414
 31
0.0
  0
LINE
  5
3A7
330
D0
100
AcDbEntity
  8
Layer0000
  6
Continuous
 62
     3
370
    25
100
AcDbLine
 10
279.8263699803384
 20
190.8202911454414
 30
0.0
 11
305.8263699803409
 21
190.8202911454414
 31
0.0
  0
LINE
  5
3A8
330
D0
100
AcDbEntity
  8
Layer0000
  6
Continuous
 62
     3
370
    25
100
AcDbLine
 10
273.3263699803385
 20
173.0202911454414
 30
0.0
 11
273.8263699803385
 21
173.0202911454414
 31
0.0
  0
LINE
  5
3A9
330
D0
100
AcDbEntity
  8
Layer0000
  6
Continuous
 62
     3
370
    25
100
AcDbLine
 10
273.8263699803385
 20
190.8202911454414
 30
0.0
 11
273.8263699803385
 21
172.8202911454414
 31
0.0
  0
LINE
  5
3AA
330
D0
100
AcDbEntity
  8
Layer0000
  6
Continuous
 62
     3
370
    25
100
AcDbLine
 10
276.3263699803385
 20
172.8202911454414
 30
0.0
 11
276.3263699803385
 21
190.8202911454414
 31
0.0
  0
LINE
  5
3AB
330
D0
100
AcDbEntity
  8
Layer0000
  6
Continuous
 62
     3
370
    25
100
AcDbLine
 10
276.3263699803385
 20
173.0202911454414
 30
0.0
 11
276.8263699803385
 21
173.0202911454414
 31
0.0
  0
LINE
  5
3AC
330
D0
100
AcDbEntity
  8
Layer0000
  6
Continuous
 62
     3
370
    25
100
AcDbLine
 10
276.8263699803385
 20
190.8202911454414
 30
0.0
 11
276.8263699803385
 21
172.8202911454414
 31
0.0
  0
LINE
  5
3AD
330
D0
100
AcDbEntity
  8
Layer0000
  6
Continuous
 62
     3
370
    25
100
AcDbLine
 10
279.3263699803384
 20
172.8202911454414
 30
0.0
 11
279.3263699803384
 21
190.8202911454414
 31
0.0
  0
LINE
  5
3AE
330
D0
100
AcDbEntity
  8
Layer0000
  6
Continuous
 62
     3
370
    25
100
AcDbLine
 10
279.3263699803384
 20
173.0202911454414
 30
0.0
 11
279.8263699803384
 21
173.0202911454414
 31
0.0
  0
LINE
  5
3AF
330
D0
100
AcDbEntity
  8
Layer0000
  6
Continuous
 62
     3
370
    25
100
AcDbLine
 10
279.8263699803384
 20
190.8202911454414
 30
0.0
 11
279.8263699803384
 21
172.8202911454414
 31
0.0
  0
LINE
  5
3B0
330
D0
100
AcDbEntity
  8
Layer0000
  6
Continuous
 62
     3
370
    25
100
AcDbLine
 10
273.8263699803385
 20
172.8202911454414
 30
0.0
 11
276.3263699803385
 21
172.8202911454414
 31
0.0
  0
LINE
  5
3B1
330
D0
100
AcDbEntity
  8
Layer0000
  6
Continuous
 62
     3
370
    25
100
AcDbLine
 10
276.8263699803385
 20
172.8202911454414
 30
0.0
 11
279.3263699803384
 21
172.8202911454414
 31
0.0
  0
LINE
  5
3B2
330
D0
100
AcDbEntity
  8
Layer0000
  6
Continuous
 62
     3
370
    25
100
AcDbLine
 10
279.8263699803384
 20
172.8202911454414
 30
0.0
 11
305.8263699803409
 21
172.8202911454414
 31
0.0
  0
LINE
  5
3B3
330
D0
100
AcDbEntity
  8
Layer0000
  6
Continuous
 62
     3
370
    25
100
AcDbLine
 10
289.8263699803409
 20
172.8202911454414
 30
0.0
 11
289.8263699803409
 21
190.8202911454414
 31
0.0
  0
LINE
  5
3B4
330
D0
100
AcDbEntity
  8
Layer0000
  6
Continuous
 62
     3
370
    25
100
AcDbLine
 10
305.8263699803409
 20
186.3202911454414
 30
0.0
 11
289.8263699803409
 21
186.3202911454414
 31
0.0
  0
LINE
  5
3B5
330
D0
100
AcDbEntity
  8
Layer0000
  6
Continuous
 62
     3
370
    25
100
AcDbLine
 10
305.8263699803409
 20
177.3202911454414
 30
0.0
 11
289.8263699803409
 21
177.3202911454414
 31
0.0
  0
ARC
  5
3B6
330
D0
100
AcDbEntity
  8
Layer0000
  6
Continuous
 62
     3
370
    25
100
AcDbCircle
 10
303.7951199803409
 20
188.5702911454414
 30
0.0
 40
3.03125
100
AcDbArc
 50
312.0750220508436
 51
47.92497794915638
  0
ARC
  5
3B7
330
D0
100
AcDbEntity
  8
Layer0000
  6
Continuous
 62
     3
370
    25
100
AcDbCircle
 10
296.2013699803409
 20
181.8202911454414
 30
0.0
 40
10.625
100
AcDbArc
 50
334.942384581697
 51
25.05761541830302
  0
ARC
  5
3B8
330
D0
100
AcDbEntity
  8
Layer0000
  6
Continuous
 62
     3
370
    25
100
AcDbCircle
 10
303.7951199803409
 20
175.0702911454414
 30
0.0
 40
3.03125
100
AcDbArc
 50
312.0750220508436
 51
47.92497794915638
  0
LINE
  5
3B9
330
D0
100
AcDbEntity
  8
Layer0000
  6
Continuous
 62
     3
370
    25
100
AcDbLine
 10
306.8263699803409
 20
188.5702911454414
 30
0.0
 11
306.8263699803409
 21
175.0702911454414
 31
0.0
  0
ENDBLK
  5
D2
330
D0
100
AcDbEntity
  8
0
100
AcDbBlockEnd
  0
BLOCK
  5
D4
330
D3
100
AcDbEntity
  8
0
100
AcDbBlockBegin
  2
DC_GROUP_COM125_32
 70
     0
 10
0.0
 20
0.0
 30
0.0
  3
DC_GROUP_COM125_32
  1

  0
CIRCLE
  5
3BA
330
D3
100
AcDbEntity
  8
Layer0000
  6
Continuous
 62
     3
370
    18
100
AcDbCircle
 10
345.5914549045166
 20
181.8202911454414
 30
0.0
 40
9.0
  0
LINE
  5
3BB
330
D3
100
AcDbEntity
  8
Layer0000
  6
Continuous
 62
     3
370
    18
100
AcDbLine
 10
353.162169118788
 20
186.6869415629081
 30
0.0
 11
346.0207406902451
 21
190.8100471885257
 31
0.0
  0
LINE
  5
3BC
330
D3
100
AcDbEntity
  8
Layer0000
  6
Continuous
 62
     3
370
    18
100
AcDbLine
 10
345.162169118788
 20
190.8100471885257
 30
0.0
 11
338.0207406902451
 21
186.6869415629081
 31
0.0
  0
LINE
  5
3BD
330
D3
100
AcDbEntity
  8
Layer0000
  6
Continuous
 62
     3
370
    18
100
AcDbLine
 10
337.5914549045166
 20
185.943396771059
 30
0.0
 11
337.5914549045166
 21
177.6971855198237
 31
0.0
  0
LINE
  5
3BE
330
D3
100
AcDbEntity
  8
Layer0000
  6
Continuous
 62
     3
370
    18
100
AcDbLine
 10
338.0207406902451
 20
176.9536407279747
 30
0.0
 11
345.1621691187879
 21
172.830535102357
 31
0.0
  0
LINE
  5
3BF
330
D3
100
AcDbEntity
  8
Layer0000
  6
Continuous
 62
     3
370
    18
100
AcDbLine
 10
346.0207406902451
 20
172.830535102357
 30
0.0
 11
353.1621691187879
 21
176.9536407279747
 31
0.0
  0
LINE
  5
3C0
330
D3
100
AcDbEntity
  8
Layer0000
  6
Continuous
 62
     3
370
    18
100
AcDbLine
 10
353.5914549045166
 20
177.6971855198237
 30
0.0
 11
353.5914549045166
 21
185.943396771059
 31
0.0
  0
ENDBLK
  5
D5
330
D3
100
AcDbEntity
  8
0
100
AcDbBlockEnd
  0
BLOCK
  5
D7
330
D6
100
AcDbEntity
  8
0
100
AcDbBlockBegin
  2
DC_GROUP_COM125_33
 70
     0
 10
0.0
 20
0.0
 30
0.0
  3
DC_GROUP_COM125_33
  1

  0
LINE
  5
3C1
330
D6
100
AcDbEntity
  8
Layer0000
  6
Continuous
 62
     3
370
    25
100
AcDbLine
 10
273.3263699803385
 20
-133.9987127625206
 30
0.0
 11
273.8263699803385
 21
-133.9987127625206
 31
0.0
  0
LINE
  5
3C2
330
D6
100
AcDbEntity
  8
Layer0000
  6
Continuous
 62
     3
370
    25
100
AcDbLine
 10
269.3263699803385
 20
-133.7987127625206
 30
0.0
 11
273.3263699803385
 21
-133.7987127625206
 31
0.0
  0
LINE
  5
3C3
330
D6
100
AcDbEntity
  8
Layer0000
  6
Continuous
 62
     3
370
    25
100
AcDbLine
 10
276.3263699803385
 20
-133.9987127625206
 30
0.0
 11
276.8263699803385
 21
-133.9987127625206
 31
0.0
  0
LINE
  5
3C4
330
D6
100
AcDbEntity
  8
Layer0000
  6
Continuous
 62
     3
370
    25
100
AcDbLine
 10
273.8263699803385
 20
-133.7987127625206
 30
0.0
 11
276.3263699803385
 21
-133.7987127625206
 31
0.0
  0
LINE
  5
3C5
330
D6
100
AcDbEntity
  8
Layer0000
  6
Continuous
 62
     3
370
    25
100
AcDbLine
 10
269.3263699803385
 20
-151.7987127625206
 30
0.0
 11
273.3263699803385
 21
-151.7987127625206
 31
0.0
  0
LINE
  5
3C6
330
D6
100
AcDbEntity
  8
Layer0000
  6
Continuous
 62
     3
370
    25
100
AcDbLine
 10
273.3263699803385
 20
-151.7987127625206
 30
0.0
 11
273.3263699803385
 21
-133.7987127625206
 31
0.0
  0
LINE
  5
3C7
330
D6
100
AcDbEntity
  8
Layer0000
  6
Continuous
 62
     3
370
    25
100
AcDbLine
 10
273.3263699803385
 20
-151.5987127625206
 30
0.0
 11
273.8263699803385
 21
-151.5987127625206
 31
0.0
  0
LINE
  5
3C8
330
D6
100
AcDbEntity
  8
Layer0000
  6
Continuous
 62
     3
370
    25
100
AcDbLine
 10
273.8263699803385
 20
-133.7987127625206
 30
0.0
 11
273.8263699803385
 21
-151.7987127625206
 31
0.0
  0
LINE
  5
3C9
330
D6
100
AcDbEntity
  8
Layer0000
  6
Continuous
 62
     3
370
    25
100
AcDbLine
 10
276.3263699803385
 20
-151.7987127625206
 30
0.0
 11
276.3263699803385
 21
-133.7987127625206
 31
0.0
  0
LINE
  5
3CA
330
D6
100
AcDbEntity
  8
Layer0000
  6
Continuous
 62
     3
370
    25
100
AcDbLine
 10
276.3263699803385
 20
-151.5987127625206
 30
0.0
 11
276.8263699803385
 21
-151.5987127625206
 31
0.0
  0
LINE
  5
3CB
330
D6
100
AcDbEntity
  8
Layer0000
  6
Continuous
 62
     3
370
    25
100
AcDbLine
 10
276.8263699803385
 20
-133.7987127625206
 30
0.0
 11
276.8263699803385
 21
-151.7987127625206
 31
0.0
  0
LINE
  5
3CC
330
D6
100
AcDbEntity
  8
Layer0000
  6
Continuous
 62
     3
370
    25
100
AcDbLine
 10
273.8263699803385
 20
-151.7987127625206
 30
0.0
 11
276.3263699803385
 21
-151.7987127625206
 31
0.0
  0
LINE
  5
3CD
330
D6
100
AcDbEntity
  8
Layer0000
  6
Continuous
 62
     3
370
    25
100
AcDbLine
 10
279.3263699803384
 20
-133.9987127625206
 30
0.0
 11
279.8263699803384
 21
-133.9987127625206
 31
0.0
  0
LINE
  5
3CE
330
D6
100
AcDbEntity
  8
Layer0000
  6
Continuous
 62
     3
370
    25
100
AcDbLine
 10
279.8263699803384
 20
-133.9987127625206
 30
0.0
 11
279.8263699803384
 21
-133.7987127625206
 31
0.0
  0
LINE
  5
3CF
330
D6
100
AcDbEntity
  8
Layer0000
  6
Continuous
 62
     3
370
    25
100
AcDbLine
 10
276.8263699803385
 20
-133.7987127625206
 30
0.0
 11
279.3263699803384
 21
-133.7987127625206
 31
0.0
  0
LINE
  5
3D0
330
D6
100
AcDbEntity
  8
Layer0000
  6
Continuous
 62
     3
370
    25
100
AcDbLine
 10
279.3263699803384
 20
-151.7987127625206
 30
0.0
 11
279.3263699803384
 21
-133.7987127625206
 31
0.0
  0
LINE
  5
3D1
330
D6
100
AcDbEntity
  8
Layer0000
  6
Continuous
 62
     3
370
    25
100
AcDbLine
 10
279.3263699803384
 20
-151.5987127625206
 30
0.0
 11
279.8263699803384
 21
-151.5987127625206
 31
0.0
  0
LINE
  5
3D2
330
D6
100
AcDbEntity
  8
Layer0000
  6
Continuous
 62
     3
370
    25
100
AcDbLine
 10
279.8263699803384
 20
-133.7987127625206
 30
0.0
 11
279.8263699803384
 21
-151.7987127625206
 31
0.0
  0
LINE
  5
3D3
330
D6
100
AcDbEntity
  8
Layer0000
  6
Continuous
 62
     3
370
    25
100
AcDbLine
 10
276.8263699803385
 20
-151.7987127625206
 30
0.0
 11
279.3263699803384
 21
-151.7987127625206
 31
0.0
  0
LINE
  5
3D4
330
D6
100
AcDbEntity
  8
Layer0000
  6
Continuous
 62
     3
370
    25
100
AcDbLine
 10
289.8263699803409
 20
-151.7987127625206
 30
0.0
 11
289.8263699803409
 21
-133.7987127625206
 31
0.0
  0
LINE
  5
3D5
330
D6
100
AcDbEntity
  8
Layer0000
  6
Continuous
 62
     3
370
    25
100
AcDbLine
 10
305.8263699803409
 20
-138.2987127625206
 30
0.0
 11
289.8263699803409
 21
-138.2987127625206
 31
0.0
  0
LINE
  5
3D6
330
D6
100
AcDbEntity
  8
Layer0000
  6
Continuous
 62
     3
370
    25
100
AcDbLine
 10
305.8263699803409
 20
-147.2987127625206
 30
0.0
 11
289.8263699803409
 21
-147.2987127625206
 31
0.0
  0
LINE
  5
3D7
330
D6
100
AcDbEntity
  8
Layer0000
  6
Continuous
 62
     3
370
    25
100
AcDbLine
 10
279.8263699803384
 20
-133.7987127625206
 30
0.0
 11
305.8263699803409
 21
-133.7987127625206
 31
0.0
  0
LINE
  5
3D8
330
D6
100
AcDbEntity
  8
Layer0000
  6
Continuous
 62
     3
370
    25
100
AcDbLine
 10
279.8263699803384
 20
-151.7987127625206
 30
0.0
 11
305.8263699803409
 21
-151.7987127625206
 31
0.0
  0
ARC
  5
3D9
330
D6
100
AcDbEntity
  8
Layer0000
  6
Continuous
 62
     3
370
    25
100
AcDbCircle
 10
303.7951199803409
 20
-136.0487127625206
 30
0.0
 40
3.03125
100
AcDbArc
 50
312.0750220508436
 51
47.92497794915638
  0
ARC
  5
3DA
330
D6
100
AcDbEntity
  8
Layer0000
  6
Continuous
 62
     3
370
    25
100
AcDbCircle
 10
296.2013699803409
 20
-142.7987127625206
 30
0.0
 40
10.625
100
AcDbArc
 50
334.942384581697
 51
25.05761541830302
  0
ARC
  5
3DB
330
D6
100
AcDbEntity
  8
Layer0000
  6
Continuous
 62
     3
370
    25
100
AcDbCircle
 10
303.7951199803409
 20
-149.5487127625206
 30
0.0
 40
3.03125
100
AcDbArc
 50
312.0750220508436
 51
47.92497794915638
  0
LINE
  5
3DC
330
D6
100
AcDbEntity
  8
Layer0000
  6
Continuous
 62
     3
370
    25
100
AcDbLine
 10
306.8263699803409
 20
-136.0487127625208
 30
0.0
 11
306.8263699803409
 21
-149.5487127625208
 31
0.0
  0
LINE
  5
3DD
330
D6
100
AcDbEntity
  8
Layer0000
  6
CENTER
 62
     2
370
    25
100
AcDbLine
 10
239.9093806609613
 20
-142.7987127625206
 30
0.0
 11
319.9451109032602
 21
-142.7987127625206
 31
0.0
  0
ENDBLK
  5
D8
330
D6
100
AcDbEntity
  8
0
100
AcDbBlockEnd
  0
BLOCK
  5
DA
330
D9
100
AcDbEntity
  8
0
100
AcDbBlockBegin
  2
DC_GROUP_COM125_34
 70
     0
 10
0.0
 20
0.0
 30
0.0
  3
DC_GROUP_COM125_34
  1

  0
LINE
  5
3DE
330
D9
100
AcDbEntity
  8
Layer0000
  6
Continuous
 62
     3
370
    18
100
AcDbLine
 10
372.5914549045166
 20
244.0702911454414
 30
0.0
 11
381.5914549045166
 21
244.0702911454414
 31
0.0
  0
LINE
  5
3DF
330
D9
100
AcDbEntity
  8
Layer0000
  6
Continuous
 62
     3
370
    18
100
AcDbLine
 10
381.5914549045166
 20
244.0702911454414
 30
0.0
 11
381.5914549045166
 21
225.0702911454414
 31
0.0
  0
LINE
  5
3E0
330
D9
100
AcDbEntity
  8
Layer0000
  6
Continuous
 62
     3
370
    18
100
AcDbLine
 10
381.5914549045166
 20
225.0702911454414
 30
0.0
 11
372.5914549045166
 21
225.0702911454414
 31
0.0
  0
LINE
  5
3E1
330
D9
100
AcDbEntity
  8
Layer0000
  6
Continuous
 62
     3
370
    18
100
AcDbLine
 10
372.5914549045166
 20
225.0702911454414
 30
0.0
 11
372.5914549045166
 21
244.0702911454414
 31
0.0
  0
ENDBLK
  5
DB
330
D9
100
AcDbEntity
  8
0
100
AcDbBlockEnd
  0
BLOCK
  5
DD
330
DC
100
AcDbEntity
  8
0
100
AcDbBlockBegin
  2
DC_GROUP_COM125_35
 70
     0
 10
0.0
 20
0.0
 30
0.0
  3
DC_GROUP_COM125_35
  1

  0
LINE
  5
3E2
330
DC
100
AcDbEntity
  8
Layer0000
  6
Continuous
 62
     3
370
    18
100
AcDbLine
 10
372.5914549045166
 20
119.5702911454414
 30
0.0
 11
381.5914549045166
 21
119.5702911454414
 31
0.0
  0
LINE
  5
3E3
330
DC
100
AcDbEntity
  8
Layer0000
  6
Continuous
 62
     3
370
    18
100
AcDbLine
 10
381.5914549045166
 20
119.5702911454414
 30
0.0
 11
381.5914549045166
 21
138.5702911454414
 31
0.0
  0
LINE
  5
3E4
330
DC
100
AcDbEntity
  8
Layer0000
  6
Continuous
 62
     3
370
    18
100
AcDbLine
 10
381.5914549045166
 20
138.5702911454414
 30
0.0
 11
372.5914549045166
 21
138.5702911454414
 31
0.0
  0
LINE
  5
3E5
330
DC
100
AcDbEntity
  8
Layer0000
  6
Continuous
 62
     3
370
    18
100
AcDbLine
 10
372.5914549045166
 20
138.5702911454414
 30
0.0
 11
372.5914549045166
 21
119.5702911454414
 31
0.0
  0
ENDBLK
  5
DE
330
DC
100
AcDbEntity
  8
0
100
AcDbBlockEnd
  0
BLOCK
  5
E0
330
DF
100
AcDbEntity
  8
0
100
AcDbBlockBegin
  2
DC_GROUP_COM125_36
 70
     0
 10
0.0
 20
0.0
 30
0.0
  3
DC_GROUP_COM125_36
  1

  0
LINE
  5
3E6
330
DF
100
AcDbEntity
  8
Layer0000
  6
Continuous
 62
     3
370
    18
100
AcDbLine
 10
161.1263699803407
 20
-177.7987127625206
 30
0.0
 11
93.12636998034074
 21
-177.7987127625206
 31
0.0
  0
LINE
  5
3E7
330
DF
100
AcDbEntity
  8
Layer0000
  6
Continuous
 62
     3
370
    18
100
AcDbLine
 10
93.12636998034074
 20
-169.7987127625206
 30
0.0
 11
93.12636998034074
 21
-177.7987127625206
 31
0.0
  0
LINE
  5
3E8
330
DF
100
AcDbEntity
  8
Layer0000
  6
Continuous
 62
     3
370
    18
100
AcDbLine
 10
161.1263699803407
 20
-177.7987127625206
 30
0.0
 11
161.1263699803407
 21
-169.7987127625206
 31
0.0
  0
ENDBLK
  5
E1
330
DF
100
AcDbEntity
  8
0
100
AcDbBlockEnd
  0
BLOCK
  5
E3
330
E2
100
AcDbEntity
  8
0
100
AcDbBlockBegin
  2
*D37
 70
     1
 10
0.0
 20
0.0
 30
0.0
  3
*D37
  1

  0
LINE
  5
3E9
330
E2
100
AcDbEntity
  8
Layer0015
  6
Continuous
 62
     2
370
    13
100
AcDbLine
 10
-156.2671455692218
 20
119.3202911454414
 30
0.0
 11
-156.2671455692218
 21
244.3202911454414
 31
0.0
  0
INSERT
  5
3F0
330
E2
100
AcDbEntity
  8
Layer0015
 62
     2
100
AcDbBlockReference
  2
_OPEN30
 10
-156.2671455692218
 20
119.3202911454414
 30
0.0
 41
3.670368878922017
 42
2.415330282579337
 50
270.0
  0
INSERT
  5
3F1
330
E2
100
AcDbEntity
  8
Layer0015
 62
     2
100
AcDbBlockReference
  2
_OPEN30
 10
-156.2671455692218
 20
244.3202911454414
 30
0.0
 41
3.670368878922017
 42
2.415330282579337
 50
90.0
  0
LINE
  5
3F2
330
E2
100
AcDbEntity
  8
Layer0015
  6
Continuous
 62
     2
370
    13
100
AcDbLine
 10
-221.9493397770447
 20
119.3202911454414
 30
0.0
 11
-155.3071455692217
 21
119.3202911454414
 31
0.0
  0
LINE
  5
3F3
330
E2
100
AcDbEntity
  8
Layer0015
  6
Continuous
 62
     2
370
    13
100
AcDbLine
 10
-221.9493397770447
 20
244.3202911454414
 30
0.0
 11
-155.3071455692217
 21
244.3202911454414
 31
0.0
  0
MTEXT
  5
3F5
330
E2
100
AcDbEntity
  8
Layer0015
 62
     2
100
AcDbMText
 10
-157.4671455692217
 20
181.8202911454414
 30
0.0
 40
8.4
 41
35.70000000000003
 71
     8
 72
     1
  1
\T1.00;125
  7
dcStyle0
 11
6.123031769111886E-17
 21
1.0
 31
0.0
 73
     1
 44
1.0
  0
ENDBLK
  5
E4
330
E2
100
AcDbEntity
  8
0
100
AcDbBlockEnd
  0
BLOCK
  5
E6
330
E5
100
AcDbEntity
  8
0
100
AcDbBlockBegin
  2
*D38
 70
     1
 10
0.0
 20
0.0
 30
0.0
  3
*D38
  1

  0
LINE
  5
3F6
330
E5
100
AcDbEntity
  8
Layer0015
  6
Continuous
 62
     2
370
    13
100
AcDbLine
 10
53.68742494492406
 20
159.3202911454414
 30
0.0
 11
53.68742494492406
 21
204.3202911454414
 31
0.0
  0
INSERT
  5
3F7
330
E5
100
AcDbEntity
  8
Layer0015
 62
     2
100
AcDbBlockReference
  2
_OPEN30
 10
53.68742494492406
 20
159.3202911454414
 30
0.0
 41
3.670368878922017
 42
2.415330282579337
 50
270.0
  0
INSERT
  5
3F8
330
E5
100
AcDbEntity
  8
Layer0015
 62
     2
100
AcDbBlockReference
  2
_OPEN30
 10
53.68742494492406
 20
204.3202911454414
 30
0.0
 41
3.670368878922017
 42
2.415330282579337
 50
90.0
  0
MTEXT
  5
3F9
330
E5
100
AcDbEntity
  8
Layer0015
 62
     2
100
AcDbMText
 10
52.48742494492406
 20
181.8202911454414
 30
0.0
 40
8.4
 41
27.3
 71
     8
 72
     1
  1
\T1.00;45
  7
dcStyle0
 11
6.123031769111886E-17
 21
1.0
 31
0.0
 73
     1
 44
1.0
  0
ENDBLK
  5
E7
330
E5
100
AcDbEntity
  8
0
100
AcDbBlockEnd
  0
BLOCK
  5
E9
330
E8
100
AcDbEntity
  8
0
100
AcDbBlockBegin
  2
DC_GROUP_COM125_37
 70
     0
 10
0.0
 20
0.0
 30
0.0
  3
DC_GROUP_COM125_37
  1

  0
LINE
  5
3FA
330
E8
100
AcDbEntity
  8
Layer0001
  6
Continuous
 62
    56
370
    18
100
AcDbLine
 10
-413.1493397770446
 20
-235.7987127625206
 30
0.0
 11
-413.1493397770446
 21
-215.7987127625206
 31
0.0
  0
LINE
  5
3FB
330
E8
100
AcDbEntity
  8
Layer0001
  6
Continuous
 62
    56
370
    18
100
AcDbLine
 10
-413.1493397770446
 20
-215.7987127625206
 30
0.0
 11
-407.1493397770448
 21
-215.7987127625206
 31
0.0
  0
LINE
  5
3FC
330
E8
100
AcDbEntity
  8
Layer0001
  6
Continuous
 62
    56
370
    18
100
AcDbLine
 10
-413.1493397770446
 20
-205.7987127625206
 30
0.0
 11
-459.1493397770447
 21
-205.7987127625206
 31
0.0
  0
LINE
  5
3FD
330
E8
100
AcDbEntity
  8
Layer0001
  6
Continuous
 62
    56
370
    18
100
AcDbLine
 10
-448.1493397770447
 20
-235.7987127625206
 30
0.0
 11
-413.1493397770446
 21
-235.7987127625206
 31
0.0
  0
LINE
  5
3FE
330
E8
100
AcDbEntity
  8
Layer0001
  6
Continuous
 62
    56
370
    18
100
AcDbLine
 10
-459.1493397770447
 20
-236.7987127625206
 30
0.0
 11
-459.1493397770447
 21
-205.7987127625206
 31
0.0
  0
LINE
  5
3FF
330
E8
100
AcDbEntity
  8
Layer0001
  6
Continuous
 62
    56
370
    18
100
AcDbLine
 10
-448.1493397770447
 20
-236.7987127625206
 30
0.0
 11
-448.1493397770447
 21
-235.7987127625206
 31
0.0
  0
LINE
  5
400
330
E8
100
AcDbEntity
  8
Layer0001
  6
Continuous
 62
    56
370
    18
100
AcDbLine
 10
-449.1493397770447
 20
-237.7987127625206
 30
0.0
 11
-458.1493397770447
 21
-237.7987127625206
 31
0.0
  0
LINE
  5
401
330
E8
100
AcDbEntity
  8
Layer0001
  6
Continuous
 62
    56
370
    18
100
AcDbLine
 10
-448.1493397770447
 20
-236.7987127625206
 30
0.0
 11
-449.1493397770447
 21
-237.7987127625206
 31
0.0
  0
LINE
  5
402
330
E8
100
AcDbEntity
  8
Layer0001
  6
Continuous
 62
    56
370
    18
100
AcDbLine
 10
-459.1493397770447
 20
-236.7987127625206
 30
0.0
 11
-458.1493397770447
 21
-237.7987127625206
 31
0.0
  0
ENDBLK
  5
EA
330
E8
100
AcDbEntity
  8
0
100
AcDbBlockEnd
  0
BLOCK
  5
EC
330
EB
100
AcDbEntity
  8
0
100
AcDbBlockBegin
  2
DC_GROUP_COM125_38
 70
     0
 10
0.0
 20
0.0
 30
0.0
  3
DC_GROUP_COM125_38
  1

  0
LINE
  5
403
330
EB
100
AcDbEntity
  8
Layer0001
  6
Continuous
 62
    56
370
    18
100
AcDbLine
 10
-223.1493397770446
 20
-235.7987127625206
 30
0.0
 11
-223.1493397770446
 21
-215.7987127625206
 31
0.0
  0
LINE
  5
404
330
EB
100
AcDbEntity
  8
Layer0001
  6
Continuous
 62
    56
370
    18
100
AcDbLine
 10
-223.1493397770446
 20
-215.7987127625206
 30
0.0
 11
-229.1493397770445
 21
-215.7987127625206
 31
0.0
  0
LINE
  5
405
330
EB
100
AcDbEntity
  8
Layer0001
  6
Continuous
 62
    56
370
    18
100
AcDbLine
 10
-223.1493397770446
 20
-205.7987127625206
 30
0.0
 11
-177.1493397770446
 21
-205.7987127625206
 31
0.0
  0
LINE
  5
406
330
EB
100
AcDbEntity
  8
Layer0001
  6
Continuous
 62
    56
370
    18
100
AcDbLine
 10
-188.1493397770446
 20
-235.7987127625206
 30
0.0
 11
-223.1493397770446
 21
-235.7987127625206
 31
0.0
  0
LINE
  5
407
330
EB
100
AcDbEntity
  8
Layer0001
  6
Continuous
 62
    56
370
    18
100
AcDbLine
 10
-177.1493397770446
 20
-236.7987127625206
 30
0.0
 11
-177.1493397770446
 21
-205.7987127625206
 31
0.0
  0
LINE
  5
408
330
EB
100
AcDbEntity
  8
Layer0001
  6
Continuous
 62
    56
370
    18
100
AcDbLine
 10
-188.1493397770446
 20
-236.7987127625206
 30
0.0
 11
-188.1493397770446
 21
-235.7987127625206
 31
0.0
  0
LINE
  5
409
330
EB
100
AcDbEntity
  8
Layer0001
  6
Continuous
 62
    56
370
    18
100
AcDbLine
 10
-187.1493397770446
 20
-237.7987127625206
 30
0.0
 11
-178.1493397770446
 21
-237.7987127625206
 31
0.0
  0
LINE
  5
40A
330
EB
100
AcDbEntity
  8
Layer0001
  6
Continuous
 62
    56
370
    18
100
AcDbLine
 10
-188.1493397770446
 20
-236.7987127625206
 30
0.0
 11
-187.1493397770446
 21
-237.7987127625206
 31
0.0
  0
LINE
  5
40B
330
EB
100
AcDbEntity
  8
Layer0001
  6
Continuous
 62
    56
370
    18
100
AcDbLine
 10
-177.1493397770446
 20
-236.7987127625206
 30
0.0
 11
-178.1493397770446
 21
-237.7987127625206
 31
0.0
  0
ENDBLK
  5
ED
330
EB
100
AcDbEntity
  8
0
100
AcDbBlockEnd
  0
BLOCK
  5
EF
330
EE
100
AcDbEntity
  8
0
100
AcDbBlockBegin
  2
DC_GROUP_COM125_39
 70
     0
 10
0.0
 20
0.0
 30
0.0
  3
DC_GROUP_COM125_39
  1

  0
LINE
  5
40C
330
EE
100
AcDbEntity
  8
Layer0001
  6
Continuous
 62
    56
370
    18
100
AcDbLine
 10
4.826369980340729
 20
-235.7987127625206
 30
0.0
 11
4.826369980340729
 21
-215.7987127625206
 31
0.0
  0
LINE
  5
40D
330
EE
100
AcDbEntity
  8
Layer0001
  6
Continuous
 62
    56
370
    18
100
AcDbLine
 10
4.826369980340729
 20
-215.7987127625206
 30
0.0
 11
10.82636998034062
 21
-215.7987127625206
 31
0.0
  0
LINE
  5
40E
330
EE
100
AcDbEntity
  8
Layer0001
  6
Continuous
 62
    56
370
    18
100
AcDbLine
 10
4.826369980340743
 20
-205.7987127625206
 30
0.0
 11
-41.17363001965933
 21
-205.7987127625206
 31
0.0
  0
LINE
  5
40F
330
EE
100
AcDbEntity
  8
Layer0001
  6
Continuous
 62
    56
370
    18
100
AcDbLine
 10
-30.17363001965933
 20
-235.7987127625206
 30
0.0
 11
4.826369980340729
 21
-235.7987127625206
 31
0.0
  0
LINE
  5
410
330
EE
100
AcDbEntity
  8
Layer0001
  6
Continuous
 62
    56
370
    18
100
AcDbLine
 10
-41.17363001965933
 20
-236.7987127625206
 30
0.0
 11
-41.17363001965933
 21
-205.7987127625206
 31
0.0
  0
LINE
  5
411
330
EE
100
AcDbEntity
  8
Layer0001
  6
Continuous
 62
    56
370
    18
100
AcDbLine
 10
-30.17363001965933
 20
-236.7987127625206
 30
0.0
 11
-30.17363001965933
 21
-235.7987127625206
 31
0.0
  0
LINE
  5
412
330
EE
100
AcDbEntity
  8
Layer0001
  6
Continuous
 62
    56
370
    18
100
AcDbLine
 10
-31.17363001965933
 20
-237.7987127625206
 30
0.0
 11
-40.17363001965933
 21
-237.7987127625206
 31
0.0
  0
LINE
  5
413
330
EE
100
AcDbEntity
  8
Layer0001
  6
Continuous
 62
    56
370
    18
100
AcDbLine
 10
-30.17363001965933
 20
-236.7987127625206
 30
0.0
 11
-31.17363001965933
 21
-237.7987127625206
 31
0.0
  0
LINE
  5
414
330
EE
100
AcDbEntity
  8
Layer0001
  6
Continuous
 62
    56
370
    18
100
AcDbLine
 10
-41.17363001965933
 20
-236.7987127625206
 30
0.0
 11
-40.17363001965933
 21
-237.7987127625206
 31
0.0
  0
ENDBLK
  5
F0
330
EE
100
AcDbEntity
  8
0
100
AcDbBlockEnd
  0
BLOCK
  5
F2
330
F1
100
AcDbEntity
  8
0
100
AcDbBlockBegin
  2
DC_GROUP_COM125_40
 70
     0
 10
0.0
 20
0.0
 30
0.0
  3
DC_GROUP_COM125_40
  1

  0
LINE
  5
415
330
F1
100
AcDbEntity
  8
Layer0001
  6
Continuous
 62
    56
370
    18
100
AcDbLine
 10
224.8263699803408
 20
-235.7987127625206
 30
0.0
 11
224.8263699803408
 21
-215.7987127625206
 31
0.0
  0
LINE
  5
416
330
F1
100
AcDbEntity
  8
Layer0001
  6
Continuous
 62
    56
370
    18
100
AcDbLine
 10
224.8263699803408
 20
-215.7987127625206
 30
0.0
 11
218.8263699803409
 21
-215.7987127625206
 31
0.0
  0
LINE
  5
417
330
F1
100
AcDbEntity
  8
Layer0001
  6
Continuous
 62
    56
370
    18
100
AcDbLine
 10
224.8263699803408
 20
-205.7987127625206
 30
0.0
 11
270.8263699803409
 21
-205.7987127625206
 31
0.0
  0
LINE
  5
418
330
F1
100
AcDbEntity
  8
Layer0001
  6
Continuous
 62
    56
370
    18
100
AcDbLine
 10
259.8263699803409
 20
-235.7987127625206
 30
0.0
 11
224.8263699803408
 21
-235.7987127625206
 31
0.0
  0
LINE
  5
419
330
F1
100
AcDbEntity
  8
Layer0001
  6
Continuous
 62
    56
370
    18
100
AcDbLine
 10
270.8263699803409
 20
-236.7987127625206
 30
0.0
 11
270.8263699803409
 21
-205.7987127625206
 31
0.0
  0
LINE
  5
41A
330
F1
100
AcDbEntity
  8
Layer0001
  6
Continuous
 62
    56
370
    18
100
AcDbLine
 10
259.8263699803409
 20
-236.7987127625206
 30
0.0
 11
259.8263699803409
 21
-235.7987127625206
 31
0.0
  0
LINE
  5
41B
330
F1
100
AcDbEntity
  8
Layer0001
  6
Continuous
 62
    56
370
    18
100
AcDbLine
 10
260.8263699803409
 20
-237.7987127625206
 30
0.0
 11
269.8263699803409
 21
-237.7987127625206
 31
0.0
  0
LINE
  5
41C
330
F1
100
AcDbEntity
  8
Layer0001
  6
Continuous
 62
    56
370
    18
100
AcDbLine
 10
259.8263699803409
 20
-236.7987127625206
 30
0.0
 11
260.8263699803409
 21
-237.7987127625206
 31
0.0
  0
LINE
  5
41D
330
F1
100
AcDbEntity
  8
Layer0001
  6
Continuous
 62
    56
370
    18
100
AcDbLine
 10
270.8263699803409
 20
-236.7987127625206
 30
0.0
 11
269.8263699803409
 21
-237.7987127625206
 31
0.0
  0
ENDBLK
  5
F3
330
F1
100
AcDbEntity
  8
0
100
AcDbBlockEnd
  0
BLOCK
  5
F5
330
F4
100
AcDbEntity
  8
0
100
AcDbBlockBegin
  2
*D43
 70
     1
 10
0.0
 20
0.0
 30
0.0
  3
*D43
  1

  0
LINE
  5
41E
330
F4
100
AcDbEntity
  8
Layer0015
  6
Continuous
 62
     2
370
    13
100
AcDbLine
 10
-152.7406940175959
 20
-237.7987127625206
 30
0.0
 11
-152.7406940175959
 21
-157.7987127625206
 31
0.0
  0
INSERT
  5
41F
330
F4
100
AcDbEntity
  8
Layer0015
 62
     2
100
AcDbBlockReference
  2
_OPEN30
 10
-152.7406940175959
 20
-237.7987127625206
 30
0.0
 41
3.670368878922017
 42
2.415330282579337
 50
270.0
  0
INSERT
  5
420
330
F4
100
AcDbEntity
  8
Layer0015
 62
     2
100
AcDbBlockReference
  2
_OPEN30
 10
-152.7406940175959
 20
-157.7987127625206
 30
0.0
 41
3.670368878922017
 42
2.415330282579337
 50
90.0
  0
LINE
  5
421
330
F4
100
AcDbEntity
  8
Layer0015
  6
Continuous
 62
     2
370
    13
100
AcDbLine
 10
-221.9493397770447
 20
-237.7987127625206
 30
0.0
 11
-151.7806940175959
 21
-237.7987127625206
 31
0.0
  0
LINE
  5
422
330
F4
100
AcDbEntity
  8
Layer0015
  6
Continuous
 62
     2
370
    13
100
AcDbLine
 10
-221.9493397770447
 20
-157.7987127625206
 30
0.0
 11
-151.7806940175959
 21
-157.7987127625206
 31
0.0
  0
MTEXT
  5
423
330
F4
100
AcDbEntity
  8
Layer0015
 62
     2
100
AcDbMText
 10
-153.9406940175959
 20
-197.7987127625206
 30
0.0
 40
8.4
 41
27.3
 71
     8
 72
     1
  1
\T1.00;80
  7
dcStyle0
 11
6.123031769111886E-17
 21
1.0
 31
0.0
 73
     1
 44
1.0
  0
ENDBLK
  5
F6
330
F4
100
AcDbEntity
  8
0
100
AcDbBlockEnd
  0
BLOCK
  5
F8
330
F7
100
AcDbEntity
  8
0
100
AcDbBlockBegin
  2
*D44
 70
     1
 10
0.0
 20
0.0
 30
0.0
  3
*D44
  1

  0
LINE
  5
424
330
F7
100
AcDbEntity
  8
Layer0015
  6
Continuous
 62
     2
370
    13
100
AcDbLine
 10
-152.7406940175959
 20
-157.7987127625206
 30
0.0
 11
-152.7406940175959
 21
-111.7987127625206
 31
0.0
  0
INSERT
  5
425
330
F7
100
AcDbEntity
  8
Layer0015
 62
     2
100
AcDbBlockReference
  2
_OPEN30
 10
-152.7406940175959
 20
-157.7987127625206
 30
0.0
 41
3.670368878922017
 42
2.415330282579337
 50
270.0
  0
INSERT
  5
426
330
F7
100
AcDbEntity
  8
Layer0015
 62
     2
100
AcDbBlockReference
  2
_OPEN30
 10
-152.7406940175959
 20
-111.7987127625206
 30
0.0
 41
3.670368878922017
 42
2.415330282579337
 50
90.0
  0
LINE
  5
427
330
F7
100
AcDbEntity
  8
Layer0015
  6
Continuous
 62
     2
370
    13
100
AcDbLine
 10
-221.9493397770447
 20
-157.7987127625206
 30
0.0
 11
-151.7806940175959
 21
-157.7987127625206
 31
0.0
  0
LINE
  5
428
330
F7
100
AcDbEntity
  8
Layer0015
  6
Continuous
 62
     2
370
    13
100
AcDbLine
 10
-256.9493397770447
 20
-111.7987127625206
 30
0.0
 11
-151.7806940175959
 21
-111.7987127625206
 31
0.0
  0
MTEXT
  5
429
330
F7
100
AcDbEntity
  8
Layer0015
 62
     2
100
AcDbMText
 10
-153.9406940175959
 20
-134.7987127625206
 30
0.0
 40
8.4
 41
27.3
 71
     8
 72
     1
  1
\T1.00;46
  7
dcStyle0
 11
6.123031769111886E-17
 21
1.0
 31
0.0
 73
     1
 44
1.0
  0
ENDBLK
  5
F9
330
F7
100
AcDbEntity
  8
0
100
AcDbBlockEnd
  0
BLOCK
  5
FB
330
FA
100
AcDbEntity
  8
0
100
AcDbBlockBegin
  2
*D45
 70
     1
 10
0.0
 20
0.0
 30
0.0
  3
*D45
  1

  0
LINE
  5
42A
330
FA
100
AcDbEntity
  8
Layer0015
  6
Continuous
 62
     2
370
    13
100
AcDbLine
 10
-52.30300265401757
 20
-237.7987127625206
 30
0.0
 11
-52.30300265401757
 21
-157.7987127625206
 31
0.0
  0
INSERT
  5
42B
330
FA
100
AcDbEntity
  8
Layer0015
 62
     2
100
AcDbBlockReference
  2
_OPEN30
 10
-52.30300265401757
 20
-237.7987127625206
 30
0.0
 41
3.670368878922017
 42
2.415330282579337
 50
270.0
  0
INSERT
  5
42C
330
FA
100
AcDbEntity
  8
Layer0015
 62
     2
100
AcDbBlockReference
  2
_OPEN30
 10
-52.30300265401757
 20
-157.7987127625206
 30
0.0
 41
3.670368878922017
 42
2.415330282579337
 50
90.0
  0
LINE
  5
42D
330
FA
100
AcDbEntity
  8
Layer0015
  6
Continuous
 62
     2
370
    13
100
AcDbLine
 10
3.626369980340743
 20
-237.7987127625206
 30
0.0
 11
-53.26300265401757
 21
-237.7987127625206
 31
0.0
  0
LINE
  5
42E
330
FA
100
AcDbEntity
  8
Layer0015
  6
Continuous
 62
     2
370
    13
100
AcDbLine
 10
3.626369980340743
 20
-157.7987127625206
 30
0.0
 11
-53.26300265401757
 21
-157.7987127625206
 31
0.0
  0
MTEXT
  5
42F
330
FA
100
AcDbEntity
  8
Layer0015
 62
     2
100
AcDbMText
 10
-53.50300265401757
 20
-197.7987127625206
 30
0.0
 40
8.4
 41
27.3
 71
     8
 72
     1
  1
\T1.00;80
  7
dcStyle0
 11
6.123031769111886E-17
 21
1.0
 31
0.0
 73
     1
 44
1.0
  0
ENDBLK
  5
FC
330
FA
100
AcDbEntity
  8
0
100
AcDbBlockEnd
  0
BLOCK
  5
FE
330
FD
100
AcDbEntity
  8
0
100
AcDbBlockBegin
  2
*D46
 70
     1
 10
0.0
 20
0.0
 30
0.0
  3
*D46
  1

  0
LINE
  5
430
330
FD
100
AcDbEntity
  8
Layer0015
  6
Continuous
 62
     2
370
    13
100
AcDbLine
 10
-130.6024276298941
 20
-237.7987127625206
 30
0.0
 11
-130.6024276298941
 21
-157.7987127625206
 31
0.0
  0
INSERT
  5
431
330
FD
100
AcDbEntity
  8
Layer0015
 62
     2
100
AcDbBlockReference
  2
_OPEN30
 10
-130.6024276298941
 20
-237.7987127625206
 30
0.0
 41
3.670368878922017
 42
2.415330282579337
 50
270.0
  0
INSERT
  5
432
330
FD
100
AcDbEntity
  8
Layer0015
 62
     2
100
AcDbBlockReference
  2
_OPEN30
 10
-130.6024276298941
 20
-157.7987127625206
 30
0.0
 41
3.670368878922017
 42
2.415330282579337
 50
90.0
  0
LINE
  5
433
330
FD
100
AcDbEntity
  8
Layer0015
  6
Continuous
 62
     2
370
    13
100
AcDbLine
 10
-119.0079414561437
 20
-237.7987127625206
 30
0.0
 11
-131.5624276298941
 21
-237.7987127625206
 31
0.0
  0
LINE
  5
434
330
FD
100
AcDbEntity
  8
Layer0015
  6
Continuous
 62
     2
370
    13
100
AcDbLine
 10
-101.3691573883114
 20
-157.7987127625206
 30
0.0
 11
-131.5624276298941
 21
-157.7987127625206
 31
0.0
  0
MTEXT
  5
435
330
FD
100
AcDbEntity
  8
Layer0015
 62
     2
100
AcDbMText
 10
-131.8024276298941
 20
-197.7987127625206
 30
0.0
 40
8.4
 41
27.3
 71
     8
 72
     1
  1
\T1.00;80
  7
dcStyle0
 11
6.123031769111886E-17
 21
1.0
 31
0.0
 73
     1
 44
1.0
  0
ENDBLK
  5
FF
330
FD
100
AcDbEntity
  8
0
100
AcDbBlockEnd
  0
BLOCK
  5
101
330
100
100
AcDbEntity
  8
0
100
AcDbBlockBegin
  2
*D47
 70
     1
 10
0.0
 20
0.0
 30
0.0
  3
*D47
  1

  0
LINE
  5
436
330
100
100
AcDbEntity
  8
Layer0015
  6
Continuous
 62
     2
370
    13
100
AcDbLine
 10
-117.8079414561437
 20
-258.8285216986775
 30
0.0
 11
-67.80794145614368
 21
-258.8285216986775
 31
0.0
  0
INSERT
  5
437
330
100
100
AcDbEntity
  8
Layer0015
 62
     2
100
AcDbBlockReference
  2
_OPEN30
 10
-117.8079414561437
 20
-258.8285216986775
 30
0.0
 41
3.670368878922017
 42
2.415330282579337
 50
180.0
  0
INSERT
  5
438
330
100
100
AcDbEntity
  8
Layer0015
 62
     2
100
AcDbBlockReference
  2
_OPEN30
 10
-67.80794145614368
 20
-258.8285216986775
 30
0.0
 41
3.670368878922017
 42
2.415330282579337
 50
360.0
  0
LINE
  5
439
330
100
100
AcDbEntity
  8
Layer0015
  6
Continuous
 62
     2
370
    13
100
AcDbLine
 10
-117.8079414561437
 20
-238.9987127625206
 30
0.0
 11
-117.8079414561437
 21
-259.7885216986775
 31
0.0
  0
LINE
  5
43A
330
100
100
AcDbEntity
  8
Layer0015
  6
Continuous
 62
     2
370
    13
100
AcDbLine
 10
-67.80794145614368
 20
-238.9987127625206
 30
0.0
 11
-67.80794145614368
 21
-259.7885216986775
 31
0.0
  0
MTEXT
  5
43B
330
100
100
AcDbEntity
  8
Layer0015
 62
     2
100
AcDbMText
 10
-92.80794145614368
 20
-257.6285216986776
 30
0.0
 40
8.4
 41
27.3
 71
     8
 72
     1
  1
\T1.00;50
  7
dcStyle0
 73
     1
 44
1.0
  0
ENDBLK
  5
102
330
100
100
AcDbEntity
  8
0
100
AcDbBlockEnd
  0
BLOCK
  5
104
330
103
100
AcDbEntity
  8
0
100
AcDbBlockBegin
  2
*D48
 70
     1
 10
0.0
 20
0.0
 30
0.0
  3
*D48
  1

  0
LINE
  5
43C
330
103
100
AcDbEntity
  8
Layer0015
  6
Continuous
 62
     2
370
    13
100
AcDbLine
 10
4.826369980340729
 20
-279.5507155222939
 30
0.0
 11
114.8263699803408
 21
-279.5507155222939
 31
0.0
  0
INSERT
  5
43D
330
103
100
AcDbEntity
  8
Layer0015
 62
     2
100
AcDbBlockReference
  2
_OPEN30
 10
4.826369980340729
 20
-279.5507155222939
 30
0.0
 41
3.670368878922017
 42
2.415330282579337
 50
180.0
  0
INSERT
  5
43E
330
103
100
AcDbEntity
  8
Layer0015
 62
     2
100
AcDbBlockReference
  2
_OPEN30
 10
114.8263699803408
 20
-279.5507155222939
 30
0.0
 41
3.670368878922017
 42
2.415330282579337
 50
360.0
  0
LINE
  5
43F
330
103
100
AcDbEntity
  8
Layer0015
  6
Continuous
 62
     2
370
    13
100
AcDbLine
 10
4.826369980340743
 20
-238.9987127625206
 30
0.0
 11
4.826369980340729
 21
-280.5107155222939
 31
0.0
  0
LINE
  5
440
330
103
100
AcDbEntity
  8
Layer0015
  6
Continuous
 62
     2
370
    13
100
AcDbLine
 10
114.8263699803408
 20
-246.9987127625206
 30
0.0
 11
114.8263699803408
 21
-280.5107155222939
 31
0.0
  0
MTEXT
  5
441
330
103
100
AcDbEntity
  8
Layer0015
 62
     2
100
AcDbMText
 10
59.82636998034074
 20
-278.3507155222939
 30
0.0
 40
8.4
 41
35.7
 71
     8
 72
     1
  1
\T1.00;110
  7
dcStyle0
 73
     1
 44
1.0
  0
ENDBLK
  5
105
330
103
100
AcDbEntity
  8
0
100
AcDbBlockEnd
  0
BLOCK
  5
107
330
106
100
AcDbEntity
  8
0
100
AcDbBlockBegin
  2
*D49
 70
     1
 10
0.0
 20
0.0
 30
0.0
  3
*D49
  1

  0
LINE
  5
442
330
106
100
AcDbEntity
  8
Layer0015
  6
Continuous
 62
     2
370
    13
100
AcDbLine
 10
-41.17363001965933
 20
-308.4304033826991
 30
0.0
 11
270.8263699803409
 21
-308.4304033826991
 31
0.0
  0
INSERT
  5
443
330
106
100
AcDbEntity
  8
Layer0015
 62
     2
100
AcDbBlockReference
  2
_OPEN30
 10
-41.17363001965933
 20
-308.4304033826991
 30
0.0
 41
3.670368878922017
 42
2.415330282579337
 50
180.0
  0
INSERT
  5
444
330
106
100
AcDbEntity
  8
Layer0015
 62
     2
100
AcDbBlockReference
  2
_OPEN30
 10
270.8263699803409
 20
-308.4304033826991
 30
0.0
 41
3.670368878922017
 42
2.415330282579337
 50
360.0
  0
LINE
  5
445
330
106
100
AcDbEntity
  8
Layer0015
  6
Continuous
 62
     2
370
    13
100
AcDbLine
 10
-41.17363001965933
 20
-237.9987127625206
 30
0.0
 11
-41.17363001965933
 21
-309.3904033826992
 31
0.0
  0
LINE
  5
446
330
106
100
AcDbEntity
  8
Layer0015
  6
Continuous
 62
     2
370
    13
100
AcDbLine
 10
270.8263699803409
 20
-237.9987127625206
 30
0.0
 11
270.8263699803409
 21
-309.3904033826992
 31
0.0
  0
MTEXT
  5
447
330
106
100
AcDbEntity
  8
Layer0015
 62
     2
100
AcDbMText
 10
114.8263699803408
 20
-307.2304033826992
 30
0.0
 40
8.4
 41
35.7
 71
     8
 72
     1
  1
\T1.00;312
  7
dcStyle0
 73
     1
 44
1.0
  0
ENDBLK
  5
108
330
106
100
AcDbEntity
  8
0
100
AcDbBlockEnd
  0
BLOCK
  5
10A
330
109
100
AcDbEntity
  8
0
100
AcDbBlockBegin
  2
*D50
 70
     1
 10
0.0
 20
0.0
 30
0.0
  3
*D50
  1

  0
LINE
  5
448
330
109
100
AcDbEntity
  8
Layer0015
  6
Continuous
 62
     2
370
    13
100
AcDbLine
 10
-378.1493397770446
 20
-261.5654885500213
 30
0.0
 11
-318.1493397770446
 21
-261.5654885500213
 31
0.0
  0
INSERT
  5
449
330
109
100
AcDbEntity
  8
Layer0015
 62
     2
100
AcDbBlockReference
  2
_OPEN30
 10
-378.1493397770446
 20
-261.5654885500213
 30
0.0
 41
3.670368878922017
 42
2.415330282579337
 50
180.0
  0
INSERT
  5
44A
330
109
100
AcDbEntity
  8
Layer0015
 62
     2
100
AcDbBlockReference
  2
_OPEN30
 10
-318.1493397770446
 20
-261.5654885500213
 30
0.0
 41
3.670368878922017
 42
2.415330282579337
 50
360.0
  0
LINE
  5
44B
330
109
100
AcDbEntity
  8
Layer0015
  6
Continuous
 62
     2
370
    13
100
AcDbLine
 10
-378.1493397770446
 20
-158.9987127625207
 30
0.0
 11
-378.1493397770446
 21
-262.5254885500213
 31
0.0
  0
LINE
  5
44C
330
109
100
AcDbEntity
  8
Layer0015
  6
Continuous
 62
     2
370
    13
100
AcDbLine
 10
-318.1493397770446
 20
-246.9987127625206
 30
0.0
 11
-318.1493397770446
 21
-262.5254885500213
 31
0.0
  0
MTEXT
  5
44D
330
109
100
AcDbEntity
  8
Layer0015
 62
     2
100
AcDbMText
 10
-348.1493397770446
 20
-260.3654885500213
 30
0.0
 40
8.4
 41
27.30000000000007
 71
     8
 72
     1
  1
\T1.00;60
  7
dcStyle0
 73
     1
 44
1.0
  0
ENDBLK
  5
10B
330
109
100
AcDbEntity
  8
0
100
AcDbBlockEnd
  0
BLOCK
  5
10D
330
10C
100
AcDbEntity
  8
0
100
AcDbBlockBegin
  2
*D51
 70
     1
 10
0.0
 20
0.0
 30
0.0
  3
*D51
  1

  0
LINE
  5
44E
330
10C
100
AcDbEntity
  8
Layer0015
  6
Continuous
 62
     2
370
    13
100
AcDbLine
 10
-318.1493397770446
 20
-261.5654885500213
 30
0.0
 11
-258.1493397770446
 21
-261.5654885500213
 31
0.0
  0
INSERT
  5
44F
330
10C
100
AcDbEntity
  8
Layer0015
 62
     2
100
AcDbBlockReference
  2
_OPEN30
 10
-318.1493397770446
 20
-261.5654885500213
 30
0.0
 41
3.670368878922017
 42
2.415330282579337
 50
180.0
  0
INSERT
  5
450
330
10C
100
AcDbEntity
  8
Layer0015
 62
     2
100
AcDbBlockReference
  2
_OPEN30
 10
-258.1493397770446
 20
-261.5654885500213
 30
0.0
 41
3.670368878922017
 42
2.415330282579337
 50
360.0
  0
LINE
  5
451
330
10C
100
AcDbEntity
  8
Layer0015
  6
Continuous
 62
     2
370
    13
100
AcDbLine
 10
-318.1493397770446
 20
-246.9987127625206
 30
0.0
 11
-318.1493397770446
 21
-262.5254885500213
 31
0.0
  0
LINE
  5
452
330
10C
100
AcDbEntity
  8
Layer0015
  6
Continuous
 62
     2
370
    13
100
AcDbLine
 10
-258.1493397770446
 20
-158.9987127625207
 30
0.0
 11
-258.1493397770446
 21
-262.5254885500213
 31
0.0
  0
MTEXT
  5
453
330
10C
100
AcDbEntity
  8
Layer0015
 62
     2
100
AcDbMText
 10
-288.1493397770446
 20
-260.3654885500213
 30
0.0
 40
8.4
 41
27.30000000000007
 71
     8
 72
     1
  1
\T1.00;60
  7
dcStyle0
 73
     1
 44
1.0
  0
ENDBLK
  5
10E
330
10C
100
AcDbEntity
  8
0
100
AcDbBlockEnd
  0
BLOCK
  5
110
330
10F
100
AcDbEntity
  8
0
100
AcDbBlockBegin
  2
*D52
 70
     1
 10
0.0
 20
0.0
 30
0.0
  3
*D52
  1

  0
LINE
  5
454
330
10F
100
AcDbEntity
  8
Layer0015
  6
Continuous
 62
     2
370
    13
100
AcDbLine
 10
-459.1493397770447
 20
-309.3904033826992
 30
0.0
 11
-177.1493397770446
 21
-309.3904033826992
 31
0.0
  0
INSERT
  5
455
330
10F
100
AcDbEntity
  8
Layer0015
 62
     2
100
AcDbBlockReference
  2
_OPEN30
 10
-459.1493397770447
 20
-309.3904033826992
 30
0.0
 41
3.670368878922017
 42
2.415330282579337
 50
180.0
  0
INSERT
  5
456
330
10F
100
AcDbEntity
  8
Layer0015
 62
     2
100
AcDbBlockReference
  2
_OPEN30
 10
-177.1493397770446
 20
-309.3904033826992
 30
0.0
 41
3.670368878922017
 42
2.415330282579337
 50
360.0
  0
LINE
  5
457
330
10F
100
AcDbEntity
  8
Layer0015
  6
Continuous
 62
     2
370
    13
100
AcDbLine
 10
-459.1493397770447
 20
-237.9987127625206
 30
0.0
 11
-459.1493397770447
 21
-310.3504033826991
 31
0.0
  0
LINE
  5
458
330
10F
100
AcDbEntity
  8
Layer0015
  6
Continuous
 62
     2
370
    13
100
AcDbLine
 10
-177.1493397770446
 20
-237.9987127625206
 30
0.0
 11
-177.1493397770446
 21
-310.3504033826991
 31
0.0
  0
MTEXT
  5
459
330
10F
100
AcDbEntity
  8
Layer0015
 62
     2
100
AcDbMText
 10
-318.1493397770446
 20
-308.1904033826991
 30
0.0
 40
8.4
 41
35.69999999999996
 71
     8
 72
     1
  1
\T1.00;282
  7
dcStyle0
 73
     1
 44
1.0
  0
ENDBLK
  5
111
330
10F
100
AcDbEntity
  8
0
100
AcDbBlockEnd
  0
BLOCK
  5
113
330
112
100
AcDbEntity
  8
0
100
AcDbBlockBegin
  2
*D53
 70
     1
 10
0.0
 20
0.0
 30
0.0
  3
*D53
  1

  0
LINE
  5
45A
330
112
100
AcDbEntity
  8
Layer0015
  6
Continuous
 62
     2
370
    13
100
AcDbLine
 10
4.826369980340743
 20
307.1975277696477
 30
0.0
 11
306.8263699803409
 21
307.1975277696477
 31
0.0
  0
INSERT
  5
45B
330
112
100
AcDbEntity
  8
Layer0015
 62
     2
100
AcDbBlockReference
  2
_OPEN30
 10
4.826369980340743
 20
307.1975277696477
 30
0.0
 41
3.670368878922017
 42
2.415330282579337
 50
180.0
  0
INSERT
  5
45C
330
112
100
AcDbEntity
  8
Layer0015
 62
     2
100
AcDbBlockReference
  2
_OPEN30
 10
306.8263699803409
 20
307.1975277696477
 30
0.0
 41
3.670368878922017
 42
2.415330282579337
 50
360.0
  0
LINE
  5
45D
330
112
100
AcDbEntity
  8
Layer0015
  6
Continuous
 62
     2
370
    13
100
AcDbLine
 10
4.826369980340743
 20
245.5202911454414
 30
0.0
 11
4.826369980340743
 21
308.1575277696476
 31
0.0
  0
LINE
  5
45E
330
112
100
AcDbEntity
  8
Layer0015
  6
Continuous
 62
     2
370
    13
100
AcDbLine
 10
306.8263699803409
 20
189.7702911454414
 30
0.0
 11
306.8263699803409
 21
308.1575277696476
 31
0.0
  0
MTEXT
  5
45F
330
112
100
AcDbEntity
  8
Layer0015
 62
     2
100
AcDbMText
 10
155.8263699803408
 20
308.3975277696476
 30
0.0
 40
8.4
 41
35.70000000000003
 71
     8
 72
     1
  1
\T1.00;302
  7
dcStyle0
 73
     1
 44
1.0
  0
ENDBLK
  5
114
330
112
100
AcDbEntity
  8
0
100
AcDbBlockEnd
  0
BLOCK
  5
116
330
115
100
AcDbEntity
  8
0
100
AcDbBlockBegin
  2
*D54
 70
     1
 10
0.0
 20
0.0
 30
0.0
  3
*D54
  1

  0
LINE
  5
460
330
115
100
AcDbEntity
  8
Layer0015
  6
Continuous
 62
     2
370
    13
100
AcDbLine
 10
-49.18751941409771
 20
132.8202911454414
 30
0.0
 11
-49.18751941409771
 21
230.8202911454414
 31
0.0
  0
INSERT
  5
461
330
115
100
AcDbEntity
  8
Layer0015
 62
     2
100
AcDbBlockReference
  2
_OPEN30
 10
-49.18751941409771
 20
132.8202911454414
 30
0.0
 41
3.670368878922017
 42
2.415330282579337
 50
270.0
  0
INSERT
  5
462
330
115
100
AcDbEntity
  8
Layer0015
 62
     2
100
AcDbBlockReference
  2
_OPEN30
 10
-49.18751941409771
 20
230.8202911454414
 30
0.0
 41
3.670368878922017
 42
2.415330282579337
 50
90.0
  0
LINE
  5
463
330
115
100
AcDbEntity
  8
Layer0015
  6
Continuous
 62
     2
370
    13
100
AcDbLine
 10
3.626369980340743
 20
132.8202911454414
 30
0.0
 11
-50.14751941409772
 21
132.8202911454414
 31
0.0
  0
LINE
  5
464
330
115
100
AcDbEntity
  8
Layer0015
  6
Continuous
 62
     2
370
    13
100
AcDbLine
 10
3.626369980340743
 20
230.8202911454414
 30
0.0
 11
-50.14751941409772
 21
230.8202911454414
 31
0.0
  0
MTEXT
  5
465
330
115
100
AcDbEntity
  8
Layer0015
 62
     2
100
AcDbMText
 10
-50.38751941409772
 20
181.8202911454414
 30
0.0
 40
8.4
 41
27.3
 71
     8
 72
     1
  1
\T1.00;98
  7
dcStyle0
 11
6.123031769111886E-17
 21
1.0
 31
0.0
 73
     1
 44
1.0
  0
ENDBLK
  5
117
330
115
100
AcDbEntity
  8
0
100
AcDbBlockEnd
  0
BLOCK
  5
119
330
118
100
AcDbEntity
  8
0
100
AcDbBlockBegin
  2
*D55
 70
     1
 10
0.0
 20
0.0
 30
0.0
  3
*D55
  1

  0
LINE
  5
466
330
118
100
AcDbEntity
  8
Layer0015
  6
Continuous
 62
     2
370
    13
100
AcDbLine
 10
-413.1493397770446
 20
-80.92924439897476
 30
0.0
 11
-378.1493397770446
 21
-80.92924439897476
 31
0.0
  0
INSERT
  5
467
330
118
100
AcDbEntity
  8
Layer0015
 62
     2
100
AcDbBlockReference
  2
_OPEN30
 10
-413.1493397770446
 20
-80.92924439897476
 30
0.0
 41
3.670368878922017
 42
2.415330282579337
 50
180.0
  0
INSERT
  5
468
330
118
100
AcDbEntity
  8
Layer0015
 62
     2
100
AcDbBlockReference
  2
_OPEN30
 10
-378.1493397770446
 20
-80.92924439897476
 30
0.0
 41
3.670368878922017
 42
2.415330282579337
 50
360.0
  0
LINE
  5
469
330
118
100
AcDbEntity
  8
Layer0015
  6
Continuous
 62
     2
370
    13
100
AcDbLine
 10
-413.1493397770446
 20
-156.5987127625206
 30
0.0
 11
-413.1493397770446
 21
-79.96924439897475
 31
0.0
  0
LINE
  5
46A
330
118
100
AcDbEntity
  8
Layer0015
  6
Continuous
 62
     2
370
    13
100
AcDbLine
 10
-378.1493397770446
 20
-110.5987127625206
 30
0.0
 11
-378.1493397770446
 21
-79.96924439897475
 31
0.0
  0
MTEXT
  5
46B
330
118
100
AcDbEntity
  8
Layer0015
 62
     2
100
AcDbMText
 10
-395.6493397770446
 20
-79.72924439897476
 30
0.0
 40
8.4
 41
27.30000000000007
 71
     8
 72
     1
  1
\T1.00;35
  7
dcStyle0
 73
     1
 44
1.0
  0
ENDBLK
  5
11A
330
118
100
AcDbEntity
  8
0
100
AcDbBlockEnd
  0
BLOCK
  5
11C
330
11B
100
AcDbEntity
  8
0
100
AcDbBlockBegin
  2
*D56
 70
     1
 10
0.0
 20
0.0
 30
0.0
  3
*D56
  1

  0
LINE
  5
46C
330
11B
100
AcDbEntity
  8
Layer0015
  6
Continuous
 62
     2
370
    13
100
AcDbLine
 10
-378.1493397770446
 20
-80.92924439897476
 30
0.0
 11
-363.1493397770446
 21
-80.92924439897476
 31
0.0
  0
INSERT
  5
46D
330
11B
100
AcDbEntity
  8
Layer0015
 62
     2
100
AcDbBlockReference
  2
_OPEN30
 10
-378.1493397770446
 20
-80.92924439897476
 30
0.0
 41
3.670368878922017
 42
2.415330282579337
 50
180.0
  0
INSERT
  5
46E
330
11B
100
AcDbEntity
  8
Layer0015
 62
     2
100
AcDbBlockReference
  2
_OPEN30
 10
-363.1493397770446
 20
-80.92924439897476
 30
0.0
 41
3.670368878922017
 42
2.415330282579337
 50
360.0
  0
LINE
  5
46F
330
11B
100
AcDbEntity
  8
Layer0015
  6
Continuous
 62
     2
370
    13
100
AcDbLine
 10
-378.1493397770446
 20
-110.5987127625206
 30
0.0
 11
-378.1493397770446
 21
-79.96924439897475
 31
0.0
  0
LINE
  5
470
330
11B
100
AcDbEntity
  8
Layer0015
  6
Continuous
 62
     2
370
    13
100
AcDbLine
 10
-363.1493397770446
 20
-111.0987127625206
 30
0.0
 11
-363.1493397770446
 21
-79.96924439897475
 31
0.0
  0
MTEXT
  5
471
330
11B
100
AcDbEntity
  8
Layer0015
 62
     2
100
AcDbMText
 10
-370.6493397770446
 20
-79.72924439897476
 30
0.0
 40
8.4
 41
27.30000000000007
 71
     8
 72
     1
  1
\T1.00;15
  7
dcStyle0
 73
     1
 44
1.0
  0
ENDBLK
  5
11D
330
11B
100
AcDbEntity
  8
0
100
AcDbBlockEnd
  0
BLOCK
  5
11F
330
11E
100
AcDbEntity
  8
0
100
AcDbBlockBegin
  2
*D57
 70
     1
 10
0.0
 20
0.0
 30
0.0
  3
*D57
  1

  0
LINE
  5
472
330
11E
100
AcDbEntity
  8
Layer0015
  6
Continuous
 62
     2
370
    13
100
AcDbLine
 10
-273.1493397770446
 20
-80.92924439897476
 30
0.0
 11
-258.1493397770446
 21
-80.92924439897476
 31
0.0
  0
INSERT
  5
473
330
11E
100
AcDbEntity
  8
Layer0015
 62
     2
100
AcDbBlockReference
  2
_OPEN30
 10
-273.1493397770446
 20
-80.92924439897476
 30
0.0
 41
3.670368878922017
 42
2.415330282579337
 50
180.0
  0
INSERT
  5
474
330
11E
100
AcDbEntity
  8
Layer0015
 62
     2
100
AcDbBlockReference
  2
_OPEN30
 10
-258.1493397770446
 20
-80.92924439897476
 30
0.0
 41
3.670368878922017
 42
2.415330282579337
 50
360.0
  0
LINE
  5
475
330
11E
100
AcDbEntity
  8
Layer0015
  6
Continuous
 62
     2
370
    13
100
AcDbLine
 10
-273.1493397770446
 20
-111.0987127625206
 30
0.0
 11
-273.1493397770446
 21
-79.96924439897475
 31
0.0
  0
LINE
  5
476
330
11E
100
AcDbEntity
  8
Layer0015
  6
Continuous
 62
     2
370
    13
100
AcDbLine
 10
-258.1493397770446
 20
-110.5987127625206
 30
0.0
 11
-258.1493397770446
 21
-79.96924439897475
 31
0.0
  0
MTEXT
  5
477
330
11E
100
AcDbEntity
  8
Layer0015
 62
     2
100
AcDbMText
 10
-265.6493397770446
 20
-79.72924439897476
 30
0.0
 40
8.4
 41
27.30000000000007
 71
     8
 72
     1
  1
\T1.00;15
  7
dcStyle0
 73
     1
 44
1.0
  0
ENDBLK
  5
120
330
11E
100
AcDbEntity
  8
0
100
AcDbBlockEnd
  0
BLOCK
  5
122
330
121
100
AcDbEntity
  8
0
100
AcDbBlockBegin
  2
*D58
 70
     1
 10
0.0
 20
0.0
 30
0.0
  3
*D58
  1

  0
LINE
  5
478
330
121
100
AcDbEntity
  8
Layer0015
  6
Continuous
 62
     2
370
    13
100
AcDbLine
 10
-258.1493397770446
 20
-80.92924439897476
 30
0.0
 11
-223.1493397770446
 21
-80.92924439897476
 31
0.0
  0
INSERT
  5
479
330
121
100
AcDbEntity
  8
Layer0015
 62
     2
100
AcDbBlockReference
  2
_OPEN30
 10
-258.1493397770446
 20
-80.92924439897476
 30
0.0
 41
3.670368878922017
 42
2.415330282579337
 50
180.0
  0
INSERT
  5
47A
330
121
100
AcDbEntity
  8
Layer0015
 62
     2
100
AcDbBlockReference
  2
_OPEN30
 10
-223.1493397770446
 20
-80.92924439897476
 30
0.0
 41
3.670368878922017
 42
2.415330282579337
 50
360.0
  0
LINE
  5
47B
330
121
100
AcDbEntity
  8
Layer0015
  6
Continuous
 62
     2
370
    13
100
AcDbLine
 10
-258.1493397770446
 20
-110.5987127625206
 30
0.0
 11
-258.1493397770446
 21
-79.96924439897475
 31
0.0
  0
LINE
  5
47C
330
121
100
AcDbEntity
  8
Layer0015
  6
Continuous
 62
     2
370
    13
100
AcDbLine
 10
-223.1493397770446
 20
-156.5987127625206
 30
0.0
 11
-223.1493397770446
 21
-79.96924439897475
 31
0.0
  0
MTEXT
  5
47D
330
121
100
AcDbEntity
  8
Layer0015
 62
     2
100
AcDbMText
 10
-240.6493397770446
 20
-79.72924439897476
 30
0.0
 40
8.4
 41
27.3
 71
     8
 72
     1
  1
\T1.00;35
  7
dcStyle0
 73
     1
 44
1.0
  0
ENDBLK
  5
123
330
121
100
AcDbEntity
  8
0
100
AcDbBlockEnd
  0
BLOCK
  5
125
330
124
100
AcDbEntity
  8
0
100
AcDbBlockBegin
  2
*D59
 70
     1
 10
0.0
 20
0.0
 30
0.0
  3
*D59
  1

  0
LINE
  5
47E
330
124
100
AcDbEntity
  8
Layer0015
  6
Continuous
 62
     2
370
    13
100
AcDbLine
 10
4.826369980340743
 20
-97.91666580207212
 30
0.0
 11
78.12636998034074
 21
-97.91666580207212
 31
0.0
  0
INSERT
  5
47F
330
124
100
AcDbEntity
  8
Layer0015
 62
     2
100
AcDbBlockReference
  2
_OPEN30
 10
4.826369980340743
 20
-97.91666580207212
 30
0.0
 41
3.670368878922017
 42
2.415330282579337
 50
180.0
  0
INSERT
  5
480
330
124
100
AcDbEntity
  8
Layer0015
 62
     2
100
AcDbBlockReference
  2
_OPEN30
 10
78.12636998034074
 20
-97.91666580207212
 30
0.0
 41
3.670368878922017
 42
2.415330282579337
 50
360.0
  0
LINE
  5
481
330
124
100
AcDbEntity
  8
Layer0015
  6
Continuous
 62
     2
370
    13
100
AcDbLine
 10
4.826369980340743
 20
-156.5987127625206
 30
0.0
 11
4.826369980340743
 21
-96.95666580207214
 31
0.0
  0
LINE
  5
482
330
124
100
AcDbEntity
  8
Layer0015
  6
Continuous
 62
     2
370
    13
100
AcDbLine
 10
78.12636998034074
 20
-110.5987127625206
 30
0.0
 11
78.12636998034074
 21
-96.95666580207214
 31
0.0
  0
MTEXT
  5
483
330
124
100
AcDbEntity
  8
Layer0015
 62
     2
100
AcDbMText
 10
41.47636998034074
 20
-96.71666580207213
 30
0.0
 40
8.4
 41
52.50000000000001
 71
     8
 72
     1
  1
\T1.00;10～70
  7
dcStyle0
 73
     1
 44
1.0
  0
ENDBLK
  5
126
330
124
100
AcDbEntity
  8
0
100
AcDbBlockEnd
  0
BLOCK
  5
128
330
127
100
AcDbEntity
  8
0
100
AcDbBlockBegin
  2
DC_GROUP_COM125_41
 70
     0
 10
0.0
 20
0.0
 30
0.0
  3
DC_GROUP_COM125_41
  1

  0
LINE
  5
484
330
127
100
AcDbEntity
  8
Layer0001
  6
Continuous
 62
    56
370
    18
100
AcDbLine
 10
438.5914549045166
 20
244.3202911454416
 30
0.0
 11
418.5914549045166
 21
244.3202911454416
 31
0.0
  0
LINE
  5
485
330
127
100
AcDbEntity
  8
Layer0001
  6
Continuous
 62
    56
370
    18
100
AcDbLine
 10
418.5914549045166
 20
244.3202911454416
 30
0.0
 11
418.5914549045166
 21
238.3202911454417
 31
0.0
  0
LINE
  5
486
330
127
100
AcDbEntity
  8
Layer0001
  6
Continuous
 62
    56
370
    18
100
AcDbLine
 10
408.5914549045166
 20
238.3202911454417
 30
0.0
 11
408.5914549045166
 21
285.3202911454417
 31
0.0
  0
LINE
  5
487
330
127
100
AcDbEntity
  8
Layer0001
  6
Continuous
 62
    56
370
    18
100
AcDbLine
 10
408.5914549045166
 20
238.3202911454417
 30
0.0
 11
418.5914549045166
 21
238.3202911454417
 31
0.0
  0
LINE
  5
488
330
127
100
AcDbEntity
  8
Layer0001
  6
Continuous
 62
    56
370
    18
100
AcDbLine
 10
438.5914549045166
 20
281.3202911454417
 30
0.0
 11
438.5914549045166
 21
244.3202911454416
 31
0.0
  0
LINE
  5
489
330
127
100
AcDbEntity
  8
Layer0001
  6
Continuous
 62
    56
370
    18
100
AcDbLine
 10
413.5914549045165
 20
290.3202911454417
 30
0.0
 11
408.5914549045166
 21
285.3202911454417
 31
0.0
  0
LINE
  5
48A
330
127
100
AcDbEntity
  8
Layer0001
  6
Continuous
 62
    56
370
    18
100
AcDbLine
 10
440.5914549045165
 20
290.3202911454417
 30
0.0
 11
413.5914549045165
 21
290.3202911454417
 31
0.0
  0
LINE
  5
48B
330
127
100
AcDbEntity
  8
Layer0001
  6
Continuous
 62
    56
370
    18
100
AcDbLine
 10
440.5914549045166
 20
281.3202911454418
 30
0.0
 11
438.5914549045166
 21
281.3202911454417
 31
0.0
  0
LINE
  5
48C
330
127
100
AcDbEntity
  8
Layer0001
  6
Continuous
 62
    56
370
    18
100
AcDbLine
 10
440.5914549045166
 20
281.3202911454418
 30
0.0
 11
440.5914549045165
 21
290.3202911454417
 31
0.0
  0
LINE
  5
48D
330
127
100
AcDbEntity
  8
Layer0001
  6
CENTER
 62
    56
370
    25
100
AcDbLine
 10
408.5914549045166
 20
264.3202911454417
 30
0.0
 11
440.5914549045166
 21
264.3202911454418
 31
0.0
  0
ENDBLK
  5
129
330
127
100
AcDbEntity
  8
0
100
AcDbBlockEnd
  0
BLOCK
  5
12B
330
12A
100
AcDbEntity
  8
0
100
AcDbBlockBegin
  2
DC_GROUP_COM125_42
 70
     0
 10
0.0
 20
0.0
 30
0.0
  3
DC_GROUP_COM125_42
  1

  0
LINE
  5
48E
330
12A
100
AcDbEntity
  8
Layer0001
  6
Continuous
 62
    56
370
    18
100
AcDbLine
 10
438.5914549045166
 20
119.3202911454414
 30
0.0
 11
418.5914549045166
 21
119.3202911454414
 31
0.0
  0
LINE
  5
48F
330
12A
100
AcDbEntity
  8
Layer0001
  6
Continuous
 62
    56
370
    18
100
AcDbLine
 10
418.5914549045166
 20
119.3202911454414
 30
0.0
 11
418.5914549045166
 21
125.3202911454413
 31
0.0
  0
LINE
  5
490
330
12A
100
AcDbEntity
  8
Layer0001
  6
Continuous
 62
    56
370
    18
100
AcDbLine
 10
408.5914549045166
 20
125.3202911454413
 30
0.0
 11
408.5914549045166
 21
78.32029114544127
 31
0.0
  0
LINE
  5
491
330
12A
100
AcDbEntity
  8
Layer0001
  6
Continuous
 62
    56
370
    18
100
AcDbLine
 10
408.5914549045166
 20
125.3202911454413
 30
0.0
 11
418.5914549045166
 21
125.3202911454413
 31
0.0
  0
LINE
  5
492
330
12A
100
AcDbEntity
  8
Layer0001
  6
Continuous
 62
    56
370
    18
100
AcDbLine
 10
438.5914549045166
 20
82.32029114544127
 30
0.0
 11
438.5914549045166
 21
119.3202911454414
 31
0.0
  0
LINE
  5
493
330
12A
100
AcDbEntity
  8
Layer0001
  6
Continuous
 62
    56
370
    18
100
AcDbLine
 10
413.5914549045166
 20
73.32029114544127
 30
0.0
 11
408.5914549045166
 21
78.32029114544127
 31
0.0
  0
LINE
  5
494
330
12A
100
AcDbEntity
  8
Layer0001
  6
Continuous
 62
    56
370
    18
100
AcDbLine
 10
440.5914549045166
 20
73.32029114544127
 30
0.0
 11
413.5914549045166
 21
73.32029114544127
 31
0.0
  0
LINE
  5
495
330
12A
100
AcDbEntity
  8
Layer0001
  6
Continuous
 62
    56
370
    18
100
AcDbLine
 10
440.5914549045166
 20
82.32029114544127
 30
0.0
 11
438.5914549045166
 21
82.32029114544127
 31
0.0
  0
LINE
  5
496
330
12A
100
AcDbEntity
  8
Layer0001
  6
Continuous
 62
    56
370
    18
100
AcDbLine
 10
440.5914549045166
 20
82.32029114544127
 30
0.0
 11
440.5914549045166
 21
73.32029114544127
 31
0.0
  0
LINE
  5
497
330
12A
100
AcDbEntity
  8
Layer0001
  6
CENTER
 62
    56
370
    25
100
AcDbLine
 10
408.5914549045166
 20
99.32029114544127
 30
0.0
 11
440.5914549045166
 21
99.32029114544127
 31
0.0
  0
ENDBLK
  5
12C
330
12A
100
AcDbEntity
  8
0
100
AcDbBlockEnd
  0
BLOCK
  5
12E
330
12D
100
AcDbEntity
  8
0
100
AcDbBlockBegin
  2
DA_IMAGEDIMGROUP_1
 70
     0
 10
0.0
 20
0.0
 30
0.0
  3
DA_IMAGEDIMGROUP_1
  1

  0
LINE
  5
498
330
12D
100
AcDbEntity
  8
Layer0015
  6
Continuous
 62
     2
370
    13
100
AcDbLine
 10
105.8263699803408
 20
-246.9987127625206
 30
0.0
 11
105.8263699803408
 21
-263.8495911046689
 31
0.0
  0
LINE
  5
499
330
12D
100
AcDbEntity
  8
Layer0015
  6
Continuous
 62
     2
370
    13
100
AcDbLine
 10
123.8263699803408
 20
-246.9987127625206
 30
0.0
 11
123.8263699803408
 21
-263.8495911046689
 31
0.0
  0
LINE
  5
49A
330
12D
100
AcDbEntity
  8
Layer0015
  6
Continuous
 62
     2
370
    13
100
AcDbLine
 10
105.8263699803408
 20
-262.8895911046689
 30
0.0
 11
123.8263699803408
 21
-262.8895911046689
 31
0.0
  0
LINE
  5
49B
330
12D
100
AcDbEntity
  8
Layer0015
  6
Continuous
 62
     2
370
    13
100
AcDbLine
 10
135.0516739803408
 20
-262.8895911046689
 30
0.0
 11
123.8263699803408
 21
-262.8895911046689
 31
0.0
  0
INSERT
  5
49C
330
12D
100
AcDbEntity
  8
Layer0015
 62
     2
100
AcDbBlockReference
  2
_OPEN30
 10
123.8263699803408
 20
-262.8895911046689
 30
0.0
 41
3.670368878922017
 42
2.415330282579337
 50
180.0
  0
LINE
  5
49D
330
12D
100
AcDbEntity
  8
Layer0015
  6
Continuous
 62
     2
370
    13
100
AcDbLine
 10
101.0263699803408
 20
-262.8895911046689
 30
0.0
 11
105.8263699803408
 21
-262.8895911046689
 31
0.0
  0
INSERT
  5
49E
330
12D
100
AcDbEntity
  8
Layer0015
 62
     2
100
AcDbBlockReference
  2
_OPEN30
 10
105.8263699803408
 20
-262.8895911046689
 30
0.0
 41
3.670368878922017
 42
2.415330282579337
 50
360.0
  0
MTEXT
  5
49F
330
12D
100
AcDbEntity
  8
Layer0015
 62
     2
100
AcDbMText
 10
127.3716739803408
 20
-261.6895911046689
 30
0.0
 40
8.4
 41
27.30000000000001
 71
     7
 72
     1
  1
\T1.00;18
  7
dcStyle0
 73
     1
 44
1.0
  0
ENDBLK
  5
12F
330
12D
100
AcDbEntity
  8
0
100
AcDbBlockEnd
  0
BLOCK
  5
131
330
130
100
AcDbEntity
  8
0
100
AcDbBlockBegin
  2
*D63
 70
     1
 10
0.0
 20
0.0
 30
0.0
  3
*D63
  1

  0
LINE
  5
4A0
330
130
100
AcDbEntity
  8
Layer0015
  6
Continuous
 62
     2
370
    13
100
AcDbLine
 10
4.826369980340743
 20
-294.1683180392312
 30
0.0
 11
224.8263699803408
 21
-294.1683180392312
 31
0.0
  0
INSERT
  5
4A1
330
130
100
AcDbEntity
  8
Layer0015
 62
     2
100
AcDbBlockReference
  2
_OPEN30
 10
4.826369980340743
 20
-294.1683180392312
 30
0.0
 41
3.670368878922017
 42
2.415330282579337
 50
180.0
  0
INSERT
  5
4A2
330
130
100
AcDbEntity
  8
Layer0015
 62
     2
100
AcDbBlockReference
  2
_OPEN30
 10
224.8263699803408
 20
-294.1683180392312
 30
0.0
 41
3.670368878922017
 42
2.415330282579337
 50
360.0
  0
LINE
  5
4A3
330
130
100
AcDbEntity
  8
Layer0015
  6
Continuous
 62
     2
370
    13
100
AcDbLine
 10
4.826369980340743
 20
-238.9987127625206
 30
0.0
 11
4.826369980340743
 21
-295.1283180392311
 31
0.0
  0
LINE
  5
4A4
330
130
100
AcDbEntity
  8
Layer0015
  6
Continuous
 62
     2
370
    13
100
AcDbLine
 10
224.8263699803408
 20
-236.9987127625206
 30
0.0
 11
224.8263699803408
 21
-295.1283180392311
 31
0.0
  0
MTEXT
  5
4A5
330
130
100
AcDbEntity
  8
Layer0015
 62
     2
100
AcDbMText
 10
114.8263699803408
 20
-292.9683180392312
 30
0.0
 40
8.4
 41
35.7
 71
     8
 72
     1
  1
\T1.00;220
  7
dcStyle0
 73
     1
 44
1.0
  0
ENDBLK
  5
132
330
130
100
AcDbEntity
  8
0
100
AcDbBlockEnd
  0
BLOCK
  5
134
330
133
100
AcDbEntity
  8
0
100
AcDbBlockBegin
  2
*D64
 70
     1
 10
0.0
 20
0.0
 30
0.0
  3
*D64
  1

  0
LINE
  5
4A6
330
133
100
AcDbEntity
  8
Layer0015
  6
Continuous
 62
     2
370
    13
100
AcDbLine
 10
457.130504776872
 20
73.32029114544127
 30
0.0
 11
457.130504776872
 21
119.3202911454414
 31
0.0
  0
INSERT
  5
4A7
330
133
100
AcDbEntity
  8
Layer0015
 62
     2
100
AcDbBlockReference
  2
_OPEN30
 10
457.130504776872
 20
73.32029114544127
 30
0.0
 41
3.670368878922017
 42
2.415330282579337
 50
270.0
  0
INSERT
  5
4A8
330
133
100
AcDbEntity
  8
Layer0015
 62
     2
100
AcDbBlockReference
  2
_OPEN30
 10
457.130504776872
 20
119.3202911454414
 30
0.0
 41
3.670368878922017
 42
2.415330282579337
 50
90.0
  0
LINE
  5
4A9
330
133
100
AcDbEntity
  8
Layer0015
  6
Continuous
 62
     2
370
    13
100
AcDbLine
 10
441.7914549045166
 20
73.32029114544127
 30
0.0
 11
458.090504776872
 21
73.32029114544127
 31
0.0
  0
LINE
  5
4AA
330
133
100
AcDbEntity
  8
Layer0015
  6
Continuous
 62
     2
370
    13
100
AcDbLine
 10
441.7914549045166
 20
119.3202911454414
 30
0.0
 11
458.090504776872
 21
119.3202911454414
 31
0.0
  0
MTEXT
  5
4AB
330
133
100
AcDbEntity
  8
Layer0015
 62
     2
100
AcDbMText
 10
455.930504776872
 20
96.32029114544133
 30
0.0
 40
8.4
 41
27.30000000000007
 71
     8
 72
     1
  1
\T1.00;46
  7
dcStyle0
 11
6.123031769111886E-17
 21
1.0
 31
0.0
 73
     1
 44
1.0
  0
ENDBLK
  5
135
330
133
100
AcDbEntity
  8
0
100
AcDbBlockEnd
  0
BLOCK
  5
137
330
136
100
AcDbEntity
  8
0
100
AcDbBlockBegin
  2
*D65
 70
     1
 10
0.0
 20
0.0
 30
0.0
  3
*D65
  1

  0
LINE
  5
4AC
330
136
100
AcDbEntity
  8
Layer0015
  6
Continuous
 62
     2
370
    13
100
AcDbLine
 10
457.130504776872
 20
119.3202911454414
 30
0.0
 11
457.130504776872
 21
244.3202911454416
 31
0.0
  0
INSERT
  5
4AD
330
136
100
AcDbEntity
  8
Layer0015
 62
     2
100
AcDbBlockReference
  2
_OPEN30
 10
457.130504776872
 20
119.3202911454414
 30
0.0
 41
3.670368878922017
 42
2.415330282579337
 50
270.0
  0
INSERT
  5
4AE
330
136
100
AcDbEntity
  8
Layer0015
 62
     2
100
AcDbBlockReference
  2
_OPEN30
 10
457.130504776872
 20
244.3202911454416
 30
0.0
 41
3.670368878922017
 42
2.415330282579337
 50
90.0
  0
LINE
  5
4AF
330
136
100
AcDbEntity
  8
Layer0015
  6
Continuous
 62
     2
370
    13
100
AcDbLine
 10
441.7914549045166
 20
119.3202911454414
 30
0.0
 11
458.090504776872
 21
119.3202911454414
 31
0.0
  0
LINE
  5
4B0
330
136
100
AcDbEntity
  8
Layer0015
  6
Continuous
 62
     2
370
    13
100
AcDbLine
 10
441.7914549045166
 20
244.3202911454414
 30
0.0
 11
458.090504776872
 21
244.3202911454416
 31
0.0
  0
MTEXT
  5
4B1
330
136
100
AcDbEntity
  8
Layer0015
 62
     2
100
AcDbMText
 10
455.930504776872
 20
181.8202911454415
 30
0.0
 40
8.4
 41
35.69999999999996
 71
     8
 72
     1
  1
\T1.00;125
  7
dcStyle0
 11
6.123031769111886E-17
 21
1.0
 31
0.0
 73
     1
 44
1.0
  0
ENDBLK
  5
138
330
136
100
AcDbEntity
  8
0
100
AcDbBlockEnd
  0
BLOCK
  5
13A
330
139
100
AcDbEntity
  8
0
100
AcDbBlockBegin
  2
*D66
 70
     1
 10
0.0
 20
0.0
 30
0.0
  3
*D66
  1

  0
LINE
  5
4B2
330
139
100
AcDbEntity
  8
Layer0015
  6
Continuous
 62
     2
370
    13
100
AcDbLine
 10
457.130504776872
 20
244.3202911454416
 30
0.0
 11
457.130504776872
 21
290.3202911454417
 31
0.0
  0
INSERT
  5
4B3
330
139
100
AcDbEntity
  8
Layer0015
 62
     2
100
AcDbBlockReference
  2
_OPEN30
 10
457.130504776872
 20
244.3202911454416
 30
0.0
 41
3.670368878922017
 42
2.415330282579337
 50
270.0
  0
INSERT
  5
4B4
330
139
100
AcDbEntity
  8
Layer0015
 62
     2
100
AcDbBlockReference
  2
_OPEN30
 10
457.130504776872
 20
290.3202911454417
 30
0.0
 41
3.670368878922017
 42
2.415330282579337
 50
90.0
  0
LINE
  5
4B5
330
139
100
AcDbEntity
  8
Layer0015
  6
Continuous
 62
     2
370
    13
100
AcDbLine
 10
441.7914549045166
 20
244.3202911454414
 30
0.0
 11
458.090504776872
 21
244.3202911454416
 31
0.0
  0
LINE
  5
4B6
330
139
100
AcDbEntity
  8
Layer0015
  6
Continuous
 62
     2
370
    13
100
AcDbLine
 10
441.7914549045165
 20
290.3202911454417
 30
0.0
 11
458.090504776872
 21
290.3202911454417
 31
0.0
  0
MTEXT
  5
4B7
330
139
100
AcDbEntity
  8
Layer0015
 62
     2
100
AcDbMText
 10
455.930504776872
 20
267.3202911454417
 30
0.0
 40
8.4
 41
27.30000000000007
 71
     8
 72
     1
  1
\T1.00;46
  7
dcStyle0
 11
6.123031769111886E-17
 21
1.0
 31
0.0
 73
     1
 44
1.0
  0
ENDBLK
  5
13B
330
139
100
AcDbEntity
  8
0
100
AcDbBlockEnd
  0
BLOCK
  5
13D
330
13C
100
AcDbEntity
  8
0
100
AcDbBlockBegin
  2
*D67
 70
     1
 10
0.0
 20
0.0
 30
0.0
  3
*D67
  1

  0
LINE
  5
4B8
330
13C
100
AcDbEntity
  8
Layer0015
  6
Continuous
 62
     2
370
    13
100
AcDbLine
 10
472.3655310190082
 20
73.32029114544127
 30
0.0
 11
472.3655310190082
 21
290.3202911454417
 31
0.0
  0
INSERT
  5
4B9
330
13C
100
AcDbEntity
  8
Layer0015
 62
     2
100
AcDbBlockReference
  2
_OPEN30
 10
472.3655310190082
 20
73.32029114544127
 30
0.0
 41
3.670368878922017
 42
2.415330282579337
 50
270.0
  0
INSERT
  5
4BA
330
13C
100
AcDbEntity
  8
Layer0015
 62
     2
100
AcDbBlockReference
  2
_OPEN30
 10
472.3655310190082
 20
290.3202911454417
 30
0.0
 41
3.670368878922017
 42
2.415330282579337
 50
90.0
  0
LINE
  5
4BB
330
13C
100
AcDbEntity
  8
Layer0015
  6
Continuous
 62
     2
370
    13
100
AcDbLine
 10
441.7914549045166
 20
73.32029114544127
 30
0.0
 11
473.3255310190082
 21
73.32029114544127
 31
0.0
  0
LINE
  5
4BC
330
13C
100
AcDbEntity
  8
Layer0015
  6
Continuous
 62
     2
370
    13
100
AcDbLine
 10
441.7914549045165
 20
290.3202911454417
 30
0.0
 11
473.3255310190082
 21
290.3202911454417
 31
0.0
  0
MTEXT
  5
4BD
330
13C
100
AcDbEntity
  8
Layer0015
 62
     2
100
AcDbMText
 10
471.1655310190082
 20
181.8202911454415
 30
0.0
 40
8.4
 41
35.69999999999996
 71
     8
 72
     1
  1
\T1.00;217
  7
dcStyle0
 11
6.123031769111886E-17
 21
1.0
 31
0.0
 73
     1
 44
1.0
  0
ENDBLK
  5
13E
330
13C
100
AcDbEntity
  8
0
100
AcDbBlockEnd
  0
BLOCK
  5
140
330
13F
100
AcDbEntity
  8
0
100
AcDbBlockBegin
  2
*D68
 70
     1
 10
0.0
 20
0.0
 30
0.0
  3
*D68
  1

  0
LINE
  5
4BE
330
13F
100
AcDbEntity
  8
Layer0015
  6
Continuous
 62
     2
370
    13
100
AcDbLine
 10
-413.1493397770446
 20
-294.1683180392312
 30
0.0
 11
-223.1493397770446
 21
-294.1683180392312
 31
0.0
  0
INSERT
  5
4BF
330
13F
100
AcDbEntity
  8
Layer0015
 62
     2
100
AcDbBlockReference
  2
_OPEN30
 10
-413.1493397770446
 20
-294.1683180392312
 30
0.0
 41
3.670368878922017
 42
2.415330282579337
 50
180.0
  0
INSERT
  5
4C0
330
13F
100
AcDbEntity
  8
Layer0015
 62
     2
100
AcDbBlockReference
  2
_OPEN30
 10
-223.1493397770446
 20
-294.1683180392312
 30
0.0
 41
3.670368878922017
 42
2.415330282579337
 50
360.0
  0
LINE
  5
4C1
330
13F
100
AcDbEntity
  8
Layer0015
  6
Continuous
 62
     2
370
    13
100
AcDbLine
 10
-413.1493397770446
 20
-238.9987127625206
 30
0.0
 11
-413.1493397770446
 21
-295.1283180392311
 31
0.0
  0
LINE
  5
4C2
330
13F
100
AcDbEntity
  8
Layer0015
  6
Continuous
 62
     2
370
    13
100
AcDbLine
 10
-223.1493397770446
 20
-238.9987127625206
 30
0.0
 11
-223.1493397770446
 21
-295.1283180392311
 31
0.0
  0
MTEXT
  5
4C3
330
13F
100
AcDbEntity
  8
Layer0015
 62
     2
100
AcDbMText
 10
-318.1493397770446
 20
-292.9683180392312
 30
0.0
 40
8.4
 41
35.69999999999996
 71
     8
 72
     1
  1
\T1.00;190
  7
dcStyle0
 73
     1
 44
1.0
  0
ENDBLK
  5
141
330
13F
100
AcDbEntity
  8
0
100
AcDbBlockEnd
  0
BLOCK
  5
143
330
142
100
AcDbEntity
  8
0
100
AcDbBlockBegin
  2
*D69
 70
     1
 10
0.0
 20
0.0
 30
0.0
  3
*D69
  1

  0
LINE
  5
4C4
330
142
100
AcDbEntity
  8
Layer0015
  6
Continuous
 62
     2
370
    13
100
AcDbLine
 10
-413.1493397770446
 20
-275.7120941957132
 30
0.0
 11
-318.1493397770446
 21
-275.7120941957132
 31
0.0
  0
INSERT
  5
4C5
330
142
100
AcDbEntity
  8
Layer0015
 62
     2
100
AcDbBlockReference
  2
_OPEN30
 10
-413.1493397770446
 20
-275.7120941957132
 30
0.0
 41
3.670368878922017
 42
2.415330282579337
 50
180.0
  0
INSERT
  5
4C6
330
142
100
AcDbEntity
  8
Layer0015
 62
     2
100
AcDbBlockReference
  2
_OPEN30
 10
-318.1493397770446
 20
-275.7120941957132
 30
0.0
 41
3.670368878922017
 42
2.415330282579337
 50
360.0
  0
LINE
  5
4C7
330
142
100
AcDbEntity
  8
Layer0015
  6
Continuous
 62
     2
370
    13
100
AcDbLine
 10
-413.1493397770446
 20
-238.9987127625206
 30
0.0
 11
-413.1493397770446
 21
-276.6720941957132
 31
0.0
  0
LINE
  5
4C8
330
142
100
AcDbEntity
  8
Layer0015
  6
Continuous
 62
     2
370
    13
100
AcDbLine
 10
-318.1493397770446
 20
-246.9987127625206
 30
0.0
 11
-318.1493397770446
 21
-276.6720941957132
 31
0.0
  0
MTEXT
  5
4C9
330
142
100
AcDbEntity
  8
Layer0015
 62
     2
100
AcDbMText
 10
-365.6493397770446
 20
-274.5120941957132
 30
0.0
 40
8.4
 41
27.30000000000007
 71
     8
 72
     1
  1
\T1.00;95
  7
dcStyle0
 73
     1
 44
1.0
  0
ENDBLK
  5
144
330
142
100
AcDbEntity
  8
0
100
AcDbBlockEnd
  0
BLOCK
  5
146
330
145
100
AcDbEntity
  8
0
100
AcDbBlockBegin
  2
*D70
 70
     1
 10
0.0
 20
0.0
 30
0.0
  3
*D70
  1

  0
LINE
  5
4CA
330
145
100
AcDbEntity
  8
Layer0015
  6
Continuous
 62
     2
370
    13
100
AcDbLine
 10
4.826369980340743
 20
-116.850979315693
 30
0.0
 11
61.12636998034085
 21
-116.850979315693
 31
0.0
  0
INSERT
  5
4CB
330
145
100
AcDbEntity
  8
Layer0015
 62
     2
100
AcDbBlockReference
  2
_OPEN30
 10
4.826369980340743
 20
-116.850979315693
 30
0.0
 41
3.670368878922017
 42
2.415330282579337
 50
180.0
  0
INSERT
  5
4CC
330
145
100
AcDbEntity
  8
Layer0015
 62
     2
100
AcDbBlockReference
  2
_OPEN30
 10
61.12636998034085
 20
-116.850979315693
 30
0.0
 41
3.670368878922017
 42
2.415330282579337
 50
360.0
  0
LINE
  5
4CD
330
145
100
AcDbEntity
  8
Layer0015
  6
Continuous
 62
     2
370
    13
100
AcDbLine
 10
4.826369980340743
 20
-156.5987127625206
 30
0.0
 11
4.826369980340743
 21
-115.890979315693
 31
0.0
  0
MTEXT
  5
4CE
330
145
100
AcDbEntity
  8
Layer0015
 62
     2
100
AcDbMText
 10
32.9763699803408
 20
-115.650979315693
 30
0.0
 40
8.4
 41
52.50000000000001
 71
     8
 72
     1
  1
\T1.00;－７～５３
  7
dcStyle0
 73
     1
 44
1.0
  0
ENDBLK
  5
147
330
145
100
AcDbEntity
  8
0
100
AcDbBlockEnd
  0
BLOCK
  5
149
330
148
100
AcDbEntity
  8
0
100
AcDbBlockBegin
  2
DC_GROUP_COM125_43
 70
     0
 10
0.0
 20
0.0
 30
0.0
  3
DC_GROUP_COM125_43
  1

  0
LINE
  5
4CF
330
148
100
AcDbEntity
  8
Layer0000
  6
Continuous
 62
     3
370
    18
100
AcDbLine
 10
78.12636998034074
 20
244.3202911454414
 30
0.0
 11
78.12636998034074
 21
119.3202911454414
 31
0.0
  0
LINE
  5
4D0
330
148
100
AcDbEntity
  8
Layer0000
  6
Continuous
 62
     3
370
    18
100
AcDbLine
 10
78.12636998034074
 20
119.3202911454414
 30
0.0
 11
93.12636998034074
 21
119.3202911454414
 31
0.0
  0
LINE
  5
4D1
330
148
100
AcDbEntity
  8
Layer0000
  6
Continuous
 62
     3
370
    18
100
AcDbLine
 10
93.12636998034074
 20
119.3202911454414
 30
0.0
 11
93.12636998034074
 21
244.3202911454414
 31
0.0
  0
LINE
  5
4D2
330
148
100
AcDbEntity
  8
Layer0000
  6
Continuous
 62
     3
370
    18
100
AcDbLine
 10
78.12636998034074
 20
244.3202911454414
 30
0.0
 11
93.12636998034074
 21
244.3202911454414
 31
0.0
  0
ENDBLK
  5
14A
330
148
100
AcDbEntity
  8
0
100
AcDbBlockEnd
  0
BLOCK
  5
14C
330
14B
100
AcDbEntity
  8
0
100
AcDbBlockBegin
  2
DC_GROUP_COM125_44
 70
     0
 10
0.0
 20
0.0
 30
0.0
  3
DC_GROUP_COM125_44
  1

  0
LINE
  5
4D3
330
14B
100
AcDbEntity
  8
Layer0000
  6
Continuous
 62
     3
370
    18
100
AcDbLine
 10
78.12636998034074
 20
-157.7987127625206
 30
0.0
 11
78.12636998034074
 21
-111.7987127625206
 31
0.0
  0
LINE
  5
4D4
330
14B
100
AcDbEntity
  8
Layer0000
  6
Continuous
 62
     3
370
    18
100
AcDbLine
 10
78.12636998034074
 20
-111.7987127625206
 30
0.0
 11
93.12636998034074
 21
-111.7987127625206
 31
0.0
  0
LINE
  5
4D5
330
14B
100
AcDbEntity
  8
Layer0000
  6
Continuous
 62
     3
370
    18
100
AcDbLine
 10
93.12636998034074
 20
-111.7987127625206
 30
0.0
 11
93.12636998034074
 21
-157.7987127625206
 31
0.0
  0
LINE
  5
4D6
330
14B
100
AcDbEntity
  8
Layer0000
  6
Continuous
 62
     3
370
    18
100
AcDbLine
 10
93.12636998034074
 20
-157.7987127625206
 30
0.0
 11
78.12636998034074
 21
-157.7987127625206
 31
0.0
  0
ENDBLK
  5
14D
330
14B
100
AcDbEntity
  8
0
100
AcDbBlockEnd
  0
BLOCK
  5
14F
330
14E
100
AcDbEntity
  8
0
100
AcDbBlockBegin
  2
DC_GROUP_COM125_45
 70
     0
 10
0.0
 20
0.0
 30
0.0
  3
DC_GROUP_COM125_45
  1

  0
LINE
  5
4D7
330
14E
100
AcDbEntity
  8
Layer0000
  6
Continuous
 62
     3
370
    25
100
AcDbLine
 10
252.1263699803408
 20
196.8202911454414
 30
0.0
 11
267.8263699803385
 21
196.8202911454414
 31
0.0
  0
LINE
  5
4D8
330
14E
100
AcDbEntity
  8
Layer0000
  6
Continuous
 62
     3
370
    25
100
AcDbLine
 10
269.3263699803385
 20
170.5702911454414
 30
0.0
 11
269.3263699803385
 21
193.0702911454414
 31
0.0
  0
LINE
  5
4D9
330
14E
100
AcDbEntity
  8
Layer0000
  6
Continuous
 62
     3
370
    25
100
AcDbLine
 10
267.8263699803385
 20
189.3202911454414
 30
0.0
 11
254.3263699803385
 21
189.3202911454414
 31
0.0
  0
LINE
  5
4DA
330
14E
100
AcDbEntity
  8
Layer0000
  6
Continuous
 62
     3
370
    25
100
AcDbLine
 10
267.8263699803385
 20
174.3202911454414
 30
0.0
 11
254.3263699803385
 21
174.3202911454414
 31
0.0
  0
ARC
  5
4DB
330
14E
100
AcDbEntity
  8
Layer0000
  6
Continuous
 62
     3
370
    25
100
AcDbCircle
 10
263.8888699803385
 20
193.0702911454414
 30
0.0
 40
5.4375
100
AcDbArc
 50
316.3971810272964
 51
43.60281897270362
  0
ARC
  5
4DC
330
14E
100
AcDbEntity
  8
Layer0000
  6
Continuous
 62
     3
370
    25
100
AcDbCircle
 10
249.8263699803385
 20
181.8202911454414
 30
0.0
 40
19.5
100
AcDbArc
 50
337.3801350519595
 51
22.61986494804044
  0
ARC
  5
4DD
330
14E
100
AcDbEntity
  8
Layer0000
  6
Continuous
 62
     3
370
    25
100
AcDbCircle
 10
263.8888699803385
 20
170.5702911454414
 30
0.0
 40
5.4375
100
AcDbArc
 50
316.3971810272964
 51
43.60281897270362
  0
LINE
  5
4DE
330
14E
100
AcDbEntity
  8
Layer0000
  6
Continuous
 62
     3
370
    25
100
AcDbLine
 10
252.1263699803408
 20
166.8202911454414
 30
0.0
 11
267.8263699803385
 21
166.8202911454414
 31
0.0
  0
LINE
  5
4DF
330
14E
100
AcDbEntity
  8
Layer0000
  6
Continuous
 62
     3
370
    25
100
AcDbLine
 10
254.3263699803385
 20
196.8202911454414
 30
0.0
 11
254.3263699803385
 21
166.8202911454414
 31
0.0
  0
ENDBLK
  5
150
330
14E
100
AcDbEntity
  8
0
100
AcDbBlockEnd
  0
BLOCK
  5
152
330
151
100
AcDbEntity
  8
0
100
AcDbBlockBegin
  2
DC_GROUP_COM125_46
 70
     0
 10
0.0
 20
0.0
 30
0.0
  3
DC_GROUP_COM125_46
  1

  0
LINE
  5
4E0
330
151
100
AcDbEntity
  8
Layer0000
  6
Continuous
 62
     3
370
    25
100
AcDbLine
 10
252.1263699803408
 20
-127.7987127625206
 30
0.0
 11
267.8263699803385
 21
-127.7987127625206
 31
0.0
  0
LINE
  5
4E1
330
151
100
AcDbEntity
  8
Layer0000
  6
Continuous
 62
     3
370
    25
100
AcDbLine
 10
269.3263699803385
 20
-154.0487127625206
 30
0.0
 11
269.3263699803385
 21
-131.5487127625206
 31
0.0
  0
LINE
  5
4E2
330
151
100
AcDbEntity
  8
Layer0000
  6
Continuous
 62
     3
370
    25
100
AcDbLine
 10
267.8263699803385
 20
-135.2987127625206
 30
0.0
 11
254.3263699803385
 21
-135.2987127625206
 31
0.0
  0
LINE
  5
4E3
330
151
100
AcDbEntity
  8
Layer0000
  6
Continuous
 62
     3
370
    25
100
AcDbLine
 10
267.8263699803385
 20
-150.2987127625206
 30
0.0
 11
254.3263699803385
 21
-150.2987127625206
 31
0.0
  0
ARC
  5
4E4
330
151
100
AcDbEntity
  8
Layer0000
  6
Continuous
 62
     3
370
    25
100
AcDbCircle
 10
263.8888699803385
 20
-131.5487127625206
 30
0.0
 40
5.4375
100
AcDbArc
 50
316.3971810272964
 51
43.60281897270362
  0
ARC
  5
4E5
330
151
100
AcDbEntity
  8
Layer0000
  6
Continuous
 62
     3
370
    25
100
AcDbCircle
 10
249.8263699803385
 20
-142.7987127625206
 30
0.0
 40
19.5
100
AcDbArc
 50
337.3801350519595
 51
22.61986494804044
  0
ARC
  5
4E6
330
151
100
AcDbEntity
  8
Layer0000
  6
Continuous
 62
     3
370
    25
100
AcDbCircle
 10
263.8888699803385
 20
-154.0487127625206
 30
0.0
 40
5.4375
100
AcDbArc
 50
316.3971810272964
 51
43.60281897270362
  0
LINE
  5
4E7
330
151
100
AcDbEntity
  8
Layer0000
  6
Continuous
 62
     3
370
    25
100
AcDbLine
 10
252.1263699803408
 20
-157.7987127625206
 30
0.0
 11
267.8263699803385
 21
-157.7987127625206
 31
0.0
  0
LINE
  5
4E8
330
151
100
AcDbEntity
  8
Layer0000
  6
Continuous
 62
     3
370
    25
100
AcDbLine
 10
254.3263699803385
 20
-127.7987127625206
 30
0.0
 11
254.3263699803385
 21
-157.7987127625206
 31
0.0
  0
ENDBLK
  5
153
330
151
100
AcDbEntity
  8
0
100
AcDbBlockEnd
  0
BLOCK
  5
155
330
154
100
AcDbEntity
  8
0
100
AcDbBlockBegin
  2
DC_GROUP_COM125_47
 70
     0
 10
0.0
 20
0.0
 30
0.0
  3
DC_GROUP_COM125_47
  1

  0
CIRCLE
  5
4E9
330
154
100
AcDbEntity
  8
Layer0000
  6
Continuous
 62
     3
370
    18
100
AcDbCircle
 10
345.5914549045166
 20
181.8202911454414
 30
0.0
 40
15.0
  0
LINE
  5
4EA
330
154
100
AcDbEntity
  8
Layer0000
  6
Continuous
 62
     3
370
    18
100
AcDbLine
 10
354.0136236479509
 20
169.4079153189883
 30
0.0
 11
360.5519720632619
 21
180.7326669718945
 31
0.0
  0
LINE
  5
4EB
330
154
100
AcDbEntity
  8
Layer0000
  6
Continuous
 62
     3
370
    18
100
AcDbLine
 10
360.5519720632619
 20
182.9079153189883
 30
0.0
 11
354.0136236479509
 21
194.2326669718945
 31
0.0
  0
LINE
  5
4EC
330
154
100
AcDbEntity
  8
Layer0000
  6
Continuous
 62
     3
370
    18
100
AcDbLine
 10
352.1298033198276
 20
195.3202911454414
 30
0.0
 11
339.0531064892056
 21
195.3202911454414
 31
0.0
  0
LINE
  5
4ED
330
154
100
AcDbEntity
  8
Layer0000
  6
Continuous
 62
     3
370
    18
100
AcDbLine
 10
337.1692861610822
 20
194.2326669718945
 30
0.0
 11
330.6309377457712
 21
182.9079153189883
 31
0.0
  0
LINE
  5
4EE
330
154
100
AcDbEntity
  8
Layer0000
  6
Continuous
 62
     3
370
    18
100
AcDbLine
 10
330.6309377457711
 20
180.7326669718945
 30
0.0
 11
337.1692861610821
 21
169.4079153189884
 31
0.0
  0
LINE
  5
4EF
330
154
100
AcDbEntity
  8
Layer0000
  6
Continuous
 62
     3
370
    18
100
AcDbLine
 10
339.0531064892056
 20
168.3202911454414
 30
0.0
 11
352.1298033198276
 21
168.3202911454414
 31
0.0
  0
CIRCLE
  5
4F0
330
154
100
AcDbEntity
  8
Layer0000
  6
Continuous
 62
     3
370
    18
100
AcDbCircle
 10
345.5914549045166
 20
181.8202911454414
 30
0.0
 40
12.0
  0
ENDBLK
  5
156
330
154
100
AcDbEntity
  8
0
100
AcDbBlockEnd
  0
BLOCK
  5
158
330
157
100
AcDbEntity
  8
0
100
AcDbBlockBegin
  2
DC_GROUP_COM125_48
 70
     0
 10
0.0
 20
0.0
 30
0.0
  3
DC_GROUP_COM125_48
  1

  0
LINE
  5
4F1
330
157
100
AcDbEntity
  8
Layer0000
  6
Continuous
 62
     3
370
    25
100
AcDbLine
 10
-328.1493397770446
 20
-18.82179828519448
 30
0.0
 11
-328.1493397770446
 21
-26.82179828519448
 31
0.0
  0
LINE
  5
4F2
330
157
100
AcDbEntity
  8
Layer0000
  6
Continuous
 62
     3
370
    25
100
AcDbLine
 10
-328.1493397770446
 20
-26.82179828519448
 30
0.0
 11
-308.1493397770446
 21
-26.82179828519448
 31
0.0
  0
LINE
  5
4F3
330
157
100
AcDbEntity
  8
Layer0000
  6
Continuous
 62
     3
370
    25
100
AcDbLine
 10
-308.1493397770446
 20
-26.82179828519448
 30
0.0
 11
-308.1493397770446
 21
-18.82179828519448
 31
0.0
  0
LINE
  5
4F4
330
157
100
AcDbEntity
  8
Layer0000
  6
Continuous
 62
     3
370
    25
100
AcDbLine
 10
-413.1493397770446
 20
-18.82179828519448
 30
0.0
 11
-328.1493397770446
 21
-18.82179828519448
 31
0.0
  0
LINE
  5
4F5
330
157
100
AcDbEntity
  8
Layer0000
  6
Continuous
 62
     3
370
    25
100
AcDbLine
 10
-413.1493397770446
 20
-18.82179828519448
 30
0.0
 11
-413.1493397770446
 21
-49.00811332504355
 31
0.0
  0
LINE
  5
4F6
330
157
100
AcDbEntity
  8
Layer0000
  6
Continuous
 62
     3
370
    25
100
AcDbLine
 10
-308.1493397770446
 20
-18.82179828519448
 30
0.0
 11
-223.1493397770446
 21
-18.82179828519448
 31
0.0
  0
LINE
  5
4F7
330
157
100
AcDbEntity
  8
Layer0000
  6
Continuous
 62
     3
370
    25
100
AcDbLine
 10
-223.1493397770446
 20
-18.82179828519448
 30
0.0
 11
-223.1493397770446
 21
-49.00811332504355
 31
0.0
  0
LINE
  5
4F8
330
157
100
AcDbEntity
  8
Layer0000
  6
Continuous
 62
     3
370
    25
100
AcDbLine
 10
-223.1493397770446
 20
-30.82179828519448
 30
0.0
 11
-413.1493397770446
 21
-30.82179828519448
 31
0.0
  0
LINE
  5
4F9
330
157
100
AcDbEntity
  8
Layer0000
  6
Continuous
 62
     3
370
    25
100
AcDbLine
 10
-223.1493397770446
 20
-33.02179828519441
 30
0.0
 11
-413.1493397770446
 21
-33.02179828519441
 31
0.0
  0
LINE
  5
4FA
330
157
100
AcDbEntity
  8
Layer0000
  6
CENTER
 62
     2
370
    25
100
AcDbLine
 10
-318.1493397770446
 20
26.67820171480553
 30
0.0
 11
-318.1493397770446
 21
-49.00811332504355
 31
0.0
  0
ENDBLK
  5
159
330
157
100
AcDbEntity
  8
0
100
AcDbBlockEnd
  0
BLOCK
  5
15B
330
15A
100
AcDbEntity
  8
0
100
AcDbBlockBegin
  2
DC_GROUP_COM125_49
 70
     0
 10
0.0
 20
0.0
 30
0.0
  3
DC_GROUP_COM125_49
  1

  0
LINE
  5
4FB
330
15A
100
AcDbEntity
  8
Layer0000
  6
Continuous
 62
     3
370
    25
100
AcDbLine
 10
224.8263699803408
 20
-30.82179828519448
 30
0.0
 11
224.8263699803408
 21
-49.00811332504355
 31
0.0
  0
LINE
  5
4FC
330
15A
100
AcDbEntity
  8
Layer0000
  6
Continuous
 62
     3
370
    25
100
AcDbLine
 10
4.826369980340743
 20
-18.82179828519448
 30
0.0
 11
93.12636998034074
 21
-18.82179828519448
 31
0.0
  0
LINE
  5
4FD
330
15A
100
AcDbEntity
  8
Layer0000
  6
Continuous
 62
     3
370
    25
100
AcDbLine
 10
4.826369980340743
 20
-18.82179828519448
 30
0.0
 11
4.826369980340743
 21
-49.00811332504355
 31
0.0
  0
LINE
  5
4FE
330
15A
100
AcDbEntity
  8
Layer0000
  6
Continuous
 62
     3
370
    25
100
AcDbLine
 10
224.8263699803408
 20
-30.82179828519448
 30
0.0
 11
4.826369980340743
 21
-30.82179828519448
 31
0.0
  0
ARC
  5
4FF
330
15A
100
AcDbEntity
  8
Layer0000
  6
Continuous
 62
     3
370
    25
100
AcDbCircle
 10
76.82636998034073
 20
-49.82179828519448
 30
0.0
 40
8.0
100
AcDbArc
 50
5.837684107915586
 51
174.1623158920845
  0
LINE
  5
500
330
15A
100
AcDbEntity
  8
Layer0000
  6
Continuous
 62
     3
370
    25
100
AcDbLine
 10
224.8263699803408
 20
-33.02179828519441
 30
0.0
 11
161.1263699803407
 21
-33.02179828519441
 31
0.0
  0
LINE
  5
501
330
15A
100
AcDbEntity
  8
Layer0000
  6
Continuous
 62
     3
370
    25
100
AcDbLine
 10
93.12636998034074
 20
-33.02179828519441
 30
0.0
 11
4.826369980340743
 21
-33.02179828519441
 31
0.0
  0
LINE
  5
502
330
15A
100
AcDbEntity
  8
Layer0000
  6
CENTER
 62
     2
370
    25
100
AcDbLine
 10
76.82636998034073
 20
-41.82179828519448
 30
0.0
 11
76.82636998034073
 21
-49.00811332504355
 31
0.0
  0
ENDBLK
  5
15C
330
15A
100
AcDbEntity
  8
0
100
AcDbBlockEnd
  0
BLOCK
  5
15E
330
15D
100
AcDbEntity
  8
0
100
AcDbBlockBegin
  2
DC_GROUP_COM125_50
 70
     0
 10
0.0
 20
0.0
 30
0.0
  3
DC_GROUP_COM125_50
  1

  0
LINE
  5
503
330
15D
100
AcDbEntity
  8
Layer0000
  6
Continuous
 62
     3
370
    18
100
AcDbLine
 10
-273.1493397770446
 20
-13.82179828519448
 30
0.0
 11
-273.1493397770446
 21
26.67820171480553
 31
0.0
  0
LINE
  5
504
330
15D
100
AcDbEntity
  8
Layer0000
  6
Continuous
 62
     3
370
    18
100
AcDbLine
 10
-273.1493397770446
 20
26.67820171480553
 30
0.0
 11
-363.1493397770446
 21
26.67820171480553
 31
0.0
  0
LINE
  5
505
330
15D
100
AcDbEntity
  8
Layer0000
  6
Continuous
 62
     3
370
    18
100
AcDbLine
 10
-363.1493397770446
 20
-18.82179828519448
 30
0.0
 11
-273.3493397770447
 21
-18.82179828519448
 31
0.0
  0
LINE
  5
506
330
15D
100
AcDbEntity
  8
Layer0000
  6
Continuous
 62
     3
370
    18
100
AcDbLine
 10
-328.1493397770446
 20
-18.82179828519448
 30
0.0
 11
-328.1493397770446
 21
-26.32179828519448
 31
0.0
  0
LINE
  5
507
330
15D
100
AcDbEntity
  8
Layer0000
  6
Continuous
 62
     3
370
    18
100
AcDbLine
 10
-328.1493397770446
 20
-26.32179828519448
 30
0.0
 11
-308.1493397770446
 21
-26.32179828519448
 31
0.0
  0
LINE
  5
508
330
15D
100
AcDbEntity
  8
Layer0000
  6
Continuous
 62
     3
370
    18
100
AcDbLine
 10
-308.1493397770446
 20
-26.32179828519448
 30
0.0
 11
-308.1493397770446
 21
-18.82179828519448
 31
0.0
  0
LINE
  5
509
330
15D
100
AcDbEntity
  8
Layer0000
  6
Continuous
 62
     3
370
    18
100
AcDbLine
 10
-363.1493397770446
 20
-13.82179828519448
 30
0.0
 11
-363.1493397770446
 21
26.67820171480553
 31
0.0
  0
INSERT
  5
50A
330
15D
100
AcDbEntity
  8
Layer0000
  6
Continuous
100
AcDbBlockReference
  2
DC_GROUP_COM125_51
 10
0.0
 20
0.0
 30
0.0
  0
ENDBLK
  5
15F
330
15D
100
AcDbEntity
  8
0
100
AcDbBlockEnd
  0
BLOCK
  5
161
330
160
100
AcDbEntity
  8
0
100
AcDbBlockBegin
  2
DC_GROUP_COM125_51
 70
     0
 10
0.0
 20
0.0
 30
0.0
  3
DC_GROUP_COM125_51
  1

  0
CIRCLE
  5
50B
330
160
100
AcDbEntity
  8
Layer0000
  6
Continuous
 62
     4
370
    18
100
AcDbCircle
 10
-318.1493397770446
 20
6.678201714805532
 30
0.0
 40
6.917500000000018
  0
CIRCLE
  5
50C
330
160
100
AcDbEntity
  8
Layer0000
  6
Continuous
 62
   150
370
    18
100
AcDbCircle
 10
-318.1493397770446
 20
6.678201714805532
 30
0.0
 40
8.0
  0
LINE
  5
50D
330
160
100
AcDbEntity
  8
Layer0000
  6
CENTER
 62
     2
370
    18
100
AcDbLine
 10
-330.1493397770446
 20
6.678201714805532
 30
0.0
 11
-306.1493397770446
 21
6.678201714805532
 31
0.0
  0
ENDBLK
  5
162
330
160
100
AcDbEntity
  8
0
100
AcDbBlockEnd
  0
BLOCK
  5
164
330
163
100
AcDbEntity
  8
0
100
AcDbBlockBegin
  2
DC_GROUP_COM125_52
 70
     0
 10
0.0
 20
0.0
 30
0.0
  3
DC_GROUP_COM125_52
  1

  0
LINE
  5
50E
330
163
100
AcDbEntity
  8
Layer0000
  6
Continuous
 62
     3
370
    18
100
AcDbLine
 10
-363.1493397770446
 20
27.17820171480553
 30
0.0
 11
-363.1493397770446
 21
-18.82179828519448
 31
0.0
  0
LINE
  5
50F
330
163
100
AcDbEntity
  8
Layer0000
  6
Continuous
 62
     3
370
    18
100
AcDbLine
 10
-363.1493397770446
 20
-18.82179828519448
 30
0.0
 11
-378.1493397770446
 21
-18.82179828519448
 31
0.0
  0
LINE
  5
510
330
163
100
AcDbEntity
  8
Layer0000
  6
Continuous
 62
     3
370
    18
100
AcDbLine
 10
-378.1493397770446
 20
-18.82179828519448
 30
0.0
 11
-378.1493397770446
 21
27.17820171480553
 31
0.0
  0
LINE
  5
511
330
163
100
AcDbEntity
  8
Layer0000
  6
Continuous
 62
     3
370
    18
100
AcDbLine
 10
-378.1493397770446
 20
27.17820171480553
 30
0.0
 11
-363.1493397770446
 21
27.17820171480553
 31
0.0
  0
ENDBLK
  5
165
330
163
100
AcDbEntity
  8
0
100
AcDbBlockEnd
  0
BLOCK
  5
167
330
166
100
AcDbEntity
  8
0
100
AcDbBlockBegin
  2
DC_GROUP_COM125_53
 70
     0
 10
0.0
 20
0.0
 30
0.0
  3
DC_GROUP_COM125_53
  1

  0
LINE
  5
512
330
166
100
AcDbEntity
  8
Layer0000
  6
Continuous
 62
     3
370
    18
100
AcDbLine
 10
93.12636998034074
 20
26.67820171480553
 30
0.0
 11
252.1263699803408
 21
26.67820171480553
 31
0.0
  0
LINE
  5
513
330
166
100
AcDbEntity
  8
Layer0000
  6
Continuous
 62
     3
370
    18
100
AcDbLine
 10
93.12636998034074
 20
26.67820171480553
 30
0.0
 11
93.12636998034074
 21
-30.82179828519448
 31
0.0
  0
LINE
  5
514
330
166
100
AcDbEntity
  8
Layer0000
  6
Continuous
 62
     3
370
    18
100
AcDbLine
 10
93.12636998034074
 20
-30.82179828519448
 30
0.0
 11
252.1263699803408
 21
-30.82179828519448
 31
0.0
  0
LINE
  5
515
330
166
100
AcDbEntity
  8
Layer0000
  6
Continuous
 62
     3
370
    18
100
AcDbLine
 10
252.1263699803408
 20
26.67820171480553
 30
0.0
 11
252.1263699803408
 21
-30.82179828519448
 31
0.0
  0
ENDBLK
  5
168
330
166
100
AcDbEntity
  8
0
100
AcDbBlockEnd
  0
BLOCK
  5
16A
330
169
100
AcDbEntity
  8
0
100
AcDbBlockBegin
  2
DC_GROUP_COM125_54
 70
     0
 10
0.0
 20
0.0
 30
0.0
  3
DC_GROUP_COM125_54
  1

  0
LINE
  5
516
330
169
100
AcDbEntity
  8
Layer0000
  6
Continuous
 62
     3
370
    25
100
AcDbLine
 10
273.3263699803385
 20
4.978201714805529
 30
0.0
 11
273.8263699803385
 21
4.978201714805529
 31
0.0
  0
LINE
  5
517
330
169
100
AcDbEntity
  8
Layer0000
  6
Continuous
 62
     3
370
    25
100
AcDbLine
 10
269.3263699803385
 20
5.178201714805517
 30
0.0
 11
273.3263699803385
 21
5.178201714805517
 31
0.0
  0
LINE
  5
518
330
169
100
AcDbEntity
  8
Layer0000
  6
Continuous
 62
     3
370
    25
100
AcDbLine
 10
276.3263699803385
 20
4.978201714805529
 30
0.0
 11
276.8263699803385
 21
4.978201714805529
 31
0.0
  0
LINE
  5
519
330
169
100
AcDbEntity
  8
Layer0000
  6
Continuous
 62
     3
370
    25
100
AcDbLine
 10
273.8263699803385
 20
5.178201714805517
 30
0.0
 11
276.3263699803385
 21
5.178201714805517
 31
0.0
  0
LINE
  5
51A
330
169
100
AcDbEntity
  8
Layer0000
  6
Continuous
 62
     3
370
    25
100
AcDbLine
 10
269.3263699803385
 20
-12.82179828519448
 30
0.0
 11
273.3263699803385
 21
-12.82179828519448
 31
0.0
  0
LINE
  5
51B
330
169
100
AcDbEntity
  8
Layer0000
  6
Continuous
 62
     3
370
    25
100
AcDbLine
 10
273.3263699803385
 20
-12.82179828519448
 30
0.0
 11
273.3263699803385
 21
5.178201714805517
 31
0.0
  0
LINE
  5
51C
330
169
100
AcDbEntity
  8
Layer0000
  6
Continuous
 62
     3
370
    25
100
AcDbLine
 10
273.3263699803385
 20
-12.62179828519449
 30
0.0
 11
273.8263699803385
 21
-12.62179828519449
 31
0.0
  0
LINE
  5
51D
330
169
100
AcDbEntity
  8
Layer0000
  6
Continuous
 62
     3
370
    25
100
AcDbLine
 10
273.8263699803385
 20
5.178201714805517
 30
0.0
 11
273.8263699803385
 21
-12.82179828519448
 31
0.0
  0
LINE
  5
51E
330
169
100
AcDbEntity
  8
Layer0000
  6
Continuous
 62
     3
370
    25
100
AcDbLine
 10
276.3263699803385
 20
-12.82179828519448
 30
0.0
 11
276.3263699803385
 21
5.178201714805517
 31
0.0
  0
LINE
  5
51F
330
169
100
AcDbEntity
  8
Layer0000
  6
Continuous
 62
     3
370
    25
100
AcDbLine
 10
276.3263699803385
 20
-12.62179828519449
 30
0.0
 11
276.8263699803385
 21
-12.62179828519449
 31
0.0
  0
LINE
  5
520
330
169
100
AcDbEntity
  8
Layer0000
  6
Continuous
 62
     3
370
    25
100
AcDbLine
 10
276.8263699803385
 20
5.178201714805517
 30
0.0
 11
276.8263699803385
 21
-12.82179828519448
 31
0.0
  0
LINE
  5
521
330
169
100
AcDbEntity
  8
Layer0000
  6
Continuous
 62
     3
370
    25
100
AcDbLine
 10
273.8263699803385
 20
-12.82179828519448
 30
0.0
 11
276.3263699803385
 21
-12.82179828519448
 31
0.0
  0
LINE
  5
522
330
169
100
AcDbEntity
  8
Layer0000
  6
Continuous
 62
     3
370
    25
100
AcDbLine
 10
279.3263699803384
 20
4.978201714805529
 30
0.0
 11
279.8263699803384
 21
4.978201714805529
 31
0.0
  0
LINE
  5
523
330
169
100
AcDbEntity
  8
Layer0000
  6
Continuous
 62
     3
370
    25
100
AcDbLine
 10
279.8263699803384
 20
4.978201714805529
 30
0.0
 11
279.8263699803384
 21
5.178201714805517
 31
0.0
  0
LINE
  5
524
330
169
100
AcDbEntity
  8
Layer0000
  6
Continuous
 62
     3
370
    25
100
AcDbLine
 10
276.8263699803385
 20
5.178201714805517
 30
0.0
 11
279.3263699803384
 21
5.178201714805517
 31
0.0
  0
LINE
  5
525
330
169
100
AcDbEntity
  8
Layer0000
  6
Continuous
 62
     3
370
    25
100
AcDbLine
 10
279.3263699803384
 20
-12.82179828519448
 30
0.0
 11
279.3263699803384
 21
5.178201714805517
 31
0.0
  0
LINE
  5
526
330
169
100
AcDbEntity
  8
Layer0000
  6
Continuous
 62
     3
370
    25
100
AcDbLine
 10
279.3263699803384
 20
-12.62179828519449
 30
0.0
 11
279.8263699803384
 21
-12.62179828519449
 31
0.0
  0
LINE
  5
527
330
169
100
AcDbEntity
  8
Layer0000
  6
Continuous
 62
     3
370
    25
100
AcDbLine
 10
279.8263699803384
 20
5.178201714805517
 30
0.0
 11
279.8263699803384
 21
-12.82179828519448
 31
0.0
  0
LINE
  5
528
330
169
100
AcDbEntity
  8
Layer0000
  6
Continuous
 62
     3
370
    25
100
AcDbLine
 10
276.8263699803385
 20
-12.82179828519448
 30
0.0
 11
279.3263699803384
 21
-12.82179828519448
 31
0.0
  0
LINE
  5
529
330
169
100
AcDbEntity
  8
Layer0000
  6
Continuous
 62
     3
370
    25
100
AcDbLine
 10
289.8263699803409
 20
-12.82179828519448
 30
0.0
 11
289.8263699803409
 21
5.178201714805517
 31
0.0
  0
LINE
  5
52A
330
169
100
AcDbEntity
  8
Layer0000
  6
Continuous
 62
     3
370
    25
100
AcDbLine
 10
305.8263699803409
 20
0.6782017148055193
 30
0.0
 11
289.8263699803409
 21
0.6782017148055193
 31
0.0
  0
LINE
  5
52B
330
169
100
AcDbEntity
  8
Layer0000
  6
Continuous
 62
     3
370
    25
100
AcDbLine
 10
305.8263699803409
 20
-8.32179828519448
 30
0.0
 11
289.8263699803409
 21
-8.32179828519448
 31
0.0
  0
LINE
  5
52C
330
169
100
AcDbEntity
  8
Layer0000
  6
Continuous
 62
     3
370
    25
100
AcDbLine
 10
279.8263699803384
 20
5.178201714805517
 30
0.0
 11
305.8263699803409
 21
5.178201714805517
 31
0.0
  0
LINE
  5
52D
330
169
100
AcDbEntity
  8
Layer0000
  6
Continuous
 62
     3
370
    25
100
AcDbLine
 10
279.8263699803384
 20
-12.82179828519448
 30
0.0
 11
305.8263699803409
 21
-12.82179828519448
 31
0.0
  0
ARC
  5
52E
330
169
100
AcDbEntity
  8
Layer0000
  6
Continuous
 62
     3
370
    25
100
AcDbCircle
 10
303.7951199803409
 20
2.928201714805519
 30
0.0
 40
3.03125
100
AcDbArc
 50
312.0750220508436
 51
47.92497794915638
  0
ARC
  5
52F
330
169
100
AcDbEntity
  8
Layer0000
  6
Continuous
 62
     3
370
    25
100
AcDbCircle
 10
296.2013699803409
 20
-3.821798285194481
 30
0.0
 40
10.625
100
AcDbArc
 50
334.942384581697
 51
25.05761541830302
  0
ARC
  5
530
330
169
100
AcDbEntity
  8
Layer0000
  6
Continuous
 62
     3
370
    25
100
AcDbCircle
 10
303.7951199803409
 20
-10.57179828519448
 30
0.0
 40
3.03125
100
AcDbArc
 50
312.0750220508436
 51
47.92497794915638
  0
LINE
  5
531
330
169
100
AcDbEntity
  8
Layer0000
  6
Continuous
 62
     3
370
    25
100
AcDbLine
 10
306.8263699803409
 20
2.92820171480532
 30
0.0
 11
306.8263699803409
 21
-10.57179828519468
 31
0.0
  0
LINE
  5
532
330
169
100
AcDbEntity
  8
Layer0000
  6
CENTER
 62
     2
370
    25
100
AcDbLine
 10
239.9093806609613
 20
-3.821798285194481
 30
0.0
 11
319.9451109032602
 21
-3.821798285194481
 31
0.0
  0
ENDBLK
  5
16B
330
169
100
AcDbEntity
  8
0
100
AcDbBlockEnd
  0
BLOCK
  5
16D
330
16C
100
AcDbEntity
  8
0
100
AcDbBlockBegin
  2
DC_GROUP_COM125_55
 70
     0
 10
0.0
 20
0.0
 30
0.0
  3
DC_GROUP_COM125_55
  1

  0
LINE
  5
533
330
16C
100
AcDbEntity
  8
Layer0000
  6
Continuous
 62
     3
370
    18
100
AcDbLine
 10
161.1263699803407
 20
-38.82179828519448
 30
0.0
 11
93.12636998034074
 21
-38.82179828519448
 31
0.0
  0
LINE
  5
534
330
16C
100
AcDbEntity
  8
Layer0000
  6
Continuous
 62
     3
370
    18
100
AcDbLine
 10
93.12636998034074
 20
-30.82179828519448
 30
0.0
 11
93.12636998034074
 21
-38.82179828519448
 31
0.0
  0
LINE
  5
535
330
16C
100
AcDbEntity
  8
Layer0000
  6
Continuous
 62
     3
370
    18
100
AcDbLine
 10
161.1263699803407
 20
-38.82179828519448
 30
0.0
 11
161.1263699803407
 21
-30.82179828519448
 31
0.0
  0
ENDBLK
  5
16E
330
16C
100
AcDbEntity
  8
0
100
AcDbBlockEnd
  0
BLOCK
  5
170
330
16F
100
AcDbEntity
  8
0
100
AcDbBlockBegin
  2
DC_GROUP_COM125_56
 70
     0
 10
0.0
 20
0.0
 30
0.0
  3
DC_GROUP_COM125_56
  1

  0
LINE
  5
536
330
16F
100
AcDbEntity
  8
Layer0000
  6
Continuous
 62
     3
370
    25
100
AcDbLine
 10
252.1263699803408
 20
11.17820171480552
 30
0.0
 11
267.8263699803385
 21
11.17820171480552
 31
0.0
  0
LINE
  5
537
330
16F
100
AcDbEntity
  8
Layer0000
  6
Continuous
 62
     3
370
    25
100
AcDbLine
 10
269.3263699803385
 20
-15.07179828519448
 30
0.0
 11
269.3263699803385
 21
7.428201714805517
 31
0.0
  0
LINE
  5
538
330
16F
100
AcDbEntity
  8
Layer0000
  6
Continuous
 62
     3
370
    25
100
AcDbLine
 10
267.8263699803385
 20
3.678201714805519
 30
0.0
 11
254.3263699803385
 21
3.678201714805519
 31
0.0
  0
LINE
  5
539
330
16F
100
AcDbEntity
  8
Layer0000
  6
Continuous
 62
     3
370
    25
100
AcDbLine
 10
267.8263699803385
 20
-11.32179828519448
 30
0.0
 11
254.3263699803385
 21
-11.32179828519448
 31
0.0
  0
ARC
  5
53A
330
16F
100
AcDbEntity
  8
Layer0000
  6
Continuous
 62
     3
370
    25
100
AcDbCircle
 10
263.8888699803385
 20
7.428201714805517
 30
0.0
 40
5.4375
100
AcDbArc
 50
316.3971810272964
 51
43.60281897270362
  0
ARC
  5
53B
330
16F
100
AcDbEntity
  8
Layer0000
  6
Continuous
 62
     3
370
    25
100
AcDbCircle
 10
249.8263699803385
 20
-3.821798285194481
 30
0.0
 40
19.5
100
AcDbArc
 50
337.3801350519595
 51
22.61986494804044
  0
ARC
  5
53C
330
16F
100
AcDbEntity
  8
Layer0000
  6
Continuous
 62
     3
370
    25
100
AcDbCircle
 10
263.8888699803385
 20
-15.07179828519448
 30
0.0
 40
5.4375
100
AcDbArc
 50
316.3971810272964
 51
43.60281897270362
  0
LINE
  5
53D
330
16F
100
AcDbEntity
  8
Layer0000
  6
Continuous
 62
     3
370
    25
100
AcDbLine
 10
252.1263699803408
 20
-18.82179828519448
 30
0.0
 11
267.8263699803385
 21
-18.82179828519448
 31
0.0
  0
LINE
  5
53E
330
16F
100
AcDbEntity
  8
Layer0000
  6
Continuous
 62
     3
370
    25
100
AcDbLine
 10
254.3263699803385
 20
11.17820171480552
 30
0.0
 11
254.3263699803385
 21
-18.82179828519448
 31
0.0
  0
ENDBLK
  5
171
330
16F
100
AcDbEntity
  8
0
100
AcDbBlockEnd
  0
BLOCK
  5
173
330
172
100
AcDbEntity
  8
0
100
AcDbBlockBegin
  2
DC_GROUP_COM125_57
 70
     0
 10
0.0
 20
0.0
 30
0.0
  3
DC_GROUP_COM125_57
  1

  0
LINE
  5
53F
330
172
100
AcDbEntity
  8
Layer0000
  6
Continuous
 62
     3
370
    25
100
AcDbLine
 10
93.12636998034074
 20
26.17820171480553
 30
0.0
 11
93.12636998034074
 21
-17.82179828519448
 31
0.0
  0
LINE
  5
540
330
172
100
AcDbEntity
  8
Layer0000
  6
Continuous
 62
     3
370
    25
100
AcDbLine
 10
92.12636998034074
 20
-18.82179828519448
 30
0.0
 11
4.126369980340741
 21
-18.82179828519448
 31
0.0
  0
LINE
  5
541
330
172
100
AcDbEntity
  8
Layer0000
  6
Continuous
 62
     3
370
    25
100
AcDbLine
 10
3.126369980340741
 20
-17.82179828519448
 30
0.0
 11
3.126369980340741
 21
26.97820171480553
 31
0.0
  0
LINE
  5
542
330
172
100
AcDbEntity
  8
Layer0000
  6
Continuous
 62
     3
370
    25
100
AcDbLine
 10
3.326369980340743
 20
27.17820171480553
 30
0.0
 11
92.12636998034074
 21
27.17820171480553
 31
0.0
  0
LINE
  5
543
330
172
100
AcDbEntity
  8
Layer0000
  6
Continuous
 62
     3
370
    25
100
AcDbLine
 10
93.12636998034074
 20
26.17820171480553
 30
0.0
 11
92.12636998034074
 21
27.17820171480553
 31
0.0
  0
LINE
  5
544
330
172
100
AcDbEntity
  8
Layer0000
  6
Continuous
 62
     3
370
    25
100
AcDbLine
 10
93.12636998034074
 20
-17.82179828519448
 30
0.0
 11
92.12636998034074
 21
-18.82179828519448
 31
0.0
  0
LINE
  5
545
330
172
100
AcDbEntity
  8
Layer0000
  6
Continuous
 62
     3
370
    25
100
AcDbLine
 10
4.126369980340741
 20
-18.82179828519448
 30
0.0
 11
3.126369980340741
 21
-17.82179828519448
 31
0.0
  0
LINE
  5
546
330
172
100
AcDbEntity
  8
Layer0000
  6
Continuous
 62
     3
370
    25
100
AcDbLine
 10
3.126369980340741
 20
26.97820171480553
 30
0.0
 11
3.326369980340743
 21
27.17820171480553
 31
0.0
  0
ENDBLK
  5
174
330
172
100
AcDbEntity
  8
0
100
AcDbBlockEnd
  0
BLOCK
  5
176
330
175
100
AcDbEntity
  8
0
100
AcDbBlockBegin
  2
DC_GROUP_COM125_58
 70
     0
 10
0.0
 20
0.0
 30
0.0
  3
DC_GROUP_COM125_58
  1

  0
LINE
  5
547
330
175
100
AcDbEntity
  8
Layer0000
  6
Continuous
 62
     3
370
    25
100
AcDbLine
 10
-273.1493397770446
 20
26.17820171480553
 30
0.0
 11
-273.1493397770446
 21
-17.82179828519448
 31
0.0
  0
LINE
  5
548
330
175
100
AcDbEntity
  8
Layer0000
  6
Continuous
 62
     3
370
    25
100
AcDbLine
 10
-272.1493397770446
 20
-18.82179828519448
 30
0.0
 11
-219.1493397770446
 21
-18.82179828519448
 31
0.0
  0
LINE
  5
549
330
175
100
AcDbEntity
  8
Layer0000
  6
Continuous
 62
     3
370
    25
100
AcDbLine
 10
-218.1493397770446
 20
-17.82179828519448
 30
0.0
 11
-218.1493397770446
 21
26.97820171480553
 31
0.0
  0
LINE
  5
54A
330
175
100
AcDbEntity
  8
Layer0000
  6
Continuous
 62
     3
370
    25
100
AcDbLine
 10
-218.3493397770447
 20
27.17820171480553
 30
0.0
 11
-272.1493397770446
 21
27.17820171480553
 31
0.0
  0
LINE
  5
54B
330
175
100
AcDbEntity
  8
Layer0000
  6
Continuous
 62
     3
370
    25
100
AcDbLine
 10
-273.1493397770446
 20
26.17820171480553
 30
0.0
 11
-272.1493397770446
 21
27.17820171480553
 31
0.0
  0
LINE
  5
54C
330
175
100
AcDbEntity
  8
Layer0000
  6
Continuous
 62
     3
370
    25
100
AcDbLine
 10
-273.1493397770446
 20
-17.82179828519448
 30
0.0
 11
-272.1493397770446
 21
-18.82179828519448
 31
0.0
  0
LINE
  5
54D
330
175
100
AcDbEntity
  8
Layer0000
  6
Continuous
 62
     3
370
    25
100
AcDbLine
 10
-219.1493397770446
 20
-18.82179828519448
 30
0.0
 11
-218.1493397770446
 21
-17.82179828519448
 31
0.0
  0
LINE
  5
54E
330
175
100
AcDbEntity
  8
Layer0000
  6
Continuous
 62
     3
370
    25
100
AcDbLine
 10
-218.1493397770446
 20
26.97820171480553
 30
0.0
 11
-218.3493397770447
 21
27.17820171480553
 31
0.0
  0
ENDBLK
  5
177
330
175
100
AcDbEntity
  8
0
100
AcDbBlockEnd
  0
BLOCK
  5
179
330
178
100
AcDbEntity
  8
0
100
AcDbBlockBegin
  2
*D87
 70
     1
 10
0.0
 20
0.0
 30
0.0
  3
*D87
  1

  0
LINE
  5
54F
330
178
100
AcDbEntity
  8
Layer0015
  6
Continuous
 62
     2
370
    13
100
AcDbLine
 10
-273.1493397770446
 20
56.66716383414481
 30
0.0
 11
-218.1493397770446
 21
56.66716383414481
 31
0.0
  0
INSERT
  5
550
330
178
100
AcDbEntity
  8
Layer0015
 62
     2
100
AcDbBlockReference
  2
_OPEN30
 10
-273.1493397770446
 20
56.66716383414481
 30
0.0
 41
3.670368878922017
 42
2.415330282579337
 50
180.0
  0
INSERT
  5
551
330
178
100
AcDbEntity
  8
Layer0015
 62
     2
100
AcDbBlockReference
  2
_OPEN30
 10
-218.1493397770446
 20
56.66716383414481
 30
0.0
 41
3.670368878922017
 42
2.415330282579337
 50
360.0
  0
LINE
  5
552
330
178
100
AcDbEntity
  8
Layer0015
  6
Continuous
 62
     2
370
    13
100
AcDbLine
 10
-273.1493397770446
 20
27.87820171480553
 30
0.0
 11
-273.1493397770446
 21
57.6271638341448
 31
0.0
  0
LINE
  5
553
330
178
100
AcDbEntity
  8
Layer0015
  6
Continuous
 62
     2
370
    13
100
AcDbLine
 10
-218.1493397770446
 20
28.17820171480553
 30
0.0
 11
-218.1493397770446
 21
57.6271638341448
 31
0.0
  0
MTEXT
  5
554
330
178
100
AcDbEntity
  8
Layer0015
 62
     2
100
AcDbMText
 10
-245.6493397770446
 20
57.86716383414481
 30
0.0
 40
8.4
 41
27.3
 71
     8
 72
     1
  1
\T1.00;55
  7
dcStyle0
 73
     1
 44
1.0
  0
ENDBLK
  5
17A
330
178
100
AcDbEntity
  8
0
100
AcDbBlockEnd
  0
BLOCK
  5
17C
330
17B
100
AcDbEntity
  8
0
100
AcDbBlockBegin
  2
*D88
 70
     1
 10
0.0
 20
0.0
 30
0.0
  3
*D88
  1

  0
LINE
  5
555
330
17B
100
AcDbEntity
  8
Layer0015
  6
Continuous
 62
     2
370
    13
100
AcDbLine
 10
3.126369980340741
 20
56.66716383414481
 30
0.0
 11
93.12636998034074
 21
56.66716383414481
 31
0.0
  0
INSERT
  5
556
330
17B
100
AcDbEntity
  8
Layer0015
 62
     2
100
AcDbBlockReference
  2
_OPEN30
 10
3.126369980340741
 20
56.66716383414481
 30
0.0
 41
3.670368878922017
 42
2.415330282579337
 50
180.0
  0
INSERT
  5
557
330
17B
100
AcDbEntity
  8
Layer0015
 62
     2
100
AcDbBlockReference
  2
_OPEN30
 10
93.12636998034074
 20
56.66716383414481
 30
0.0
 41
3.670368878922017
 42
2.415330282579337
 50
360.0
  0
LINE
  5
558
330
17B
100
AcDbEntity
  8
Layer0015
  6
Continuous
 62
     2
370
    13
100
AcDbLine
 10
3.126369980340741
 20
28.17820171480553
 30
0.0
 11
3.126369980340741
 21
57.6271638341448
 31
0.0
  0
LINE
  5
559
330
17B
100
AcDbEntity
  8
Layer0015
  6
Continuous
 62
     2
370
    13
100
AcDbLine
 10
93.12636998034074
 20
27.37820171480553
 30
0.0
 11
93.12636998034074
 21
57.6271638341448
 31
0.0
  0
MTEXT
  5
55A
330
17B
100
AcDbEntity
  8
Layer0015
 62
     2
100
AcDbMText
 10
48.12636998034074
 20
57.86716383414481
 30
0.0
 40
8.4
 41
27.3
 71
     8
 72
     1
  1
\T1.00;90
  7
dcStyle0
 73
     1
 44
1.0
  0
ENDBLK
  5
17D
330
17B
100
AcDbEntity
  8
0
100
AcDbBlockEnd
  0
BLOCK
  5
17F
330
17E
100
AcDbEntity
  8
0
100
AcDbBlockBegin
  2
*D89
 70
     1
 10
0.0
 20
0.0
 30
0.0
  3
*D89
  1

  0
LINE
  5
55B
330
17E
100
AcDbEntity
  8
Layer0015
  6
Continuous
 62
     2
370
    13
100
AcDbLine
 10
-182.2448230011429
 20
-18.82179828519448
 30
0.0
 11
-182.2448230011429
 21
27.17820171480553
 31
0.0
  0
INSERT
  5
55C
330
17E
100
AcDbEntity
  8
Layer0015
 62
     2
100
AcDbBlockReference
  2
_OPEN30
 10
-182.2448230011429
 20
-18.82179828519448
 30
0.0
 41
3.670368878922017
 42
2.415330282579337
 50
270.0
  0
INSERT
  5
55D
330
17E
100
AcDbEntity
  8
Layer0015
 62
     2
100
AcDbBlockReference
  2
_OPEN30
 10
-182.2448230011429
 20
27.17820171480553
 30
0.0
 41
3.670368878922017
 42
2.415330282579337
 50
90.0
  0
LINE
  5
55E
330
17E
100
AcDbEntity
  8
Layer0015
  6
Continuous
 62
     2
370
    13
100
AcDbLine
 10
-217.9493397770447
 20
-18.82179828519448
 30
0.0
 11
-181.2848230011429
 21
-18.82179828519448
 31
0.0
  0
LINE
  5
55F
330
17E
100
AcDbEntity
  8
Layer0015
  6
Continuous
 62
     2
370
    13
100
AcDbLine
 10
-217.1493397770447
 20
27.17820171480553
 30
0.0
 11
-181.2848230011429
 21
27.17820171480553
 31
0.0
  0
MTEXT
  5
560
330
17E
100
AcDbEntity
  8
Layer0015
 62
     2
100
AcDbMText
 10
-183.4448230011429
 20
4.178201714805525
 30
0.0
 40
8.4
 41
27.3
 71
     8
 72
     1
  1
\T1.00;46
  7
dcStyle0
 11
6.123031769111886E-17
 21
1.0
 31
0.0
 73
     1
 44
1.0
  0
ENDBLK
  5
180
330
17E
100
AcDbEntity
  8
0
100
AcDbBlockEnd
  0
BLOCK
  5
182
330
181
100
AcDbEntity
  8
0
100
AcDbBlockBegin
  2
DA_IMAGEDIMGROUP_2
 70
     0
 10
0.0
 20
0.0
 30
0.0
  3
DA_IMAGEDIMGROUP_2
  1

  0
LINE
  5
561
330
181
100
AcDbEntity
  8
Layer0015
  6
Continuous
 62
     2
370
    13
100
AcDbLine
 10
-223.1493397770446
 20
-41.94863395964619
 30
0.0
 11
-218.1493397770446
 21
-41.94863395964619
 31
0.0
  0
LINE
  5
562
330
181
100
AcDbEntity
  8
Layer0015
  6
Continuous
 62
     2
370
    13
100
AcDbLine
 10
-218.1493397770446
 20
-19.02179828519448
 30
0.0
 11
-218.1493397770446
 21
-42.9086339596462
 31
0.0
  0
LINE
  5
563
330
181
100
AcDbEntity
  8
Layer0015
  6
Continuous
 62
     2
370
    13
100
AcDbLine
 10
-207.8840357770447
 20
-41.94863395964619
 30
0.0
 11
-218.1493397770446
 21
-41.94863395964619
 31
0.0
  0
INSERT
  5
564
330
181
100
AcDbEntity
  8
Layer0015
 62
     2
100
AcDbBlockReference
  2
_OPEN30
 10
-218.1493397770446
 20
-41.94863395964619
 30
0.0
 41
3.670368878922017
 42
2.415330282579337
 50
180.0
  0
LINE
  5
565
330
181
100
AcDbEntity
  8
Layer0015
  6
Continuous
 62
     2
370
    13
100
AcDbLine
 10
-227.9493397770447
 20
-41.94863395964619
 30
0.0
 11
-223.1493397770446
 21
-41.94863395964619
 31
0.0
  0
INSERT
  5
566
330
181
100
AcDbEntity
  8
Layer0015
 62
     2
100
AcDbBlockReference
  2
_OPEN30
 10
-223.1493397770446
 20
-41.94863395964619
 30
0.0
 41
3.670368878922017
 42
2.415330282579337
 50
360.0
  0
MTEXT
  5
567
330
181
100
AcDbEntity
  8
Layer0015
 62
     2
100
AcDbMText
 10
-214.6040357770447
 20
-40.74863395964619
 30
0.0
 40
8.4
 41
18.9
 71
     7
 72
     1
  1
\T1.00;5
  7
dcStyle0
 73
     1
 44
1.0
  0
ENDBLK
  5
183
330
181
100
AcDbEntity
  8
0
100
AcDbBlockEnd
  0
BLOCK
  5
185
330
184
100
AcDbEntity
  8
0
100
AcDbBlockBegin
  2
DA_IMAGEDIMGROUP_3
 70
     0
 10
0.0
 20
0.0
 30
0.0
  3
DA_IMAGEDIMGROUP_3
  1

  0
LINE
  5
568
330
184
100
AcDbEntity
  8
Layer0015
  6
Continuous
 62
     2
370
    13
100
AcDbLine
 10
3.126369980340741
 20
-19.02179828519448
 30
0.0
 11
3.126369980340741
 21
-42.9086339596462
 31
0.0
  0
LINE
  5
569
330
184
100
AcDbEntity
  8
Layer0015
  6
Continuous
 62
     2
370
    13
100
AcDbLine
 10
3.126369980340741
 20
-41.94863395964619
 30
0.0
 11
4.826369980340743
 21
-41.94863395964619
 31
0.0
  0
LINE
  5
56A
330
184
100
AcDbEntity
  8
Layer0015
  6
Continuous
 62
     2
370
    13
100
AcDbLine
 10
-27.29893401965926
 20
-41.94863395964618
 30
0.0
 11
3.126369980340741
 21
-41.94863395964619
 31
0.0
  0
INSERT
  5
56B
330
184
100
AcDbEntity
  8
Layer0015
 62
     2
100
AcDbBlockReference
  2
_OPEN30
 10
3.126369980340741
 20
-41.94863395964619
 30
0.0
 41
3.670368878922017
 42
2.415330282579337
 50
360.0
  0
LINE
  5
56C
330
184
100
AcDbEntity
  8
Layer0015
  6
Continuous
 62
     2
370
    13
100
AcDbLine
 10
9.626369980340744
 20
-41.94863395964619
 30
0.0
 11
4.826369980340743
 21
-41.94863395964619
 31
0.0
  0
INSERT
  5
56D
330
184
100
AcDbEntity
  8
Layer0015
 62
     2
100
AcDbBlockReference
  2
_OPEN30
 10
4.826369980340743
 20
-41.94863395964619
 30
0.0
 41
3.670368878922017
 42
2.415330282579337
 50
180.0
  0
MTEXT
  5
56E
330
184
100
AcDbEntity
  8
Layer0015
 62
     2
100
AcDbMText
 10
-0.4189340196592592
 20
-40.74863395964619
 30
0.0
 40
8.4
 41
44.1
 71
     9
 72
     1
  1
\T1.00;5～７５
  7
dcStyle0
 73
     1
 44
1.0
  0
ENDBLK
  5
186
330
184
100
AcDbEntity
  8
0
100
AcDbBlockEnd
  0
BLOCK
  5
188
330
187
100
AcDbEntity
  8
0
100
AcDbBlockBegin
  2
*D92
 70
     1
 10
0.0
 20
0.0
 30
0.0
  3
*D92
  1

  0
LINE
  5
56F
330
187
100
AcDbEntity
  8
Layer0015
  6
Continuous
 62
     2
370
    13
100
AcDbLine
 10
352.4899898396633
 20
-192.5137155218657
 30
0.0
 11
452.4899898396633
 21
-192.5137155218657
 31
0.0
  0
INSERT
  5
570
330
187
100
AcDbEntity
  8
Layer0015
 62
     2
100
AcDbBlockReference
  2
_OPEN30
 10
352.4899898396633
 20
-192.5137155218657
 30
0.0
 41
3.670368878922017
 42
2.415330282579337
 50
180.0
  0
INSERT
  5
571
330
187
100
AcDbEntity
  8
Layer0015
 62
     2
100
AcDbBlockReference
  2
_OPEN30
 10
452.4899898396633
 20
-192.5137155218657
 30
0.0
 41
3.670368878922017
 42
2.415330282579337
 50
360.0
  0
LINE
  5
572
330
187
100
AcDbEntity
  8
Layer0015
  6
Continuous
 62
     2
370
    13
100
AcDbLine
 10
352.4899898396633
 20
-165.4987127625206
 30
0.0
 11
352.4899898396633
 21
-193.4737155218657
 31
0.0
  0
LINE
  5
573
330
187
100
AcDbEntity
  8
Layer0015
  6
Continuous
 62
     2
370
    13
100
AcDbLine
 10
452.4899898396633
 20
-152.7666619549518
 30
0.0
 11
452.4899898396633
 21
-193.4737155218657
 31
0.0
  0
MTEXT
  5
574
330
187
100
AcDbEntity
  8
Layer0015
 62
     2
100
AcDbMText
 10
402.4899898396633
 20
-191.3137155218657
 30
0.0
 40
8.4
 41
35.69999999999996
 71
     8
 72
     1
  1
\T1.00;100
  7
dcStyle0
 73
     1
 44
1.0
  0
ENDBLK
  5
189
330
187
100
AcDbEntity
  8
0
100
AcDbBlockEnd
  0
BLOCK
  5
18B
330
18A
100
AcDbEntity
  8
0
100
AcDbBlockBegin
  2
*D93
 70
     1
 10
0.0
 20
0.0
 30
0.0
  3
*D93
  1

  0
LINE
  5
575
330
18A
100
AcDbEntity
  8
Layer0015
  6
Continuous
 62
     2
370
    13
100
AcDbLine
 10
434.4899898396633
 20
-180.1543903612577
 30
0.0
 11
452.4899898396633
 21
-180.1543903612577
 31
0.0
  0
INSERT
  5
576
330
18A
100
AcDbEntity
  8
Layer0015
 62
     2
100
AcDbBlockReference
  2
_OPEN30
 10
434.4899898396633
 20
-180.1543903612577
 30
0.0
 41
3.670368878922017
 42
2.415330282579337
 50
180.0
  0
INSERT
  5
577
330
18A
100
AcDbEntity
  8
Layer0015
 62
     2
100
AcDbBlockReference
  2
_OPEN30
 10
452.4899898396633
 20
-180.1543903612577
 30
0.0
 41
3.670368878922017
 42
2.415330282579337
 50
360.0
  0
LINE
  5
578
330
18A
100
AcDbEntity
  8
Layer0015
  6
Continuous
 62
     2
370
    13
100
AcDbLine
 10
434.4899898396633
 20
-154.9987127625206
 30
0.0
 11
434.4899898396633
 21
-181.1143903612577
 31
0.0
  0
LINE
  5
579
330
18A
100
AcDbEntity
  8
Layer0015
  6
Continuous
 62
     2
370
    13
100
AcDbLine
 10
452.4899898396633
 20
-152.7666619549518
 30
0.0
 11
452.4899898396633
 21
-181.1143903612577
 31
0.0
  0
MTEXT
  5
57A
330
18A
100
AcDbEntity
  8
Layer0015
 62
     2
100
AcDbMText
 10
443.4899898396633
 20
-178.9543903612577
 30
0.0
 40
8.4
 41
27.30000000000007
 71
     8
 72
     1
  1
\T1.00;18
  7
dcStyle0
 73
     1
 44
1.0
  0
ENDBLK
  5
18C
330
18A
100
AcDbEntity
  8
0
100
AcDbBlockEnd
  0
BLOCK
  5
18E
330
18D
100
AcDbEntity
  8
0
100
AcDbBlockBegin
  2
DC_GROUP_COM125_59
 70
     0
 10
0.0
 20
0.0
 30
0.0
  3
DC_GROUP_COM125_59
  1

  0
LINE
  5
57B
330
18D
100
AcDbEntity
  8
Layer0014
  6
DIVIDE
 62
     4
370
    18
100
AcDbLine
 10
61.12636998034085
 20
-112.2987127625207
 30
0.0
 11
61.12636998034085
 21
-153.7987127625206
 31
0.0
  0
LINE
  5
57C
330
18D
100
AcDbEntity
  8
Layer0014
  6
DIVIDE
 62
     4
370
    18
100
AcDbLine
 10
68.92636998034081
 20
-153.7987127625206
 30
0.0
 11
68.92636998034081
 21
-156.7987127625206
 31
0.0
  0
LINE
  5
57D
330
18D
100
AcDbEntity
  8
Layer0014
  6
DIVIDE
 62
     4
370
    18
100
AcDbLine
 10
73.92636998034081
 20
-153.7987127625206
 30
0.0
 11
73.92636998034081
 21
-153.2987127625206
 31
0.0
  0
LINE
  5
57E
330
18D
100
AcDbEntity
  8
Layer0014
  6
DIVIDE
 62
     4
370
    18
100
AcDbLine
 10
61.12636998034085
 20
-112.2987127625207
 30
0.0
 11
69.84220258667511
 21
-112.2987127625207
 31
0.0
  0
LINE
  5
57F
330
18D
100
AcDbEntity
  8
Layer0014
  6
DIVIDE
 62
     4
370
    18
100
AcDbLine
 10
69.67974273855866
 20
-111.7987127625207
 30
0.0
 11
76.12636998034074
 21
-111.7987127625207
 31
0.0
  0
LINE
  5
580
330
18D
100
AcDbEntity
  8
Layer0014
  6
DIVIDE
 62
     4
370
    18
100
AcDbLine
 10
76.12636998034074
 20
-156.7987127625206
 30
0.0
 11
68.92636998034081
 21
-156.7987127625206
 31
0.0
  0
LINE
  5
581
330
18D
100
AcDbEntity
  8
Layer0014
  6
DIVIDE
 62
     4
370
    18
100
AcDbLine
 10
73.92636998034081
 20
-153.2987127625206
 30
0.0
 11
76.12636998034074
 21
-153.2987127625206
 31
0.0
  0
LINE
  5
582
330
18D
100
AcDbEntity
  8
Layer0014
  6
DIVIDE
 62
     4
370
    18
100
AcDbLine
 10
76.12636998034074
 20
-131.6393912948589
 30
0.0
 11
69.67974273855866
 21
-111.7987127625207
 31
0.0
  0
LINE
  5
583
330
18D
100
AcDbEntity
  8
Layer0014
  6
DIVIDE
 62
     4
370
    18
100
AcDbLine
 10
76.12636998034074
 20
-153.7987127625206
 30
0.0
 11
61.12636998034085
 21
-153.7987127625206
 31
0.0
  0
ENDBLK
  5
18F
330
18D
100
AcDbEntity
  8
0
100
AcDbBlockEnd
  0
BLOCK
  5
191
330
190
100
AcDbEntity
  8
0
100
AcDbBlockBegin
  2
DC_GROUP_COM125_60
 70
     0
 10
0.0
 20
0.0
 30
0.0
  3
DC_GROUP_COM125_60
  1

  0
LINE
  5
584
330
190
100
AcDbEntity
  8
Layer0000
  6
Continuous
 62
     3
370
    18
100
AcDbLine
 10
352.9899898396633
 20
-120.7987127625206
 30
0.0
 11
352.4899898396633
 21
-121.2987127625206
 31
0.0
  0
LINE
  5
585
330
190
100
AcDbEntity
  8
Layer0000
  6
Continuous
 62
     3
370
    18
100
AcDbLine
 10
434.4899898396633
 20
-132.2987127625206
 30
0.0
 11
451.4899898396633
 21
-132.2987127625206
 31
0.0
  0
LINE
  5
586
330
190
100
AcDbEntity
  8
Layer0000
  6
Continuous
 62
     3
370
    18
100
AcDbLine
 10
424.4899898396633
 20
-121.2987127625206
 30
0.0
 11
424.4899898396633
 21
-131.2987127625206
 31
0.0
  0
LINE
  5
587
330
190
100
AcDbEntity
  8
Layer0000
  6
Continuous
 62
     3
370
    18
100
AcDbLine
 10
423.9899898396633
 20
-120.7987127625206
 30
0.0
 11
424.4899898396633
 21
-121.2987127625206
 31
0.0
  0
LINE
  5
588
330
190
100
AcDbEntity
  8
Layer0000
  6
Continuous
 62
     3
370
    18
100
AcDbLine
 10
451.4899898396633
 20
-138.3265768075211
 30
0.0
 11
434.4899898396633
 21
-138.3265768075211
 31
0.0
  0
LINE
  5
589
330
190
100
AcDbEntity
  8
Layer0000
  6
Continuous
 62
     3
370
    18
100
AcDbLine
 10
451.4899898396633
 20
-136.8075394040683
 30
0.0
 11
434.4899898396633
 21
-136.8075394040683
 31
0.0
  0
LINE
  5
58A
330
190
100
AcDbEntity
  8
Layer0000
  6
Continuous
 62
     3
370
    18
100
AcDbLine
 10
451.4899898396633
 20
-136.8075394040683
 30
0.0
 11
451.4899898396633
 21
-138.3265768075211
 31
0.0
  0
ARC
  5
58B
330
190
100
AcDbEntity
  8
Layer0000
  6
Continuous
 62
     3
370
    18
100
AcDbCircle
 10
449.4488001292221
 20
-134.5531260832944
 30
0.0
 40
3.041189710441189
100
AcDbArc
 50
312.1583048916936
 51
12.15830489169361
  0
LINE
  5
58C
330
190
100
AcDbEntity
  8
Layer0000
  6
Continuous
 62
     3
370
    18
100
AcDbLine
 10
451.4899898396633
 20
-132.2987127625206
 30
0.0
 11
452.4899898396633
 21
-134.0307635700895
 31
0.0
  0
LINE
  5
58D
330
190
100
AcDbEntity
  8
Layer0000
  6
Continuous
 62
     3
370
    18
100
AcDbLine
 10
424.9899898396633
 20
-131.7987127625206
 30
0.0
 11
434.4899898396633
 21
-131.7987127625206
 31
0.0
  0
LINE
  5
58E
330
190
100
AcDbEntity
  8
Layer0000
  6
Continuous
 62
     3
370
    18
100
AcDbLine
 10
424.9899898396633
 20
-131.7987127625206
 30
0.0
 11
424.4899898396633
 21
-131.2987127625206
 31
0.0
  0
LINE
  5
58F
330
190
100
AcDbEntity
  8
Layer0000
  6
Continuous
 62
     3
370
    18
100
AcDbLine
 10
424.4899898396633
 20
-164.2987127625206
 30
0.0
 11
423.9899898396633
 21
-164.7987127625206
 31
0.0
  0
LINE
  5
590
330
190
100
AcDbEntity
  8
Layer0000
  6
Continuous
 62
     3
370
    18
100
AcDbLine
 10
424.9899898396633
 20
-153.7987127625206
 30
0.0
 11
424.4899898396633
 21
-154.2987127625206
 31
0.0
  0
LINE
  5
591
330
190
100
AcDbEntity
  8
Layer0000
  6
Continuous
 62
     3
370
    18
100
AcDbLine
 10
451.4899898396633
 20
-148.789886120973
 30
0.0
 11
451.4899898396633
 21
-147.2708487175202
 31
0.0
  0
LINE
  5
592
330
190
100
AcDbEntity
  8
Layer0000
  6
Continuous
 62
     3
370
    18
100
AcDbLine
 10
352.9899898396633
 20
-120.7987127625206
 30
0.0
 11
423.9899898396633
 21
-120.7987127625206
 31
0.0
  0
LINE
  5
593
330
190
100
AcDbEntity
  8
Layer0000
  6
Continuous
 62
     3
370
    18
100
AcDbLine
 10
352.4899898396633
 20
-121.2987127625206
 30
0.0
 11
352.4899898396633
 21
-164.2987127625206
 31
0.0
  0
LINE
  5
594
330
190
100
AcDbEntity
  8
Layer0000
  6
Continuous
 62
     3
370
    18
100
AcDbLine
 10
352.9899898396633
 20
-164.7987127625206
 30
0.0
 11
352.9899898396633
 21
-120.7987127625206
 31
0.0
  0
LINE
  5
595
330
190
100
AcDbEntity
  8
Layer0000
  6
Continuous
 62
     3
370
    18
100
AcDbLine
 10
452.4899898396633
 20
-134.0307635700895
 30
0.0
 11
452.4899898396633
 21
-151.5666619549518
 31
0.0
  0
LINE
  5
596
330
190
100
AcDbEntity
  8
Layer0000
  6
Continuous
 62
     3
370
    18
100
AcDbLine
 10
424.4899898396633
 20
-164.2987127625206
 30
0.0
 11
424.4899898396633
 21
-131.2987127625206
 31
0.0
  0
LINE
  5
597
330
190
100
AcDbEntity
  8
Layer0000
  6
Continuous
 62
     3
370
    18
100
AcDbLine
 10
424.9899898396633
 20
-153.7987127625206
 30
0.0
 11
424.9899898396633
 21
-131.7987127625206
 31
0.0
  0
LINE
  5
598
330
190
100
AcDbEntity
  8
Layer0000
  6
Continuous
 62
     3
370
    18
100
AcDbLine
 10
423.9899898396633
 20
-164.7987127625206
 30
0.0
 11
423.9899898396633
 21
-120.7987127625206
 31
0.0
  0
ARC
  5
599
330
190
100
AcDbEntity
  8
Layer0000
  6
Continuous
 62
     3
370
    18
100
AcDbCircle
 10
441.9899898396634
 20
-142.7987127625206
 30
0.0
 40
10.49999999999994
100
AcDbArc
 50
334.7912347032415
 51
25.20876529675846
  0
LINE
  5
59A
330
190
100
AcDbEntity
  8
Layer0000
  6
Continuous
 62
     3
370
    18
100
AcDbLine
 10
434.4899898396633
 20
-131.7987127625206
 30
0.0
 11
434.4899898396633
 21
-153.7987127625206
 31
0.0
  0
LINE
  5
59B
330
190
100
AcDbEntity
  8
Layer0000
  6
Continuous
 62
     3
370
    18
100
AcDbLine
 10
352.9899898396633
 20
-164.7987127625206
 30
0.0
 11
423.9899898396633
 21
-164.7987127625206
 31
0.0
  0
LINE
  5
59C
330
190
100
AcDbEntity
  8
Layer0000
  6
Continuous
 62
     3
370
    18
100
AcDbLine
 10
424.9899898396633
 20
-153.7987127625206
 30
0.0
 11
434.4899898396633
 21
-153.7987127625206
 31
0.0
  0
LINE
  5
59D
330
190
100
AcDbEntity
  8
Layer0000
  6
Continuous
 62
     3
370
    18
100
AcDbLine
 10
451.4899898396633
 20
-147.2708487175202
 30
0.0
 11
434.4899898396633
 21
-147.2708487175202
 31
0.0
  0
LINE
  5
59E
330
190
100
AcDbEntity
  8
Layer0000
  6
Continuous
 62
     3
370
    18
100
AcDbLine
 10
451.4899898396633
 20
-148.789886120973
 30
0.0
 11
434.4899898396633
 21
-148.789886120973
 31
0.0
  0
ARC
  5
59F
330
190
100
AcDbEntity
  8
Layer0000
  6
Continuous
 62
     3
370
    18
100
AcDbCircle
 10
449.4488001292221
 20
-151.0442994417468
 30
0.0
 40
3.041189710441189
100
AcDbArc
 50
347.8416951083055
 51
47.84169510830637
  0
LINE
  5
5A0
330
190
100
AcDbEntity
  8
Layer0000
  6
Continuous
 62
     3
370
    18
100
AcDbLine
 10
434.4899898396633
 20
-153.2987127625206
 30
0.0
 11
451.4899898396633
 21
-153.2987127625206
 31
0.0
  0
LINE
  5
5A1
330
190
100
AcDbEntity
  8
Layer0000
  6
Continuous
 62
     3
370
    18
100
AcDbLine
 10
451.4899898396633
 20
-153.2987127625207
 30
0.0
 11
452.4899898396633
 21
-151.5666619549518
 31
0.0
  0
LINE
  5
5A2
330
190
100
AcDbEntity
  8
Layer0000
  6
DASHED2
 62
     5
370
    18
100
AcDbLine
 10
352.4899898396633
 20
-124.7987127625206
 30
0.0
 11
377.4899898396633
 21
-124.7987127625206
 31
0.0
  0
LINE
  5
5A3
330
190
100
AcDbEntity
  8
Layer0000
  6
DASHED2
 62
     5
370
    18
100
AcDbLine
 10
352.4899898396633
 20
-133.0654119275872
 30
0.0
 11
377.4899898396633
 21
-133.0654119275872
 31
0.0
  0
LINE
  5
5A4
330
190
100
AcDbEntity
  8
Layer0000
  6
DASHED2
 62
     5
370
    18
100
AcDbLine
 10
352.4899898396633
 20
-134.5525015112858
 30
0.0
 11
377.4899898396633
 21
-134.5525015112858
 31
0.0
  0
LINE
  5
5A5
330
190
100
AcDbEntity
  8
Layer0000
  6
DASHED2
 62
     5
370
    18
100
AcDbLine
 10
377.4899898396633
 20
-124.7987127625206
 30
0.0
 11
377.4899898396633
 21
-142.7987127625206
 31
0.0
  0
ARC
  5
5A6
330
190
100
AcDbEntity
  8
Layer0000
  6
DASHED2
 62
     5
370
    18
100
AcDbCircle
 10
349.2188451468062
 20
-128.9320623450539
 30
0.0
 40
5.271144692857096
100
AcDbArc
 50
308.3581926761688
 51
51.64180732383124
  0
ARC
  5
5A7
330
190
100
AcDbEntity
  8
Layer0000
  6
DASHED2
 62
     5
370
    18
100
AcDbCircle
 10
336.4899898396655
 20
-142.7987127625206
 30
0.0
 40
17.99999999999785
100
AcDbArc
 50
0.000000000000007
 51
27.26604445073447
  0
LINE
  5
5A8
330
190
100
AcDbEntity
  8
Layer0000
  6
DASHED2
 62
     5
370
    18
100
AcDbLine
 10
416.4899898396633
 20
-156.2987127625206
 30
0.0
 11
417.4899898396633
 21
-155.2987127625206
 31
0.0
  0
LINE
  5
5A9
330
190
100
AcDbEntity
  8
Layer0000
  6
DASHED2
 62
     5
370
    18
100
AcDbLine
 10
377.4899898396633
 20
-129.2987127625206
 30
0.0
 11
416.4899898396633
 21
-129.2987127625206
 31
0.0
  0
LINE
  5
5AA
330
190
100
AcDbEntity
  8
Layer0000
  6
DASHED2
 62
     5
370
    18
100
AcDbLine
 10
377.4899898396633
 20
-160.7987127625207
 30
0.0
 11
377.4899898396633
 21
-142.7987127625206
 31
0.0
  0
ARC
  5
5AB
330
190
100
AcDbEntity
  8
Layer0000
  6
DASHED2
 62
     5
370
    18
100
AcDbCircle
 10
336.4899898396655
 20
-142.7987127625206
 30
0.0
 40
17.99999999999785
100
AcDbArc
 50
332.7339555492655
 51
0.0
  0
LINE
  5
5AC
330
190
100
AcDbEntity
  8
Layer0000
  6
DASHED2
 62
     5
370
    18
100
AcDbLine
 10
417.4899898396633
 20
-130.2987127625206
 30
0.0
 11
417.4899898396633
 21
-142.7987127625206
 31
0.0
  0
LINE
  5
5AD
330
190
100
AcDbEntity
  8
Layer0000
  6
DASHED2
 62
     5
370
    18
100
AcDbLine
 10
416.4899898396633
 20
-129.2987127625206
 30
0.0
 11
417.4899898396633
 21
-130.2987127625206
 31
0.0
  0
LINE
  5
5AE
330
190
100
AcDbEntity
  8
Layer0000
  6
DASHED2
 62
     5
370
    18
100
AcDbLine
 10
377.4899898396633
 20
-156.2987127625206
 30
0.0
 11
416.4899898396633
 21
-156.2987127625206
 31
0.0
  0
LINE
  5
5AF
330
190
100
AcDbEntity
  8
Layer0000
  6
DASHED2
 62
     5
370
    18
100
AcDbLine
 10
417.4899898396633
 20
-155.2987127625206
 30
0.0
 11
417.4899898396633
 21
-142.7987127625206
 31
0.0
  0
LINE
  5
5B0
330
190
100
AcDbEntity
  8
Layer0000
  6
DASHED2
 62
     5
370
    18
100
AcDbLine
 10
352.4899898396633
 20
-160.7987127625207
 30
0.0
 11
377.4899898396633
 21
-160.7987127625207
 31
0.0
  0
LINE
  5
5B1
330
190
100
AcDbEntity
  8
Layer0000
  6
DASHED2
 62
     5
370
    18
100
AcDbLine
 10
352.4899898396633
 20
-152.532013597454
 30
0.0
 11
377.4899898396633
 21
-152.532013597454
 31
0.0
  0
LINE
  5
5B2
330
190
100
AcDbEntity
  8
Layer0000
  6
DASHED2
 62
     5
370
    18
100
AcDbLine
 10
352.4899898396633
 20
-151.0449240137554
 30
0.0
 11
377.4899898396633
 21
-151.0449240137554
 31
0.0
  0
ARC
  5
5B3
330
190
100
AcDbEntity
  8
Layer0000
  6
DASHED2
 62
     5
370
    18
100
AcDbCircle
 10
349.2188451468062
 20
-156.6653631799874
 30
0.0
 40
5.271144692857096
100
AcDbArc
 50
308.3581926761688
 51
51.64180732383124
  0
LINE
  5
5B4
330
190
100
AcDbEntity
  8
Layer0000
  6
CENTER
 62
     2
370
    18
100
AcDbLine
 10
350.4899898396633
 20
-142.7987127625206
 30
0.0
 11
454.4899898396633
 21
-142.7987127625206
 31
0.0
  0
ENDBLK
  5
192
330
190
100
AcDbEntity
  8
0
100
AcDbBlockEnd
  0
BLOCK
  5
194
330
193
100
AcDbEntity
  8
0
100
AcDbBlockBegin
  2
DC_GROUP_COM125_61
 70
     0
 10
0.0
 20
0.0
 30
0.0
  3
DC_GROUP_COM125_61
  1

  0
TEXT
  5
5B5
330
193
100
AcDbEntity
  8
Layer0015
 62
     2
100
AcDbText
 10
374.0845213515539
 20
-210.5355205526838
 30
0.0
 40
8.4
  1
ハンドルソケット
 41
0.6666666666666665
  7
dcStyle0
 72
     5
 11
427.8445213515539
 21
-210.5355205526838
 31
0.0
100
AcDbText
  0
LINE
  5
5B6
330
193
100
AcDbEntity
  8
Layer0015
  6
Continuous
 62
     2
370
    18
100
AcDbLine
 10
356.4445213515539
 20
-211.3755205526838
 30
0.0
 11
445.4845213515539
 21
-211.3755205526838
 31
0.0
  0
ENDBLK
  5
195
330
193
100
AcDbEntity
  8
0
100
AcDbBlockEnd
  0
BLOCK
  5
197
330
196
100
AcDbEntity
  8
0
100
AcDbBlockBegin
  2
DC_GROUP_COM125_62
 70
     0
 10
0.0
 20
0.0
 30
0.0
  3
DC_GROUP_COM125_62
  1

  0
LINE
  5
5B7
330
196
100
AcDbEntity
  8
Layer0014
  6
Continuous
 62
     2
370
    18
100
AcDbLine
 10
129.2988700075371
 20
85.00313762997293
 30
0.0
 11
146.2801358395748
 21
55.59072243205041
 31
0.0
  0
INSERT
  5
5B8
330
196
100
AcDbEntity
  8
Layer0014
 62
     2
100
AcDbBlockReference
  2
_OPEN30
 10
129.2988700075371
 20
85.00313762997293
 30
0.0
 41
3.670368878922017
 42
2.415330282579337
 50
120.0
  0
LINE
  5
5B9
330
196
100
AcDbEntity
  8
Layer0014
  6
Continuous
 62
     2
370
    18
100
AcDbLine
 10
146.2801358395748
 20
55.59072243205041
 30
0.0
 11
242.4001358395748
 21
55.59072243205041
 31
0.0
  0
TEXT
  5
5BA
330
196
100
AcDbEntity
  8
Layer0014
 62
     2
100
AcDbText
 10
147.4801358395748
 20
55.83072243205041
 30
0.0
 40
8.4
  1
クランピングブロック
 41
0.6666666666666665
  7
dcStyle0
 72
     5
 11
214.6801358395747
 21
55.83072243205041
 31
0.0
100
AcDbText
  0
ENDBLK
  5
198
330
196
100
AcDbEntity
  8
0
100
AcDbBlockEnd
  0
BLOCK
  5
19A
330
199
100
AcDbEntity
  8
0
100
AcDbBlockBegin
  2
DC_GROUP_COM125_63
 70
     0
 10
0.0
 20
0.0
 30
0.0
  3
DC_GROUP_COM125_63
  1

  0
TEXT
  5
5BB
330
199
100
AcDbEntity
  8
Layer0004
 62
     2
100
AcDbText
 10
147.4801358395748
 20
46.2672526098516
 30
0.0
 40
8.4
  1
CLAMPING BLOCK
 41
0.8
  7
dcStyle0
 72
     5
 11
241.5601358395748
 21
46.2672526098516
 31
0.0
100
AcDbText
  0
ENDBLK
  5
19B
330
199
100
AcDbEntity
  8
0
100
AcDbBlockEnd
  0
BLOCK
  5
19D
330
19C
100
AcDbEntity
  8
0
100
AcDbBlockBegin
  2
DC_GROUP_COM125_64
 70
     0
 10
0.0
 20
0.0
 30
0.0
  3
DC_GROUP_COM125_64
  1

  0
TEXT
  5
5BC
330
19C
100
AcDbEntity
  8
Layer0004
 62
     2
100
AcDbText
 10
-115.9213954409169
 20
-27.49736613676855
 30
0.0
 40
8.4
  1
PD口金
 41
0.7272727272727272
  7
dcStyle0
 72
     5
 11
-89.04139544091687
 21
-27.49736613676855
 31
0.0
100
AcDbText
  0
LINE
  5
5BD
330
19C
100
AcDbEntity
  8
Layer0004
  6
Continuous
 62
     2
370
    18
100
AcDbLine
 10
-123.4813954409169
 20
-28.33736613676855
 30
0.0
 11
-81.48139544091686
 21
-28.33736613676855
 31
0.0
  0
ENDBLK
  5
19E
330
19C
100
AcDbEntity
  8
0
100
AcDbBlockEnd
  0
BLOCK
  5
1A0
330
19F
100
AcDbEntity
  8
0
100
AcDbBlockBegin
  2
DC_GROUP_COM125_65
 70
     0
 10
0.0
 20
0.0
 30
0.0
  3
DC_GROUP_COM125_65
  1

  0
TEXT
  5
5BE
330
19F
100
AcDbEntity
  8
Layer0004
 62
     2
100
AcDbText
 10
-122.6413954409169
 20
-37.49736613676855
 30
0.0
 40
8.4
  1
PD　JAW
 41
0.7741935483870972
  7
dcStyle0
 72
     5
 11
-82.32139544091686
 21
-37.49736613676855
 31
0.0
100
AcDbText
  0
ENDBLK
  5
1A1
330
19F
100
AcDbEntity
  8
0
100
AcDbBlockEnd
  0
BLOCK
  5
1A3
330
1A2
100
AcDbEntity
  8
0
100
AcDbBlockBegin
  2
DC_GROUP_COM125_66
 70
     0
 10
0.0
 20
0.0
 30
0.0
  3
DC_GROUP_COM125_66
  1

  0
LINE
  5
5BF
330
1A2
100
AcDbEntity
  8
Layer0014
  6
Continuous
 62
     2
370
    18
100
AcDbLine
 10
69.68748775036526
 20
-133.5112989028278
 30
0.0
 11
99.013039426901
 21
-82.71795343908124
 31
0.0
  0
INSERT
  5
5C0
330
1A2
100
AcDbEntity
  8
Layer0014
 62
     2
100
AcDbBlockReference
  2
_OPEN30
 10
69.68748775036526
 20
-133.5112989028278
 30
0.0
 41
3.670368878922017
 42
2.415330282579337
 50
240.0
  0
LINE
  5
5C1
330
1A2
100
AcDbEntity
  8
Layer0014
  6
Continuous
 62
     2
370
    18
100
AcDbLine
 10
99.013039426901
 20
-82.71795343908124
 30
0.0
 11
188.413039426901
 21
-82.71795343908124
 31
0.0
  0
TEXT
  5
5C2
330
1A2
100
AcDbEntity
  8
Layer0014
 62
     2
100
AcDbText
 10
100.213039426901
 20
-82.47795343908125
 30
0.0
 40
8.4
  1
アンチリフト口金
 41
0.6666666666666667
  7
dcStyle0
 72
     5
 11
153.973039426901
 21
-82.47795343908125
 31
0.0
100
AcDbText
  0
ENDBLK
  5
1A4
330
1A2
100
AcDbEntity
  8
0
100
AcDbBlockEnd
  0
BLOCK
  5
1A6
330
1A5
100
AcDbEntity
  8
0
100
AcDbBlockBegin
  2
DC_GROUP_COM125_67
 70
     0
 10
0.0
 20
0.0
 30
0.0
  3
DC_GROUP_COM125_67
  1

  0
TEXT
  5
5C3
330
1A5
100
AcDbEntity
  8
Layer0004
 62
     2
100
AcDbText
 10
100.213039426901
 20
-91.87795343908125
 30
0.0
 40
8.4
  1
ANTI-LIFT JAW
 41
0.7999999999999999
  7
dcStyle0
 72
     5
 11
187.573039426901
 21
-91.87795343908125
 31
0.0
100
AcDbText
  0
ENDBLK
  5
1A7
330
1A5
100
AcDbEntity
  8
0
100
AcDbBlockEnd
  0
BLOCK
  5
1A9
330
1A8
100
AcDbEntity
  8
0
100
AcDbBlockBegin
  2
DC_GROUP_COM125_68
 70
     0
 10
0.0
 20
0.0
 30
0.0
  3
DC_GROUP_COM125_68
  1

  0
TEXT
  5
5C4
330
1A8
100
AcDbEntity
  8
Layer0004
 62
     2
100
AcDbText
 10
357.2845213515539
 20
-220.8877499844804
 30
0.0
 40
8.4
  1
HANDLE SOCKET
 41
0.8000000000000002
  7
dcStyle0
 72
     5
 11
444.6445213515539
 21
-220.8877499844804
 31
0.0
100
AcDbText
  0
ENDBLK
  5
1AA
330
1A8
100
AcDbEntity
  8
0
100
AcDbBlockEnd
  0
BLOCK
  5
3EB
330
3EA
100
AcDbEntity
  8
0
100
AcDbBlockBegin
  2
_OPEN30
 70
     0
 10
0.0
 20
0.0
 30
0.0
  3
_OPEN30
  1

  0
LINE
  5
3ED
330
3EA
100
AcDbEntity
  8
0
  6
ByBlock
 62
     0
370
    -2
100
AcDbLine
 10
-1.0
 20
0.267949
 30
0.0
 11
0.0
 21
0.0
 31
0.0
  0
LINE
  5
3EE
330
3EA
100
AcDbEntity
  8
0
  6
ByBlock
 62
     0
370
    -2
100
AcDbLine
 10
0.0
 20
0.0
 30
0.0
 11
-1.0
 21
-0.267949
 31
0.0
  0
LINE
  5
3EF
330
3EA
100
AcDbEntity
  8
0
  6
ByBlock
 62
     0
370
    -2
100
AcDbLine
 10
0.0
 20
0.0
 30
0.0
 11
-1.0
 21
0.0
 31
0.0
  0
ENDBLK
  5
3EC
330
3EA
100
AcDbEntity
  8
0
100
AcDbBlockEnd
  0
ENDSEC
  0
SECTION
  2
ENTITIES
  0
LINE
  5
5C5
330
1F
100
AcDbEntity
  8
Layer0000
  6
Continuous
 62
    30
370
    25
100
AcDbLine
 10
368.0914549045166
 20
132.8202911454414
 30
0.0
 11
360.5914549045166
 21
132.8202911454414
 31
0.0
  0
LINE
  5
5C6
330
1F
100
AcDbEntity
  8
Layer0000
  6
Continuous
 62
     3
370
    18
100
AcDbLine
 10
314.5914549045166
 20
244.3202911454414
 30
0.0
 11
314.5914549045166
 21
119.3202911454414
 31
0.0
  0
LINE
  5
5C7
330
1F
100
AcDbEntity
  8
Layer0000
  6
Continuous
 62
     3
370
    18
100
AcDbLine
 10
315.0914549045166
 20
119.3202911454414
 30
0.0
 11
360.5914549045166
 21
119.3202911454414
 31
0.0
  0
LINE
  5
5C8
330
1F
100
AcDbEntity
  8
Layer0000
  6
Continuous
 62
     3
370
    18
100
AcDbLine
 10
314.5914549045166
 20
244.3202911454414
 30
0.0
 11
360.5914549045166
 21
244.3202911454414
 31
0.0
  0
LINE
  5
5C9
330
1F
100
AcDbEntity
  8
Layer0000
  6
Continuous
 62
     3
370
    18
100
AcDbLine
 10
360.5914549045166
 20
244.3202911454414
 30
0.0
 11
360.5914549045166
 21
244.0702911454414
 31
0.0
  0
LINE
  5
5CA
330
1F
100
AcDbEntity
  8
Layer0000
  6
Continuous
 62
     3
370
    18
100
AcDbLine
 10
360.5914549045166
 20
119.5702911454414
 30
0.0
 11
360.5914549045166
 21
119.3202911454414
 31
0.0
  0
LINE
  5
5CB
330
1F
100
AcDbEntity
  8
Layer0000
  6
Continuous
 62
     3
370
    18
100
AcDbLine
 10
352.4899898396633
 20
-164.2987127625206
 30
0.0
 11
352.9899898396633
 21
-164.7987127625206
 31
0.0
  0
LINE
  5
5CC
330
1F
100
AcDbEntity
  8
Layer0001
  6
CENTER
 62
    56
370
    18
100
AcDbLine
 10
-433.1493397770448
 20
-205.7987127625206
 30
0.0
 11
-433.1493397770448
 21
-237.7987127625206
 31
0.0
  0
LINE
  5
5CD
330
1F
100
AcDbEntity
  8
Layer0001
  6
CENTER
 62
    56
370
    18
100
AcDbLine
 10
-203.1493397770445
 20
-205.7987127625206
 30
0.0
 11
-203.1493397770445
 21
-237.7987127625206
 31
0.0
  0
LINE
  5
5CE
330
1F
100
AcDbEntity
  8
Layer0001
  6
CENTER
 62
    56
370
    18
100
AcDbLine
 10
-15.17363001965936
 20
-205.7987127625206
 30
0.0
 11
-15.17363001965936
 21
-237.7987127625206
 31
0.0
  0
LINE
  5
5CF
330
1F
100
AcDbEntity
  8
Layer0001
  6
CENTER
 62
    56
370
    18
100
AcDbLine
 10
244.8263699803408
 20
-205.7987127625206
 30
0.0
 11
244.8263699803408
 21
-237.7987127625206
 31
0.0
  0
INSERT
  5
5D0
330
1F
100
AcDbEntity
  8
Layer0001
  6
Continuous
100
AcDbBlockReference
  2
DC_GROUP_COM125_1
 10
0.0
 20
0.0
 30
0.0
  0
INSERT
  5
5D1
330
1F
100
AcDbEntity
  8
Layer0001
  6
Continuous
100
AcDbBlockReference
  2
DC_GROUP_COM125_2
 10
0.0
 20
0.0
 30
0.0
  0
INSERT
  5
5D2
330
1F
100
AcDbEntity
  8
Layer0001
  6
Continuous
100
AcDbBlockReference
  2
DC_GROUP_COM125_3
 10
0.0
 20
0.0
 30
0.0
  0
INSERT
  5
5D3
330
1F
100
AcDbEntity
  8
Layer0001
  6
Continuous
100
AcDbBlockReference
  2
DC_GROUP_COM125_4
 10
0.0
 20
0.0
 30
0.0
  0
INSERT
  5
5D4
330
1F
100
AcDbEntity
  8
Layer0001
  6
Continuous
100
AcDbBlockReference
  2
DC_GROUP_COM125_5
 10
0.0
 20
0.0
 30
0.0
  0
INSERT
  5
5D5
330
1F
100
AcDbEntity
  8
Layer0001
  6
Continuous
100
AcDbBlockReference
  2
DC_GROUP_COM125_6
 10
0.0
 20
0.0
 30
0.0
  0
INSERT
  5
5D6
330
1F
100
AcDbEntity
  8
Layer0001
  6
Continuous
100
AcDbBlockReference
  2
DC_GROUP_COM125_7
 10
0.0
 20
0.0
 30
0.0
  0
INSERT
  5
5D7
330
1F
100
AcDbEntity
  8
Layer0001
  6
Continuous
100
AcDbBlockReference
  2
DC_GROUP_COM125_8
 10
0.0
 20
0.0
 30
0.0
  0
INSERT
  5
5D8
330
1F
100
AcDbEntity
  8
Layer0001
  6
Continuous
100
AcDbBlockReference
  2
DC_GROUP_COM125_37
 10
0.0
 20
0.0
 30
0.0
  0
INSERT
  5
5D9
330
1F
100
AcDbEntity
  8
Layer0001
  6
Continuous
100
AcDbBlockReference
  2
DC_GROUP_COM125_38
 10
0.0
 20
0.0
 30
0.0
  0
INSERT
  5
5DA
330
1F
100
AcDbEntity
  8
Layer0001
  6
Continuous
100
AcDbBlockReference
  2
DC_GROUP_COM125_39
 10
0.0
 20
0.0
 30
0.0
  0
INSERT
  5
5DB
330
1F
100
AcDbEntity
  8
Layer0001
  6
Continuous
100
AcDbBlockReference
  2
DC_GROUP_COM125_40
 10
0.0
 20
0.0
 30
0.0
  0
INSERT
  5
5DC
330
1F
100
AcDbEntity
  8
Layer0001
  6
Continuous
100
AcDbBlockReference
  2
DC_GROUP_COM125_41
 10
0.0
 20
0.0
 30
0.0
  0
INSERT
  5
5DD
330
1F
100
AcDbEntity
  8
Layer0001
  6
Continuous
100
AcDbBlockReference
  2
DC_GROUP_COM125_42
 10
0.0
 20
0.0
 30
0.0
  0
INSERT
  5
5DE
330
1F
100
AcDbEntity
  8
Layer0000
  6
Continuous
100
AcDbBlockReference
  2
DC_GROUP_COM125_9
 10
0.0
 20
0.0
 30
0.0
  0
INSERT
  5
5DF
330
1F
100
AcDbEntity
  8
Layer0000
  6
Continuous
100
AcDbBlockReference
  2
DC_GROUP_COM125_10
 10
0.0
 20
0.0
 30
0.0
  0
INSERT
  5
5E0
330
1F
100
AcDbEntity
  8
Layer0000
  6
Continuous
100
AcDbBlockReference
  2
DC_GROUP_COM125_11
 10
0.0
 20
0.0
 30
0.0
  0
INSERT
  5
5E1
330
1F
100
AcDbEntity
  8
Layer0000
  6
Continuous
100
AcDbBlockReference
  2
DC_GROUP_COM125_12
 10
0.0
 20
0.0
 30
0.0
  0
INSERT
  5
5E2
330
1F
100
AcDbEntity
  8
Layer0000
  6
Continuous
100
AcDbBlockReference
  2
DC_GROUP_COM125_13
 10
0.0
 20
0.0
 30
0.0
  0
INSERT
  5
5E3
330
1F
100
AcDbEntity
  8
Layer0000
  6
Continuous
100
AcDbBlockReference
  2
DC_GROUP_COM125_14
 10
0.0
 20
0.0
 30
0.0
  0
INSERT
  5
5E4
330
1F
100
AcDbEntity
  8
Layer0000
  6
Continuous
100
AcDbBlockReference
  2
DC_GROUP_COM125_15
 10
0.0
 20
0.0
 30
0.0
  0
INSERT
  5
5E5
330
1F
100
AcDbEntity
  8
Layer0000
  6
Continuous
100
AcDbBlockReference
  2
DC_GROUP_COM125_17
 10
0.0
 20
0.0
 30
0.0
  0
INSERT
  5
5E6
330
1F
100
AcDbEntity
  8
Layer0000
  6
Continuous
100
AcDbBlockReference
  2
DC_GROUP_COM125_18
 10
0.0
 20
0.0
 30
0.0
  0
INSERT
  5
5E7
330
1F
100
AcDbEntity
  8
Layer0000
  6
Continuous
100
AcDbBlockReference
  2
DC_GROUP_COM125_20
 10
0.0
 20
0.0
 30
0.0
  0
INSERT
  5
5E8
330
1F
100
AcDbEntity
  8
Layer0000
  6
Continuous
100
AcDbBlockReference
  2
DC_GROUP_COM125_21
 10
0.0
 20
0.0
 30
0.0
  0
INSERT
  5
5E9
330
1F
100
AcDbEntity
  8
Layer0000
  6
Continuous
100
AcDbBlockReference
  2
DC_GROUP_COM125_22
 10
0.0
 20
0.0
 30
0.0
  0
INSERT
  5
5EA
330
1F
100
AcDbEntity
  8
Layer0000
  6
Continuous
100
AcDbBlockReference
  2
DC_GROUP_COM125_23
 10
0.0
 20
0.0
 30
0.0
  0
INSERT
  5
5EB
330
1F
100
AcDbEntity
  8
Layer0000
  6
Continuous
100
AcDbBlockReference
  2
DC_GROUP_COM125_24
 10
0.0
 20
0.0
 30
0.0
  0
INSERT
  5
5EC
330
1F
100
AcDbEntity
  8
Layer0000
  6
Continuous
100
AcDbBlockReference
  2
DC_GROUP_COM125_25
 10
0.0
 20
0.0
 30
0.0
  0
INSERT
  5
5ED
330
1F
100
AcDbEntity
  8
Layer0000
  6
Continuous
100
AcDbBlockReference
  2
DC_GROUP_COM125_26
 10
0.0
 20
0.0
 30
0.0
  0
INSERT
  5
5EE
330
1F
100
AcDbEntity
  8
Layer0000
  6
Continuous
100
AcDbBlockReference
  2
DC_GROUP_COM125_27
 10
0.0
 20
0.0
 30
0.0
  0
INSERT
  5
5EF
330
1F
100
AcDbEntity
  8
Layer0000
  6
Continuous
100
AcDbBlockReference
  2
DC_GROUP_COM125_28
 10
0.0
 20
0.0
 30
0.0
  0
INSERT
  5
5F0
330
1F
100
AcDbEntity
  8
Layer0000
  6
Continuous
100
AcDbBlockReference
  2
DC_GROUP_COM125_29
 10
0.0
 20
0.0
 30
0.0
  0
INSERT
  5
5F1
330
1F
100
AcDbEntity
  8
Layer0000
  6
Continuous
100
AcDbBlockReference
  2
DC_GROUP_COM125_30
 10
0.0
 20
0.0
 30
0.0
  0
INSERT
  5
5F2
330
1F
100
AcDbEntity
  8
Layer0000
  6
Continuous
100
AcDbBlockReference
  2
DC_GROUP_COM125_31
 10
0.0
 20
0.0
 30
0.0
  0
INSERT
  5
5F3
330
1F
100
AcDbEntity
  8
Layer0000
  6
Continuous
100
AcDbBlockReference
  2
DC_GROUP_COM125_32
 10
0.0
 20
0.0
 30
0.0
  0
INSERT
  5
5F4
330
1F
100
AcDbEntity
  8
Layer0000
  6
Continuous
100
AcDbBlockReference
  2
DC_GROUP_COM125_33
 10
0.0
 20
0.0
 30
0.0
  0
INSERT
  5
5F5
330
1F
100
AcDbEntity
  8
Layer0000
  6
Continuous
100
AcDbBlockReference
  2
DC_GROUP_COM125_34
 10
0.0
 20
0.0
 30
0.0
  0
INSERT
  5
5F6
330
1F
100
AcDbEntity
  8
Layer0000
  6
Continuous
100
AcDbBlockReference
  2
DC_GROUP_COM125_35
 10
0.0
 20
0.0
 30
0.0
  0
INSERT
  5
5F7
330
1F
100
AcDbEntity
  8
Layer0000
  6
Continuous
100
AcDbBlockReference
  2
DC_GROUP_COM125_36
 10
0.0
 20
0.0
 30
0.0
  0
INSERT
  5
5F8
330
1F
100
AcDbEntity
  8
Layer0000
  6
Continuous
100
AcDbBlockReference
  2
DC_GROUP_COM125_43
 10
0.0
 20
0.0
 30
0.0
  0
INSERT
  5
5F9
330
1F
100
AcDbEntity
  8
Layer0000
  6
Continuous
100
AcDbBlockReference
  2
DC_GROUP_COM125_44
 10
0.0
 20
0.0
 30
0.0
  0
INSERT
  5
5FA
330
1F
100
AcDbEntity
  8
Layer0000
  6
Continuous
100
AcDbBlockReference
  2
DC_GROUP_COM125_45
 10
0.0
 20
0.0
 30
0.0
  0
INSERT
  5
5FB
330
1F
100
AcDbEntity
  8
Layer0000
  6
Continuous
100
AcDbBlockReference
  2
DC_GROUP_COM125_46
 10
0.0
 20
0.0
 30
0.0
  0
INSERT
  5
5FC
330
1F
100
AcDbEntity
  8
Layer0000
  6
Continuous
100
AcDbBlockReference
  2
DC_GROUP_COM125_47
 10
0.0
 20
0.0
 30
0.0
  0
INSERT
  5
5FD
330
1F
100
AcDbEntity
  8
Layer0000
  6
Continuous
100
AcDbBlockReference
  2
DC_GROUP_COM125_48
 10
0.0
 20
0.0
 30
0.0
  0
INSERT
  5
5FE
330
1F
100
AcDbEntity
  8
Layer0000
  6
Continuous
100
AcDbBlockReference
  2
DC_GROUP_COM125_49
 10
0.0
 20
0.0
 30
0.0
  0
INSERT
  5
5FF
330
1F
100
AcDbEntity
  8
Layer0000
  6
Continuous
100
AcDbBlockReference
  2
DC_GROUP_COM125_50
 10
0.0
 20
0.0
 30
0.0
  0
INSERT
  5
600
330
1F
100
AcDbEntity
  8
Layer0000
  6
Continuous
100
AcDbBlockReference
  2
DC_GROUP_COM125_52
 10
0.0
 20
0.0
 30
0.0
  0
INSERT
  5
601
330
1F
100
AcDbEntity
  8
Layer0000
  6
Continuous
100
AcDbBlockReference
  2
DC_GROUP_COM125_53
 10
0.0
 20
0.0
 30
0.0
  0
INSERT
  5
602
330
1F
100
AcDbEntity
  8
Layer0000
  6
Continuous
100
AcDbBlockReference
  2
DC_GROUP_COM125_54
 10
0.0
 20
0.0
 30
0.0
  0
INSERT
  5
603
330
1F
100
AcDbEntity
  8
Layer0000
  6
Continuous
100
AcDbBlockReference
  2
DC_GROUP_COM125_55
 10
0.0
 20
0.0
 30
0.0
  0
INSERT
  5
604
330
1F
100
AcDbEntity
  8
Layer0000
  6
Continuous
100
AcDbBlockReference
  2
DC_GROUP_COM125_56
 10
0.0
 20
0.0
 30
0.0
  0
INSERT
  5
605
330
1F
100
AcDbEntity
  8
Layer0000
  6
Continuous
100
AcDbBlockReference
  2
DC_GROUP_COM125_57
 10
0.0
 20
0.0
 30
0.0
  0
INSERT
  5
606
330
1F
100
AcDbEntity
  8
Layer0000
  6
Continuous
100
AcDbBlockReference
  2
DC_GROUP_COM125_58
 10
0.0
 20
0.0
 30
0.0
  0
INSERT
  5
607
330
1F
100
AcDbEntity
  8
Layer0000
  6
Continuous
100
AcDbBlockReference
  2
DC_GROUP_COM125_60
 10
0.0
 20
0.0
 30
0.0
  0
DIMENSION
  5
608
330
1F
100
AcDbEntity
  8
Layer0015
  6
Continuous
370
    13
100
AcDbDimension
  2
*D37
 10
-156.2671455692218
 20
244.3202911454414
 30
0.0
 11
-156.2671455692218
 21
181.8202911454414
 31
0.0
 70
    32
 71
     8
 42
-1.0
  3
DaDimRotatedStyle
100
AcDbAlignedDimension
 13
-223.1493397770446
 23
119.3202911454414
 33
0.0
 14
-223.1493397770446
 24
244.3202911454414
 34
0.0
 50
90.0
100
AcDbRotatedDimension
1001
ACAD
1000
DSTYLE
1002
{
1070
   274
1070
     4
1070
    41
1040
3.599996245883042
1070
   289
1070
     0
1070
    79
1070
     2
1070
   343
1005
3EA
1070
   344
1005
3EA
1070
   176
1070
     2
1070
   177
1070
     2
1070
   178
1070
     2
1070
   271
1070
     7
1070
    44
1040
0.96
1070
    42
1040
1.2
1070
   147
1040
1.199999999999989
1070
   173
1070
     1
1070
    77
1070
     3
1070
    73
1070
     0
1070
   172
1070
     1
1070
    74
1070
     0
1070
   283
1070
     0
1070
   340
1005
3F4
1070
   140
1040
8.4
1070
   284
1070
     8
1070
   288
1070
     1
1070
    78
1070
     8
1002
}
  0
DIMENSION
  5
60A
330
1F
100
AcDbEntity
  8
Layer0015
  6
Continuous
370
    13
100
AcDbDimension
  2
*D38
 10
53.68742494492406
 20
204.3202911454414
 30
0.0
 11
53.68742494492406
 21
181.8202911454414
 31
0.0
 70
    32
 71
     8
 42
-1.0
  3
DaDimRotatedStyle
100
AcDbAlignedDimension
 13
53.68742494492406
 23
159.3202911454414
 33
0.0
 14
53.68742494492406
 24
204.3202911454414
 34
0.0
 50
90.0
100
AcDbRotatedDimension
1001
ACAD
1000
DSTYLE
1002
{
1070
   274
1070
     4
1070
    41
1040
3.599996245883042
1070
   289
1070
     0
1070
    79
1070
     2
1070
   343
1005
3EA
1070
   344
1005
3EA
1070
   176
1070
     2
1070
   177
1070
     7
1070
   178
1070
     2
1070
   271
1070
     7
1070
    44
1040
0.0
1070
    42
1040
1.2
1070
   147
1040
1.200000000000003
1070
   173
1070
     1
1070
    75
1070
     1
1070
    76
1070
     1
1070
    77
1070
     3
1070
    73
1070
     0
1070
   172
1070
     1
1070
    74
1070
     0
1070
   283
1070
     0
1070
   340
1005
3F4
1070
   140
1040
8.4
1070
   284
1070
     8
1070
   288
1070
     1
1070
    78
1070
     8
1002
}
  0
DIMENSION
  5
60B
330
1F
100
AcDbEntity
  8
Layer0015
  6
Continuous
370
    13
100
AcDbDimension
  2
*D43
 10
-152.7406940175959
 20
-157.7987127625206
 30
0.0
 11
-152.7406940175959
 21
-197.7987127625206
 31
0.0
 70
    32
 71
     8
 42
-1.0
  3
DaDimRotatedStyle
100
AcDbAlignedDimension
 13
-223.1493397770446
 23
-237.7987127625206
 33
0.0
 14
-223.1493397770446
 24
-157.7987127625206
 34
0.0
 50
90.0
100
AcDbRotatedDimension
1001
ACAD
1000
DSTYLE
1002
{
1070
   274
1070
     4
1070
    41
1040
3.599996245883042
1070
   289
1070
     0
1070
    79
1070
     2
1070
   343
1005
3EA
1070
   344
1005
3EA
1070
   176
1070
     2
1070
   177
1070
     2
1070
   178
1070
     2
1070
   271
1070
     7
1070
    44
1040
0.96
1070
    42
1040
1.2
1070
   147
1040
1.199999999999989
1070
   173
1070
     1
1070
    77
1070
     3
1070
    73
1070
     0
1070
   172
1070
     1
1070
    74
1070
     0
1070
   283
1070
     0
1070
   340
1005
3F4
1070
   140
1040
8.4
1070
   284
1070
     8
1070
   288
1070
     1
1070
    78
1070
     8
1002
}
  0
DIMENSION
  5
60C
330
1F
100
AcDbEntity
  8
Layer0015
  6
Continuous
370
    13
100
AcDbDimension
  2
*D44
 10
-152.7406940175959
 20
-111.7987127625206
 30
0.0
 11
-152.7406940175959
 21
-134.7987127625206
 31
0.0
 70
    32
 71
     8
 42
-1.0
  3
DaDimRotatedStyle
100
AcDbAlignedDimension
 13
-223.1493397770446
 23
-157.7987127625206
 33
0.0
 14
-258.1493397770446
 24
-111.7987127625206
 34
0.0
 50
90.0
100
AcDbRotatedDimension
1001
ACAD
1000
DSTYLE
1002
{
1070
   274
1070
     4
1070
    41
1040
3.599996245883042
1070
   289
1070
     0
1070
    79
1070
     2
1070
   343
1005
3EA
1070
   344
1005
3EA
1070
   176
1070
     2
1070
   177
1070
     2
1070
   178
1070
     2
1070
   271
1070
     7
1070
    44
1040
0.96
1070
    42
1040
1.2
1070
   147
1040
1.199999999999989
1070
   173
1070
     1
1070
    77
1070
     3
1070
    73
1070
     0
1070
   172
1070
     1
1070
    74
1070
     0
1070
   283
1070
     0
1070
   340
1005
3F4
1070
   140
1040
8.4
1070
   284
1070
     8
1070
   288
1070
     1
1070
    78
1070
     8
1002
}
  0
DIMENSION
  5
60D
330
1F
100
AcDbEntity
  8
Layer0015
  6
Continuous
370
    13
100
AcDbDimension
  2
*D45
 10
-52.30300265401757
 20
-157.7987127625206
 30
0.0
 11
-52.30300265401757
 21
-197.7987127625206
 31
0.0
 70
    32
 71
     8
 42
-1.0
  3
DaDimRotatedStyle
100
AcDbAlignedDimension
 13
4.826369980340743
 23
-237.7987127625206
 33
0.0
 14
4.826369980340743
 24
-157.7987127625206
 34
0.0
 50
90.0
100
AcDbRotatedDimension
1001
ACAD
1000
DSTYLE
1002
{
1070
   274
1070
     4
1070
    41
1040
3.599996245883042
1070
   289
1070
     0
1070
    79
1070
     2
1070
   343
1005
3EA
1070
   344
1005
3EA
1070
   176
1070
     2
1070
   177
1070
     2
1070
   178
1070
     2
1070
   271
1070
     7
1070
    44
1040
0.96
1070
    42
1040
1.2
1070
   147
1040
1.200000000000003
1070
   173
1070
     1
1070
    77
1070
     3
1070
    73
1070
     0
1070
   172
1070
     1
1070
    74
1070
     0
1070
   283
1070
     0
1070
   340
1005
3F4
1070
   140
1040
8.4
1070
   284
1070
     8
1070
   288
1070
     1
1070
    78
1070
     8
1002
}
  0
DIMENSION
  5
60E
330
1F
100
AcDbEntity
  8
Layer0015
  6
Continuous
370
    13
100
AcDbDimension
  2
*D46
 10
-130.6024276298941
 20
-157.7987127625206
 30
0.0
 11
-130.6024276298941
 21
-197.7987127625206
 31
0.0
 70
    32
 71
     8
 42
-1.0
  3
DaDimRotatedStyle
100
AcDbAlignedDimension
 13
-117.8079414561437
 23
-237.7987127625206
 33
0.0
 14
-100.1691573883114
 24
-157.7987127625206
 34
0.0
 50
90.0
100
AcDbRotatedDimension
1001
ACAD
1000
DSTYLE
1002
{
1070
   274
1070
     4
1070
    41
1040
3.599996245883042
1070
   289
1070
     0
1070
    79
1070
     2
1070
   343
1005
3EA
1070
   344
1005
3EA
1070
   176
1070
     2
1070
   177
1070
     2
1070
   178
1070
     2
1070
   271
1070
     7
1070
    44
1040
0.96
1070
    42
1040
1.2
1070
   147
1040
1.199999999999989
1070
   173
1070
     1
1070
    77
1070
     3
1070
    73
1070
     0
1070
   172
1070
     1
1070
    74
1070
     0
1070
   283
1070
     0
1070
   340
1005
3F4
1070
   140
1040
8.4
1070
   284
1070
     8
1070
   288
1070
     1
1070
    78
1070
     8
1002
}
  0
DIMENSION
  5
60F
330
1F
100
AcDbEntity
  8
Layer0015
  6
Continuous
370
    13
100
AcDbDimension
  2
*D47
 10
-67.80794145614368
 20
-258.8285216986775
 30
0.0
 11
-92.80794145614368
 21
-258.8285216986775
 31
0.0
 70
    32
 71
     8
 42
-1.0
  3
DaDimRotatedStyle
100
AcDbAlignedDimension
 13
-117.8079414561437
 23
-237.7987127625206
 33
0.0
 14
-67.80794145614368
 24
-237.7987127625206
 34
0.0
100
AcDbRotatedDimension
1001
ACAD
1000
DSTYLE
1002
{
1070
   274
1070
     4
1070
    41
1040
3.599996245883042
1070
   289
1070
     0
1070
    79
1070
     2
1070
   343
1005
3EA
1070
   344
1005
3EA
1070
   176
1070
     2
1070
   177
1070
     2
1070
   178
1070
     2
1070
   271
1070
     7
1070
    44
1040
0.96
1070
    42
1040
1.2
1070
   147
1040
1.199999999999989
1070
   173
1070
     1
1070
    77
1070
     3
1070
    73
1070
     0
1070
   172
1070
     1
1070
    74
1070
     0
1070
   283
1070
     0
1070
   340
1005
3F4
1070
   140
1040
8.4
1070
   284
1070
     8
1070
   288
1070
     1
1070
    78
1070
     8
1002
}
  0
DIMENSION
  5
610
330
1F
100
AcDbEntity
  8
Layer0015
  6
Continuous
370
    13
100
AcDbDimension
  2
*D48
 10
114.8263699803408
 20
-279.5507155222939
 30
0.0
 11
59.82636998034074
 21
-279.5507155222939
 31
0.0
 70
    32
 71
     8
 42
-1.0
  3
DaDimRotatedStyle
100
AcDbAlignedDimension
 13
4.826369980340743
 23
-237.7987127625206
 33
0.0
 14
114.8263699803408
 24
-245.7987127625206
 34
0.0
100
AcDbRotatedDimension
1001
ACAD
1000
DSTYLE
1002
{
1070
   274
1070
     4
1070
    41
1040
3.599996245883042
1070
   289
1070
     0
1070
    79
1070
     2
1070
   343
1005
3EA
1070
   344
1005
3EA
1070
   176
1070
     2
1070
   177
1070
     2
1070
   178
1070
     2
1070
   271
1070
     7
1070
    44
1040
0.96
1070
    42
1040
1.2
1070
   147
1040
1.199999999999989
1070
   173
1070
     1
1070
    77
1070
     3
1070
    73
1070
     0
1070
   172
1070
     1
1070
    74
1070
     0
1070
   283
1070
     0
1070
   340
1005
3F4
1070
   140
1040
8.4
1070
   284
1070
     8
1070
   288
1070
     1
1070
    78
1070
     8
1002
}
  0
DIMENSION
  5
611
330
1F
100
AcDbEntity
  8
Layer0015
  6
Continuous
370
    13
100
AcDbDimension
  2
*D49
 10
270.8263699803409
 20
-308.4304033826991
 30
0.0
 11
114.8263699803408
 21
-308.4304033826991
 31
0.0
 70
    32
 71
     8
 42
-1.0
  3
DaDimRotatedStyle
100
AcDbAlignedDimension
 13
-41.17363001965933
 23
-236.7987127625206
 33
0.0
 14
270.8263699803409
 24
-236.7987127625206
 34
0.0
100
AcDbRotatedDimension
1001
ACAD
1000
DSTYLE
1002
{
1070
   274
1070
     4
1070
    41
1040
3.599996245883042
1070
   289
1070
     0
1070
    79
1070
     2
1070
   343
1005
3EA
1070
   344
1005
3EA
1070
   176
1070
     2
1070
   177
1070
     2
1070
   178
1070
     2
1070
   271
1070
     7
1070
    44
1040
0.96
1070
    42
1040
1.2
1070
   147
1040
1.199999999999932
1070
   173
1070
     1
1070
    77
1070
     3
1070
    73
1070
     0
1070
   172
1070
     1
1070
    74
1070
     0
1070
   283
1070
     0
1070
   340
1005
3F4
1070
   140
1040
8.4
1070
   284
1070
     8
1070
   288
1070
     1
1070
    78
1070
     8
1002
}
  0
DIMENSION
  5
612
330
1F
100
AcDbEntity
  8
Layer0015
  6
Continuous
370
    13
100
AcDbDimension
  2
*D50
 10
-318.1493397770446
 20
-261.5654885500213
 30
0.0
 11
-348.1493397770446
 21
-261.5654885500213
 31
0.0
 70
    32
 71
     8
 42
-1.0
  3
DaDimRotatedStyle
100
AcDbAlignedDimension
 13
-378.1493397770446
 23
-157.7987127625207
 33
0.0
 14
-318.1493397770446
 24
-245.7987127625206
 34
0.0
100
AcDbRotatedDimension
1001
ACAD
1000
DSTYLE
1002
{
1070
   274
1070
     4
1070
    41
1040
3.599996245883042
1070
   289
1070
     0
1070
    79
1070
     2
1070
   343
1005
3EA
1070
   344
1005
3EA
1070
   176
1070
     2
1070
   177
1070
     2
1070
   178
1070
     2
1070
   271
1070
     7
1070
    44
1040
0.96
1070
    42
1040
1.2
1070
   147
1040
1.200000000000045
1070
   173
1070
     1
1070
    77
1070
     3
1070
    73
1070
     0
1070
   172
1070
     1
1070
    74
1070
     0
1070
   283
1070
     0
1070
   340
1005
3F4
1070
   140
1040
8.4
1070
   284
1070
     8
1070
   288
1070
     1
1070
    78
1070
     8
1002
}
  0
DIMENSION
  5
613
330
1F
100
AcDbEntity
  8
Layer0015
  6
Continuous
370
    13
100
AcDbDimension
  2
*D51
 10
-258.1493397770446
 20
-261.5654885500213
 30
0.0
 11
-288.1493397770446
 21
-261.5654885500213
 31
0.0
 70
    32
 71
     8
 42
-1.0
  3
DaDimRotatedStyle
100
AcDbAlignedDimension
 13
-318.1493397770446
 23
-245.7987127625206
 33
0.0
 14
-258.1493397770446
 24
-157.7987127625207
 34
0.0
100
AcDbRotatedDimension
1001
ACAD
1000
DSTYLE
1002
{
1070
   274
1070
     4
1070
    41
1040
3.599996245883042
1070
   289
1070
     0
1070
    79
1070
     2
1070
   343
1005
3EA
1070
   344
1005
3EA
1070
   176
1070
     2
1070
   177
1070
     2
1070
   178
1070
     2
1070
   271
1070
     7
1070
    44
1040
0.96
1070
    42
1040
1.2
1070
   147
1040
1.200000000000045
1070
   173
1070
     1
1070
    77
1070
     3
1070
    73
1070
     0
1070
   172
1070
     1
1070
    74
1070
     0
1070
   283
1070
     0
1070
   340
1005
3F4
1070
   140
1040
8.4
1070
   284
1070
     8
1070
   288
1070
     1
1070
    78
1070
     8
1002
}
  0
DIMENSION
  5
614
330
1F
100
AcDbEntity
  8
Layer0015
  6
Continuous
370
    13
100
AcDbDimension
  2
*D52
 10
-177.1493397770446
 20
-309.3904033826992
 30
0.0
 11
-318.1493397770446
 21
-309.3904033826992
 31
0.0
 70
    32
 71
     8
 42
-1.0
  3
DaDimRotatedStyle
100
AcDbAlignedDimension
 13
-459.1493397770447
 23
-236.7987127625206
 33
0.0
 14
-177.1493397770446
 24
-236.7987127625206
 34
0.0
100
AcDbRotatedDimension
1001
ACAD
1000
DSTYLE
1002
{
1070
   274
1070
     4
1070
    41
1040
3.599996245883042
1070
   289
1070
     0
1070
    79
1070
     2
1070
   343
1005
3EA
1070
   344
1005
3EA
1070
   176
1070
     2
1070
   177
1070
     2
1070
   178
1070
     2
1070
   271
1070
     7
1070
    44
1040
0.96
1070
    42
1040
1.2
1070
   147
1040
1.200000000000045
1070
   173
1070
     1
1070
    77
1070
     3
1070
    73
1070
     0
1070
   172
1070
     1
1070
    74
1070
     0
1070
   283
1070
     0
1070
   340
1005
3F4
1070
   140
1040
8.4
1070
   284
1070
     8
1070
   288
1070
     1
1070
    78
1070
     8
1002
}
  0
DIMENSION
  5
615
330
1F
100
AcDbEntity
  8
Layer0015
  6
Continuous
370
    13
100
AcDbDimension
  2
*D53
 10
306.8263699803409
 20
307.1975277696477
 30
0.0
 11
155.8263699803408
 21
307.1975277696477
 31
0.0
 70
    32
 71
     8
 42
-1.0
  3
DaDimRotatedStyle
100
AcDbAlignedDimension
 13
4.826369980340743
 23
244.3202911454414
 33
0.0
 14
306.8263699803409
 24
188.5702911454414
 34
0.0
100
AcDbRotatedDimension
1001
ACAD
1000
DSTYLE
1002
{
1070
   274
1070
     4
1070
    41
1040
3.599996245883042
1070
   289
1070
     0
1070
    79
1070
     2
1070
   343
1005
3EA
1070
   344
1005
3EA
1070
   176
1070
     2
1070
   177
1070
     2
1070
   178
1070
     2
1070
   271
1070
     7
1070
    44
1040
0.96
1070
    42
1040
1.2
1070
   147
1040
1.199999999999932
1070
   173
1070
     1
1070
    77
1070
     3
1070
    73
1070
     0
1070
   172
1070
     1
1070
    74
1070
     0
1070
   283
1070
     0
1070
   340
1005
3F4
1070
   140
1040
8.4
1070
   284
1070
     8
1070
   288
1070
     1
1070
    78
1070
     8
1002
}
  0
DIMENSION
  5
616
330
1F
100
AcDbEntity
  8
Layer0015
  6
Continuous
370
    13
100
AcDbDimension
  2
*D54
 10
-49.18751941409771
 20
230.8202911454414
 30
0.0
 11
-49.18751941409771
 21
181.8202911454414
 31
0.0
 70
    32
 71
     8
 42
-1.0
  3
DaDimRotatedStyle
100
AcDbAlignedDimension
 13
4.826369980340743
 23
132.8202911454414
 33
0.0
 14
4.826369980340743
 24
230.8202911454414
 34
0.0
 50
90.0
100
AcDbRotatedDimension
1001
ACAD
1000
DSTYLE
1002
{
1070
   274
1070
     4
1070
    41
1040
3.599996245883042
1070
   289
1070
     0
1070
    79
1070
     2
1070
   343
1005
3EA
1070
   344
1005
3EA
1070
   176
1070
     2
1070
   177
1070
     2
1070
   178
1070
     2
1070
   271
1070
     7
1070
    44
1040
0.96
1070
    42
1040
1.2
1070
   147
1040
1.200000000000003
1070
   173
1070
     1
1070
    77
1070
     3
1070
    73
1070
     0
1070
   172
1070
     1
1070
    74
1070
     0
1070
   283
1070
     0
1070
   340
1005
3F4
1070
   140
1040
8.4
1070
   284
1070
     8
1070
   288
1070
     1
1070
    78
1070
     8
1002
}
  0
DIMENSION
  5
617
330
1F
100
AcDbEntity
  8
Layer0015
  6
Continuous
370
    13
100
AcDbDimension
  2
*D55
 10
-378.1493397770446
 20
-80.92924439897476
 30
0.0
 11
-395.6493397770446
 21
-80.92924439897476
 31
0.0
 70
    32
 71
     8
 42
-1.0
  3
DaDimRotatedStyle
100
AcDbAlignedDimension
 13
-413.1493397770446
 23
-157.7987127625206
 33
0.0
 14
-378.1493397770446
 24
-111.7987127625206
 34
0.0
100
AcDbRotatedDimension
1001
ACAD
1000
DSTYLE
1002
{
1070
   274
1070
     4
1070
    41
1040
3.599996245883042
1070
   289
1070
     0
1070
    79
1070
     2
1070
   343
1005
3EA
1070
   344
1005
3EA
1070
   176
1070
     2
1070
   177
1070
     2
1070
   178
1070
     2
1070
   271
1070
     7
1070
    44
1040
0.96
1070
    42
1040
1.2
1070
   147
1040
1.200000000000003
1070
   173
1070
     1
1070
    77
1070
     3
1070
    73
1070
     0
1070
   172
1070
     1
1070
    74
1070
     0
1070
   283
1070
     0
1070
   340
1005
3F4
1070
   140
1040
8.4
1070
   284
1070
     8
1070
   288
1070
     1
1070
    78
1070
     8
1002
}
  0
DIMENSION
  5
618
330
1F
100
AcDbEntity
  8
Layer0015
  6
Continuous
370
    13
100
AcDbDimension
  2
*D56
 10
-363.1493397770446
 20
-80.92924439897476
 30
0.0
 11
-370.6493397770446
 21
-80.92924439897476
 31
0.0
 70
    32
 71
     8
 42
-1.0
  3
DaDimRotatedStyle
100
AcDbAlignedDimension
 13
-378.1493397770446
 23
-111.7987127625206
 33
0.0
 14
-363.1493397770446
 24
-112.2987127625206
 34
0.0
100
AcDbRotatedDimension
1001
ACAD
1000
DSTYLE
1002
{
1070
   274
1070
     4
1070
    41
1040
3.599996245883042
1070
   289
1070
     0
1070
    79
1070
     2
1070
   343
1005
3EA
1070
   344
1005
3EA
1070
   176
1070
     2
1070
   177
1070
     2
1070
   178
1070
     2
1070
   271
1070
     7
1070
    44
1040
0.96
1070
    42
1040
1.2
1070
   147
1040
1.200000000000003
1070
   173
1070
     1
1070
    77
1070
     3
1070
    73
1070
     0
1070
   172
1070
     1
1070
    74
1070
     0
1070
   283
1070
     0
1070
   340
1005
3F4
1070
   140
1040
8.4
1070
   284
1070
     8
1070
   288
1070
     1
1070
    78
1070
     8
1002
}
  0
DIMENSION
  5
619
330
1F
100
AcDbEntity
  8
Layer0015
  6
Continuous
370
    13
100
AcDbDimension
  2
*D57
 10
-258.1493397770446
 20
-80.92924439897476
 30
0.0
 11
-265.6493397770446
 21
-80.92924439897476
 31
0.0
 70
    32
 71
     8
 42
-1.0
  3
DaDimRotatedStyle
100
AcDbAlignedDimension
 13
-273.1493397770446
 23
-112.2987127625206
 33
0.0
 14
-258.1493397770446
 24
-111.7987127625206
 34
0.0
100
AcDbRotatedDimension
1001
ACAD
1000
DSTYLE
1002
{
1070
   274
1070
     4
1070
    41
1040
3.599996245883042
1070
   289
1070
     0
1070
    79
1070
     2
1070
   343
1005
3EA
1070
   344
1005
3EA
1070
   176
1070
     2
1070
   177
1070
     2
1070
   178
1070
     2
1070
   271
1070
     7
1070
    44
1040
0.96
1070
    42
1040
1.2
1070
   147
1040
1.200000000000003
1070
   173
1070
     1
1070
    77
1070
     3
1070
    73
1070
     0
1070
   172
1070
     1
1070
    74
1070
     0
1070
   283
1070
     0
1070
   340
1005
3F4
1070
   140
1040
8.4
1070
   284
1070
     8
1070
   288
1070
     1
1070
    78
1070
     8
1002
}
  0
DIMENSION
  5
61A
330
1F
100
AcDbEntity
  8
Layer0015
  6
Continuous
370
    13
100
AcDbDimension
  2
*D58
 10
-223.1493397770446
 20
-80.92924439897476
 30
0.0
 11
-240.6493397770446
 21
-80.92924439897476
 31
0.0
 70
    32
 71
     8
 42
-1.0
  3
DaDimRotatedStyle
100
AcDbAlignedDimension
 13
-258.1493397770446
 23
-111.7987127625206
 33
0.0
 14
-223.1493397770446
 24
-157.7987127625206
 34
0.0
100
AcDbRotatedDimension
1001
ACAD
1000
DSTYLE
1002
{
1070
   274
1070
     4
1070
    41
1040
3.599996245883042
1070
   289
1070
     0
1070
    79
1070
     2
1070
   343
1005
3EA
1070
   344
1005
3EA
1070
   176
1070
     2
1070
   177
1070
     2
1070
   178
1070
     2
1070
   271
1070
     7
1070
    44
1040
0.96
1070
    42
1040
1.2
1070
   147
1040
1.200000000000003
1070
   173
1070
     1
1070
    77
1070
     3
1070
    73
1070
     0
1070
   172
1070
     1
1070
    74
1070
     0
1070
   283
1070
     0
1070
   340
1005
3F4
1070
   140
1040
8.4
1070
   284
1070
     8
1070
   288
1070
     1
1070
    78
1070
     8
1002
}
  0
DIMENSION
  5
61B
330
1F
100
AcDbEntity
  8
Layer0015
  6
Continuous
370
    13
100
AcDbDimension
  2
*D59
 10
78.12636998034074
 20
-97.91666580207212
 30
0.0
 11
41.47636998034074
 21
-97.91666580207212
 31
0.0
 70
    32
  1
10～70
 71
     8
 42
-1.0
  3
DaDimRotatedStyle
100
AcDbAlignedDimension
 13
4.826369980340743
 23
-157.7987127625206
 33
0.0
 14
78.12636998034074
 24
-111.7987127625206
 34
0.0
100
AcDbRotatedDimension
1001
ACAD
1000
DSTYLE
1002
{
1070
   274
1070
     4
1070
    41
1040
3.599996245883042
1070
   289
1070
     0
1070
    79
1070
     2
1070
   343
1005
3EA
1070
   344
1005
3EA
1070
   176
1070
     2
1070
   177
1070
     2
1070
   178
1070
     2
1070
   271
1070
     7
1070
    44
1040
0.96
1070
    42
1040
1.2
1070
   147
1040
1.199999999999989
1070
   173
1070
     1
1070
    77
1070
     3
1070
    73
1070
     0
1070
   172
1070
     1
1070
    74
1070
     0
1070
   283
1070
     0
1070
   340
1005
3F4
1070
   140
1040
8.4
1070
   284
1070
     8
1070
   288
1070
     1
1070
    78
1070
     8
1002
}
  0
INSERT
  5
61C
330
1F
100
AcDbEntity
  8
Layer0015
  6
Continuous
100
AcDbBlockReference
  2
DA_IMAGEDIMGROUP_1
 10
0.0
 20
0.0
 30
0.0
  0
DIMENSION
  5
61D
330
1F
100
AcDbEntity
  8
Layer0015
  6
Continuous
370
    13
100
AcDbDimension
  2
*D63
 10
224.8263699803408
 20
-294.1683180392312
 30
0.0
 11
114.8263699803408
 21
-294.1683180392312
 31
0.0
 70
    32
 71
     8
 42
-1.0
  3
DaDimRotatedStyle
100
AcDbAlignedDimension
 13
4.826369980340743
 23
-237.7987127625206
 33
0.0
 14
224.8263699803408
 24
-235.7987127625206
 34
0.0
100
AcDbRotatedDimension
1001
ACAD
1000
DSTYLE
1002
{
1070
   274
1070
     4
1070
    41
1040
3.599996245883042
1070
   289
1070
     0
1070
    79
1070
     2
1070
   343
1005
3EA
1070
   344
1005
3EA
1070
   176
1070
     2
1070
   177
1070
     2
1070
   178
1070
     2
1070
   271
1070
     3
1070
    44
1040
0.96
1070
    42
1040
1.2
1070
   147
1040
1.199999999999989
1070
   173
1070
     1
1070
    77
1070
     3
1070
    73
1070
     0
1070
   172
1070
     1
1070
    74
1070
     0
1070
   283
1070
     0
1070
   340
1005
3F4
1070
   140
1040
8.4
1070
   284
1070
     8
1070
   288
1070
     1
1070
    78
1070
     8
1002
}
  0
DIMENSION
  5
61E
330
1F
100
AcDbEntity
  8
Layer0015
  6
Continuous
370
    13
100
AcDbDimension
  2
*D64
 10
457.130504776872
 20
119.3202911454414
 30
0.0
 11
457.130504776872
 21
96.32029114544133
 31
0.0
 70
    32
 71
     8
 42
-1.0
  3
DaDimRotatedStyle
100
AcDbAlignedDimension
 13
440.5914549045166
 23
73.32029114544127
 33
0.0
 14
440.5914549045166
 24
119.3202911454414
 34
0.0
 50
90.0
100
AcDbRotatedDimension
1001
ACAD
1000
DSTYLE
1002
{
1070
   274
1070
     4
1070
    41
1040
3.599996245883042
1070
   289
1070
     0
1070
    79
1070
     2
1070
   343
1005
3EA
1070
   344
1005
3EA
1070
   176
1070
     2
1070
   177
1070
     2
1070
   178
1070
     2
1070
   271
1070
     3
1070
    44
1040
0.96
1070
    42
1040
1.2
1070
   147
1040
1.199999999999989
1070
   173
1070
     1
1070
    77
1070
     3
1070
    73
1070
     0
1070
   172
1070
     1
1070
    74
1070
     0
1070
   283
1070
     0
1070
   340
1005
3F4
1070
   140
1040
8.4
1070
   284
1070
     8
1070
   288
1070
     1
1070
    78
1070
     8
1002
}
  0
DIMENSION
  5
61F
330
1F
100
AcDbEntity
  8
Layer0015
  6
Continuous
370
    13
100
AcDbDimension
  2
*D65
 10
457.130504776872
 20
244.3202911454416
 30
0.0
 11
457.130504776872
 21
181.8202911454415
 31
0.0
 70
    32
 71
     8
 42
-1.0
  3
DaDimRotatedStyle
100
AcDbAlignedDimension
 13
440.5914549045166
 23
119.3202911454414
 33
0.0
 14
440.5914549045166
 24
244.3202911454414
 34
0.0
 50
90.0
100
AcDbRotatedDimension
1001
ACAD
1000
DSTYLE
1002
{
1070
   274
1070
     4
1070
    41
1040
3.599996245883042
1070
   289
1070
     0
1070
    79
1070
     2
1070
   343
1005
3EA
1070
   344
1005
3EA
1070
   176
1070
     2
1070
   177
1070
     2
1070
   178
1070
     2
1070
   271
1070
     3
1070
    44
1040
0.96
1070
    42
1040
1.2
1070
   147
1040
1.199999999999989
1070
   173
1070
     1
1070
    77
1070
     3
1070
    73
1070
     0
1070
   172
1070
     1
1070
    74
1070
     0
1070
   283
1070
     0
1070
   340
1005
3F4
1070
   140
1040
8.4
1070
   284
1070
     8
1070
   288
1070
     1
1070
    78
1070
     8
1002
}
  0
DIMENSION
  5
620
330
1F
100
AcDbEntity
  8
Layer0015
  6
Continuous
370
    13
100
AcDbDimension
  2
*D66
 10
457.130504776872
 20
290.3202911454417
 30
0.0
 11
457.130504776872
 21
267.3202911454417
 31
0.0
 70
    32
 71
     8
 42
-1.0
  3
DaDimRotatedStyle
100
AcDbAlignedDimension
 13
440.5914549045166
 23
244.3202911454414
 33
0.0
 14
440.5914549045165
 24
290.3202911454417
 34
0.0
 50
90.0
100
AcDbRotatedDimension
1001
ACAD
1000
DSTYLE
1002
{
1070
   274
1070
     4
1070
    41
1040
3.599996245883042
1070
   289
1070
     0
1070
    79
1070
     2
1070
   343
1005
3EA
1070
   344
1005
3EA
1070
   176
1070
     2
1070
   177
1070
     2
1070
   178
1070
     2
1070
   271
1070
     3
1070
    44
1040
0.96
1070
    42
1040
1.2
1070
   147
1040
1.199999999999989
1070
   173
1070
     1
1070
    77
1070
     3
1070
    73
1070
     0
1070
   172
1070
     1
1070
    74
1070
     0
1070
   283
1070
     0
1070
   340
1005
3F4
1070
   140
1040
8.4
1070
   284
1070
     8
1070
   288
1070
     1
1070
    78
1070
     8
1002
}
  0
DIMENSION
  5
621
330
1F
100
AcDbEntity
  8
Layer0015
  6
Continuous
370
    13
100
AcDbDimension
  2
*D67
 10
472.3655310190082
 20
290.3202911454417
 30
0.0
 11
472.3655310190082
 21
181.8202911454415
 31
0.0
 70
    32
 71
     8
 42
-1.0
  3
DaDimRotatedStyle
100
AcDbAlignedDimension
 13
440.5914549045166
 23
73.32029114544127
 33
0.0
 14
440.5914549045165
 24
290.3202911454417
 34
0.0
 50
90.0
100
AcDbRotatedDimension
1001
ACAD
1000
DSTYLE
1002
{
1070
   274
1070
     4
1070
    41
1040
3.599996245883042
1070
   289
1070
     0
1070
    79
1070
     2
1070
   343
1005
3EA
1070
   344
1005
3EA
1070
   176
1070
     2
1070
   177
1070
     2
1070
   178
1070
     2
1070
   271
1070
     3
1070
    44
1040
0.96
1070
    42
1040
1.2
1070
   147
1040
1.199999999999989
1070
   173
1070
     1
1070
    77
1070
     3
1070
    73
1070
     0
1070
   172
1070
     1
1070
    74
1070
     0
1070
   283
1070
     0
1070
   340
1005
3F4
1070
   140
1040
8.4
1070
   284
1070
     8
1070
   288
1070
     1
1070
    78
1070
     8
1002
}
  0
DIMENSION
  5
622
330
1F
100
AcDbEntity
  8
Layer0015
  6
Continuous
370
    13
100
AcDbDimension
  2
*D68
 10
-223.1493397770446
 20
-294.1683180392312
 30
0.0
 11
-318.1493397770446
 21
-294.1683180392312
 31
0.0
 70
    32
 71
     8
 42
-1.0
  3
DaDimRotatedStyle
100
AcDbAlignedDimension
 13
-413.1493397770446
 23
-237.7987127625206
 33
0.0
 14
-223.1493397770446
 24
-237.7987127625206
 34
0.0
100
AcDbRotatedDimension
1001
ACAD
1000
DSTYLE
1002
{
1070
   274
1070
     4
1070
    41
1040
3.599996245883042
1070
   289
1070
     0
1070
    79
1070
     2
1070
   343
1005
3EA
1070
   344
1005
3EA
1070
   176
1070
     2
1070
   177
1070
     2
1070
   178
1070
     2
1070
   271
1070
     3
1070
    44
1040
0.96
1070
    42
1040
1.2
1070
   147
1040
1.199999999999989
1070
   173
1070
     1
1070
    77
1070
     3
1070
    73
1070
     0
1070
   172
1070
     1
1070
    74
1070
     0
1070
   283
1070
     0
1070
   340
1005
3F4
1070
   140
1040
8.4
1070
   284
1070
     8
1070
   288
1070
     1
1070
    78
1070
     8
1002
}
  0
DIMENSION
  5
623
330
1F
100
AcDbEntity
  8
Layer0015
  6
Continuous
370
    13
100
AcDbDimension
  2
*D69
 10
-318.1493397770446
 20
-275.7120941957132
 30
0.0
 11
-365.6493397770446
 21
-275.7120941957132
 31
0.0
 70
    32
 71
     8
 42
-1.0
  3
DaDimRotatedStyle
100
AcDbAlignedDimension
 13
-413.1493397770446
 23
-237.7987127625206
 33
0.0
 14
-318.1493397770446
 24
-245.7987127625206
 34
0.0
100
AcDbRotatedDimension
1001
ACAD
1000
DSTYLE
1002
{
1070
   274
1070
     4
1070
    41
1040
3.599996245883042
1070
   289
1070
     0
1070
    79
1070
     2
1070
   343
1005
3EA
1070
   344
1005
3EA
1070
   176
1070
     2
1070
   177
1070
     2
1070
   178
1070
     2
1070
   271
1070
     3
1070
    44
1040
0.96
1070
    42
1040
1.2
1070
   147
1040
1.200000000000045
1070
   173
1070
     1
1070
    77
1070
     3
1070
    73
1070
     0
1070
   172
1070
     1
1070
    74
1070
     0
1070
   283
1070
     0
1070
   340
1005
3F4
1070
   140
1040
8.4
1070
   284
1070
     8
1070
   288
1070
     1
1070
    78
1070
     8
1002
}
  0
DIMENSION
  5
624
330
1F
100
AcDbEntity
  8
Layer0015
  6
Continuous
370
    13
100
AcDbDimension
  2
*D70
 10
61.12636998034085
 20
-116.850979315693
 30
0.0
 11
32.9763699803408
 21
-116.850979315693
 31
0.0
 70
    32
  1
－７～５３
 71
     8
 42
-1.0
  3
DaDimRotatedStyle
100
AcDbAlignedDimension
 13
4.826369980340743
 23
-157.7987127625206
 33
0.0
 14
61.12636998034085
 24
-116.850979315693
 34
0.0
100
AcDbRotatedDimension
1001
ACAD
1000
DSTYLE
1002
{
1070
   274
1070
     4
1070
    41
1040
3.599996245883042
1070
   289
1070
     0
1070
    79
1070
     2
1070
   343
1005
3EA
1070
   344
1005
3EA
1070
   176
1070
     2
1070
   177
1070
     2
1070
   178
1070
     2
1070
   271
1070
     3
1070
    44
1040
0.0
1070
    42
1040
1.2
1070
   147
1040
1.199999999999989
1070
   173
1070
     1
1070
    76
1070
     1
1070
    77
1070
     3
1070
    73
1070
     0
1070
   172
1070
     1
1070
    74
1070
     0
1070
   283
1070
     0
1070
   340
1005
3F4
1070
   140
1040
8.4
1070
   284
1070
     8
1070
   288
1070
     1
1070
    78
1070
     8
1002
}
  0
DIMENSION
  5
625
330
1F
100
AcDbEntity
  8
Layer0015
  6
Continuous
370
    13
100
AcDbDimension
  2
*D87
 10
-218.1493397770446
 20
56.66716383414481
 30
0.0
 11
-245.6493397770446
 21
56.66716383414481
 31
0.0
 70
    32
 71
     8
 42
-1.0
  3
DaDimRotatedStyle
100
AcDbAlignedDimension
 13
-273.1493397770446
 23
26.67820171480554
 33
0.0
 14
-218.1493397770446
 24
26.97820171480553
 34
0.0
100
AcDbRotatedDimension
1001
ACAD
1000
DSTYLE
1002
{
1070
   274
1070
     4
1070
    41
1040
3.599996245883042
1070
   289
1070
     0
1070
    79
1070
     2
1070
   343
1005
3EA
1070
   344
1005
3EA
1070
   176
1070
     2
1070
   177
1070
     2
1070
   178
1070
     2
1070
   271
1070
     3
1070
    44
1040
0.96
1070
    42
1040
1.2
1070
   147
1040
1.200000000000003
1070
   173
1070
     1
1070
    77
1070
     3
1070
    73
1070
     0
1070
   172
1070
     1
1070
    74
1070
     0
1070
   283
1070
     0
1070
   340
1005
3F4
1070
   140
1040
8.4
1070
   284
1070
     8
1070
   288
1070
     1
1070
    78
1070
     8
1002
}
  0
DIMENSION
  5
626
330
1F
100
AcDbEntity
  8
Layer0015
  6
Continuous
370
    13
100
AcDbDimension
  2
*D88
 10
93.12636998034074
 20
56.66716383414481
 30
0.0
 11
48.12636998034074
 21
56.66716383414481
 31
0.0
 70
    32
 71
     8
 42
-1.0
  3
DaDimRotatedStyle
100
AcDbAlignedDimension
 13
3.126369980340741
 23
26.97820171480553
 33
0.0
 14
93.12636998034074
 24
26.17820171480554
 34
0.0
100
AcDbRotatedDimension
1001
ACAD
1000
DSTYLE
1002
{
1070
   274
1070
     4
1070
    41
1040
3.599996245883042
1070
   289
1070
     0
1070
    79
1070
     2
1070
   343
1005
3EA
1070
   344
1005
3EA
1070
   176
1070
     2
1070
   177
1070
     2
1070
   178
1070
     2
1070
   271
1070
     3
1070
    44
1040
0.96
1070
    42
1040
1.2
1070
   147
1040
1.200000000000003
1070
   173
1070
     1
1070
    77
1070
     3
1070
    73
1070
     0
1070
   172
1070
     1
1070
    74
1070
     0
1070
   283
1070
     0
1070
   340
1005
3F4
1070
   140
1040
8.4
1070
   284
1070
     8
1070
   288
1070
     1
1070
    78
1070
     8
1002
}
  0
DIMENSION
  5
627
330
1F
100
AcDbEntity
  8
Layer0015
  6
Continuous
370
    13
100
AcDbDimension
  2
*D89
 10
-182.2448230011429
 20
27.17820171480553
 30
0.0
 11
-182.2448230011429
 21
4.178201714805525
 31
0.0
 70
    32
 71
     8
 42
-1.0
  3
DaDimRotatedStyle
100
AcDbAlignedDimension
 13
-219.1493397770446
 23
-18.82179828519448
 33
0.0
 14
-218.3493397770447
 24
27.17820171480553
 34
0.0
 50
90.0
100
AcDbRotatedDimension
1001
ACAD
1000
DSTYLE
1002
{
1070
   274
1070
     4
1070
    41
1040
3.599996245883042
1070
   289
1070
     0
1070
    79
1070
     2
1070
   343
1005
3EA
1070
   344
1005
3EA
1070
   176
1070
     2
1070
   177
1070
     2
1070
   178
1070
     2
1070
   271
1070
     3
1070
    44
1040
0.96
1070
    42
1040
1.2
1070
   147
1040
1.199999999999989
1070
   173
1070
     1
1070
    77
1070
     3
1070
    73
1070
     0
1070
   172
1070
     1
1070
    74
1070
     0
1070
   283
1070
     0
1070
   340
1005
3F4
1070
   140
1040
8.4
1070
   284
1070
     8
1070
   288
1070
     1
1070
    78
1070
     8
1002
}
  0
INSERT
  5
628
330
1F
100
AcDbEntity
  8
Layer0015
  6
Continuous
100
AcDbBlockReference
  2
DA_IMAGEDIMGROUP_2
 10
0.0
 20
0.0
 30
0.0
  0
INSERT
  5
629
330
1F
100
AcDbEntity
  8
Layer0015
  6
Continuous
100
AcDbBlockReference
  2
DA_IMAGEDIMGROUP_3
 10
0.0
 20
0.0
 30
0.0
  0
DIMENSION
  5
62A
330
1F
100
AcDbEntity
  8
Layer0015
  6
Continuous
370
    13
100
AcDbDimension
  2
*D92
 10
452.4899898396633
 20
-192.5137155218657
 30
0.0
 11
402.4899898396633
 21
-192.5137155218657
 31
0.0
 70
    32
 71
     8
 42
-1.0
  3
DaDimRotatedStyle
100
AcDbAlignedDimension
 13
352.4899898396633
 23
-164.2987127625206
 33
0.0
 14
452.4899898396633
 24
-151.5666619549518
 34
0.0
100
AcDbRotatedDimension
1001
ACAD
1000
DSTYLE
1002
{
1070
   274
1070
     4
1070
    41
1040
3.599996245883042
1070
   289
1070
     0
1070
    79
1070
     2
1070
   343
1005
3EA
1070
   344
1005
3EA
1070
   176
1070
     2
1070
   177
1070
     2
1070
   178
1070
     2
1070
   271
1070
     3
1070
    44
1040
0.96
1070
    42
1040
1.2
1070
   147
1040
1.199999999999989
1070
   173
1070
     1
1070
    77
1070
     3
1070
    73
1070
     0
1070
   172
1070
     1
1070
    74
1070
     0
1070
   283
1070
     0
1070
   340
1005
3F4
1070
   140
1040
8.4
1070
   284
1070
     8
1070
   288
1070
     1
1070
    78
1070
     8
1002
}
  0
DIMENSION
  5
62B
330
1F
100
AcDbEntity
  8
Layer0015
  6
Continuous
370
    13
100
AcDbDimension
  2
*D93
 10
452.4899898396633
 20
-180.1543903612577
 30
0.0
 11
443.4899898396633
 21
-180.1543903612577
 31
0.0
 70
    32
 71
     8
 42
-1.0
  3
DaDimRotatedStyle
100
AcDbAlignedDimension
 13
434.4899898396633
 23
-153.7987127625206
 33
0.0
 14
452.4899898396633
 24
-151.5666619549518
 34
0.0
100
AcDbRotatedDimension
1001
ACAD
1000
DSTYLE
1002
{
1070
   274
1070
     4
1070
    41
1040
3.599996245883042
1070
   289
1070
     0
1070
    79
1070
     2
1070
   343
1005
3EA
1070
   344
1005
3EA
1070
   176
1070
     2
1070
   177
1070
     2
1070
   178
1070
     2
1070
   271
1070
     3
1070
    44
1040
0.96
1070
    42
1040
1.2
1070
   147
1040
1.199999999999989
1070
   173
1070
     1
1070
    77
1070
     3
1070
    73
1070
     0
1070
   172
1070
     1
1070
    74
1070
     0
1070
   283
1070
     0
1070
   340
1005
3F4
1070
   140
1040
8.4
1070
   284
1070
     8
1070
   288
1070
     1
1070
    78
1070
     8
1002
}
  0
INSERT
  5
62C
330
1F
100
AcDbEntity
  8
Layer0015
  6
Continuous
100
AcDbBlockReference
  2
DC_GROUP_COM125_61
 10
0.0
 20
0.0
 30
0.0
  0
INSERT
  5
62D
330
1F
100
AcDbEntity
  8
Layer0014
  6
Continuous
100
AcDbBlockReference
  2
DC_GROUP_COM125_59
 10
0.0
 20
0.0
 30
0.0
  0
INSERT
  5
62E
330
1F
100
AcDbEntity
  8
Layer0014
  6
Continuous
100
AcDbBlockReference
  2
DC_GROUP_COM125_62
 10
0.0
 20
0.0
 30
0.0
  0
INSERT
  5
62F
330
1F
100
AcDbEntity
  8
Layer0014
  6
Continuous
100
AcDbBlockReference
  2
DC_GROUP_COM125_66
 10
0.0
 20
0.0
 30
0.0
  0
INSERT
  5
630
330
1F
100
AcDbEntity
  8
Layer0004
  6
Continuous
100
AcDbBlockReference
  2
DC_GROUP_COM125_63
 10
0.0
 20
0.0
 30
0.0
  0
INSERT
  5
631
330
1F
100
AcDbEntity
  8
Layer0004
  6
Continuous
100
AcDbBlockReference
  2
DC_GROUP_COM125_64
 10
0.0
 20
0.0
 30
0.0
  0
INSERT
  5
632
330
1F
100
AcDbEntity
  8
Layer0004
  6
Continuous
100
AcDbBlockReference
  2
DC_GROUP_COM125_65
 10
0.0
 20
0.0
 30
0.0
  0
INSERT
  5
633
330
1F
100
AcDbEntity
  8
Layer0004
  6
Continuous
100
AcDbBlockReference
  2
DC_GROUP_COM125_67
 10
0.0
 20
0.0
 30
0.0
  0
INSERT
  5
634
330
1F
100
AcDbEntity
  8
Layer0004
  6
Continuous
100
AcDbBlockReference
  2
DC_GROUP_COM125_68
 10
0.0
 20
0.0
 30
0.0
  0
VIEWPORT
  5
75
330
1B
100
AcDbEntity
 67
     1
  8
0
100
AcDbViewport
 10
7.088095620981676
 20
-3.223562193474208
 30
0.0
 40
2797.424612388159
 41
1881.44379345704
 68
     1
 69
     1
 12
7.088095620981676
 22
-3.223562193474208
 13
0.0
 23
0.0
 14
0.5
 24
0.5
 15
0.0
 25
0.0
 16
0.0
 26
0.0
 36
1.0
 17
0.0
 27
0.0
 37
0.0
 42
50.0
 43
0.0
 44
0.0
 45
1881.44379345704
 50
0.0
 51
0.0
 72
   100
 90
   557152
  1

281
     0
 71
     1
 74
     0
110
0.0
120
0.0
130
0.0
111
1.0
121
0.0
131
0.0
112
0.0
122
1.0
132
0.0
 79
     0
146
0.0
  0
ENDSEC
  0
SECTION
  2
OBJECTS
  0
DICTIONARY
  5
C
330
0
100
AcDbDictionary
281
     1
  3
ACAD_GROUP
350
D
  3
ACAD_LAYOUT
350
1A
  3
ACAD_MLEADERSTYLE
350
636
  3
ACAD_MLINESTYLE
350
17
  3
ACAD_PLOTSETTINGS
350
19
  3
ACAD_PLOTSTYLENAME
350
E
  3
ACAD_TABLESTYLE
350
635
  3
ACAD_VISUALSTYLE
350
2A
  0
DICTIONARY
  5
D
102
{ACAD_REACTORS
330
C
102
}
330
C
100
AcDbDictionary
281
     1
  0
DICTIONARY
  5
1A
102
{ACAD_REACTORS
330
C
102
}
330
C
100
AcDbDictionary
281
     1
  3
Layout1
350
1E
  3
Layout2
350
26
  3
Model
350
22
  0
DICTIONARY
  5
636
102
{ACAD_REACTORS
330
C
102
}
330
C
100
AcDbDictionary
281
     1
  0
DICTIONARY
  5
17
102
{ACAD_REACTORS
330
C
102
}
330
C
100
AcDbDictionary
281
     1
  3
Standard
350
18
  0
DICTIONARY
  5
19
102
{ACAD_REACTORS
330
C
102
}
330
C
100
AcDbDictionary
281
     1
  0
ACDBDICTIONARYWDFLT
  5
E
102
{ACAD_REACTORS
330
C
102
}
330
C
100
AcDbDictionary
281
     1
  3
Normal
350
F
100
AcDbDictionaryWithDefault
340
F
  0
DICTIONARY
  5
635
102
{ACAD_REACTORS
330
C
102
}
330
C
100
AcDbDictionary
281
     1
  0
DICTIONARY
  5
2A
102
{ACAD_REACTORS
330
C
102
}
330
C
100
AcDbDictionary
281
     1
  3
2dWireframe
350
2F
  3
3D Hidden
350
31
  3
3dWireframe
350
30
  3
Basic
350
32
  3
Brighten
350
36
  3
ColorChange
350
3A
  3
Conceptual
350
34
  3
Dim
350
35
  3
Facepattern
350
39
  3
Flat
350
2B
  3
FlatWithEdges
350
2C
  3
Gouraud
350
2D
  3
GouraudWithEdges
350
2E
  3
Linepattern
350
38
  3
Realistic
350
33
  3
Thicken
350
37
  0
LAYOUT
  5
1E
102
{ACAD_REACTORS
330
1A
102
}
330
1A
100
AcDbPlotSettings
  1

  2
none_device
  4

  6

 40
0.0
 41
0.0
 42
0.0
 43
0.0
 44
0.0
 45
0.0
 46
0.0
 47
0.0
 48
0.0
 49
0.0
140
0.0
141
0.0
142
1.0
143
1.0
 70
   688
 72
     0
 73
     0
 74
     5
  7

 75
    16
147
1.0
148
0.0
149
0.0
100
AcDbLayout
  1
Layout1
 70
     0
 71
     1
 10
0.0
 20
0.0
 11
12.0
 21
9.0
 12
0.0
 22
0.0
 32
0.0
 14
1.000000000000000E+20
 24
1.000000000000000E+20
 34
1.000000000000000E+20
 15
-1.000000000000000E+20
 25
-1.000000000000000E+20
 35
-1.000000000000000E+20
146
0.0
 13
0.0
 23
0.0
 33
0.0
 16
1.0
 26
0.0
 36
0.0
 17
0.0
 27
1.0
 37
0.0
 76
     0
330
1B
331
75
  0
LAYOUT
  5
26
102
{ACAD_REACTORS
330
1A
102
}
330
1A
100
AcDbPlotSettings
  1

  2
none_device
  4

  6

 40
0.0
 41
0.0
 42
0.0
 43
0.0
 44
0.0
 45
0.0
 46
0.0
 47
0.0
 48
0.0
 49
0.0
140
0.0
141
0.0
142
1.0
143
1.0
 70
   688
 72
     0
 73
     0
 74
     5
  7

 75
    16
147
1.0
148
0.0
149
0.0
100
AcDbLayout
  1
Layout2
 70
     1
 71
     2
 10
0.0
 20
0.0
 11
0.0
 21
0.0
 12
0.0
 22
0.0
 32
0.0
 14
0.0
 24
0.0
 34
0.0
 15
0.0
 25
0.0
 35
0.0
146
0.0
 13
0.0
 23
0.0
 33
0.0
 16
1.0
 26
0.0
 36
0.0
 17
0.0
 27
1.0
 37
0.0
 76
     0
330
23
  0
LAYOUT
  5
22
102
{ACAD_REACTORS
330
1A
102
}
330
1A
100
AcDbPlotSettings
  1

  2
none_device
  4

  6

 40
0.0
 41
0.0
 42
0.0
 43
0.0
 44
0.0
 45
0.0
 46
0.0
 47
0.0
 48
0.0
 49
0.0
140
0.0
141
0.0
142
1.0
143
1.0
 70
  1712
 72
     0
 73
     0
 74
     0
  7

 75
     0
147
1.0
148
0.0
149
0.0
100
AcDbLayout
  1
Model
 70
     1
 71
     0
 10
-481.2
 20
-343.2
 11
481.2
 21
343.2
 12
0.0
 22
0.0
 32
0.0
 14
-1391.624210573098
 24
-943.9454589219943
 34
0.0
 15
1405.800401815061
 25
937.4983345350458
 35
0.0
146
0.0
 13
0.0
 23
0.0
 33
0.0
 16
1.0
 26
0.0
 36
0.0
 17
0.0
 27
1.0
 37
0.0
 76
     0
330
1F
331
29
  0
MLINESTYLE
  5
18
102
{ACAD_REACTORS
330
17
102
}
330
17
100
AcDbMlineStyle
  2
Standard
 70
     0
  3

 62
   256
 51
90.0
 52
90.0
 71
     2
 49
0.5
 62
   256
  6
BYLAYER
 49
-0.5
 62
   256
  6
BYLAYER
  0
ACDBPLACEHOLDER
  5
F
102
{ACAD_REACTORS
330
E
102
}
330
E
  0
VISUALSTYLE
  5
2F
102
{ACAD_REACTORS
330
2A
102
}
330
2A
100
AcDbVisualStyle
  2
2dWireframe
 70
     4
 71
     0
 72
     2
 73
     0
 90
        0
 40
-0.6
 41
-30.0
 62
     5
 63
     7
 74
     1
 91
        4
 64
     7
 65
   257
 75
     1
175
     1
 42
1.0
 92
        0
 66
   257
 43
1.0
 76
     1
 77
     6
 78
     2
 67
     7
 79
     5
170
     0
171
     0
290
     0
174
     0
 93
        1
 44
0.0
173
     0
291
     0
 45
0.0
1001
ACAD
1000
AcDbSavedByObjectVersion
1070
     0
  0
VISUALSTYLE
  5
31
102
{ACAD_REACTORS
330
2A
102
}
330
2A
100
AcDbVisualStyle
  2
3D Hidden
 70
     6
 71
     1
 72
     2
 73
     2
 90
        0
 40
-0.6
 41
-30.0
 62
     5
 63
     7
 74
     2
 91
        2
 64
     7
 65
   257
 75
     2
175
     1
 42
40.0
 92
        0
 66
   257
 43
1.0
 76
     1
 77
     6
 78
     2
 67
     7
 79
     3
170
     0
171
     0
290
     0
174
     0
 93
        1
 44
0.0
173
     0
291
     0
 45
0.0
1001
ACAD
1000
AcDbSavedByObjectVersion
1070
     0
  0
VISUALSTYLE
  5
30
102
{ACAD_REACTORS
330
2A
102
}
330
2A
100
AcDbVisualStyle
  2
3dWireframe
 70
     5
 71
     0
 72
     2
 73
     0
 90
        0
 40
-0.6
 41
-30.0
 62
     5
 63
     7
 74
     1
 91
        4
 64
     7
 65
   257
 75
     1
175
     1
 42
1.0
 92
        0
 66
   257
 43
1.0
 76
     1
 77
     6
 78
     2
 67
     7
 79
     5
170
     0
171
     0
290
     0
174
     0
 93
        1
 44
0.0
173
     0
291
     0
 45
0.0
1001
ACAD
1000
AcDbSavedByObjectVersion
1070
     0
  0
VISUALSTYLE
  5
32
102
{ACAD_REACTORS
330
2A
102
}
330
2A
100
AcDbVisualStyle
  2
Basic
 70
     7
 71
     1
 72
     0
 73
     1
 90
        0
 40
-0.6
 41
-30.0
 62
     5
 63
     7
 74
     0
 91
        4
 64
     7
 65
   257
 75
     1
175
     1
 42
1.0
 92
        8
 66
     7
 43
1.0
 76
     1
 77
     6
 78
     2
 67
     7
 79
     5
170
     0
171
     0
290
     0
174
     0
 93
        1
 44
0.0
173
     0
291
     1
 45
0.0
1001
ACAD
1000
AcDbSavedByObjectVersion
1070
     0
  0
VISUALSTYLE
  5
36
102
{ACAD_REACTORS
330
2A
102
}
330
2A
100
AcDbVisualStyle
  2
Brighten
 70
    12
 71
     2
 72
     2
 73
     0
 90
        0
 40
-0.6
 41
-30.0
 62
     5
 63
     7
 74
     1
 91
        4
 64
     7
 65
   257
 75
     1
175
     1
 42
1.0
 92
        8
 66
     7
 43
1.0
 76
     1
 77
     6
 78
     2
 67
     7
 79
     5
170
     0
171
     0
290
     0
174
     0
 93
        1
 44
50.0
173
     0
291
     1
 45
0.0
1001
ACAD
1000
AcDbSavedByObjectVersion
1070
     0
  0
VISUALSTYLE
  5
3A
102
{ACAD_REACTORS
330
2A
102
}
330
2A
100
AcDbVisualStyle
  2
ColorChange
 70
    16
 71
     2
 72
     2
 73
     3
 90
        0
 40
-0.6
 41
-30.0
 62
     5
 63
     8
 74
     1
 91
        4
 64
     7
 65
   257
 75
     1
175
     1
 42
1.0
 92
        8
 66
     8
 43
1.0
 76
     1
 77
     6
 78
     2
 67
     7
 79
     5
170
     0
171
     0
290
     0
174
     0
 93
        1
 44
0.0
173
     0
291
     1
 45
0.0
1001
ACAD
1000
AcDbSavedByObjectVersion
1070
     0
  0
VISUALSTYLE
  5
34
102
{ACAD_REACTORS
330
2A
102
}
330
2A
100
AcDbVisualStyle
  2
Conceptual
 70
     9
 71
     3
 72
     2
 73
     0
 90
        0
 40
-0.6
 41
-30.0
 62
     5
 63
     7
 74
     2
 91
        2
 64
     7
 65
   257
 75
     1
175
     1
 42
40.0
 92
        8
 66
     7
 43
1.0
 76
     1
 77
     6
 78
     2
 67
     7
 79
     3
170
     0
171
     0
290
     0
174
     0
 93
        1
 44
0.0
173
     0
291
     0
 45
0.0
1001
ACAD
1000
AcDbSavedByObjectVersion
1070
     0
  0
VISUALSTYLE
  5
35
102
{ACAD_REACTORS
330
2A
102
}
330
2A
100
AcDbVisualStyle
  2
Dim
 70
    11
 71
     2
 72
     2
 73
     0
 90
        0
 40
-0.6
 41
-30.0
 62
     5
 63
     7
 74
     1
 91
        4
 64
     7
 65
   257
 75
     1
175
     1
 42
1.0
 92
        8
 66
     7
 43
1.0
 76
     1
 77
     6
 78
     2
 67
     7
 79
     5
170
     0
171
     0
290
     0
174
     0
 93
        1
 44
-50.0
173
     0
291
     1
 45
0.0
1001
ACAD
1000
AcDbSavedByObjectVersion
1070
     0
  0
VISUALSTYLE
  5
39
102
{ACAD_REACTORS
330
2A
102
}
330
2A
100
AcDbVisualStyle
  2
Facepattern
 70
    15
 71
     2
 72
     2
 73
     0
 90
        0
 40
-0.6
 41
-30.0
 62
     5
 63
     7
 74
     1
 91
        4
 64
     7
 65
   257
 75
     1
175
     1
 42
1.0
 92
        8
 66
     7
 43
1.0
 76
     1
 77
     6
 78
     2
 67
     7
 79
     5
170
     0
171
     0
290
     0
174
     0
 93
        1
 44
0.0
173
     0
291
     1
 45
0.0
1001
ACAD
1000
AcDbSavedByObjectVersion
1070
     0
  0
VISUALSTYLE
  5
2B
102
{ACAD_REACTORS
330
2A
102
}
330
2A
100
AcDbVisualStyle
  2
Flat
 70
     0
 71
     2
 72
     1
 73
     1
 90
        2
 40
-0.6
 41
30.0
 62
     5
 63
     7
 74
     0
 91
        4
 64
     7
 65
   257
 75
     1
175
     1
 42
1.0
 92
        8
 66
     7
 43
1.0
 76
     1
 77
     6
 78
     2
 67
     7
 79
     5
170
     0
171
     0
290
     0
174
     0
 93
       13
 44
0.0
173
     0
291
     1
 45
0.0
1001
ACAD
1000
AcDbSavedByObjectVersion
1070
     0
  0
VISUALSTYLE
  5
2C
102
{ACAD_REACTORS
330
2A
102
}
330
2A
100
AcDbVisualStyle
  2
FlatWithEdges
 70
     1
 71
     2
 72
     1
 73
     1
 90
        2
 40
-0.6
 41
30.0
 62
     5
 63
     7
 74
     1
 91
        4
 64
     7
 65
   257
 75
     1
175
     1
 42
1.0
 92
        0
 66
   257
 43
1.0
 76
     1
 77
     6
 78
     2
 67
     7
 79
     5
170
     0
171
     0
290
     0
174
     0
 93
       13
 44
0.0
173
     0
291
     1
 45
0.0
1001
ACAD
1000
AcDbSavedByObjectVersion
1070
     0
  0
VISUALSTYLE
  5
2D
102
{ACAD_REACTORS
330
2A
102
}
330
2A
100
AcDbVisualStyle
  2
Gouraud
 70
     2
 71
     2
 72
     2
 73
     1
 90
        2
 40
-0.6
 41
30.0
 62
     5
 63
     7
 74
     0
 91
        4
 64
     7
 65
   257
 75
     1
175
     1
 42
1.0
 92
        0
 66
     7
 43
1.0
 76
     1
 77
     6
 78
     2
 67
     7
 79
     5
170
     0
171
     0
290
     0
174
     0
 93
       13
 44
0.0
173
     0
291
     1
 45
0.0
1001
ACAD
1000
AcDbSavedByObjectVersion
1070
     0
  0
VISUALSTYLE
  5
2E
102
{ACAD_REACTORS
330
2A
102
}
330
2A
100
AcDbVisualStyle
  2
GouraudWithEdges
 70
     3
 71
     2
 72
     2
 73
     1
 90
        2
 40
-0.6
 41
30.0
 62
     5
 63
     7
 74
     1
 91
        4
 64
     7
 65
   257
 75
     1
175
     1
 42
1.0
 92
        0
 66
   257
 43
1.0
 76
     1
 77
     6
 78
     2
 67
     7
 79
     5
170
     0
171
     0
290
     0
174
     0
 93
       13
 44
0.0
173
     0
291
     1
 45
0.0
1001
ACAD
1000
AcDbSavedByObjectVersion
1070
     0
  0
VISUALSTYLE
  5
38
102
{ACAD_REACTORS
330
2A
102
}
330
2A
100
AcDbVisualStyle
  2
Linepattern
 70
    14
 71
     2
 72
     2
 73
     0
 90
        0
 40
-0.6
 41
-30.0
 62
     5
 63
     7
 74
     1
 91
        4
 64
     7
 65
   257
 75
     7
175
     7
 42
1.0
 92
        8
 66
     7
 43
1.0
 76
     1
 77
     6
 78
     2
 67
     7
 79
     5
170
     0
171
     0
290
     0
174
     0
 93
        1
 44
0.0
173
     0
291
     1
 45
0.0
1001
ACAD
1000
AcDbSavedByObjectVersion
1070
     0
  0
VISUALSTYLE
  5
33
102
{ACAD_REACTORS
330
2A
102
}
330
2A
100
AcDbVisualStyle
  2
Realistic
 70
     8
 71
     2
 72
     2
 73
     0
 90
        0
 40
-0.6
 41
-30.0
 62
     5
 63
     7
 74
     1
 91
        0
 64
     7
 65
   257
 75
     1
175
     1
 42
1.0
 92
        8
 66
     8
 43
1.0
 76
     1
 77
     6
 78
     2
 67
     7
 79
     5
170
     0
171
     0
290
     0
174
     0
 93
       13
 44
0.0
173
     0
291
     0
 45
0.0
1001
ACAD
1000
AcDbSavedByObjectVersion
1070
     0
  0
VISUALSTYLE
  5
37
102
{ACAD_REACTORS
330
2A
102
}
330
2A
100
AcDbVisualStyle
  2
Thicken
 70
    13
 71
     2
 72
     2
 73
     0
 90
        0
 40
-0.6
 41
-30.0
 62
     5
 63
     7
 74
     1
 91
        4
 64
     7
 65
   257
 75
     1
175
     1
 42
1.0
 92
       12
 66
     7
 43
1.0
 76
     1
 77
     6
 78
     2
 67
     7
 79
     5
170
     0
171
     0
290
     0
174
     0
 93
        1
 44
0.0
173
     0
291
     1
 45
0.0
1001
ACAD
1000
AcDbSavedByObjectVersion
1070
     0
  0
ENDSEC
  0
EOF
