  0
SECTION
  2
HEADER
  9
$ACADVER
  1
AC1015
  9
$ACADMAINTVER
 70
     6
  9
$DWGCODEPAGE
  3
ANSI_932
  9
$INSBASE
 10
0.0
 20
0.0
 30
0.0
  9
$EXTMIN
 10
-1721.379296897022
 20
-1179.138463066035
 30
0.0
  9
$EXTMAX
 10
1707.711430421693
 20
1161.987830160077
 30
0.0
  9
$LIMMIN
 10
-576.0
 20
-413.5
  9
$LIMMAX
 10
576.0
 20
413.5
  9
$ORTHOMODE
 70
     0
  9
$REGENMODE
 70
     1
  9
$FILLMODE
 70
     1
  9
$QTEXTMODE
 70
     0
  9
$MIRRTEXT
 70
     1
  9
$LTSCALE
 40
0.25
  9
$ATTMODE
 70
     1
  9
$TEXTSIZE
 40
0.2
  9
$TRACEWID
 40
0.05
  9
$TEXTSTYLE
  7
Standard
  9
$CLAYER
  8
0
  9
$CELTYPE
  6
ByLayer
  9
$CECOLOR
 62
   256
  9
$CELTSCALE
 40
1.0
  9
$DISPSILH
 70
     0
  9
$DIMSCALE
 40
1.0
  9
$DIMASZ
 40
2.5
  9
$DIMEXO
 40
0.0625
  9
$DIMDLI
 40
0.38
  9
$DIMRND
 40
0.0
  9
$DIMDLE
 40
0.0
  9
$DIMEXE
 40
0.18
  9
$DIMTP
 40
0.0
  9
$DIMTM
 40
0.0
  9
$DIMTXT
 40
0.18
  9
$DIMCEN
 40
0.09
  9
$DIMTSZ
 40
0.0
  9
$DIMTOL
 70
     0
  9
$DIMLIM
 70
     0
  9
$DIMTIH
 70
     1
  9
$DIMTOH
 70
     1
  9
$DIMSE1
 70
     0
  9
$DIMSE2
 70
     0
  9
$DIMTAD
 70
     3
  9
$DIMZIN
 70
     0
  9
$DIMBLK
  1

  9
$DIMASO
 70
     1
  9
$DIMSHO
 70
     1
  9
$DIMPOST
  1

  9
$DIMAPOST
  1

  9
$DIMALT
 70
     0
  9
$DIMALTD
 70
     2
  9
$DIMALTF
 40
25.4
  9
$DIMLFAC
 40
1.0
  9
$DIMTOFL
 70
     0
  9
$DIMTVP
 40
0.0
  9
$DIMTIX
 70
     0
  9
$DIMSOXD
 70
     0
  9
$DIMSAH
 70
     0
  9
$DIMBLK1
  1

  9
$DIMBLK2
  1

  9
$DIMSTYLE
  2
Standard
  9
$DIMCLRD
 70
     0
  9
$DIMCLRE
 70
     0
  9
$DIMCLRT
 70
     0
  9
$DIMTFAC
 40
1.0
  9
$DIMGAP
 40
0.09
  9
$DIMJUST
 70
     0
  9
$DIMSD1
 70
     0
  9
$DIMSD2
 70
     0
  9
$DIMTOLJ
 70
     1
  9
$DIMTZIN
 70
     0
  9
$DIMALTZ
 70
     0
  9
$DIMALTTZ
 70
     0
  9
$DIMUPT
 70
     0
  9
$DIMDEC
 70
     4
  9
$DIMTDEC
 70
     4
  9
$DIMALTU
 70
     2
  9
$DIMALTTD
 70
     2
  9
$DIMTXSTY
  7
Standard
  9
$DIMAUNIT
 70
     0
  9
$DIMADEC
 70
     0
  9
$DIMALTRND
 40
0.0
  9
$DIMAZIN
 70
     0
  9
$DIMDSEP
 70
    46
  9
$DIMATFIT
 70
     3
  9
$DIMFRAC
 70
     0
  9
$DIMLDRBLK
  1

  9
$DIMLUNIT
 70
     2
  9
$DIMLWD
 70
    -2
  9
$DIMLWE
 70
    -2
  9
$DIMTMOVE
 70
     0
  9
$LUNITS
 70
     2
  9
$LUPREC
 70
     4
  9
$SKETCHINC
 40
0.1
  9
$FILLETRAD
 40
0.5
  9
$AUNITS
 70
     0
  9
$AUPREC
 70
     0
  9
$MENU
  1
.
  9
$ELEVATION
 40
0.0
  9
$PELEVATION
 40
0.0
  9
$THICKNESS
 40
0.0
  9
$LIMCHECK
 70
     0
  9
$CHAMFERA
 40
0.5
  9
$CHAMFERB
 40
0.5
  9
$CHAMFERC
 40
1.0
  9
$CHAMFERD
 40
0.0
  9
$SKPOLY
 70
     0
  9
$TDCREATE
 40
2454973.737340486
  9
$TDUCREATE
 40
2454973.362340486
  9
$TDUPDATE
 40
2454973.737340498
  9
$TDUUPDATE
 40
2454973.362340498
  9
$TDINDWG
 40
0.0000000116
  9
$TDUSRTIMER
 40
0.0000000116
  9
$USRTIMER
 70
     1
  9
$ANGBASE
 50
0.0
  9
$ANGDIR
 70
     0
  9
$PDMODE
 70
     0
  9
$PDSIZE
 40
1.0
  9
$PLINEWID
 40
0.0
  9
$SPLFRAME
 70
     0
  9
$SPLINETYPE
 70
     6
  9
$SPLINESEGS
 70
     8
  9
$HANDSEED
  5
4EE
  9
$SURFTAB1
 70
     6
  9
$SURFTAB2
 70
     6
  9
$SURFTYPE
 70
     6
  9
$SURFU
 70
     6
  9
$SURFV
 70
     6
  9
$UCSBASE
  2

  9
$UCSNAME
  2

  9
$UCSORG
 10
0.0
 20
0.0
 30
0.0
  9
$UCSXDIR
 10
1.0
 20
0.0
 30
0.0
  9
$UCSYDIR
 10
0.0
 20
1.0
 30
0.0
  9
$UCSORTHOREF
  2

  9
$UCSORTHOVIEW
 70
     0
  9
$UCSORGTOP
 10
0.0
 20
0.0
 30
0.0
  9
$UCSORGBOTTOM
 10
0.0
 20
0.0
 30
0.0
  9
$UCSORGLEFT
 10
0.0
 20
0.0
 30
0.0
  9
$UCSORGRIGHT
 10
0.0
 20
0.0
 30
0.0
  9
$UCSORGFRONT
 10
0.0
 20
0.0
 30
0.0
  9
$UCSORGBACK
 10
0.0
 20
0.0
 30
0.0
  9
$PUCSBASE
  2

  9
$PUCSNAME
  2

  9
$PUCSORG
 10
0.0
 20
0.0
 30
0.0
  9
$PUCSXDIR
 10
1.0
 20
0.0
 30
0.0
  9
$PUCSYDIR
 10
0.0
 20
1.0
 30
0.0
  9
$PUCSORTHOREF
  2

  9
$PUCSORTHOVIEW
 70
     0
  9
$PUCSORGTOP
 10
0.0
 20
0.0
 30
0.0
  9
$PUCSORGBOTTOM
 10
0.0
 20
0.0
 30
0.0
  9
$PUCSORGLEFT
 10
0.0
 20
0.0
 30
0.0
  9
$PUCSORGRIGHT
 10
0.0
 20
0.0
 30
0.0
  9
$PUCSORGFRONT
 10
0.0
 20
0.0
 30
0.0
  9
$PUCSORGBACK
 10
0.0
 20
0.0
 30
0.0
  9
$USERI1
 70
     0
  9
$USERI2
 70
     0
  9
$USERI3
 70
     0
  9
$USERI4
 70
     0
  9
$USERI5
 70
     0
  9
$USERR1
 40
0.0
  9
$USERR2
 40
0.0
  9
$USERR3
 40
0.0
  9
$USERR4
 40
0.0
  9
$USERR5
 40
0.0
  9
$WORLDVIEW
 70
     1
  9
$SHADEDGE
 70
     3
  9
$SHADEDIF
 70
    70
  9
$TILEMODE
 70
     1
  9
$MAXACTVP
 70
    64
  9
$PINSBASE
 10
0.0
 20
0.0
 30
0.0
  9
$PLIMCHECK
 70
     0
  9
$PEXTMIN
 10
1.000000000000000E+20
 20
1.000000000000000E+20
 30
1.000000000000000E+20
  9
$PEXTMAX
 10
-1.000000000000000E+20
 20
-1.000000000000000E+20
 30
-1.000000000000000E+20
  9
$PLIMMIN
 10
0.0
 20
0.0
  9
$PLIMMAX
 10
12.0
 20
9.0
  9
$UNITMODE
 70
     0
  9
$VISRETAIN
 70
     0
  9
$PLINEGEN
 70
     1
  9
$PSLTSCALE
 70
     0
  9
$TREEDEPTH
 70
  3020
  9
$CMLSTYLE
  2
Standard
  9
$CMLJUST
 70
     0
  9
$CMLSCALE
 40
1.0
  9
$PROXYGRAPHICS
 70
     0
  9
$MEASUREMENT
 70
     1
  9
$CELWEIGHT
370
    -1
  9
$ENDCAPS
280
     0
  9
$JOINSTYLE
280
     0
  9
$LWDISPLAY
290
     1
  9
$INSUNITS
 70
     4
  9
$HYPERLINKBASE
  1

  9
$STYLESHEET
  1

  9
$XEDIT
290
     1
  9
$CEPSNTYPE
380
     0
  9
$PSTYLEMODE
290
     1
  9
$FINGERPRINTGUID
  2
{161BF282-8BA7-487D-A3F0-C8248AD013CA}
  9
$VERSIONGUID
  2
{FAEB1C32-E019-11D5-929B-00C0DF256EC4}
  9
$EXTNAMES
290
     1
  9
$PSVPSCALE
 40
0.0
  9
$OLESTARTUP
290
     0
  0
ENDSEC
  0
SECTION
  2
CLASSES
  0
CLASS
  1
ACDBDICTIONARYWDFLT
  2
AcDbDictionaryWithDefault
  3
ObjectDBX Classes
 90
        0
280
     0
281
     0
  0
CLASS
  1
VISUALSTYLE
  2
AcDbVisualStyle
  3
ObjectDBX Classes
 90
     4095
280
     0
281
     0
  0
CLASS
  1
ACDBPLACEHOLDER
  2
AcDbPlaceHolder
  3
ObjectDBX Classes
 90
        0
280
     0
281
     0
  0
CLASS
  1
LAYOUT
  2
AcDbLayout
  3
ObjectDBX Classes
 90
        0
280
     0
281
     0
  0
ENDSEC
  0
SECTION
  2
TABLES
  0
TABLE
  2
VPORT
  5
8
330
0
100
AcDbSymbolTable
 70
     1
  0
VPORT
  5
29
330
8
100
AcDbSymbolTableRecord
100
AcDbViewportTableRecord
  2
*Active
 70
     0
 10
0.0
 20
0.0
 11
1.0
 21
1.0
 12
0.0
 22
0.0
 13
0.0
 23
0.0
 14
0.5
 24
0.5
 15
0.5
 25
0.5
 16
0.0
 26
0.0
 36
1.0
 17
-6.583933237664159
 27
-11.43742458850585
 37
0.0
 40
789.1242391004042
 41
1.476802751131924
 42
50.0
 43
0.0
 44
0.0
 50
0.0
 51
0.0
 71
     0
 72
  1000
 73
     1
 74
     1
 75
     0
 76
     0
 77
     0
 78
     0
281
     0
 65
     1
110
0.0
120
0.0
130
0.0
111
1.0
121
0.0
131
0.0
112
0.0
122
1.0
132
0.0
 79
     0
146
0.0
  0
ENDTAB
  0
TABLE
  2
LTYPE
  5
5
330
0
100
AcDbSymbolTable
 70
    53
  0
LTYPE
  5
14
330
5
100
AcDbSymbolTableRecord
100
AcDbLinetypeTableRecord
  2
ByBlock
 70
     0
  3

 72
    65
 73
     0
 40
0.0
  0
LTYPE
  5
15
330
5
100
AcDbSymbolTableRecord
100
AcDbLinetypeTableRecord
  2
ByLayer
 70
     0
  3

 72
    65
 73
     0
 40
0.0
  0
LTYPE
  5
16
330
5
100
AcDbSymbolTableRecord
100
AcDbLinetypeTableRecord
  2
Continuous
 70
     0
  3
Solid line
 72
    65
 73
     0
 40
0.0
  0
LTYPE
  5
3C
330
5
100
AcDbSymbolTableRecord
100
AcDbLinetypeTableRecord
  2
HIDDENX2
 70
     0
  3
Hidden (2x) ____ ____ ____ ____ ____ ____ ____ 
 72
    65
 73
     2
 40
19.05
 49
12.7
 74
     0
 49
-6.35
 74
     0
  0
LTYPE
  5
3D
330
5
100
AcDbSymbolTableRecord
100
AcDbLinetypeTableRecord
  2
HIDDEN
 70
     0
  3
Hidden __ __ __ __ __ __ __ __ __ __ __ __ __ __
 72
    65
 73
     2
 40
9.524999999999999
 49
6.35
 74
     0
 49
-3.175
 74
     0
  0
LTYPE
  5
3E
330
5
100
AcDbSymbolTableRecord
100
AcDbLinetypeTableRecord
  2
HIDDEN2
 70
     0
  3
Hidden (.5x) _ _ _ _ _ _ _ _ _ _ _ _ _ _ _ _ _ 
 72
    65
 73
     2
 40
4.762499999999999
 49
3.175
 74
     0
 49
-1.5875
 74
     0
  0
LTYPE
  5
3F
330
5
100
AcDbSymbolTableRecord
100
AcDbLinetypeTableRecord
  2
DASHED
 70
     0
  3
Dashed __ __ __ __ __ __ __ __ __ __ __ __ __ _
 72
    65
 73
     2
 40
19.05
 49
12.7
 74
     0
 49
-6.35
 74
     0
  0
LTYPE
  5
40
330
5
100
AcDbSymbolTableRecord
100
AcDbLinetypeTableRecord
  2
DASHED2
 70
     0
  3
Dashed (.5x) _ _ _ _ _ _ _ _ _ _ _ _ _ _ _ _ _ 
 72
    65
 73
     2
 40
9.524999999999999
 49
6.35
 74
     0
 49
-3.175
 74
     0
  0
LTYPE
  5
41
330
5
100
AcDbSymbolTableRecord
100
AcDbLinetypeTableRecord
  2
DASHEDX2
 70
     0
  3
Dashed (2x) ____  ____  ____  ____  ____  ___
 72
    65
 73
     2
 40
38.09999999999999
 49
25.4
 74
     0
 49
-12.7
 74
     0
  0
LTYPE
  5
42
330
5
100
AcDbSymbolTableRecord
100
AcDbLinetypeTableRecord
  2
DOTX2
 70
     0
  3
Dot (2x) .  .  .  .  .  .  .  .  .  .  .  .  .  .
 72
    65
 73
     2
 40
12.7
 49
0.0
 74
     0
 49
-12.7
 74
     0
  0
LTYPE
  5
43
330
5
100
AcDbSymbolTableRecord
100
AcDbLinetypeTableRecord
  2
DOT
 70
     0
  3
Dot . . . . . . . . . . . . . . . . . . . . . . . .
 72
    65
 73
     2
 40
6.35
 49
0.0
 74
     0
 49
-6.35
 74
     0
  0
LTYPE
  5
44
330
5
100
AcDbSymbolTableRecord
100
AcDbLinetypeTableRecord
  2
DOT2
 70
     0
  3
Dot (.5x) ........................................
 72
    65
 73
     2
 40
3.175
 49
0.0
 74
     0
 49
-3.175
 74
     0
  0
LTYPE
  5
45
330
5
100
AcDbSymbolTableRecord
100
AcDbLinetypeTableRecord
  2
CENTERX2
 70
     0
  3
Center (2x) ________  __  ________  __  _____
 72
    65
 73
     4
 40
101.6
 49
63.5
 74
     0
 49
-12.7
 74
     0
 49
12.7
 74
     0
 49
-12.7
 74
     0
  0
LTYPE
  5
46
330
5
100
AcDbSymbolTableRecord
100
AcDbLinetypeTableRecord
  2
CENTER
 70
     0
  3
Center ____ _ ____ _ ____ _ ____ _ ____ _ ____
 72
    65
 73
     4
 40
50.8
 49
31.75
 74
     0
 49
-6.35
 74
     0
 49
6.35
 74
     0
 49
-6.35
 74
     0
  0
LTYPE
  5
47
330
5
100
AcDbSymbolTableRecord
100
AcDbLinetypeTableRecord
  2
CENTER2
 70
     0
  3
Center (.5x) ___ _ ___ _ ___ _ ___ _ ___ _ ___
 72
    65
 73
     4
 40
28.575
 49
19.05
 74
     0
 49
-3.175
 74
     0
 49
3.175
 74
     0
 49
-3.175
 74
     0
  0
LTYPE
  5
48
330
5
100
AcDbSymbolTableRecord
100
AcDbLinetypeTableRecord
  2
DASHDOTX2
 70
     0
  3
Dash dot (2x) ____  .  ____  .  ____  .  ___
 72
    65
 73
     4
 40
50.8
 49
25.4
 74
     0
 49
-12.7
 74
     0
 49
0.0
 74
     0
 49
-12.7
 74
     0
  0
LTYPE
  5
49
330
5
100
AcDbSymbolTableRecord
100
AcDbLinetypeTableRecord
  2
DASHDOT
 70
     0
  3
Dash dot __ . __ . __ . __ . __ . __ . __ . __
 72
    65
 73
     4
 40
25.4
 49
12.7
 74
     0
 49
-6.35
 74
     0
 49
0.0
 74
     0
 49
-6.35
 74
     0
  0
LTYPE
  5
4A
330
5
100
AcDbSymbolTableRecord
100
AcDbLinetypeTableRecord
  2
DASHDOT2
 70
     0
  3
Dash dot (.5x) _._._._._._._._._._._._._._._.
 72
    65
 73
     4
 40
12.7
 49
6.35
 74
     0
 49
-3.175
 74
     0
 49
0.0
 74
     0
 49
-3.175
 74
     0
  0
LTYPE
  5
4B
330
5
100
AcDbSymbolTableRecord
100
AcDbLinetypeTableRecord
  2
DIVIDEX2
 70
     0
  3
Divide (2x) ________  .  .  ________  .  .  _
 72
    65
 73
     6
 40
63.5
 49
25.4
 74
     0
 49
-12.7
 74
     0
 49
0.0
 74
     0
 49
-12.7
 74
     0
 49
0.0
 74
     0
 49
-12.7
 74
     0
  0
LTYPE
  5
4C
330
5
100
AcDbSymbolTableRecord
100
AcDbLinetypeTableRecord
  2
DIVIDE
 70
     0
  3
Divide ____ . . ____ . . ____ . . ____ . . ____
 72
    65
 73
     6
 40
31.75
 49
12.7
 74
     0
 49
-6.35
 74
     0
 49
0.0
 74
     0
 49
-6.35
 74
     0
 49
0.0
 74
     0
 49
-6.35
 74
     0
  0
LTYPE
  5
4D
330
5
100
AcDbSymbolTableRecord
100
AcDbLinetypeTableRecord
  2
DIVIDE2
 70
     0
  3
Divide (.5x) __..__..__..__..__..__..__..__.._
 72
    65
 73
     6
 40
15.875
 49
6.35
 74
     0
 49
-3.175
 74
     0
 49
0.0
 74
     0
 49
-3.175
 74
     0
 49
0.0
 74
     0
 49
-3.175
 74
     0
  0
LTYPE
  5
4E
330
5
100
AcDbSymbolTableRecord
100
AcDbLinetypeTableRecord
  2
BORDERX2
 70
     0
  3
Border (2x) ____  ____  .  ____  ____  .  ___
 72
    65
 73
     6
 40
88.89999999999999
 49
25.4
 74
     0
 49
-12.7
 74
     0
 49
25.4
 74
     0
 49
-12.7
 74
     0
 49
0.0
 74
     0
 49
-12.7
 74
     0
  0
LTYPE
  5
4F
330
5
100
AcDbSymbolTableRecord
100
AcDbLinetypeTableRecord
  2
BORDER
 70
     0
  3
Border __ __ . __ __ . __ __ . __ __ . __ __ .
 72
    65
 73
     6
 40
44.45
 49
12.7
 74
     0
 49
-6.35
 74
     0
 49
12.7
 74
     0
 49
-6.35
 74
     0
 49
0.0
 74
     0
 49
-6.35
 74
     0
  0
LTYPE
  5
50
330
5
100
AcDbSymbolTableRecord
100
AcDbLinetypeTableRecord
  2
BORDER2
 70
     0
  3
Border (.5x) __.__.__.__.__.__.__.__.__.__.__.
 72
    65
 73
     6
 40
22.225
 49
6.35
 74
     0
 49
-3.175
 74
     0
 49
6.35
 74
     0
 49
-3.175
 74
     0
 49
0.0
 74
     0
 49
-3.175
 74
     0
  0
LTYPE
  5
51
330
5
100
AcDbSymbolTableRecord
100
AcDbLinetypeTableRecord
  2
PHANTOMX2
 70
     0
  3
Phantom (2x) ____________    ____    ____   _
 72
    65
 73
     6
 40
127.0
 49
63.5
 74
     0
 49
-12.7
 74
     0
 49
12.7
 74
     0
 49
-12.7
 74
     0
 49
12.7
 74
     0
 49
-12.7
 74
     0
  0
LTYPE
  5
52
330
5
100
AcDbSymbolTableRecord
100
AcDbLinetypeTableRecord
  2
PHANTOM
 70
     0
  3
Phantom ______  __  __  ______  __  __  ______ 
 72
    65
 73
     6
 40
63.5
 49
31.75
 74
     0
 49
-6.35
 74
     0
 49
6.35
 74
     0
 49
-6.35
 74
     0
 49
6.35
 74
     0
 49
-6.35
 74
     0
  0
LTYPE
  5
53
330
5
100
AcDbSymbolTableRecord
100
AcDbLinetypeTableRecord
  2
PHANTOM2
 70
     0
  3
Phantom (.5x) ___ _ _ ___ _ _ ___ _ _ ___ _ _
 72
    65
 73
     6
 40
31.75
 49
15.875
 74
     0
 49
-3.175
 74
     0
 49
3.175
 74
     0
 49
-3.175
 74
     0
 49
3.175
 74
     0
 49
-3.175
 74
     0
  0
LTYPE
  5
54
330
5
100
AcDbSymbolTableRecord
100
AcDbLinetypeTableRecord
  2
ACAD_ISO06W100
 70
     0
  3
ISO long-dash triple-dot ____ ... ____ ... ____
 72
    65
 73
     8
 40
36.0
 49
24.0
 74
     0
 49
-3.0
 74
     0
 49
0.0
 74
     0
 49
-3.0
 74
     0
 49
0.0
 74
     0
 49
-3.0
 74
     0
 49
0.0
 74
     0
 49
-3.0
 74
     0
  0
LTYPE
  5
55
330
5
100
AcDbSymbolTableRecord
100
AcDbLinetypeTableRecord
  2
ACAD_ISO13W100
 70
     0
  3
ISO double-dash double-dot __ __ . . __ __ . . _
 72
    65
 73
     8
 40
36.0
 49
12.0
 74
     0
 49
-3.0
 74
     0
 49
12.0
 74
     0
 49
-3.0
 74
     0
 49
0.0
 74
     0
 49
-3.0
 74
     0
 49
0.0
 74
     0
 49
-3.0
 74
     0
  0
LTYPE
  5
56
330
5
100
AcDbSymbolTableRecord
100
AcDbLinetypeTableRecord
  2
ACAD_ISO14W100
 70
     0
  3
ISO dash triple-dot __ . . . __ . . . __ . . . _
 72
    65
 73
     8
 40
24.0
 49
12.0
 74
     0
 49
-3.0
 74
     0
 49
0.0
 74
     0
 49
-3.0
 74
     0
 49
0.0
 74
     0
 49
-3.0
 74
     0
 49
0.0
 74
     0
 49
-3.0
 74
     0
  0
LTYPE
  5
57
330
5
100
AcDbSymbolTableRecord
100
AcDbLinetypeTableRecord
  2
ACAD_ISO02W100
 70
     0
  3
ISO dash __ __ __ __ __ __ __ __ __ __ __ __ __
 72
    65
 73
     2
 40
15.0
 49
12.0
 74
     0
 49
-3.0
 74
     0
  0
LTYPE
  5
58
330
5
100
AcDbSymbolTableRecord
100
AcDbLinetypeTableRecord
  2
ACAD_ISO03W100
 70
     0
  3
ISO dash space __    __    __    __    __    __
 72
    65
 73
     2
 40
30.0
 49
12.0
 74
     0
 49
-18.0
 74
     0
  0
LTYPE
  5
59
330
5
100
AcDbSymbolTableRecord
100
AcDbLinetypeTableRecord
  2
ACAD_ISO04W100
 70
     0
  3
ISO long-dash dot ____ . ____ . ____ . ____ . _
 72
    65
 73
     4
 40
30.0
 49
24.0
 74
     0
 49
-3.0
 74
     0
 49
0.0
 74
     0
 49
-3.0
 74
     0
  0
LTYPE
  5
5A
330
5
100
AcDbSymbolTableRecord
100
AcDbLinetypeTableRecord
  2
ACAD_ISO05W100
 70
     0
  3
ISO long-dash double-dot ____ .. ____ .. ____ . 
 72
    65
 73
     6
 40
33.0
 49
24.0
 74
     0
 49
-3.0
 74
     0
 49
0.0
 74
     0
 49
-3.0
 74
     0
 49
0.0
 74
     0
 49
-3.0
 74
     0
  0
LTYPE
  5
5B
330
5
100
AcDbSymbolTableRecord
100
AcDbLinetypeTableRecord
  2
ACAD_ISO07W100
 70
     0
  3
ISO dot . . . . . . . . . . . . . . . . . . . . 
 72
    65
 73
     2
 40
3.0
 49
0.0
 74
     0
 49
-3.0
 74
     0
  0
LTYPE
  5
5C
330
5
100
AcDbSymbolTableRecord
100
AcDbLinetypeTableRecord
  2
ACAD_ISO08W100
 70
     0
  3
ISO long-dash short-dash ____ __ ____ __ ____ _
 72
    65
 73
     4
 40
36.0
 49
24.0
 74
     0
 49
-3.0
 74
     0
 49
6.0
 74
     0
 49
-3.0
 74
     0
  0
LTYPE
  5
5D
330
5
100
AcDbSymbolTableRecord
100
AcDbLinetypeTableRecord
  2
ACAD_ISO09W100
 70
     0
  3
ISO long-dash double-short-dash ____ __ __ ____
 72
    65
 73
     6
 40
45.0
 49
24.0
 74
     0
 49
-3.0
 74
     0
 49
6.0
 74
     0
 49
-3.0
 74
     0
 49
6.0
 74
     0
 49
-3.0
 74
     0
  0
LTYPE
  5
5E
330
5
100
AcDbSymbolTableRecord
100
AcDbLinetypeTableRecord
  2
ACAD_ISO10W100
 70
     0
  3
ISO dash dot __ . __ . __ . __ . __ . __ . __ . 
 72
    65
 73
     4
 40
18.0
 49
12.0
 74
     0
 49
-3.0
 74
     0
 49
0.0
 74
     0
 49
-3.0
 74
     0
  0
LTYPE
  5
5F
330
5
100
AcDbSymbolTableRecord
100
AcDbLinetypeTableRecord
  2
ACAD_ISO11W100
 70
     0
  3
ISO double-dash dot __ __ . __ __ . __ __ . __ _
 72
    65
 73
     6
 40
33.0
 49
12.0
 74
     0
 49
-3.0
 74
     0
 49
12.0
 74
     0
 49
-3.0
 74
     0
 49
0.0
 74
     0
 49
-3.0
 74
     0
  0
LTYPE
  5
60
330
5
100
AcDbSymbolTableRecord
100
AcDbLinetypeTableRecord
  2
ACAD_ISO12W100
 70
     0
  3
ISO dash double-dot __ . . __ . . __ . . __ . . 
 72
    65
 73
     6
 40
21.0
 49
12.0
 74
     0
 49
-3.0
 74
     0
 49
0.0
 74
     0
 49
-3.0
 74
     0
 49
0.0
 74
     0
 49
-3.0
 74
     0
  0
LTYPE
  5
61
330
5
100
AcDbSymbolTableRecord
100
AcDbLinetypeTableRecord
  2
ACAD_ISO15W100
 70
     0
  3
ISO double-dash triple-dot __ __ . . . __ __ . .
 72
    65
 73
    10
 40
39.0
 49
12.0
 74
     0
 49
-3.0
 74
     0
 49
12.0
 74
     0
 49
-3.0
 74
     0
 49
0.0
 74
     0
 49
-3.0
 74
     0
 49
0.0
 74
     0
 49
-3.0
 74
     0
 49
0.0
 74
     0
 49
-3.0
 74
     0
  0
LTYPE
  5
62
330
5
100
AcDbSymbolTableRecord
100
AcDbLinetypeTableRecord
  2
JIS_02_0.7
 70
     0
  3
HIDDEN0.75 _ _ _ _ _ _ _ _ _ _ _ _ _ _ _ _ _ 
 72
    65
 73
     2
 40
1.35
 49
0.75
 74
     0
 49
-0.6
 74
     0
  0
LTYPE
  5
63
330
5
100
AcDbSymbolTableRecord
100
AcDbLinetypeTableRecord
  2
JIS_02_1.0
 70
     0
  3
HIDDEN01 _ _ _ _ _ _ _ _ _ _ _ _ _ _ _ _ _ 
 72
    65
 73
     2
 40
2.0
 49
1.0
 74
     0
 49
-1.0
 74
     0
  0
LTYPE
  5
64
330
5
100
AcDbSymbolTableRecord
100
AcDbLinetypeTableRecord
  2
JIS_02_1.2
 70
     0
  3
HIDDEN01.25  _ _ _ _ _ _ _ _ _ _ _ _ _ _ _ _ _ 
 72
    65
 73
     2
 40
2.5
 49
1.25
 74
     0
 49
-1.25
 74
     0
  0
LTYPE
  5
65
330
5
100
AcDbSymbolTableRecord
100
AcDbLinetypeTableRecord
  2
JIS_02_2.0
 70
     0
  3
HIDDEN02 __ __ __ __ __ __ __ __ __ __ __ 
 72
    65
 73
     2
 40
3.0
 49
2.0
 74
     0
 49
-1.0
 74
     0
  0
LTYPE
  5
66
330
5
100
AcDbSymbolTableRecord
100
AcDbLinetypeTableRecord
  2
JIS_02_4.0
 70
     0
  3
HIDDEN04 ____ ____ ____ ____ ____ ____ ____ 
 72
    65
 73
     2
 40
5.5
 49
4.0
 74
     0
 49
-1.5
 74
     0
  0
LTYPE
  5
67
330
5
100
AcDbSymbolTableRecord
100
AcDbLinetypeTableRecord
  2
JIS_08_11
 70
     0
  3
1SASEN11 ___ _ ___ _ ___ _ ___ _ ___ _ ___
 72
    65
 73
     4
 40
12.8
 49
11.0
 74
     0
 49
-0.6
 74
     0
 49
0.6
 74
     0
 49
-0.6
 74
     0
  0
LTYPE
  5
68
330
5
100
AcDbSymbolTableRecord
100
AcDbLinetypeTableRecord
  2
JIS_08_15
 70
     0
  3
1SASEN15 ____ _ ____ _ ____ _ ____ _ ____ 
 72
    65
 73
     4
 40
17.25
 49
15.0
 74
     0
 49
-0.75
 74
     0
 49
0.75
 74
     0
 49
-0.75
 74
     0
  0
LTYPE
  5
69
330
5
100
AcDbSymbolTableRecord
100
AcDbLinetypeTableRecord
  2
JIS_08_25
 70
     0
  3
1SASEN25 ________  __  ________  __  _____
 72
    65
 73
     4
 40
28.0
 49
25.0
 74
     0
 49
-1.125
 74
     0
 49
0.75
 74
     0
 49
-1.125
 74
     0
  0
LTYPE
  5
6A
330
5
100
AcDbSymbolTableRecord
100
AcDbLinetypeTableRecord
  2
JIS_08_37
 70
     0
  3
1SASEN37 ________  __  ________  __  _____
 72
    65
 73
     4
 40
40.5
 49
37.5
 74
     0
 49
-1.125
 74
     0
 49
0.75
 74
     0
 49
-1.125
 74
     0
  0
LTYPE
  5
6B
330
5
100
AcDbSymbolTableRecord
100
AcDbLinetypeTableRecord
  2
JIS_08_50
 70
     0
  3
1SASEN50 _______________  __  ____________
 72
    65
 73
     4
 40
53.0
 49
50.0
 74
     0
 49
-1.125
 74
     0
 49
0.75
 74
     0
 49
-1.125
 74
     0
  0
LTYPE
  5
6C
330
5
100
AcDbSymbolTableRecord
100
AcDbLinetypeTableRecord
  2
JIS_09_08
 70
     0
  3
2SASEN8 __ _ _ __ _ _ __ _ _ __ _ _ __ _ _ 
 72
    65
 73
     6
 40
10.75
 49
8.0
 74
     0
 49
-0.55
 74
     0
 49
0.55
 74
     0
 49
-0.55
 74
     0
 49
0.55
 74
     0
 49
-0.55
 74
     0
  0
LTYPE
  5
6D
330
5
100
AcDbSymbolTableRecord
100
AcDbLinetypeTableRecord
  2
JIS_09_15
 70
     0
  3
2SASEN15 ___ _ _ ___ _ _ ___ _ _ ___ _ _ ___ 
 72
    65
 73
     6
 40
18.9
 49
15.0
 74
     0
 49
-0.9
 74
     0
 49
0.6
 74
     0
 49
-0.9
 74
     0
 49
0.6
 74
     0
 49
-0.9
 74
     0
  0
LTYPE
  5
6E
330
5
100
AcDbSymbolTableRecord
100
AcDbLinetypeTableRecord
  2
JIS_09_29
 70
     0
  3
2SASEN29 ______　__  __  ______　__  __  ___
 72
    65
 73
     6
 40
34.0
 49
29.0
 74
     0
 49
-1.2
 74
     0
 49
0.7
 74
     0
 49
-1.2
 74
     0
 49
0.7
 74
     0
 49
-1.2
 74
     0
  0
LTYPE
  5
6F
330
5
100
AcDbSymbolTableRecord
100
AcDbLinetypeTableRecord
  2
JIS_09_50
 70
     0
  3
2SASEN50 ____________　__  __  _____________
 72
    65
 73
     6
 40
55.0
 49
50.0
 74
     0
 49
-1.2
 74
     0
 49
0.7
 74
     0
 49
-1.2
 74
     0
 49
0.7
 74
     0
 49
-1.2
 74
     0
  0
ENDTAB
  0
TABLE
  2
LAYER
  5
2
330
0
100
AcDbSymbolTable
 70
     6
  0
LAYER
  5
10
330
2
100
AcDbSymbolTableRecord
100
AcDbLayerTableRecord
  2
0
 70
     0
 62
     7
  6
Continuous
370
    -3
390
F
  0
LAYER
  5
70
330
2
100
AcDbSymbolTableRecord
100
AcDbLayerTableRecord
  2
Layer0000
 70
     0
 62
     7
  6
Continuous
370
    -3
390
F
  0
LAYER
  5
71
330
2
100
AcDbSymbolTableRecord
100
AcDbLayerTableRecord
  2
Layer0001
 70
     0
 62
     7
  6
Continuous
370
    -3
390
F
  0
LAYER
  5
72
330
2
100
AcDbSymbolTableRecord
100
AcDbLayerTableRecord
  2
Layer0004
 70
     0
 62
     7
  6
Continuous
370
    -3
390
F
  0
LAYER
  5
73
330
2
100
AcDbSymbolTableRecord
100
AcDbLayerTableRecord
  2
Layer0014
 70
     0
 62
     7
  6
Continuous
370
    -3
390
F
  0
LAYER
  5
74
330
2
100
AcDbSymbolTableRecord
100
AcDbLayerTableRecord
  2
Layer0015
 70
     0
 62
     7
  6
Continuous
370
    -3
390
F
  0
ENDTAB
  0
TABLE
  2
STYLE
  5
3
330
0
100
AcDbSymbolTable
 70
     2
  0
STYLE
  5
11
330
3
100
AcDbSymbolTableRecord
100
AcDbTextStyleTableRecord
  2
Standard
 70
     0
 40
0.0
 41
1.0
 50
0.0
 71
     0
 42
0.2
  3
txt
  4

  0
STYLE
  5
105
330
3
100
AcDbSymbolTableRecord
100
AcDbTextStyleTableRecord
  2
dcStyle0
 70
     0
 40
0.0
 41
0.8000000000000019
 50
0.0
 71
     0
 42
0.2
  3
txt.shx
  4
bigfont
  0
ENDTAB
  0
TABLE
  2
VIEW
  5
6
330
0
100
AcDbSymbolTable
 70
     0
  0
ENDTAB
  0
TABLE
  2
UCS
  5
7
330
0
100
AcDbSymbolTable
 70
     0
  0
ENDTAB
  0
TABLE
  2
APPID
  5
9
330
0
100
AcDbSymbolTable
 70
     2
  0
APPID
  5
12
330
9
100
AcDbSymbolTableRecord
100
AcDbRegAppTableRecord
  2
ACAD
 70
     0
  0
APPID
  5
3B
330
9
100
AcDbSymbolTableRecord
100
AcDbRegAppTableRecord
  2
DaFusionOut
 70
     0
  0
ENDTAB
  0
TABLE
  2
DIMSTYLE
  5
A
330
0
100
AcDbSymbolTable
 70
     2
100
AcDbDimStyleTable
  0
DIMSTYLE
105
27
330
A
100
AcDbSymbolTableRecord
100
AcDbDimStyleTableRecord
  2
Standard
 70
     0
340
11
  0
DIMSTYLE
105
4C0
102
{ACAD_REACTORS
330
4BF
330
4C1
330
4C2
330
4C3
330
4C4
330
4C5
330
4C6
330
4C7
330
4C8
330
4C9
330
4CA
330
4CB
330
4CC
330
4CE
330
4CF
330
4D0
330
4D1
330
4D2
330
4D3
330
4D4
330
4D5
330
4D6
330
4D7
330
4D8
330
4D9
330
4DB
330
4DC
330
4DD
330
4DE
102
}
330
A
100
AcDbSymbolTableRecord
100
AcDbDimStyleTableRecord
  2
DaDimRotatedStyle
 70
     0
 41
2.999996871569202
 42
1.0
 44
0.8
 73
     0
 74
     0
 77
     3
 78
     8
 79
     2
140
6.0
147
1.0
172
     1
173
     1
176
     2
177
     2
178
     2
271
     3
274
     4
283
     0
284
     8
288
     1
289
     0
340
105
343
FB
344
FB
  0
ENDTAB
  0
TABLE
  2
BLOCK_RECORD
  5
1
330
0
100
AcDbSymbolTable
 70
    46
  0
BLOCK_RECORD
  5
1F
330
1
100
AcDbSymbolTableRecord
100
AcDbBlockTableRecord
  2
*Model_Space
340
22
  0
BLOCK_RECORD
  5
1B
330
1
100
AcDbSymbolTableRecord
100
AcDbBlockTableRecord
  2
*Paper_Space
340
1E
  0
BLOCK_RECORD
  5
23
330
1
100
AcDbSymbolTableRecord
100
AcDbBlockTableRecord
  2
*Paper_Space0
340
26
  0
BLOCK_RECORD
  5
76
330
1
100
AcDbSymbolTableRecord
100
AcDbBlockTableRecord
  2
*D1
340
0
  0
BLOCK_RECORD
  5
79
330
1
100
AcDbSymbolTableRecord
100
AcDbBlockTableRecord
  2
*D2
340
0
  0
BLOCK_RECORD
  5
7C
330
1
100
AcDbSymbolTableRecord
100
AcDbBlockTableRecord
  2
*D3
340
0
  0
BLOCK_RECORD
  5
7F
330
1
100
AcDbSymbolTableRecord
100
AcDbBlockTableRecord
  2
*D4
340
0
  0
BLOCK_RECORD
  5
82
330
1
100
AcDbSymbolTableRecord
100
AcDbBlockTableRecord
  2
*D5
340
0
  0
BLOCK_RECORD
  5
85
330
1
100
AcDbSymbolTableRecord
100
AcDbBlockTableRecord
  2
*D6
340
0
  0
BLOCK_RECORD
  5
88
330
1
100
AcDbSymbolTableRecord
100
AcDbBlockTableRecord
  2
*D7
340
0
  0
BLOCK_RECORD
  5
8B
330
1
100
AcDbSymbolTableRecord
100
AcDbBlockTableRecord
  2
*D8
340
0
  0
BLOCK_RECORD
  5
8E
330
1
100
AcDbSymbolTableRecord
100
AcDbBlockTableRecord
  2
*D9
340
0
  0
BLOCK_RECORD
  5
91
330
1
100
AcDbSymbolTableRecord
100
AcDbBlockTableRecord
  2
*D10
340
0
  0
BLOCK_RECORD
  5
94
330
1
100
AcDbSymbolTableRecord
100
AcDbBlockTableRecord
  2
*D11
340
0
  0
BLOCK_RECORD
  5
97
330
1
100
AcDbSymbolTableRecord
100
AcDbBlockTableRecord
  2
*D12
340
0
  0
BLOCK_RECORD
  5
9A
330
1
100
AcDbSymbolTableRecord
100
AcDbBlockTableRecord
  2
*D13
340
0
  0
BLOCK_RECORD
  5
9D
330
1
100
AcDbSymbolTableRecord
100
AcDbBlockTableRecord
  2
DA_IMAGEDIMGROUP_1
340
0
102
{BLKREFS
331
4CD
102
}
  0
BLOCK_RECORD
  5
A0
330
1
100
AcDbSymbolTableRecord
100
AcDbBlockTableRecord
  2
*D15
340
0
  0
BLOCK_RECORD
  5
A3
330
1
100
AcDbSymbolTableRecord
100
AcDbBlockTableRecord
  2
*D16
340
0
  0
BLOCK_RECORD
  5
A6
330
1
100
AcDbSymbolTableRecord
100
AcDbBlockTableRecord
  2
*D17
340
0
  0
BLOCK_RECORD
  5
A9
330
1
100
AcDbSymbolTableRecord
100
AcDbBlockTableRecord
  2
*D18
340
0
  0
BLOCK_RECORD
  5
AC
330
1
100
AcDbSymbolTableRecord
100
AcDbBlockTableRecord
  2
*D19
340
0
  0
BLOCK_RECORD
  5
AF
330
1
100
AcDbSymbolTableRecord
100
AcDbBlockTableRecord
  2
*D20
340
0
  0
BLOCK_RECORD
  5
B2
330
1
100
AcDbSymbolTableRecord
100
AcDbBlockTableRecord
  2
*D21
340
0
  0
BLOCK_RECORD
  5
B5
330
1
100
AcDbSymbolTableRecord
100
AcDbBlockTableRecord
  2
*D22
340
0
  0
BLOCK_RECORD
  5
B8
330
1
100
AcDbSymbolTableRecord
100
AcDbBlockTableRecord
  2
*D23
340
0
  0
BLOCK_RECORD
  5
BB
330
1
100
AcDbSymbolTableRecord
100
AcDbBlockTableRecord
  2
*D24
340
0
  0
BLOCK_RECORD
  5
BE
330
1
100
AcDbSymbolTableRecord
100
AcDbBlockTableRecord
  2
*D25
340
0
  0
BLOCK_RECORD
  5
C1
330
1
100
AcDbSymbolTableRecord
100
AcDbBlockTableRecord
  2
*D26
340
0
  0
BLOCK_RECORD
  5
C4
330
1
100
AcDbSymbolTableRecord
100
AcDbBlockTableRecord
  2
DA_IMAGEDIMGROUP_2
340
0
102
{BLKREFS
331
4DA
102
}
  0
BLOCK_RECORD
  5
C7
330
1
100
AcDbSymbolTableRecord
100
AcDbBlockTableRecord
  2
*D28
340
0
  0
BLOCK_RECORD
  5
CA
330
1
100
AcDbSymbolTableRecord
100
AcDbBlockTableRecord
  2
*D29
340
0
  0
BLOCK_RECORD
  5
CD
330
1
100
AcDbSymbolTableRecord
100
AcDbBlockTableRecord
  2
*D30
340
0
  0
BLOCK_RECORD
  5
D0
330
1
100
AcDbSymbolTableRecord
100
AcDbBlockTableRecord
  2
*D31
340
0
  0
BLOCK_RECORD
  5
D3
330
1
100
AcDbSymbolTableRecord
100
AcDbBlockTableRecord
  2
DC_GROUP_HCN150_1
340
0
102
{BLKREFS
331
4DF
102
}
  0
BLOCK_RECORD
  5
D6
330
1
100
AcDbSymbolTableRecord
100
AcDbBlockTableRecord
  2
DC_GROUP_HCN150_2
340
0
102
{BLKREFS
331
4E0
102
}
  0
BLOCK_RECORD
  5
D9
330
1
100
AcDbSymbolTableRecord
100
AcDbBlockTableRecord
  2
DC_GROUP_HCN150_3
340
0
102
{BLKREFS
331
4E1
102
}
  0
BLOCK_RECORD
  5
DC
330
1
100
AcDbSymbolTableRecord
100
AcDbBlockTableRecord
  2
DC_GROUP_HCN150_4
340
0
102
{BLKREFS
331
4E2
102
}
  0
BLOCK_RECORD
  5
DF
330
1
100
AcDbSymbolTableRecord
100
AcDbBlockTableRecord
  2
DC_GROUP_HCN150_5
340
0
102
{BLKREFS
331
4E3
102
}
  0
BLOCK_RECORD
  5
E2
330
1
100
AcDbSymbolTableRecord
100
AcDbBlockTableRecord
  2
DC_GROUP_HCN150_6
340
0
102
{BLKREFS
331
4E4
102
}
  0
BLOCK_RECORD
  5
E5
330
1
100
AcDbSymbolTableRecord
100
AcDbBlockTableRecord
  2
DC_GROUP_HCN150_7
340
0
102
{BLKREFS
331
4E5
102
}
  0
BLOCK_RECORD
  5
E8
330
1
100
AcDbSymbolTableRecord
100
AcDbBlockTableRecord
  2
DC_GROUP_HCN150_8
340
0
102
{BLKREFS
331
4E6
102
}
  0
BLOCK_RECORD
  5
EB
330
1
100
AcDbSymbolTableRecord
100
AcDbBlockTableRecord
  2
DC_GROUP_HCN150_9
340
0
102
{BLKREFS
331
4E7
102
}
  0
BLOCK_RECORD
  5
EE
330
1
100
AcDbSymbolTableRecord
100
AcDbBlockTableRecord
  2
DC_GROUP_HCN150_10
340
0
102
{BLKREFS
331
4E8
102
}
  0
BLOCK_RECORD
  5
F1
330
1
100
AcDbSymbolTableRecord
100
AcDbBlockTableRecord
  2
DC_GROUP_HCN150_11
340
0
102
{BLKREFS
331
4E9
102
}
  0
BLOCK_RECORD
  5
F4
330
1
100
AcDbSymbolTableRecord
100
AcDbBlockTableRecord
  2
DC_GROUP_HCN150_12
340
0
102
{BLKREFS
331
4EA
102
}
  0
BLOCK_RECORD
  5
F7
330
1
100
AcDbSymbolTableRecord
100
AcDbBlockTableRecord
  2
DC_GROUP_HCN150_13
340
0
102
{BLKREFS
331
4EB
102
}
  0
BLOCK_RECORD
  5
FB
330
1
100
AcDbSymbolTableRecord
100
AcDbBlockTableRecord
  2
_OPEN30
340
0
102
{BLKREFS
331
101
331
102
331
108
331
109
331
10E
331
10F
331
112
331
113
331
118
331
119
331
11E
331
11F
331
124
331
125
331
12A
331
12B
331
130
331
131
331
136
331
137
331
13B
331
13C
331
13F
331
140
331
144
331
145
331
14C
331
14E
331
151
331
152
331
157
331
158
331
15D
331
15E
331
163
331
164
331
169
331
16A
331
16F
331
170
331
175
331
176
331
17B
331
17C
331
181
331
182
331
187
331
188
331
18D
331
18E
331
193
331
194
331
19C
331
19E
331
1A1
331
1A2
331
1A7
331
1A8
331
1AD
331
1AE
331
1B3
331
1B4
331
1BA
331
1BE
331
1C1
331
1C5
331
1C9
102
}
  0
ENDTAB
  0
ENDSEC
  0
SECTION
  2
BLOCKS
  0
BLOCK
  5
20
330
1F
100
AcDbEntity
  8
0
100
AcDbBlockBegin
  2
*Model_Space
 70
     0
 10
0.0
 20
0.0
 30
0.0
  3
*Model_Space
  1

  0
ENDBLK
  5
21
330
1F
100
AcDbEntity
  8
0
100
AcDbBlockEnd
  0
BLOCK
  5
1C
330
1B
100
AcDbEntity
 67
     1
  8
0
100
AcDbBlockBegin
  2
*Paper_Space
 70
     0
 10
0.0
 20
0.0
 30
0.0
  3
*Paper_Space
  1

  0
ENDBLK
  5
1D
330
1B
100
AcDbEntity
 67
     1
  8
0
100
AcDbBlockEnd
  0
BLOCK
  5
24
330
23
100
AcDbEntity
  8
0
100
AcDbBlockBegin
  2
*Paper_Space0
 70
     0
 10
0.0
 20
0.0
 30
0.0
  3
*Paper_Space0
  1

  0
ENDBLK
  5
25
330
23
100
AcDbEntity
  8
0
100
AcDbBlockEnd
  0
BLOCK
  5
77
330
76
100
AcDbEntity
  8
0
100
AcDbBlockBegin
  2
*D1
 70
     1
 10
0.0
 20
0.0
 30
0.0
  3
*D1
  1

  0
LINE
  5
FA
330
76
100
AcDbEntity
  8
Layer0015
  6
Continuous
 62
     2
370
    25
100
AcDbLine
 10
-513.060801285403
 20
173.3881828136529
 30
0.0
 11
-513.060801285403
 21
329.3881828136529
 31
0.0
  0
INSERT
  5
101
330
76
100
AcDbEntity
  8
Layer0015
 62
     2
100
AcDbBlockReference
  2
_OPEN30
 10
-513.060801285403
 20
173.3881828136529
 30
0.0
 41
3.058640732435014
 42
2.01277523548278
 50
270.0
  0
INSERT
  5
102
330
76
100
AcDbEntity
  8
Layer0015
 62
     2
100
AcDbBlockReference
  2
_OPEN30
 10
-513.060801285403
 20
329.3881828136529
 30
0.0
 41
3.058640732435014
 42
2.01277523548278
 50
90.0
  0
LINE
  5
103
330
76
100
AcDbEntity
  8
Layer0015
  6
Continuous
 62
     2
370
    25
100
AcDbLine
 10
-485.5806417324747
 20
173.3881828136529
 30
0.0
 11
-513.860801285403
 21
173.3881828136529
 31
0.0
  0
LINE
  5
104
330
76
100
AcDbEntity
  8
Layer0015
  6
Continuous
 62
     2
370
    25
100
AcDbLine
 10
-485.5806417324747
 20
329.3881828136529
 30
0.0
 11
-513.860801285403
 21
329.3881828136529
 31
0.0
  0
MTEXT
  5
106
330
76
100
AcDbEntity
  8
Layer0015
 62
     2
100
AcDbMText
 10
-514.060801285403
 20
251.3881828136529
 30
0.0
 40
6.0
 41
25.50000000000004
 71
     8
 72
     1
  1
\T1.00;156
  7
dcStyle0
 11
6.123031769111886E-17
 21
1.0
 31
0.0
 73
     1
 44
1.0
  0
ENDBLK
  5
78
330
76
100
AcDbEntity
  8
0
100
AcDbBlockEnd
  0
BLOCK
  5
7A
330
79
100
AcDbEntity
  8
0
100
AcDbBlockBegin
  2
*D2
 70
     1
 10
0.0
 20
0.0
 30
0.0
  3
*D2
  1

  0
LINE
  5
107
330
79
100
AcDbEntity
  8
Layer0015
  6
Continuous
 62
     2
370
    25
100
AcDbLine
 10
-351.5830092064476
 20
174.3881828136529
 30
0.0
 11
-351.5830092064476
 21
328.3881828136529
 31
0.0
  0
INSERT
  5
108
330
79
100
AcDbEntity
  8
Layer0015
 62
     2
100
AcDbBlockReference
  2
_OPEN30
 10
-351.5830092064476
 20
174.3881828136529
 30
0.0
 41
3.058640732435014
 42
2.01277523548278
 50
270.0
  0
INSERT
  5
109
330
79
100
AcDbEntity
  8
Layer0015
 62
     2
100
AcDbBlockReference
  2
_OPEN30
 10
-351.5830092064476
 20
328.3881828136529
 30
0.0
 41
3.058640732435014
 42
2.01277523548278
 50
90.0
  0
LINE
  5
10A
330
79
100
AcDbEntity
  8
Layer0015
  6
Continuous
 62
     2
370
    25
100
AcDbLine
 10
-378.5806417324747
 20
174.3881828136529
 30
0.0
 11
-350.7830092064476
 21
174.3881828136529
 31
0.0
  0
LINE
  5
10B
330
79
100
AcDbEntity
  8
Layer0015
  6
Continuous
 62
     2
370
    25
100
AcDbLine
 10
-378.5806417324747
 20
328.3881828136529
 30
0.0
 11
-350.7830092064476
 21
328.3881828136529
 31
0.0
  0
MTEXT
  5
10C
330
79
100
AcDbEntity
  8
Layer0015
 62
     2
100
AcDbMText
 10
-352.5830092064476
 20
251.3881828136529
 30
0.0
 40
6.0
 41
25.49999999999997
 71
     8
 72
     1
  1
\T1.00;154
  7
dcStyle0
 11
6.123031769111886E-17
 21
1.0
 31
0.0
 73
     1
 44
1.0
  0
ENDBLK
  5
7B
330
79
100
AcDbEntity
  8
0
100
AcDbBlockEnd
  0
BLOCK
  5
7D
330
7C
100
AcDbEntity
  8
0
100
AcDbBlockBegin
  2
*D3
 70
     1
 10
0.0
 20
0.0
 30
0.0
  3
*D3
  1

  0
LINE
  5
10D
330
7C
100
AcDbEntity
  8
Layer0015
  6
Continuous
 62
     2
370
    25
100
AcDbLine
 10
-299.1537327811682
 20
211.3881828136529
 30
0.0
 11
-299.1537327811682
 21
291.3881828136529
 31
0.0
  0
INSERT
  5
10E
330
7C
100
AcDbEntity
  8
Layer0015
 62
     2
100
AcDbBlockReference
  2
_OPEN30
 10
-299.1537327811682
 20
211.3881828136529
 30
0.0
 41
3.058640732435014
 42
2.01277523548278
 50
270.0
  0
INSERT
  5
10F
330
7C
100
AcDbEntity
  8
Layer0015
 62
     2
100
AcDbBlockReference
  2
_OPEN30
 10
-299.1537327811682
 20
291.3881828136529
 30
0.0
 41
3.058640732435014
 42
2.01277523548278
 50
90.0
  0
MTEXT
  5
110
330
7C
100
AcDbEntity
  8
Layer0015
 62
     2
100
AcDbMText
 10
-300.1537327811682
 20
251.3881828136529
 30
0.0
 40
6.0
 41
19.50000000000003
 71
     8
 72
     1
  1
\T1.00;80
  7
dcStyle0
 11
6.123031769111886E-17
 21
1.0
 31
0.0
 73
     1
 44
1.0
  0
ENDBLK
  5
7E
330
7C
100
AcDbEntity
  8
0
100
AcDbBlockEnd
  0
BLOCK
  5
80
330
7F
100
AcDbEntity
  8
0
100
AcDbBlockBegin
  2
*D4
 70
     1
 10
0.0
 20
0.0
 30
0.0
  3
*D4
  1

  0
LINE
  5
111
330
7F
100
AcDbEntity
  8
Layer0015
  6
Continuous
 62
     2
370
    25
100
AcDbLine
 10
396.5953839768496
 20
127.3881828136528
 30
0.0
 11
396.5953839768496
 21
173.3881828136529
 31
0.0
  0
INSERT
  5
112
330
7F
100
AcDbEntity
  8
Layer0015
 62
     2
100
AcDbBlockReference
  2
_OPEN30
 10
396.5953839768496
 20
127.3881828136528
 30
0.0
 41
3.058640732435014
 42
2.01277523548278
 50
270.0
  0
INSERT
  5
113
330
7F
100
AcDbEntity
  8
Layer0015
 62
     2
100
AcDbBlockReference
  2
_OPEN30
 10
396.5953839768496
 20
173.3881828136529
 30
0.0
 41
3.058640732435014
 42
2.01277523548278
 50
90.0
  0
LINE
  5
114
330
7F
100
AcDbEntity
  8
Layer0015
  6
Continuous
 62
     2
370
    25
100
AcDbLine
 10
371.0983786912209
 20
127.3881828136528
 30
0.0
 11
397.3953839768496
 21
127.3881828136528
 31
0.0
  0
LINE
  5
115
330
7F
100
AcDbEntity
  8
Layer0015
  6
Continuous
 62
     2
370
    25
100
AcDbLine
 10
371.0526916620885
 20
173.3881828136529
 30
0.0
 11
397.3953839768496
 21
173.3881828136529
 31
0.0
  0
MTEXT
  5
116
330
7F
100
AcDbEntity
  8
Layer0015
 62
     2
100
AcDbMText
 10
395.5953839768496
 20
147.3881828136529
 30
0.0
 40
6.0
 41
19.50000000000003
 71
     8
 72
     1
  1
\T1.00;46
  7
dcStyle0
 11
6.123031769111886E-17
 21
1.0
 31
0.0
 73
     1
 44
1.0
  0
ENDBLK
  5
81
330
7F
100
AcDbEntity
  8
0
100
AcDbBlockEnd
  0
BLOCK
  5
83
330
82
100
AcDbEntity
  8
0
100
AcDbBlockBegin
  2
*D5
 70
     1
 10
0.0
 20
0.0
 30
0.0
  3
*D5
  1

  0
LINE
  5
117
330
82
100
AcDbEntity
  8
Layer0015
  6
Continuous
 62
     2
370
    25
100
AcDbLine
 10
396.5953839768496
 20
173.3881828136529
 30
0.0
 11
396.5953839768496
 21
329.3881828136529
 31
0.0
  0
INSERT
  5
118
330
82
100
AcDbEntity
  8
Layer0015
 62
     2
100
AcDbBlockReference
  2
_OPEN30
 10
396.5953839768496
 20
173.3881828136529
 30
0.0
 41
3.058640732435014
 42
2.01277523548278
 50
270.0
  0
INSERT
  5
119
330
82
100
AcDbEntity
  8
Layer0015
 62
     2
100
AcDbBlockReference
  2
_OPEN30
 10
396.5953839768496
 20
329.3881828136529
 30
0.0
 41
3.058640732435014
 42
2.01277523548278
 50
90.0
  0
LINE
  5
11A
330
82
100
AcDbEntity
  8
Layer0015
  6
Continuous
 62
     2
370
    25
100
AcDbLine
 10
371.0526916620885
 20
173.3881828136529
 30
0.0
 11
397.3953839768496
 21
173.3881828136529
 31
0.0
  0
LINE
  5
11B
330
82
100
AcDbEntity
  8
Layer0015
  6
Continuous
 62
     2
370
    25
100
AcDbLine
 10
371.0526916620885
 20
329.3881828136529
 30
0.0
 11
397.3953839768496
 21
329.3881828136529
 31
0.0
  0
MTEXT
  5
11C
330
82
100
AcDbEntity
  8
Layer0015
 62
     2
100
AcDbMText
 10
395.5953839768496
 20
251.3881828136529
 30
0.0
 40
6.0
 41
25.49999999999997
 71
     8
 72
     1
  1
\T1.00;156
  7
dcStyle0
 11
6.123031769111886E-17
 21
1.0
 31
0.0
 73
     1
 44
1.0
  0
ENDBLK
  5
84
330
82
100
AcDbEntity
  8
0
100
AcDbBlockEnd
  0
BLOCK
  5
86
330
85
100
AcDbEntity
  8
0
100
AcDbBlockBegin
  2
*D6
 70
     1
 10
0.0
 20
0.0
 30
0.0
  3
*D6
  1

  0
LINE
  5
11D
330
85
100
AcDbEntity
  8
Layer0015
  6
Continuous
 62
     2
370
    25
100
AcDbLine
 10
396.5953839768496
 20
329.3881828136529
 30
0.0
 11
396.5953839768496
 21
375.3881828136531
 31
0.0
  0
INSERT
  5
11E
330
85
100
AcDbEntity
  8
Layer0015
 62
     2
100
AcDbBlockReference
  2
_OPEN30
 10
396.5953839768496
 20
329.3881828136529
 30
0.0
 41
3.058640732435014
 42
2.01277523548278
 50
270.0
  0
INSERT
  5
11F
330
85
100
AcDbEntity
  8
Layer0015
 62
     2
100
AcDbBlockReference
  2
_OPEN30
 10
396.5953839768496
 20
375.3881828136531
 30
0.0
 41
3.058640732435014
 42
2.01277523548278
 50
90.0
  0
LINE
  5
120
330
85
100
AcDbEntity
  8
Layer0015
  6
Continuous
 62
     2
370
    25
100
AcDbLine
 10
371.0526916620885
 20
329.3881828136529
 30
0.0
 11
397.3953839768496
 21
329.3881828136529
 31
0.0
  0
LINE
  5
121
330
85
100
AcDbEntity
  8
Layer0015
  6
Continuous
 62
     2
370
    25
100
AcDbLine
 10
371.0366311485784
 20
375.3881828136531
 30
0.0
 11
397.3953839768496
 21
375.3881828136531
 31
0.0
  0
MTEXT
  5
122
330
85
100
AcDbEntity
  8
Layer0015
 62
     2
100
AcDbMText
 10
395.5953839768496
 20
355.388182813653
 30
0.0
 40
6.0
 41
19.50000000000003
 71
     8
 72
     1
  1
\T1.00;46
  7
dcStyle0
 11
6.123031769111886E-17
 21
1.0
 31
0.0
 73
     1
 44
1.0
  0
ENDBLK
  5
87
330
85
100
AcDbEntity
  8
0
100
AcDbBlockEnd
  0
BLOCK
  5
89
330
88
100
AcDbEntity
  8
0
100
AcDbBlockBegin
  2
*D7
 70
     1
 10
0.0
 20
0.0
 30
0.0
  3
*D7
  1

  0
LINE
  5
123
330
88
100
AcDbEntity
  8
Layer0015
  6
Continuous
 62
     2
370
    25
100
AcDbLine
 10
409.0070196871316
 20
127.3881828136528
 30
0.0
 11
409.0070196871316
 21
375.3881828136531
 31
0.0
  0
INSERT
  5
124
330
88
100
AcDbEntity
  8
Layer0015
 62
     2
100
AcDbBlockReference
  2
_OPEN30
 10
409.0070196871316
 20
127.3881828136528
 30
0.0
 41
3.058640732435014
 42
2.01277523548278
 50
270.0
  0
INSERT
  5
125
330
88
100
AcDbEntity
  8
Layer0015
 62
     2
100
AcDbBlockReference
  2
_OPEN30
 10
409.0070196871316
 20
375.3881828136531
 30
0.0
 41
3.058640732435014
 42
2.01277523548278
 50
90.0
  0
LINE
  5
126
330
88
100
AcDbEntity
  8
Layer0015
  6
Continuous
 62
     2
370
    25
100
AcDbLine
 10
370.9003663807484
 20
127.3881828136528
 30
0.0
 11
409.8070196871316
 21
127.3881828136528
 31
0.0
  0
LINE
  5
127
330
88
100
AcDbEntity
  8
Layer0015
  6
Continuous
 62
     2
370
    25
100
AcDbLine
 10
371.0366311485784
 20
375.3881828136531
 30
0.0
 11
409.8070196871316
 21
375.3881828136531
 31
0.0
  0
MTEXT
  5
128
330
88
100
AcDbEntity
  8
Layer0015
 62
     2
100
AcDbMText
 10
408.0070196871316
 20
251.388182813653
 30
0.0
 40
6.0
 41
25.49999999999997
 71
     8
 72
     1
  1
\T1.00;248
  7
dcStyle0
 11
6.123031769111886E-17
 21
1.0
 31
0.0
 73
     1
 44
1.0
  0
ENDBLK
  5
8A
330
88
100
AcDbEntity
  8
0
100
AcDbBlockEnd
  0
BLOCK
  5
8C
330
8B
100
AcDbEntity
  8
0
100
AcDbBlockBegin
  2
*D8
 70
     1
 10
0.0
 20
0.0
 30
0.0
  3
*D8
  1

  0
LINE
  5
129
330
8B
100
AcDbEntity
  8
Layer0015
  6
Continuous
 62
     2
370
    25
100
AcDbLine
 10
-506.4720807221221
 20
-165.0138064617659
 30
0.0
 11
-506.4720807221221
 21
-5.013806461765938
 31
0.0
  0
INSERT
  5
12A
330
8B
100
AcDbEntity
  8
Layer0015
 62
     2
100
AcDbBlockReference
  2
_OPEN30
 10
-506.4720807221221
 20
-165.0138064617659
 30
0.0
 41
3.058640732435014
 42
2.01277523548278
 50
270.0
  0
INSERT
  5
12B
330
8B
100
AcDbEntity
  8
Layer0015
 62
     2
100
AcDbBlockReference
  2
_OPEN30
 10
-506.4720807221221
 20
-5.013806461765938
 30
0.0
 41
3.058640732435014
 42
2.01277523548278
 50
90.0
  0
LINE
  5
12C
330
8B
100
AcDbEntity
  8
Layer0015
  6
Continuous
 62
     2
370
    25
100
AcDbLine
 10
-485.5806417324747
 20
-165.0138064617659
 30
0.0
 11
-507.2720807221221
 21
-165.0138064617659
 31
0.0
  0
LINE
  5
12D
330
8B
100
AcDbEntity
  8
Layer0015
  6
Continuous
 62
     2
370
    25
100
AcDbLine
 10
-485.5806417324747
 20
-5.013806461765938
 30
0.0
 11
-507.2720807221221
 21
-5.013806461765938
 31
0.0
  0
MTEXT
  5
12E
330
8B
100
AcDbEntity
  8
Layer0015
 62
     2
100
AcDbMText
 10
-507.4720807221221
 20
-85.01380646176597
 30
0.0
 40
6.0
 41
25.50000000000004
 71
     8
 72
     1
  1
\T1.00;160
  7
dcStyle0
 11
6.123031769111886E-17
 21
1.0
 31
0.0
 73
     1
 44
1.0
  0
ENDBLK
  5
8D
330
8B
100
AcDbEntity
  8
0
100
AcDbBlockEnd
  0
BLOCK
  5
8F
330
8E
100
AcDbEntity
  8
0
100
AcDbBlockBegin
  2
*D9
 70
     1
 10
0.0
 20
0.0
 30
0.0
  3
*D9
  1

  0
LINE
  5
12F
330
8E
100
AcDbEntity
  8
Layer0015
  6
Continuous
 62
     2
370
    25
100
AcDbLine
 10
-517.2047864816221
 20
-165.0138064617659
 30
0.0
 11
-517.2047864816221
 21
21.98619353823404
 31
0.0
  0
INSERT
  5
130
330
8E
100
AcDbEntity
  8
Layer0015
 62
     2
100
AcDbBlockReference
  2
_OPEN30
 10
-517.2047864816221
 20
-165.0138064617659
 30
0.0
 41
3.058640732435014
 42
2.01277523548278
 50
270.0
  0
INSERT
  5
131
330
8E
100
AcDbEntity
  8
Layer0015
 62
     2
100
AcDbBlockReference
  2
_OPEN30
 10
-517.2047864816221
 20
21.98619353823404
 30
0.0
 41
3.058640732435014
 42
2.01277523548278
 50
90.0
  0
LINE
  5
132
330
8E
100
AcDbEntity
  8
Layer0015
  6
Continuous
 62
     2
370
    25
100
AcDbLine
 10
-485.5806417324747
 20
-165.0138064617659
 30
0.0
 11
-518.0047864816221
 21
-165.0138064617659
 31
0.0
  0
LINE
  5
133
330
8E
100
AcDbEntity
  8
Layer0015
  6
Continuous
 62
     2
370
    25
100
AcDbLine
 10
-472.5806417324747
 20
21.98619353823404
 30
0.0
 11
-518.0047864816221
 21
21.98619353823404
 31
0.0
  0
MTEXT
  5
134
330
8E
100
AcDbEntity
  8
Layer0015
 62
     2
100
AcDbMText
 10
-518.2047864816221
 20
-71.51380646176597
 30
0.0
 40
6.0
 41
25.50000000000004
 71
     8
 72
     1
  1
\T1.00;187
  7
dcStyle0
 11
6.123031769111886E-17
 21
1.0
 31
0.0
 73
     1
 44
1.0
  0
ENDBLK
  5
90
330
8E
100
AcDbEntity
  8
0
100
AcDbBlockEnd
  0
BLOCK
  5
92
330
91
100
AcDbEntity
  8
0
100
AcDbBlockBegin
  2
*D10
 70
     1
 10
0.0
 20
0.0
 30
0.0
  3
*D10
  1

  0
LINE
  5
135
330
91
100
AcDbEntity
  8
Layer0015
  6
Continuous
 62
     2
370
    13
100
AcDbLine
 10
-341.3213560652748
 20
-55.01380646176593
 30
0.0
 11
-341.3213560652748
 21
-4.013806461765938
 31
0.0
  0
INSERT
  5
136
330
91
100
AcDbEntity
  8
Layer0015
 62
     2
100
AcDbBlockReference
  2
_OPEN30
 10
-341.3213560652748
 20
-55.01380646176593
 30
0.0
 41
3.058640732435014
 42
2.01277523548278
 50
270.0
  0
INSERT
  5
137
330
91
100
AcDbEntity
  8
Layer0015
 62
     2
100
AcDbBlockReference
  2
_OPEN30
 10
-341.3213560652748
 20
-4.013806461765938
 30
0.0
 41
3.058640732435014
 42
2.01277523548278
 50
90.0
  0
LINE
  5
138
330
91
100
AcDbEntity
  8
Layer0015
  6
Continuous
 62
     2
370
    13
100
AcDbLine
 10
-378.5806417324747
 20
-4.013806461765938
 30
0.0
 11
-340.5213560652747
 21
-4.013806461765938
 31
0.0
  0
MTEXT
  5
139
330
91
100
AcDbEntity
  8
Layer0015
 62
     2
100
AcDbMText
 10
-342.3213560652748
 20
-31.30168395297339
 30
0.0
 40
6.0
 41
19.50000000000003
 71
     8
 72
     1
  1
\T1.00;51
  7
dcStyle0
 11
6.123031769111886E-17
 21
1.0
 31
0.0
 73
     1
 44
1.0
  0
ENDBLK
  5
93
330
91
100
AcDbEntity
  8
0
100
AcDbBlockEnd
  0
BLOCK
  5
95
330
94
100
AcDbEntity
  8
0
100
AcDbBlockBegin
  2
*D11
 70
     1
 10
0.0
 20
0.0
 30
0.0
  3
*D11
  1

  0
LINE
  5
13A
330
94
100
AcDbEntity
  8
Layer0015
  6
Continuous
 62
     2
370
    13
100
AcDbLine
 10
-341.3213560652748
 20
-165.0138064617659
 30
0.0
 11
-341.3213560652748
 21
-55.01380646176593
 31
0.0
  0
INSERT
  5
13B
330
94
100
AcDbEntity
  8
Layer0015
 62
     2
100
AcDbBlockReference
  2
_OPEN30
 10
-341.3213560652748
 20
-165.0138064617659
 30
0.0
 41
3.058640732435014
 42
2.01277523548278
 50
270.0
  0
INSERT
  5
13C
330
94
100
AcDbEntity
  8
Layer0015
 62
     2
100
AcDbBlockReference
  2
_OPEN30
 10
-341.3213560652748
 20
-55.01380646176593
 30
0.0
 41
3.058640732435014
 42
2.01277523548278
 50
90.0
  0
MTEXT
  5
13D
330
94
100
AcDbEntity
  8
Layer0015
 62
     2
100
AcDbMText
 10
-342.3213560652748
 20
-83.53936126519264
 30
0.0
 40
6.0
 41
25.49999999999997
 71
     8
 72
     1
  1
\T1.00;110
  7
dcStyle0
 11
6.123031769111886E-17
 21
1.0
 31
0.0
 73
     1
 44
1.0
  0
ENDBLK
  5
96
330
94
100
AcDbEntity
  8
0
100
AcDbBlockEnd
  0
BLOCK
  5
98
330
97
100
AcDbEntity
  8
0
100
AcDbBlockBegin
  2
*D12
 70
     1
 10
0.0
 20
0.0
 30
0.0
  3
*D12
  1

  0
LINE
  5
13E
330
97
100
AcDbEntity
  8
Layer0015
  6
Continuous
 62
     2
370
    13
100
AcDbLine
 10
-341.3213560652748
 20
-173.0138064617659
 30
0.0
 11
-341.3213560652748
 21
-165.0138064617659
 31
0.0
  0
INSERT
  5
13F
330
97
100
AcDbEntity
  8
Layer0015
 62
     2
100
AcDbBlockReference
  2
_OPEN30
 10
-341.3213560652748
 20
-173.0138064617659
 30
0.0
 41
3.058640732435014
 42
2.01277523548278
 50
270.0
  0
INSERT
  5
140
330
97
100
AcDbEntity
  8
Layer0015
 62
     2
100
AcDbBlockReference
  2
_OPEN30
 10
-341.3213560652748
 20
-165.0138064617659
 30
0.0
 41
3.058640732435014
 42
2.01277523548278
 50
90.0
  0
LINE
  5
141
330
97
100
AcDbEntity
  8
Layer0015
  6
Continuous
 62
     2
370
    13
100
AcDbLine
 10
-329.5806417324747
 20
-173.0138064617659
 30
0.0
 11
-342.1213560652747
 21
-173.0138064617659
 31
0.0
  0
MTEXT
  5
142
330
97
100
AcDbEntity
  8
Layer0015
 62
     2
100
AcDbMText
 10
-342.3213560652748
 20
-169.0138064617659
 30
0.0
 40
6.0
 41
13.49999999999994
 71
     8
 72
     1
  1
\T1.00;8
  7
dcStyle0
 11
6.123031769111886E-17
 21
1.0
 31
0.0
 73
     1
 44
1.0
  0
ENDBLK
  5
99
330
97
100
AcDbEntity
  8
0
100
AcDbBlockEnd
  0
BLOCK
  5
9B
330
9A
100
AcDbEntity
  8
0
100
AcDbBlockBegin
  2
*D13
 70
     1
 10
0.0
 20
0.0
 30
0.0
  3
*D13
  1

  0
LINE
  5
143
330
9A
100
AcDbEntity
  8
Layer0015
  6
Continuous
 62
     2
370
    13
100
AcDbLine
 10
-297.4489827839032
 20
-165.0138064617659
 30
0.0
 11
-297.4489827839032
 21
16.98619353823404
 31
0.0
  0
INSERT
  5
144
330
9A
100
AcDbEntity
  8
Layer0015
 62
     2
100
AcDbBlockReference
  2
_OPEN30
 10
-297.4489827839032
 20
-165.0138064617659
 30
0.0
 41
3.058640732435014
 42
2.01277523548278
 50
270.0
  0
INSERT
  5
145
330
9A
100
AcDbEntity
  8
Layer0015
 62
     2
100
AcDbBlockReference
  2
_OPEN30
 10
-297.4489827839032
 20
16.98619353823404
 30
0.0
 41
3.058640732435014
 42
2.01277523548278
 50
90.0
  0
LINE
  5
146
330
9A
100
AcDbEntity
  8
Layer0015
  6
Continuous
 62
     2
370
    13
100
AcDbLine
 10
-405.5806417324747
 20
16.98619353823404
 30
0.0
 11
-296.6489827839033
 21
16.98619353823404
 31
0.0
  0
MTEXT
  5
147
330
9A
100
AcDbEntity
  8
Layer0015
 62
     2
100
AcDbMText
 10
-298.4489827839032
 20
-74.01380646176594
 30
0.0
 40
6.0
 41
25.49999999999997
 71
     8
 72
     1
  1
\T1.00;182
  7
dcStyle0
 11
6.123031769111886E-17
 21
1.0
 31
0.0
 73
     1
 44
1.0
  0
ENDBLK
  5
9C
330
9A
100
AcDbEntity
  8
0
100
AcDbBlockEnd
  0
BLOCK
  5
9E
330
9D
100
AcDbEntity
  8
0
100
AcDbBlockBegin
  2
DA_IMAGEDIMGROUP_1
 70
     0
 10
0.0
 20
0.0
 30
0.0
  3
DA_IMAGEDIMGROUP_1
  1

  0
LINE
  5
148
330
9D
100
AcDbEntity
  8
Layer0015
  6
Continuous
 62
     2
370
    13
100
AcDbLine
 10
-328.5806417324747
 20
-191.6276863700919
 30
0.0
 11
-310.5806417324747
 21
-191.6276863700919
 31
0.0
  0
LINE
  5
149
330
9D
100
AcDbEntity
  8
Layer0015
  6
Continuous
 62
     2
370
    13
100
AcDbLine
 10
-328.5806417324747
 20
-174.0138064617659
 30
0.0
 11
-328.5806417324747
 21
-192.4276863700919
 31
0.0
  0
LINE
  5
14A
330
9D
100
AcDbEntity
  8
Layer0015
  6
Continuous
 62
     2
370
    13
100
AcDbLine
 10
-310.5806417324747
 20
-174.0138064617659
 30
0.0
 11
-310.5806417324747
 21
-192.4276863700919
 31
0.0
  0
LINE
  5
14B
330
9D
100
AcDbEntity
  8
Layer0015
  6
Continuous
 62
     2
370
    13
100
AcDbLine
 10
-298.0262217324747
 20
-191.6276863700919
 30
0.0
 11
-310.5806417324747
 21
-191.6276863700919
 31
0.0
  0
INSERT
  5
14C
330
9D
100
AcDbEntity
  8
Layer0015
 62
     2
100
AcDbBlockReference
  2
_OPEN30
 10
-310.5806417324747
 20
-191.6276863700919
 30
0.0
 41
3.058640732435014
 42
2.01277523548278
 50
180.0
  0
LINE
  5
14D
330
9D
100
AcDbEntity
  8
Layer0015
  6
Continuous
 62
     2
370
    13
100
AcDbLine
 10
-332.5806417324747
 20
-191.6276863700919
 30
0.0
 11
-328.5806417324747
 21
-191.6276863700919
 31
0.0
  0
INSERT
  5
14E
330
9D
100
AcDbEntity
  8
Layer0015
 62
     2
100
AcDbBlockReference
  2
_OPEN30
 10
-328.5806417324747
 20
-191.6276863700919
 30
0.0
 41
3.058640732435014
 42
2.01277523548278
 50
360.0
  0
MTEXT
  5
14F
330
9D
100
AcDbEntity
  8
Layer0015
 62
     2
100
AcDbMText
 10
-307.6262217324747
 20
-190.6276863700919
 30
0.0
 40
6.0
 41
19.50000000000003
 71
     7
 72
     1
  1
\T1.00;18
  7
dcStyle0
 73
     1
 44
1.0
  0
ENDBLK
  5
9F
330
9D
100
AcDbEntity
  8
0
100
AcDbBlockEnd
  0
BLOCK
  5
A1
330
A0
100
AcDbEntity
  8
0
100
AcDbBlockBegin
  2
*D15
 70
     1
 10
0.0
 20
0.0
 30
0.0
  3
*D15
  1

  0
LINE
  5
150
330
A0
100
AcDbEntity
  8
Layer0015
  6
Continuous
 62
     2
370
    13
100
AcDbLine
 10
-379.5806417324747
 20
-212.099535139785
 30
0.0
 11
-319.5806417324747
 21
-212.099535139785
 31
0.0
  0
INSERT
  5
151
330
A0
100
AcDbEntity
  8
Layer0015
 62
     2
100
AcDbBlockReference
  2
_OPEN30
 10
-379.5806417324747
 20
-212.099535139785
 30
0.0
 41
3.058640732435014
 42
2.01277523548278
 50
180.0
  0
INSERT
  5
152
330
A0
100
AcDbEntity
  8
Layer0015
 62
     2
100
AcDbBlockReference
  2
_OPEN30
 10
-319.5806417324747
 20
-212.099535139785
 30
0.0
 41
3.058640732435014
 42
2.01277523548278
 50
360.0
  0
LINE
  5
153
330
A0
100
AcDbEntity
  8
Layer0015
  6
Continuous
 62
     2
370
    13
100
AcDbLine
 10
-379.5806417324747
 20
-56.01380646176593
 30
0.0
 11
-379.5806417324747
 21
-212.899535139785
 31
0.0
  0
LINE
  5
154
330
A0
100
AcDbEntity
  8
Layer0015
  6
Continuous
 62
     2
370
    13
100
AcDbLine
 10
-319.5806417324747
 20
-174.7856512560217
 30
0.0
 11
-319.5806417324747
 21
-212.899535139785
 31
0.0
  0
MTEXT
  5
155
330
A0
100
AcDbEntity
  8
Layer0015
 62
     2
100
AcDbMText
 10
-349.5806417324747
 20
-211.099535139785
 30
0.0
 40
6.0
 41
19.50000000000003
 71
     8
 72
     1
  1
\T1.00;60
  7
dcStyle0
 73
     1
 44
1.0
  0
ENDBLK
  5
A2
330
A0
100
AcDbEntity
  8
0
100
AcDbBlockEnd
  0
BLOCK
  5
A4
330
A3
100
AcDbEntity
  8
0
100
AcDbBlockBegin
  2
*D16
 70
     1
 10
0.0
 20
0.0
 30
0.0
  3
*D16
  1

  0
LINE
  5
156
330
A3
100
AcDbEntity
  8
Layer0015
  6
Continuous
 62
     2
370
    13
100
AcDbLine
 10
-319.5806417324747
 20
-212.099535139785
 30
0.0
 11
-259.5806417324747
 21
-212.099535139785
 31
0.0
  0
INSERT
  5
157
330
A3
100
AcDbEntity
  8
Layer0015
 62
     2
100
AcDbBlockReference
  2
_OPEN30
 10
-319.5806417324747
 20
-212.099535139785
 30
0.0
 41
3.058640732435014
 42
2.01277523548278
 50
180.0
  0
INSERT
  5
158
330
A3
100
AcDbEntity
  8
Layer0015
 62
     2
100
AcDbBlockReference
  2
_OPEN30
 10
-259.5806417324747
 20
-212.099535139785
 30
0.0
 41
3.058640732435014
 42
2.01277523548278
 50
360.0
  0
LINE
  5
159
330
A3
100
AcDbEntity
  8
Layer0015
  6
Continuous
 62
     2
370
    13
100
AcDbLine
 10
-319.5806417324747
 20
-174.7856512560217
 30
0.0
 11
-319.5806417324747
 21
-212.899535139785
 31
0.0
  0
LINE
  5
15A
330
A3
100
AcDbEntity
  8
Layer0015
  6
Continuous
 62
     2
370
    13
100
AcDbLine
 10
-259.5806417324747
 20
-174.7856512560217
 30
0.0
 11
-259.5806417324747
 21
-212.899535139785
 31
0.0
  0
MTEXT
  5
15B
330
A3
100
AcDbEntity
  8
Layer0015
 62
     2
100
AcDbMText
 10
-289.5806417324747
 20
-211.099535139785
 30
0.0
 40
6.0
 41
19.50000000000003
 71
     8
 72
     1
  1
\T1.00;60
  7
dcStyle0
 73
     1
 44
1.0
  0
ENDBLK
  5
A5
330
A3
100
AcDbEntity
  8
0
100
AcDbBlockEnd
  0
BLOCK
  5
A7
330
A6
100
AcDbEntity
  8
0
100
AcDbBlockBegin
  2
*D17
 70
     1
 10
0.0
 20
0.0
 30
0.0
  3
*D17
  1

  0
LINE
  5
15C
330
A6
100
AcDbEntity
  8
Layer0015
  6
Continuous
 62
     2
370
    13
100
AcDbLine
 10
-259.5806417324747
 20
-212.099535139785
 30
0.0
 11
-199.5806417324747
 21
-212.099535139785
 31
0.0
  0
INSERT
  5
15D
330
A6
100
AcDbEntity
  8
Layer0015
 62
     2
100
AcDbBlockReference
  2
_OPEN30
 10
-259.5806417324747
 20
-212.099535139785
 30
0.0
 41
3.058640732435014
 42
2.01277523548278
 50
180.0
  0
INSERT
  5
15E
330
A6
100
AcDbEntity
  8
Layer0015
 62
     2
100
AcDbBlockReference
  2
_OPEN30
 10
-199.5806417324747
 20
-212.099535139785
 30
0.0
 41
3.058640732435014
 42
2.01277523548278
 50
360.0
  0
LINE
  5
15F
330
A6
100
AcDbEntity
  8
Layer0015
  6
Continuous
 62
     2
370
    13
100
AcDbLine
 10
-259.5806417324747
 20
-174.7856512560217
 30
0.0
 11
-259.5806417324747
 21
-212.899535139785
 31
0.0
  0
LINE
  5
160
330
A6
100
AcDbEntity
  8
Layer0015
  6
Continuous
 62
     2
370
    13
100
AcDbLine
 10
-199.5806417324747
 20
-174.7856512560217
 30
0.0
 11
-199.5806417324747
 21
-212.899535139785
 31
0.0
  0
MTEXT
  5
161
330
A6
100
AcDbEntity
  8
Layer0015
 62
     2
100
AcDbMText
 10
-229.5806417324747
 20
-211.099535139785
 30
0.0
 40
6.0
 41
19.50000000000003
 71
     8
 72
     1
  1
\T1.00;60
  7
dcStyle0
 73
     1
 44
1.0
  0
ENDBLK
  5
A8
330
A6
100
AcDbEntity
  8
0
100
AcDbBlockEnd
  0
BLOCK
  5
AA
330
A9
100
AcDbEntity
  8
0
100
AcDbBlockBegin
  2
*D18
 70
     1
 10
0.0
 20
0.0
 30
0.0
  3
*D18
  1

  0
LINE
  5
162
330
A9
100
AcDbEntity
  8
Layer0015
  6
Continuous
 62
     2
370
    13
100
AcDbLine
 10
-484.5806417324747
 20
-245.5182544671968
 30
0.0
 11
48.4193582675242
 21
-245.5182544671968
 31
0.0
  0
INSERT
  5
163
330
A9
100
AcDbEntity
  8
Layer0015
 62
     2
100
AcDbBlockReference
  2
_OPEN30
 10
-484.5806417324747
 20
-245.5182544671968
 30
0.0
 41
3.058640732435014
 42
2.01277523548278
 50
180.0
  0
INSERT
  5
164
330
A9
100
AcDbEntity
  8
Layer0015
 62
     2
100
AcDbBlockReference
  2
_OPEN30
 10
48.4193582675242
 20
-245.5182544671968
 30
0.0
 41
3.058640732435014
 42
2.01277523548278
 50
360.0
  0
LINE
  5
165
330
A9
100
AcDbEntity
  8
Layer0015
  6
Continuous
 62
     2
370
    13
100
AcDbLine
 10
-484.5806417324747
 20
-166.0138064617659
 30
0.0
 11
-484.5806417324747
 21
-246.3182544671968
 31
0.0
  0
LINE
  5
166
330
A9
100
AcDbEntity
  8
Layer0015
  6
Continuous
 62
     2
370
    13
100
AcDbLine
 10
48.4193582675242
 20
-166.0138064617659
 30
0.0
 11
48.4193582675242
 21
-246.3182544671968
 31
0.0
  0
MTEXT
  5
167
330
A9
100
AcDbEntity
  8
Layer0015
 62
     2
100
AcDbMText
 10
-218.0806417324753
 20
-244.5182544671968
 30
0.0
 40
6.0
 41
25.49999999999997
 71
     8
 72
     1
  1
\T1.00;533
  7
dcStyle0
 73
     1
 44
1.0
  0
ENDBLK
  5
AB
330
A9
100
AcDbEntity
  8
0
100
AcDbBlockEnd
  0
BLOCK
  5
AD
330
AC
100
AcDbEntity
  8
0
100
AcDbBlockBegin
  2
*D19
 70
     1
 10
0.0
 20
0.0
 30
0.0
  3
*D19
  1

  0
LINE
  5
168
330
AC
100
AcDbEntity
  8
Layer0015
  6
Continuous
 62
     2
370
    13
100
AcDbLine
 10
48.4193582675242
 20
-245.5182544671968
 30
0.0
 11
130.9193583287546
 21
-245.5182544671968
 31
0.0
  0
INSERT
  5
169
330
AC
100
AcDbEntity
  8
Layer0015
 62
     2
100
AcDbBlockReference
  2
_OPEN30
 10
48.4193582675242
 20
-245.5182544671968
 30
0.0
 41
3.058640732435014
 42
2.01277523548278
 50
180.0
  0
INSERT
  5
16A
330
AC
100
AcDbEntity
  8
Layer0015
 62
     2
100
AcDbBlockReference
  2
_OPEN30
 10
130.9193583287546
 20
-245.5182544671968
 30
0.0
 41
3.058640732435014
 42
2.01277523548278
 50
360.0
  0
LINE
  5
16B
330
AC
100
AcDbEntity
  8
Layer0015
  6
Continuous
 62
     2
370
    13
100
AcDbLine
 10
48.4193582675242
 20
-166.0138064617659
 30
0.0
 11
48.4193582675242
 21
-246.3182544671968
 31
0.0
  0
LINE
  5
16C
330
AC
100
AcDbEntity
  8
Layer0015
  6
Continuous
 62
     2
370
    13
100
AcDbLine
 10
130.9193583287546
 20
-109.0138064617661
 30
0.0
 11
130.9193583287546
 21
-246.3182544671968
 31
0.0
  0
MTEXT
  5
16D
330
AC
100
AcDbEntity
  8
Layer0015
 62
     2
100
AcDbMText
 10
89.66935829813939
 20
-244.5182544671968
 30
0.0
 40
6.0
 41
19.49999999999999
 71
     8
 72
     1
  1
\T1.00;83
  7
dcStyle0
 73
     1
 44
1.0
  0
ENDBLK
  5
AE
330
AC
100
AcDbEntity
  8
0
100
AcDbBlockEnd
  0
BLOCK
  5
B0
330
AF
100
AcDbEntity
  8
0
100
AcDbBlockBegin
  2
*D20
 70
     1
 10
0.0
 20
0.0
 30
0.0
  3
*D20
  1

  0
LINE
  5
16E
330
AF
100
AcDbEntity
  8
Layer0015
  6
Continuous
 62
     2
370
    13
100
AcDbLine
 10
130.9193583287546
 20
-245.5182544671968
 30
0.0
 11
219.9193583287573
 21
-245.5182544671968
 31
0.0
  0
INSERT
  5
16F
330
AF
100
AcDbEntity
  8
Layer0015
 62
     2
100
AcDbBlockReference
  2
_OPEN30
 10
130.9193583287546
 20
-245.5182544671968
 30
0.0
 41
3.058640732435014
 42
2.01277523548278
 50
180.0
  0
INSERT
  5
170
330
AF
100
AcDbEntity
  8
Layer0015
 62
     2
100
AcDbBlockReference
  2
_OPEN30
 10
219.9193583287573
 20
-245.5182544671968
 30
0.0
 41
3.058640732435014
 42
2.01277523548278
 50
360.0
  0
LINE
  5
171
330
AF
100
AcDbEntity
  8
Layer0015
  6
Continuous
 62
     2
370
    13
100
AcDbLine
 10
130.9193583287546
 20
-109.0138064617661
 30
0.0
 11
130.9193583287546
 21
-246.3182544671968
 31
0.0
  0
LINE
  5
172
330
AF
100
AcDbEntity
  8
Layer0015
  6
Continuous
 62
     2
370
    13
100
AcDbLine
 10
219.9193583287573
 20
-238.0717538288226
 30
0.0
 11
219.9193583287573
 21
-246.3182544671968
 31
0.0
  0
MTEXT
  5
173
330
AF
100
AcDbEntity
  8
Layer0015
 62
     2
100
AcDbMText
 10
175.4193583287559
 20
-244.5182544671968
 30
0.0
 40
6.0
 41
19.50000000000003
 71
     8
 72
     1
  1
\T1.00;89
  7
dcStyle0
 73
     1
 44
1.0
  0
ENDBLK
  5
B1
330
AF
100
AcDbEntity
  8
0
100
AcDbBlockEnd
  0
BLOCK
  5
B3
330
B2
100
AcDbEntity
  8
0
100
AcDbBlockBegin
  2
*D21
 70
     1
 10
0.0
 20
0.0
 30
0.0
  3
*D21
  1

  0
LINE
  5
174
330
B2
100
AcDbEntity
  8
Layer0015
  6
Continuous
 62
     2
370
    13
100
AcDbLine
 10
-396.5806417324747
 20
5.633162043776068
 30
0.0
 11
-379.5806417324747
 21
5.633162043776068
 31
0.0
  0
INSERT
  5
175
330
B2
100
AcDbEntity
  8
Layer0015
 62
     2
100
AcDbBlockReference
  2
_OPEN30
 10
-396.5806417324747
 20
5.633162043776068
 30
0.0
 41
3.058640732435014
 42
2.01277523548278
 50
180.0
  0
INSERT
  5
176
330
B2
100
AcDbEntity
  8
Layer0015
 62
     2
100
AcDbBlockReference
  2
_OPEN30
 10
-379.5806417324747
 20
5.633162043776068
 30
0.0
 41
3.058640732435014
 42
2.01277523548278
 50
360.0
  0
LINE
  5
177
330
B2
100
AcDbEntity
  8
Layer0015
  6
Continuous
 62
     2
370
    13
100
AcDbLine
 10
-396.5806417324747
 20
-3.013806461765938
 30
0.0
 11
-396.5806417324747
 21
6.433162043776065
 31
0.0
  0
LINE
  5
178
330
B2
100
AcDbEntity
  8
Layer0015
  6
Continuous
 62
     2
370
    13
100
AcDbLine
 10
-379.5806417324747
 20
-3.013806461765938
 30
0.0
 11
-379.5806417324747
 21
6.433162043776065
 31
0.0
  0
MTEXT
  5
179
330
B2
100
AcDbEntity
  8
Layer0015
 62
     2
100
AcDbMText
 10
-388.0806417324747
 20
6.633162043776068
 30
0.0
 40
6.0
 41
19.50000000000003
 71
     8
 72
     1
  1
\T1.00;17
  7
dcStyle0
 73
     1
 44
1.0
  0
ENDBLK
  5
B4
330
B2
100
AcDbEntity
  8
0
100
AcDbBlockEnd
  0
BLOCK
  5
B6
330
B5
100
AcDbEntity
  8
0
100
AcDbBlockBegin
  2
*D22
 70
     1
 10
0.0
 20
0.0
 30
0.0
  3
*D22
  1

  0
LINE
  5
17A
330
B5
100
AcDbEntity
  8
Layer0015
  6
Continuous
 62
     2
370
    13
100
AcDbLine
 10
-484.5806417324747
 20
40.75518482692901
 30
0.0
 11
-379.5806417324747
 21
40.75518482692901
 31
0.0
  0
INSERT
  5
17B
330
B5
100
AcDbEntity
  8
Layer0015
 62
     2
100
AcDbBlockReference
  2
_OPEN30
 10
-484.5806417324747
 20
40.75518482692901
 30
0.0
 41
3.058640732435014
 42
2.01277523548278
 50
180.0
  0
INSERT
  5
17C
330
B5
100
AcDbEntity
  8
Layer0015
 62
     2
100
AcDbBlockReference
  2
_OPEN30
 10
-379.5806417324747
 20
40.75518482692901
 30
0.0
 41
3.058640732435014
 42
2.01277523548278
 50
360.0
  0
LINE
  5
17D
330
B5
100
AcDbEntity
  8
Layer0015
  6
Continuous
 62
     2
370
    13
100
AcDbLine
 10
-484.5806417324747
 20
-4.013806461765938
 30
0.0
 11
-484.5806417324747
 21
41.55518482692901
 31
0.0
  0
LINE
  5
17E
330
B5
100
AcDbEntity
  8
Layer0015
  6
Continuous
 62
     2
370
    13
100
AcDbLine
 10
-379.5806417324747
 20
-3.013806461765938
 30
0.0
 11
-379.5806417324747
 21
41.55518482692901
 31
0.0
  0
MTEXT
  5
17F
330
B5
100
AcDbEntity
  8
Layer0015
 62
     2
100
AcDbMText
 10
-432.0806417324747
 20
41.75518482692901
 30
0.0
 40
6.0
 41
25.49999999999997
 71
     8
 72
     1
  1
\T1.00;105
  7
dcStyle0
 73
     1
 44
1.0
  0
ENDBLK
  5
B7
330
B5
100
AcDbEntity
  8
0
100
AcDbBlockEnd
  0
BLOCK
  5
B9
330
B8
100
AcDbEntity
  8
0
100
AcDbBlockBegin
  2
*D23
 70
     1
 10
0.0
 20
0.0
 30
0.0
  3
*D23
  1

  0
LINE
  5
180
330
B8
100
AcDbEntity
  8
Layer0015
  6
Continuous
 62
     2
370
    13
100
AcDbLine
 10
-379.5806417324747
 20
40.75518482692901
 30
0.0
 11
-74.58064173247473
 21
40.75518482692901
 31
0.0
  0
INSERT
  5
181
330
B8
100
AcDbEntity
  8
Layer0015
 62
     2
100
AcDbBlockReference
  2
_OPEN30
 10
-379.5806417324747
 20
40.75518482692901
 30
0.0
 41
3.058640732435014
 42
2.01277523548278
 50
180.0
  0
INSERT
  5
182
330
B8
100
AcDbEntity
  8
Layer0015
 62
     2
100
AcDbBlockReference
  2
_OPEN30
 10
-74.58064173247473
 20
40.75518482692901
 30
0.0
 41
3.058640732435014
 42
2.01277523548278
 50
360.0
  0
LINE
  5
183
330
B8
100
AcDbEntity
  8
Layer0015
  6
Continuous
 62
     2
370
    13
100
AcDbLine
 10
-379.5806417324747
 20
-3.013806461765938
 30
0.0
 11
-379.5806417324747
 21
41.55518482692901
 31
0.0
  0
LINE
  5
184
330
B8
100
AcDbEntity
  8
Layer0015
  6
Continuous
 62
     2
370
    13
100
AcDbLine
 10
-74.58064173247473
 20
-3.013806461765938
 30
0.0
 11
-74.58064173247473
 21
41.55518482692901
 31
0.0
  0
MTEXT
  5
185
330
B8
100
AcDbEntity
  8
Layer0015
 62
     2
100
AcDbMText
 10
-227.0806417324747
 20
41.75518482692901
 30
0.0
 40
6.0
 41
25.49999999999997
 71
     8
 72
     1
  1
\T1.00;300
  7
dcStyle0
 73
     1
 44
1.0
  0
ENDBLK
  5
BA
330
B8
100
AcDbEntity
  8
0
100
AcDbBlockEnd
  0
BLOCK
  5
BC
330
BB
100
AcDbEntity
  8
0
100
AcDbBlockBegin
  2
*D24
 70
     1
 10
0.0
 20
0.0
 30
0.0
  3
*D24
  1

  0
LINE
  5
186
330
BB
100
AcDbEntity
  8
Layer0015
  6
Continuous
 62
     2
370
    13
100
AcDbLine
 10
-74.58064173247473
 20
40.75518482692901
 30
0.0
 11
130.9193583287546
 21
40.75518482692901
 31
0.0
  0
INSERT
  5
187
330
BB
100
AcDbEntity
  8
Layer0015
 62
     2
100
AcDbBlockReference
  2
_OPEN30
 10
-74.58064173247473
 20
40.75518482692901
 30
0.0
 41
3.058640732435014
 42
2.01277523548278
 50
180.0
  0
INSERT
  5
188
330
BB
100
AcDbEntity
  8
Layer0015
 62
     2
100
AcDbBlockReference
  2
_OPEN30
 10
130.9193583287546
 20
40.75518482692901
 30
0.0
 41
3.058640732435014
 42
2.01277523548278
 50
360.0
  0
LINE
  5
189
330
BB
100
AcDbEntity
  8
Layer0015
  6
Continuous
 62
     2
370
    13
100
AcDbLine
 10
-74.58064173247473
 20
-3.013806461765938
 30
0.0
 11
-74.58064173247473
 21
41.55518482692901
 31
0.0
  0
LINE
  5
18A
330
BB
100
AcDbEntity
  8
Layer0015
  6
Continuous
 62
     2
370
    13
100
AcDbLine
 10
130.9193583287546
 20
-91.01380646176605
 30
0.0
 11
130.9193583287546
 21
41.55518482692901
 31
0.0
  0
MTEXT
  5
18B
330
BB
100
AcDbEntity
  8
Layer0015
 62
     2
100
AcDbMText
 10
28.16935829813993
 20
41.75518482692901
 30
0.0
 40
6.0
 41
25.50000000000001
 71
     8
 72
     1
  1
\T1.00;211
  7
dcStyle0
 73
     1
 44
1.0
  0
ENDBLK
  5
BD
330
BB
100
AcDbEntity
  8
0
100
AcDbBlockEnd
  0
BLOCK
  5
BF
330
BE
100
AcDbEntity
  8
0
100
AcDbBlockBegin
  2
*D25
 70
     1
 10
0.0
 20
0.0
 30
0.0
  3
*D25
  1

  0
LINE
  5
18C
330
BE
100
AcDbEntity
  8
Layer0015
  6
Continuous
 62
     2
370
    13
100
AcDbLine
 10
-484.5806417324747
 20
66.72545785091486
 30
0.0
 11
130.9193583287546
 21
66.72545785091486
 31
0.0
  0
INSERT
  5
18D
330
BE
100
AcDbEntity
  8
Layer0015
 62
     2
100
AcDbBlockReference
  2
_OPEN30
 10
-484.5806417324747
 20
66.72545785091486
 30
0.0
 41
3.058640732435014
 42
2.01277523548278
 50
180.0
  0
INSERT
  5
18E
330
BE
100
AcDbEntity
  8
Layer0015
 62
     2
100
AcDbBlockReference
  2
_OPEN30
 10
130.9193583287546
 20
66.72545785091486
 30
0.0
 41
3.058640732435014
 42
2.01277523548278
 50
360.0
  0
LINE
  5
18F
330
BE
100
AcDbEntity
  8
Layer0015
  6
Continuous
 62
     2
370
    13
100
AcDbLine
 10
-484.5806417324747
 20
172.3881828136529
 30
0.0
 11
-484.5806417324747
 21
65.92545785091487
 31
0.0
  0
LINE
  5
190
330
BE
100
AcDbEntity
  8
Layer0015
  6
Continuous
 62
     2
370
    13
100
AcDbLine
 10
130.9193583287546
 20
242.3881828136529
 30
0.0
 11
130.9193583287546
 21
65.92545785091487
 31
0.0
  0
MTEXT
  5
191
330
BE
100
AcDbEntity
  8
Layer0015
 62
     2
100
AcDbMText
 10
-176.8306417018601
 20
67.72545785091486
 30
0.0
 40
6.0
 41
25.49999999999997
 71
     8
 72
     1
  1
\T1.00;616
  7
dcStyle0
 73
     1
 44
1.0
  0
ENDBLK
  5
C0
330
BE
100
AcDbEntity
  8
0
100
AcDbBlockEnd
  0
BLOCK
  5
C2
330
C1
100
AcDbEntity
  8
0
100
AcDbBlockBegin
  2
*D26
 70
     1
 10
0.0
 20
0.0
 30
0.0
  3
*D26
  1

  0
LINE
  5
192
330
C1
100
AcDbEntity
  8
Layer0015
  6
Continuous
 62
     2
370
    13
100
AcDbLine
 10
-342.8873562161491
 20
-361.1897857794022
 30
0.0
 11
-242.8873562161491
 21
-361.1897857794022
 31
0.0
  0
INSERT
  5
193
330
C1
100
AcDbEntity
  8
Layer0015
 62
     2
100
AcDbBlockReference
  2
_OPEN30
 10
-342.8873562161491
 20
-361.1897857794022
 30
0.0
 41
3.058640732435014
 42
2.01277523548278
 50
180.0
  0
INSERT
  5
194
330
C1
100
AcDbEntity
  8
Layer0015
 62
     2
100
AcDbBlockReference
  2
_OPEN30
 10
-242.8873562161491
 20
-361.1897857794022
 30
0.0
 41
3.058640732435014
 42
2.01277523548278
 50
360.0
  0
LINE
  5
195
330
C1
100
AcDbEntity
  8
Layer0015
  6
Continuous
 62
     2
370
    13
100
AcDbLine
 10
-342.8873562161491
 20
-327.8354480202067
 30
0.0
 11
-342.8873562161491
 21
-362.7897857794022
 31
0.0
  0
LINE
  5
196
330
C1
100
AcDbEntity
  8
Layer0015
  6
Continuous
 62
     2
370
    13
100
AcDbLine
 10
-242.8873562161491
 20
-314.5810346994328
 30
0.0
 11
-242.8873562161491
 21
-362.7897857794022
 31
0.0
  0
MTEXT
  5
197
330
C1
100
AcDbEntity
  8
Layer0015
 62
     2
100
AcDbMText
 10
-292.8873562161491
 20
-359.1897857794022
 30
0.0
 40
6.0
 41
25.49999999999997
 71
     8
 72
     1
  1
\T1.00;100
  7
dcStyle0
 73
     1
 44
1.0
  0
ENDBLK
  5
C3
330
C1
100
AcDbEntity
  8
0
100
AcDbBlockEnd
  0
BLOCK
  5
C5
330
C4
100
AcDbEntity
  8
0
100
AcDbBlockBegin
  2
DA_IMAGEDIMGROUP_2
 70
     0
 10
0.0
 20
0.0
 30
0.0
  3
DA_IMAGEDIMGROUP_2
  1

  0
LINE
  5
198
330
C4
100
AcDbEntity
  8
Layer0015
  6
Continuous
 62
     2
370
    13
100
AcDbLine
 10
-260.8873562161491
 20
-317.3354480202067
 30
0.0
 11
-260.8873562161491
 21
-344.9268877458455
 31
0.0
  0
LINE
  5
199
330
C4
100
AcDbEntity
  8
Layer0015
  6
Continuous
 62
     2
370
    13
100
AcDbLine
 10
-242.8873562161491
 20
-314.5810346994328
 30
0.0
 11
-242.8873562161491
 21
-344.9268877458455
 31
0.0
  0
LINE
  5
19A
330
C4
100
AcDbEntity
  8
Layer0015
  6
Continuous
 62
     2
370
    13
100
AcDbLine
 10
-260.8873562161491
 20
-343.3268877458455
 30
0.0
 11
-242.8873562161491
 21
-343.3268877458455
 31
0.0
  0
LINE
  5
19B
330
C4
100
AcDbEntity
  8
Layer0015
  6
Continuous
 62
     2
370
    13
100
AcDbLine
 10
-220.9785162161492
 20
-343.3268877458455
 30
0.0
 11
-242.8873562161491
 21
-343.3268877458455
 31
0.0
  0
INSERT
  5
19C
330
C4
100
AcDbEntity
  8
Layer0015
 62
     2
100
AcDbBlockReference
  2
_OPEN30
 10
-242.8873562161491
 20
-343.3268877458455
 30
0.0
 41
3.058640732435014
 42
2.01277523548278
 50
180.0
  0
LINE
  5
19D
330
C4
100
AcDbEntity
  8
Layer0015
  6
Continuous
 62
     2
370
    13
100
AcDbLine
 10
-268.8873562161491
 20
-343.3268877458455
 30
0.0
 11
-260.8873562161491
 21
-343.3268877458455
 31
0.0
  0
INSERT
  5
19E
330
C4
100
AcDbEntity
  8
Layer0015
 62
     2
100
AcDbBlockReference
  2
_OPEN30
 10
-260.8873562161491
 20
-343.3268877458455
 30
0.0
 41
3.058640732435014
 42
2.01277523548278
 50
360.0
  0
MTEXT
  5
19F
330
C4
100
AcDbEntity
  8
Layer0015
 62
     2
100
AcDbMText
 10
-236.9785162161492
 20
-341.3268877458455
 30
0.0
 40
6.0
 41
19.49999999999999
 71
     7
 72
     1
  1
\T1.00;18
  7
dcStyle0
 73
     1
 44
1.0
  0
ENDBLK
  5
C6
330
C4
100
AcDbEntity
  8
0
100
AcDbBlockEnd
  0
BLOCK
  5
C8
330
C7
100
AcDbEntity
  8
0
100
AcDbBlockBegin
  2
*D28
 70
     1
 10
0.0
 20
0.0
 30
0.0
  3
*D28
  1

  0
LINE
  5
1A0
330
C7
100
AcDbEntity
  8
Layer0015
  6
Continuous
 62
     2
370
    13
100
AcDbLine
 10
-379.5806417324747
 20
29.26107771179318
 30
0.0
 11
-89.58064173247475
 21
29.26107771179318
 31
0.0
  0
INSERT
  5
1A1
330
C7
100
AcDbEntity
  8
Layer0015
 62
     2
100
AcDbBlockReference
  2
_OPEN30
 10
-379.5806417324747
 20
29.26107771179318
 30
0.0
 41
3.058640732435014
 42
2.01277523548278
 50
180.0
  0
INSERT
  5
1A2
330
C7
100
AcDbEntity
  8
Layer0015
 62
     2
100
AcDbBlockReference
  2
_OPEN30
 10
-89.58064173247475
 20
29.26107771179318
 30
0.0
 41
3.058640732435014
 42
2.01277523548278
 50
360.0
  0
LINE
  5
1A3
330
C7
100
AcDbEntity
  8
Layer0015
  6
Continuous
 62
     2
370
    13
100
AcDbLine
 10
-379.5806417324747
 20
-3.013806461765938
 30
0.0
 11
-379.5806417324747
 21
30.06107771179318
 31
0.0
  0
LINE
  5
1A4
330
C7
100
AcDbEntity
  8
Layer0015
  6
Continuous
 62
     2
370
    13
100
AcDbLine
 10
-89.58064173247475
 20
-3.513806461766031
 30
0.0
 11
-89.58064173247475
 21
30.06107771179318
 31
0.0
  0
MTEXT
  5
1A5
330
C7
100
AcDbEntity
  8
Layer0015
 62
     2
100
AcDbMText
 10
-234.5806417324747
 20
30.26107771179318
 30
0.0
 40
6.0
 41
25.49999999999997
 71
     8
 72
     1
  1
\T1.00;285
  7
dcStyle0
 73
     1
 44
1.0
  0
ENDBLK
  5
C9
330
C7
100
AcDbEntity
  8
0
100
AcDbBlockEnd
  0
BLOCK
  5
CB
330
CA
100
AcDbEntity
  8
0
100
AcDbBlockBegin
  2
*D29
 70
     1
 10
0.0
 20
0.0
 30
0.0
  3
*D29
  1

  0
LINE
  5
1A6
330
CA
100
AcDbEntity
  8
Layer0015
  6
Continuous
 62
     2
370
    13
100
AcDbLine
 10
423.9543090613081
 20
-165.0138064617659
 30
0.0
 11
423.9543090613081
 21
-40.20420602334882
 31
0.0
  0
INSERT
  5
1A7
330
CA
100
AcDbEntity
  8
Layer0015
 62
     2
100
AcDbBlockReference
  2
_OPEN30
 10
423.9543090613081
 20
-165.0138064617659
 30
0.0
 41
3.058640732435014
 42
2.01277523548278
 50
270.0
  0
INSERT
  5
1A8
330
CA
100
AcDbEntity
  8
Layer0015
 62
     2
100
AcDbBlockReference
  2
_OPEN30
 10
423.9543090613081
 20
-40.20420602334882
 30
0.0
 41
3.058640732435014
 42
2.01277523548278
 50
90.0
  0
LINE
  5
1A9
330
CA
100
AcDbEntity
  8
Layer0015
  6
Continuous
 62
     2
370
    13
100
AcDbLine
 10
290.073950764289
 20
-165.0138064617659
 30
0.0
 11
424.7543090613081
 21
-165.0138064617659
 31
0.0
  0
LINE
  5
1AA
330
CA
100
AcDbEntity
  8
Layer0015
  6
Continuous
 62
     2
370
    13
100
AcDbLine
 10
381.280684085775
 20
-40.20420602334882
 30
0.0
 11
424.7543090613081
 21
-40.20420602334882
 31
0.0
  0
MTEXT
  5
1AB
330
CA
100
AcDbEntity
  8
Layer0015
 62
     2
100
AcDbMText
 10
422.9543090613081
 20
-102.6090062425574
 30
0.0
 40
6.0
 41
25.49999999999997
 71
     8
 72
     1
  1
\T1.00;125
  7
dcStyle0
 11
6.123031769111886E-17
 21
1.0
 31
0.0
 73
     1
 44
1.0
  0
ENDBLK
  5
CC
330
CA
100
AcDbEntity
  8
0
100
AcDbBlockEnd
  0
BLOCK
  5
CE
330
CD
100
AcDbEntity
  8
0
100
AcDbBlockBegin
  2
*D30
 70
     1
 10
0.0
 20
0.0
 30
0.0
  3
*D30
  1

  0
LINE
  5
1AC
330
CD
100
AcDbEntity
  8
Layer0015
  6
Continuous
 62
     2
370
    13
100
AcDbLine
 10
438.4584064744778
 20
-165.0138064617659
 30
0.0
 11
438.4584064744778
 21
100.6220549134745
 31
0.0
  0
INSERT
  5
1AD
330
CD
100
AcDbEntity
  8
Layer0015
 62
     2
100
AcDbBlockReference
  2
_OPEN30
 10
438.4584064744778
 20
-165.0138064617659
 30
0.0
 41
3.058640732435014
 42
2.01277523548278
 50
270.0
  0
INSERT
  5
1AE
330
CD
100
AcDbEntity
  8
Layer0015
 62
     2
100
AcDbBlockReference
  2
_OPEN30
 10
438.4584064744778
 20
100.6220549134745
 30
0.0
 41
3.058640732435014
 42
2.01277523548278
 50
90.0
  0
LINE
  5
1AF
330
CD
100
AcDbEntity
  8
Layer0015
  6
Continuous
 62
     2
370
    13
100
AcDbLine
 10
290.073950764289
 20
-165.0138064617659
 30
0.0
 11
439.2584064744778
 21
-165.0138064617659
 31
0.0
  0
LINE
  5
1B0
330
CD
100
AcDbEntity
  8
Layer0015
  6
Continuous
 62
     2
370
    13
100
AcDbLine
 10
317.0944959108347
 20
100.6220549134745
 30
0.0
 11
439.2584064744778
 21
100.6220549134745
 31
0.0
  0
MTEXT
  5
1B1
330
CD
100
AcDbEntity
  8
Layer0015
 62
     2
100
AcDbMText
 10
437.4584064744778
 20
-32.19587577414571
 30
0.0
 40
6.0
 41
25.49999999999997
 71
     8
 72
     1
  1
\T1.00;266
  7
dcStyle0
 11
6.123031769111886E-17
 21
1.0
 31
0.0
 73
     1
 44
1.0
  0
ENDBLK
  5
CF
330
CD
100
AcDbEntity
  8
0
100
AcDbBlockEnd
  0
BLOCK
  5
D1
330
D0
100
AcDbEntity
  8
0
100
AcDbBlockBegin
  2
*D31
 70
     1
 10
0.0
 20
0.0
 30
0.0
  3
*D31
  1

  0
LINE
  5
1B2
330
D0
100
AcDbEntity
  8
Layer0015
  6
Continuous
 62
     2
370
    13
100
AcDbLine
 10
563.8811879821217
 20
-165.0138064617659
 30
0.0
 11
563.8811879821217
 21
-24.37794508652711
 31
0.0
  0
INSERT
  5
1B3
330
D0
100
AcDbEntity
  8
Layer0015
 62
     2
100
AcDbBlockReference
  2
_OPEN30
 10
563.8811879821217
 20
-165.0138064617659
 30
0.0
 41
3.058640732435014
 42
2.01277523548278
 50
270.0
  0
INSERT
  5
1B4
330
D0
100
AcDbEntity
  8
Layer0015
 62
     2
100
AcDbBlockReference
  2
_OPEN30
 10
563.8811879821217
 20
-24.37794508652711
 30
0.0
 41
3.058640732435014
 42
2.01277523548278
 50
90.0
  0
LINE
  5
1B5
330
D0
100
AcDbEntity
  8
Layer0015
  6
Continuous
 62
     2
370
    13
100
AcDbLine
 10
290.073950764289
 20
-165.0138064617659
 30
0.0
 11
564.6811879821216
 21
-165.0138064617659
 31
0.0
  0
LINE
  5
1B6
330
D0
100
AcDbEntity
  8
Layer0015
  6
Continuous
 62
     2
370
    13
100
AcDbLine
 10
533.6008468569419
 20
-24.37794508652711
 30
0.0
 11
564.6811879821216
 21
-24.37794508652711
 31
0.0
  0
MTEXT
  5
1B7
330
D0
100
AcDbEntity
  8
Layer0015
 62
     2
100
AcDbMText
 10
562.8811879821217
 20
-94.69587577414651
 30
0.0
 40
6.0
 41
25.50000000000011
 71
     8
 72
     1
  1
\T1.00;141
  7
dcStyle0
 11
6.123031769111886E-17
 21
1.0
 31
0.0
 73
     1
 44
1.0
  0
ENDBLK
  5
D2
330
D0
100
AcDbEntity
  8
0
100
AcDbBlockEnd
  0
BLOCK
  5
D4
330
D3
100
AcDbEntity
  8
0
100
AcDbBlockBegin
  2
DC_GROUP_HCN150_1
 70
     0
 10
0.0
 20
0.0
 30
0.0
  3
DC_GROUP_HCN150_1
  1

  0
LINE
  5
1B8
330
D3
100
AcDbEntity
  8
Layer0015
  6
Continuous
 62
     2
370
    13
100
AcDbLine
 10
392.3739508255145
 20
-129.013806461766
 30
0.0
 11
392.3739508255145
 21
-187.0684919289822
 31
0.0
  0
LINE
  5
1B9
330
D3
100
AcDbEntity
  8
Layer0015
  6
Continuous
 62
     2
370
    13
100
AcDbLine
 10
208.2160632329037
 20
-186.2684919289822
 30
0.0
 11
392.3739508255145
 21
-186.2684919289822
 31
0.0
  0
INSERT
  5
1BA
330
D3
100
AcDbEntity
  8
Layer0015
 62
     2
100
AcDbBlockReference
  2
_OPEN30
 10
392.3739508255145
 20
-186.2684919289822
 30
0.0
 41
3.058640732435014
 42
2.01277523548278
 50
360.0
  0
TEXT
  5
1BB
330
D3
100
AcDbEntity
  8
Layer0015
 62
     2
100
AcDbText
 10
287.0242851827386
 20
-185.2684919289822
 30
0.0
 40
6.0
  1
636
 41
0.7999999999999987
  7
dcStyle0
 72
     5
 11
301.4242851827386
 21
-185.2684919289822
 31
0.0
100
AcDbText
  0
ENDBLK
  5
D5
330
D3
100
AcDbEntity
  8
0
100
AcDbBlockEnd
  0
BLOCK
  5
D7
330
D6
100
AcDbEntity
  8
0
100
AcDbBlockBegin
  2
DC_GROUP_HCN150_2
 70
     0
 10
0.0
 20
0.0
 30
0.0
  3
DC_GROUP_HCN150_2
  1

  0
LINE
  5
1BC
330
D6
100
AcDbEntity
  8
Layer0015
  6
Continuous
 62
     2
370
    13
100
AcDbLine
 10
552.6534057401996
 20
-37.377945086527
 30
0.0
 11
552.6534057401996
 21
-197.4850278358649
 31
0.0
  0
LINE
  5
1BD
330
D6
100
AcDbEntity
  8
Layer0015
  6
Continuous
 62
     2
370
    13
100
AcDbLine
 10
208.2160632329037
 20
-196.6850278358649
 30
0.0
 11
552.6534057401996
 21
-196.6850278358649
 31
0.0
  0
INSERT
  5
1BE
330
D6
100
AcDbEntity
  8
Layer0015
 62
     2
100
AcDbBlockReference
  2
_OPEN30
 10
552.6534057401996
 20
-196.6850278358649
 30
0.0
 41
3.058640732435014
 42
2.01277523548278
 50
360.0
  0
TEXT
  5
1BF
330
D6
100
AcDbEntity
  8
Layer0015
 62
     2
100
AcDbText
 10
367.1640126400812
 20
-195.6850278358649
 30
0.0
 40
6.0
  1
797
 41
0.7999999999999987
  7
dcStyle0
 72
     5
 11
381.5640126400812
 21
-195.6850278358649
 31
0.0
100
AcDbText
  0
ENDBLK
  5
D8
330
D6
100
AcDbEntity
  8
0
100
AcDbBlockEnd
  0
BLOCK
  5
DA
330
D9
100
AcDbEntity
  8
0
100
AcDbBlockBegin
  2
DC_GROUP_HCN150_3
 70
     0
 10
0.0
 20
0.0
 30
0.0
  3
DC_GROUP_HCN150_3
  1

  0
LINE
  5
1C0
330
D9
100
AcDbEntity
  8
Layer0014
  6
Continuous
 62
     2
370
    18
100
AcDbLine
 10
-109.6787505217381
 20
138.2855551090273
 30
0.0
 11
-93.96241090911802
 21
111.064056390962
 31
0.0
  0
INSERT
  5
1C1
330
D9
100
AcDbEntity
  8
Layer0014
 62
     2
100
AcDbBlockReference
  2
_OPEN30
 10
-109.6787505217381
 20
138.2855551090273
 30
0.0
 41
3.058640732435014
 42
2.01277523548278
 50
120.0
  0
LINE
  5
1C2
330
D9
100
AcDbEntity
  8
Layer0014
  6
Continuous
 62
     2
370
    18
100
AcDbLine
 10
-93.96241090911802
 20
111.064056390962
 30
0.0
 11
-25.16241090911801
 21
111.064056390962
 31
0.0
  0
TEXT
  5
1C3
330
D9
100
AcDbEntity
  8
Layer0014
 62
     2
100
AcDbText
 10
-92.96241090911802
 20
111.264056390962
 30
0.0
 40
6.0
  1
クランピングブロック
 41
0.6666666666666667
  7
dcStyle0
 72
     5
 11
-44.96241090911801
 21
111.264056390962
 31
0.0
100
AcDbText
  0
ENDBLK
  5
DB
330
D9
100
AcDbEntity
  8
0
100
AcDbBlockEnd
  0
BLOCK
  5
DD
330
DC
100
AcDbEntity
  8
0
100
AcDbBlockBegin
  2
DC_GROUP_HCN150_4
 70
     0
 10
0.0
 20
0.0
 30
0.0
  3
DC_GROUP_HCN150_4
  1

  0
LINE
  5
1C4
330
DC
100
AcDbEntity
  8
Layer0014
  6
Continuous
 62
     2
370
    18
100
AcDbLine
 10
12.26401772955469
 20
4.573332252521194
 30
0.0
 11
23.47824033192186
 21
23.9969355672084
 31
0.0
  0
INSERT
  5
1C5
330
DC
100
AcDbEntity
  8
Layer0014
 62
     2
100
AcDbBlockReference
  2
_OPEN30
 10
12.26401772955469
 20
4.573332252521194
 30
0.0
 41
3.058640732435014
 42
2.01277523548278
 50
240.0
  0
LINE
  5
1C6
330
DC
100
AcDbEntity
  8
Layer0014
  6
Continuous
 62
     2
370
    18
100
AcDbLine
 10
23.47824033192186
 20
23.9969355672084
 30
0.0
 11
68.30531801807942
 21
23.9969355672084
 31
0.0
  0
TEXT
  5
1C7
330
DC
100
AcDbEntity
  8
Layer0014
 62
     2
100
AcDbText
 10
24.47824033192186
 20
24.1969355672084
 30
0.0
 40
6.0
  1
上口金
 41
0.6666666666666666
  7
dcStyle0
 72
     5
 11
38.87824033192186
 21
24.1969355672084
 31
0.0
100
AcDbText
  0
ENDBLK
  5
DE
330
DC
100
AcDbEntity
  8
0
100
AcDbBlockEnd
  0
BLOCK
  5
E0
330
DF
100
AcDbEntity
  8
0
100
AcDbBlockBegin
  2
DC_GROUP_HCN150_5
 70
     0
 10
0.0
 20
0.0
 30
0.0
  3
DC_GROUP_HCN150_5
  1

  0
LINE
  5
1C8
330
DF
100
AcDbEntity
  8
Layer0014
  6
Continuous
 62
     2
370
    18
100
AcDbLine
 10
-85.46188424337893
 20
-30.78803025381071
 30
0.0
 11
-105.4255060242283
 21
3.78997697370901
 31
0.0
  0
INSERT
  5
1C9
330
DF
100
AcDbEntity
  8
Layer0014
 62
     2
100
AcDbBlockReference
  2
_OPEN30
 10
-85.46188424337893
 20
-30.78803025381071
 30
0.0
 41
3.058640732435014
 42
2.01277523548278
 50
299.9999999999999
  0
LINE
  5
1CA
330
DF
100
AcDbEntity
  8
Layer0014
  6
Continuous
 62
     2
370
    18
100
AcDbLine
 10
-105.4255060242283
 20
3.78997697370901
 30
0.0
 11
-169.4255060242282
 21
3.78997697370901
 31
0.0
  0
TEXT
  5
1CB
330
DF
100
AcDbEntity
  8
Layer0014
 62
     2
100
AcDbText
 10
-144.8255060242283
 20
3.989976973709009
 30
0.0
 40
6.0
  1
アンチリフト口金
 41
0.6666666666666669
  7
dcStyle0
 72
     5
 11
-106.4255060242283
 21
3.989976973709009
 31
0.0
100
AcDbText
  0
ENDBLK
  5
E1
330
DF
100
AcDbEntity
  8
0
100
AcDbBlockEnd
  0
BLOCK
  5
E3
330
E2
100
AcDbEntity
  8
0
100
AcDbBlockBegin
  2
DC_GROUP_HCN150_6
 70
     0
 10
0.0
 20
0.0
 30
0.0
  3
DC_GROUP_HCN150_6
  1

  0
TEXT
  5
1CC
330
E2
100
AcDbEntity
  8
Layer0004
 62
     2
100
AcDbText
 10
-168.8255060242283
 20
-3.010023026290991
 30
0.0
 40
6.0
  1
ANTI-LIFT JAW
 41
0.8000000000000003
  7
dcStyle0
 72
     5
 11
-106.4255060242283
 21
-3.010023026290991
 31
0.0
100
AcDbText
  0
ENDBLK
  5
E4
330
E2
100
AcDbEntity
  8
0
100
AcDbBlockEnd
  0
BLOCK
  5
E6
330
E5
100
AcDbEntity
  8
0
100
AcDbBlockBegin
  2
DC_GROUP_HCN150_7
 70
     0
 10
0.0
 20
0.0
 30
0.0
  3
DC_GROUP_HCN150_7
  1

  0
TEXT
  5
1CD
330
E5
100
AcDbEntity
  8
Layer0004
 62
     2
100
AcDbText
 10
-92.96241090911802
 20
104.264056390962
 30
0.0
 40
6.0
  1
CLAMPING BLOCK
 41
0.8000000000000002
  7
dcStyle0
 72
     5
 11
-25.762410909118
 21
104.264056390962
 31
0.0
100
AcDbText
  0
ENDBLK
  5
E7
330
E5
100
AcDbEntity
  8
0
100
AcDbBlockEnd
  0
BLOCK
  5
E9
330
E8
100
AcDbEntity
  8
0
100
AcDbBlockBegin
  2
DC_GROUP_HCN150_8
 70
     0
 10
0.0
 20
0.0
 30
0.0
  3
DC_GROUP_HCN150_8
  1

  0
TEXT
  5
1CE
330
E8
100
AcDbEntity
  8
Layer0004
 62
     2
100
AcDbText
 10
24.50531801807942
 20
17.39069633551249
 30
0.0
 40
6.0
  1
UPPER JAW
 41
0.8
  7
dcStyle0
 72
     5
 11
67.70531801807942
 21
17.39069633551249
 31
0.0
100
AcDbText
  0
ENDBLK
  5
EA
330
E8
100
AcDbEntity
  8
0
100
AcDbBlockEnd
  0
BLOCK
  5
EC
330
EB
100
AcDbEntity
  8
0
100
AcDbBlockBegin
  2
DC_GROUP_HCN150_9
 70
     0
 10
0.0
 20
0.0
 30
0.0
  3
DC_GROUP_HCN150_9
  1

  0
TEXT
  5
1CF
330
EB
100
AcDbEntity
  8
Layer0004
 62
     2
100
AcDbText
 10
-397.0910508881473
 20
88.71965724935089
 30
0.0
 40
6.0
  1
ワークストッパー
 41
0.6666666666666663
  7
dcStyle0
 72
     5
 11
-358.6910508881473
 21
88.71965724935089
 31
0.0
100
AcDbText
  0
LINE
  5
1D0
330
EB
100
AcDbEntity
  8
Layer0004
  6
Continuous
 62
     2
370
    18
100
AcDbLine
 10
-407.2910508881473
 20
88.1196572493509
 30
0.0
 11
-348.4910508881472
 21
88.1196572493509
 31
0.0
  0
ENDBLK
  5
ED
330
EB
100
AcDbEntity
  8
0
100
AcDbBlockEnd
  0
BLOCK
  5
EF
330
EE
100
AcDbEntity
  8
0
100
AcDbBlockBegin
  2
DC_GROUP_HCN150_10
 70
     0
 10
0.0
 20
0.0
 30
0.0
  3
DC_GROUP_HCN150_10
  1

  0
TEXT
  5
1D1
330
EE
100
AcDbEntity
  8
Layer0004
 62
     2
100
AcDbText
 10
-406.6910508881473
 20
80.97847146786265
 30
0.0
 40
6.0
  1
WORK STOPPER
 41
0.8000000000000003
  7
dcStyle0
 72
     5
 11
-349.0910508881473
 21
80.97847146786265
 31
0.0
100
AcDbText
  0
ENDBLK
  5
F0
330
EE
100
AcDbEntity
  8
0
100
AcDbBlockEnd
  0
BLOCK
  5
F2
330
F1
100
AcDbEntity
  8
0
100
AcDbBlockBegin
  2
DC_GROUP_HCN150_11
 70
     0
 10
0.0
 20
0.0
 30
0.0
  3
DC_GROUP_HCN150_11
  1

  0
TEXT
  5
1D2
330
F1
100
AcDbEntity
  8
Layer0004
 62
     2
100
AcDbText
 10
373.2964853449056
 20
45.89643116559615
 30
0.0
 40
6.0
  1
U-HANDLE
 41
0.7999999999999995
  7
dcStyle0
 72
     5
 11
411.6964853449056
 21
45.89643116559615
 31
0.0
100
AcDbText
  0
LINE
  5
1D3
330
F1
100
AcDbEntity
  8
Layer0004
  6
Continuous
 62
     2
370
    18
100
AcDbLine
 10
372.6964853449056
 20
45.29643116559615
 30
0.0
 11
412.2964853449056
 21
45.29643116559615
 31
0.0
  0
ENDBLK
  5
F3
330
F1
100
AcDbEntity
  8
0
100
AcDbBlockEnd
  0
BLOCK
  5
F5
330
F4
100
AcDbEntity
  8
0
100
AcDbBlockBegin
  2
DC_GROUP_HCN150_12
 70
     0
 10
0.0
 20
0.0
 30
0.0
  3
DC_GROUP_HCN150_12
  1

  0
TEXT
  5
1D4
330
F4
100
AcDbEntity
  8
Layer0004
 62
     2
100
AcDbText
 10
-322.8173669145843
 20
-381.6123990847059
 30
0.0
 40
6.0
  1
HANDLE SOCKET
 41
0.7999999999999997
  7
dcStyle0
 72
     5
 11
-260.4173669145844
 21
-381.6123990847059
 31
0.0
100
AcDbText
  0
ENDBLK
  5
F6
330
F4
100
AcDbEntity
  8
0
100
AcDbBlockEnd
  0
BLOCK
  5
F8
330
F7
100
AcDbEntity
  8
0
100
AcDbBlockBegin
  2
DC_GROUP_HCN150_13
 70
     0
 10
0.0
 20
0.0
 30
0.0
  3
DC_GROUP_HCN150_13
  1

  0
TEXT
  5
1D5
330
F7
100
AcDbEntity
  8
Layer0004
 62
     2
100
AcDbText
 10
-310.8173669145843
 20
-374.1544824203006
 30
0.0
 40
6.0
  1
ハンドルソケット
 41
0.6666666666666663
  7
dcStyle0
 72
     5
 11
-272.4173669145844
 21
-374.1544824203006
 31
0.0
100
AcDbText
  0
LINE
  5
1D6
330
F7
100
AcDbEntity
  8
Layer0004
  6
Continuous
 62
     2
370
    18
100
AcDbLine
 10
-323.4173669145844
 20
-374.7544824203006
 30
0.0
 11
-259.8173669145843
 21
-374.7544824203006
 31
0.0
  0
ENDBLK
  5
F9
330
F7
100
AcDbEntity
  8
0
100
AcDbBlockEnd
  0
BLOCK
  5
FC
330
FB
100
AcDbEntity
  8
0
100
AcDbBlockBegin
  2
_OPEN30
 70
     0
 10
0.0
 20
0.0
 30
0.0
  3
_OPEN30
  1

  0
LINE
  5
FE
330
FB
100
AcDbEntity
  8
0
  6
ByBlock
 62
     0
370
    -2
100
AcDbLine
 10
-1.0
 20
0.267949
 30
0.0
 11
0.0
 21
0.0
 31
0.0
  0
LINE
  5
FF
330
FB
100
AcDbEntity
  8
0
  6
ByBlock
 62
     0
370
    -2
100
AcDbLine
 10
0.0
 20
0.0
 30
0.0
 11
-1.0
 21
-0.267949
 31
0.0
  0
LINE
  5
100
330
FB
100
AcDbEntity
  8
0
  6
ByBlock
 62
     0
370
    -2
100
AcDbLine
 10
0.0
 20
0.0
 30
0.0
 11
-1.0
 21
0.0
 31
0.0
  0
ENDBLK
  5
FD
330
FB
100
AcDbEntity
  8
0
100
AcDbBlockEnd
  0
ENDSEC
  0
SECTION
  2
ENTITIES
  0
LINE
  5
1D7
330
1F
100
AcDbEntity
  8
Layer0000
  6
Continuous
 62
     3
370
    25
100
AcDbLine
 10
48.4193582675242
 20
-82.01380646176605
 30
0.0
 11
48.41935826752398
 21
-60.01380646176593
 31
0.0
  0
LINE
  5
1D8
330
1F
100
AcDbEntity
  8
Layer0000
  6
Continuous
 62
     3
370
    25
100
AcDbLine
 10
73.41935826752241
 20
-60.01380646176599
 30
0.0
 11
73.41935826752241
 21
-140.013806461766
 31
0.0
  0
LINE
  5
1D9
330
1F
100
AcDbEntity
  8
Layer0000
  6
Continuous
 62
     3
370
    25
100
AcDbLine
 10
48.41935826752398
 20
-60.01380646176593
 30
0.0
 11
73.41935826752241
 21
-60.01380646176599
 31
0.0
  0
LINE
  5
1DA
330
1F
100
AcDbEntity
  8
Layer0000
  6
Continuous
 62
     3
370
    25
100
AcDbLine
 10
48.4193582675242
 20
-118.013806461766
 30
0.0
 11
48.4193582675242
 21
-140.013806461766
 31
0.0
  0
LINE
  5
1DB
330
1F
100
AcDbEntity
  8
Layer0000
  6
Continuous
 62
     3
370
    25
100
AcDbLine
 10
48.4193582675242
 20
-140.013806461766
 30
0.0
 11
73.41935826752241
 21
-140.013806461766
 31
0.0
  0
LINE
  5
1DC
330
1F
100
AcDbEntity
  8
Layer0000
  6
Continuous
 62
     3
370
    25
100
AcDbLine
 10
48.4193582675242
 20
-70.01380646176605
 30
0.0
 11
48.4193582675242
 21
-82.01380646176605
 31
0.0
  0
LINE
  5
1DD
330
1F
100
AcDbEntity
  8
Layer0000
  6
Continuous
 62
     3
370
    25
100
AcDbLine
 10
-165.5806416100149
 20
-116.013806461766
 30
0.0
 11
-270.3287185417477
 21
-116.013806461766
 31
0.0
  0
LINE
  5
1DE
330
1F
100
AcDbEntity
  8
Layer0000
  6
Continuous
 62
     3
370
    25
100
AcDbLine
 10
-165.5806416100149
 20
-118.013806461766
 30
0.0
 11
-270.9921762577636
 21
-118.013806461766
 31
0.0
  0
LINE
  5
1DF
330
1F
100
AcDbEntity
  8
Layer0000
  6
Continuous
 62
     3
370
    25
100
AcDbLine
 10
-57.58064173247472
 20
-55.01380646176604
 30
0.0
 11
-25.08064173247472
 21
-55.01380646176604
 31
0.0
  0
LINE
  5
1E0
330
1F
100
AcDbEntity
  8
Layer0000
  6
Continuous
 62
     3
370
    25
100
AcDbLine
 10
-0.0806417324747741
 20
-55.01380646176604
 30
0.0
 11
32.41935826752398
 21
-55.01380646176604
 31
0.0
  0
LINE
  5
1E1
330
1F
100
AcDbEntity
  8
Layer0000
  6
Continuous
 62
     3
370
    25
100
AcDbLine
 10
-57.58064173247472
 20
-55.01380646176604
 30
0.0
 11
-57.58064173247472
 21
-5.013806461766023
 31
0.0
  0
LINE
  5
1E2
330
1F
100
AcDbEntity
  8
Layer0000
  6
Continuous
 62
     3
370
    25
100
AcDbLine
 10
32.41935826752398
 20
-5.013806461766023
 30
0.0
 11
32.41935826752398
 21
-55.01380646176604
 31
0.0
  0
LINE
  5
1E3
330
1F
100
AcDbEntity
  8
Layer0000
  6
Continuous
 62
     3
370
    25
100
AcDbLine
 10
-57.58064173247472
 20
-55.01380646176593
 30
0.0
 11
-74.58064173247473
 21
-55.01380646176593
 31
0.0
  0
LINE
  5
1E4
330
1F
100
AcDbEntity
  8
Layer0000
  6
Continuous
 62
     3
370
    25
100
AcDbLine
 10
-74.58064173247473
 20
-55.01380646176593
 30
0.0
 11
-74.58064173247473
 21
-4.013806461765938
 31
0.0
  0
LINE
  5
1E5
330
1F
100
AcDbEntity
  8
Layer0000
  6
Continuous
 62
     3
370
    25
100
AcDbLine
 10
-74.58064173247473
 20
-4.013806461765938
 30
0.0
 11
-57.58064173247472
 21
-4.013806461765938
 31
0.0
  0
LINE
  5
1E6
330
1F
100
AcDbEntity
  8
Layer0000
  6
Continuous
 62
     3
370
    25
100
AcDbLine
 10
-57.58064173247472
 20
-4.013806461765938
 30
0.0
 11
-57.58064173247472
 21
-55.01380646176593
 31
0.0
  0
LINE
  5
1E7
330
1F
100
AcDbEntity
  8
Layer0000
  6
Continuous
 62
     3
370
    25
100
AcDbLine
 10
-379.5806417324747
 20
-55.01380646176593
 30
0.0
 11
-396.5806417324747
 21
-55.01380646176593
 31
0.0
  0
LINE
  5
1E8
330
1F
100
AcDbEntity
  8
Layer0000
  6
Continuous
 62
     3
370
    25
100
AcDbLine
 10
-396.5806417324747
 20
-55.01380646176593
 30
0.0
 11
-396.5806417324747
 21
-4.013806461765938
 31
0.0
  0
LINE
  5
1E9
330
1F
100
AcDbEntity
  8
Layer0000
  6
Continuous
 62
     3
370
    25
100
AcDbLine
 10
-396.5806417324747
 20
-4.013806461765938
 30
0.0
 11
-379.5806417324747
 21
-4.013806461765938
 31
0.0
  0
LINE
  5
1EA
330
1F
100
AcDbEntity
  8
Layer0000
  6
Continuous
 62
     3
370
    25
100
AcDbLine
 10
-379.5806417324747
 20
-4.013806461765938
 30
0.0
 11
-379.5806417324747
 21
-55.01380646176593
 31
0.0
  0
LINE
  5
1EB
330
1F
100
AcDbEntity
  8
Layer0000
  6
Continuous
 62
     3
370
    25
100
AcDbLine
 10
-484.5806417324747
 20
-55.01380646176593
 30
0.0
 11
-484.5806417324747
 21
-165.0138064617659
 31
0.0
  0
LINE
  5
1EC
330
1F
100
AcDbEntity
  8
Layer0000
  6
Continuous
 62
     3
370
    25
100
AcDbLine
 10
-254.0806417324758
 20
-140.0138064617659
 30
0.0
 11
-89.0806417324758
 21
-140.0138064617659
 31
0.0
  0
LINE
  5
1ED
330
1F
100
AcDbEntity
  8
Layer0000
  6
Continuous
 62
     3
370
    25
100
AcDbLine
 10
48.4193582675242
 20
-130.013806461766
 30
0.0
 11
73.41935826752244
 21
-130.013806461766
 31
0.0
  0
LINE
  5
1EE
330
1F
100
AcDbEntity
  8
Layer0000
  6
Continuous
 62
     3
370
    25
100
AcDbLine
 10
-328.5806417324747
 20
-173.0138064617659
 30
0.0
 11
-328.5806417324747
 21
-161.0138064617659
 31
0.0
  0
LINE
  5
1EF
330
1F
100
AcDbEntity
  8
Layer0000
  6
Continuous
 62
     3
370
    25
100
AcDbLine
 10
-328.5806417324747
 20
-161.0138064617659
 30
0.0
 11
-310.5806417324747
 21
-161.0138064617659
 31
0.0
  0
LINE
  5
1F0
330
1F
100
AcDbEntity
  8
Layer0000
  6
Continuous
 62
     3
370
    25
100
AcDbLine
 10
-310.5806417324747
 20
-161.0138064617659
 30
0.0
 11
-310.5806417324747
 21
-173.0138064617659
 31
0.0
  0
LINE
  5
1F1
330
1F
100
AcDbEntity
  8
Layer0000
  6
Continuous
 62
     3
370
    25
100
AcDbLine
 10
-484.5806417324747
 20
329.3881828136529
 30
0.0
 11
-484.5806417324747
 21
173.3881828136529
 31
0.0
  0
LINE
  5
1F2
330
1F
100
AcDbEntity
  8
Layer0000
  6
Continuous
 62
     3
370
    25
100
AcDbLine
 10
48.41935826752398
 20
173.3881828136529
 30
0.0
 11
48.41935826752398
 21
329.3881828136529
 31
0.0
  0
LINE
  5
1F3
330
1F
100
AcDbEntity
  8
Layer0000
  6
Continuous
 62
     3
370
    25
100
AcDbLine
 10
-484.5806417324747
 20
329.3881828136529
 30
0.0
 11
48.41935826752392
 21
329.3881828136529
 31
0.0
  0
LINE
  5
1F4
330
1F
100
AcDbEntity
  8
Layer0000
  6
Continuous
 62
     3
370
    25
100
AcDbLine
 10
370.0526916620885
 20
329.3881828136529
 30
0.0
 11
370.0526916620885
 21
173.3881828136529
 31
0.0
  0
LINE
  5
1F5
330
1F
100
AcDbEntity
  8
Layer0000
  6
Continuous
 62
     3
370
    25
100
AcDbLine
 10
260.0526916620885
 20
291.3881828136529
 30
0.0
 11
265.0526916620885
 21
291.3881828136529
 31
0.0
  0
LINE
  5
1F6
330
1F
100
AcDbEntity
  8
Layer0000
  6
Continuous
 62
     3
370
    25
100
AcDbLine
 10
260.0526916620885
 20
211.3881828136529
 30
0.0
 11
265.0526916620885
 21
211.3881828136529
 31
0.0
  0
LINE
  5
1F7
330
1F
100
AcDbEntity
  8
Layer0000
  6
Continuous
 62
     3
370
    25
100
AcDbLine
 10
337.0526916620885
 20
278.4185276990501
 30
0.0
 11
337.0526916620885
 21
224.3578379282558
 31
0.0
  0
LINE
  5
1F8
330
1F
100
AcDbEntity
  8
Layer0000
  6
Continuous
 62
     3
370
    25
100
AcDbLine
 10
337.0526916620886
 20
278.4185276990499
 30
0.0
 11
335.1328186810107
 21
279.5269668814852
 31
0.0
  0
LINE
  5
1F9
330
1F
100
AcDbEntity
  8
Layer0000
  6
Continuous
 62
     3
370
    25
100
AcDbLine
 10
337.0526916620886
 20
224.3578379282559
 30
0.0
 11
335.0526916620885
 21
223.2031373898766
 31
0.0
  0
LINE
  5
1FA
330
1F
100
AcDbEntity
  8
Layer0000
  6
Continuous
 62
     3
370
    25
100
AcDbLine
 10
260.0526916620885
 20
327.388182813653
 30
0.0
 11
260.0526916620885
 21
175.3881828136529
 31
0.0
  0
LINE
  5
1FB
330
1F
100
AcDbEntity
  8
Layer0000
  6
Continuous
 62
     3
370
    25
100
AcDbLine
 10
260.0526916620885
 20
327.388182813653
 30
0.0
 11
210.0526916620885
 21
327.388182813653
 31
0.0
  0
LINE
  5
1FC
330
1F
100
AcDbEntity
  8
Layer0000
  6
Continuous
 62
     3
370
    25
100
AcDbLine
 10
260.0526916620885
 20
175.3881828136529
 30
0.0
 11
210.0526916620885
 21
175.3881828136529
 31
0.0
  0
LINE
  5
1FD
330
1F
100
AcDbEntity
  8
Layer0000
  6
Continuous
 62
     3
370
    25
100
AcDbLine
 10
210.0526916620885
 20
327.388182813653
 30
0.0
 11
210.0526916620885
 21
175.3881828136529
 31
0.0
  0
LINE
  5
1FE
330
1F
100
AcDbEntity
  8
Layer0000
  6
Continuous
 62
     3
370
    25
100
AcDbLine
 10
32.41935826752398
 20
175.3881828136529
 30
0.0
 11
32.41935826752398
 21
327.388182813653
 31
0.0
  0
LINE
  5
1FF
330
1F
100
AcDbEntity
  8
Layer0000
  6
Continuous
 62
     3
370
    25
100
AcDbLine
 10
-57.58064173247472
 20
175.3881828136529
 30
0.0
 11
-57.58064173247472
 21
327.388182813653
 31
0.0
  0
LINE
  5
200
330
1F
100
AcDbEntity
  8
Layer0000
  6
Continuous
 62
     3
370
    25
100
AcDbLine
 10
-74.58064173247473
 20
328.3881828136529
 30
0.0
 11
-74.58064173247473
 21
174.3881828136529
 31
0.0
  0
LINE
  5
201
330
1F
100
AcDbEntity
  8
Layer0000
  6
Continuous
 62
     3
370
    25
100
AcDbLine
 10
-74.58064173247473
 20
174.3881828136529
 30
0.0
 11
-57.58064173247472
 21
174.3881828136529
 31
0.0
  0
LINE
  5
202
330
1F
100
AcDbEntity
  8
Layer0000
  6
Continuous
 62
     3
370
    25
100
AcDbLine
 10
-74.58064173247473
 20
328.3881828136529
 30
0.0
 11
-57.58064173247472
 21
328.3881828136529
 31
0.0
  0
LINE
  5
203
330
1F
100
AcDbEntity
  8
Layer0000
  6
Continuous
 62
     3
370
    25
100
AcDbLine
 10
-57.58064173247472
 20
328.3881828136529
 30
0.0
 11
-57.58064173247472
 21
174.3881828136529
 31
0.0
  0
LINE
  5
204
330
1F
100
AcDbEntity
  8
Layer0000
  6
Continuous
 62
     3
370
    25
100
AcDbLine
 10
-396.5806417324747
 20
328.3881828136529
 30
0.0
 11
-396.5806417324747
 21
174.3881828136529
 31
0.0
  0
LINE
  5
205
330
1F
100
AcDbEntity
  8
Layer0000
  6
Continuous
 62
     3
370
    25
100
AcDbLine
 10
-379.5806417324747
 20
174.3881828136529
 30
0.0
 11
-379.5806417324747
 21
328.3881828136529
 31
0.0
  0
LINE
  5
206
330
1F
100
AcDbEntity
  8
Layer0000
  6
Continuous
 62
     3
370
    25
100
AcDbLine
 10
-379.5806417324747
 20
328.3881828136529
 30
0.0
 11
-396.5806417324747
 21
328.3881828136529
 31
0.0
  0
LINE
  5
207
330
1F
100
AcDbEntity
  8
Layer0000
  6
Continuous
 62
     3
370
    25
100
AcDbLine
 10
-379.5806417324747
 20
174.3881828136529
 30
0.0
 11
-396.5806417324747
 21
174.3881828136529
 31
0.0
  0
LINE
  5
208
330
1F
100
AcDbEntity
  8
Layer0000
  6
Continuous
 62
     3
370
    25
100
AcDbLine
 10
348.0526916620885
 20
173.3881828136529
 30
0.0
 11
348.0526916620885
 21
180.3881828136529
 31
0.0
  0
LINE
  5
209
330
1F
100
AcDbEntity
  8
Layer0000
  6
Continuous
 62
     3
370
    25
100
AcDbLine
 10
348.0526916620885
 20
180.3881828136529
 30
0.0
 11
295.0526916620885
 21
180.3881828136529
 31
0.0
  0
LINE
  5
20A
330
1F
100
AcDbEntity
  8
Layer0000
  6
Continuous
 62
     3
370
    25
100
AcDbLine
 10
295.0526916620885
 20
180.3881828136529
 30
0.0
 11
295.0526916620885
 21
173.3881828136529
 31
0.0
  0
LINE
  5
20B
330
1F
100
AcDbEntity
  8
Layer0000
  6
Continuous
 62
     3
370
    25
100
AcDbLine
 10
370.0526916620885
 20
173.3881828136529
 30
0.0
 11
348.0526916620885
 21
173.3881828136529
 31
0.0
  0
LINE
  5
20C
330
1F
100
AcDbEntity
  8
Layer0000
  6
Continuous
 62
     3
370
    25
100
AcDbLine
 10
295.0526916620885
 20
173.3881828136529
 30
0.0
 11
260.0526916620885
 21
173.3881828136529
 31
0.0
  0
LINE
  5
20D
330
1F
100
AcDbEntity
  8
Layer0000
  6
Continuous
 62
     3
370
    25
100
AcDbLine
 10
348.0526916620885
 20
329.3881828136529
 30
0.0
 11
348.0526916620885
 21
322.388182813653
 31
0.0
  0
LINE
  5
20E
330
1F
100
AcDbEntity
  8
Layer0000
  6
Continuous
 62
     3
370
    25
100
AcDbLine
 10
348.0526916620885
 20
322.388182813653
 30
0.0
 11
295.0526916620885
 21
322.388182813653
 31
0.0
  0
LINE
  5
20F
330
1F
100
AcDbEntity
  8
Layer0000
  6
Continuous
 62
     3
370
    25
100
AcDbLine
 10
295.0526916620885
 20
322.388182813653
 30
0.0
 11
295.0526916620885
 21
329.3881828136529
 31
0.0
  0
LINE
  5
210
330
1F
100
AcDbEntity
  8
Layer0000
  6
Continuous
 62
     3
370
    25
100
AcDbLine
 10
370.0526916620885
 20
329.3881828136529
 30
0.0
 11
348.0526916620885
 21
329.3881828136529
 31
0.0
  0
LINE
  5
211
330
1F
100
AcDbEntity
  8
Layer0000
  6
Continuous
 62
     3
370
    25
100
AcDbLine
 10
295.0526916620885
 20
329.3881828136529
 30
0.0
 11
260.0526916620885
 21
329.3881828136529
 31
0.0
  0
LINE
  5
212
330
1F
100
AcDbEntity
  8
Layer0000
  6
Continuous
 62
     3
370
    25
100
AcDbLine
 10
-165.5806416100149
 20
291.3881828136529
 30
0.0
 11
-165.5806416100149
 21
211.3881828136529
 31
0.0
  0
LINE
  5
213
330
1F
100
AcDbEntity
  8
Layer0000
  6
Continuous
 62
     3
370
    25
100
AcDbLine
 10
113.9193583287546
 20
-89.01380646176605
 30
0.0
 11
113.9193583287546
 21
-89.51380646176605
 31
0.0
  0
LINE
  5
214
330
1F
100
AcDbEntity
  8
Layer0000
  6
Continuous
 62
     3
370
    25
100
AcDbLine
 10
113.9193583287545
 20
-111.0138064617661
 30
0.0
 11
113.9193583287545
 21
-110.5138064617661
 31
0.0
  0
LINE
  5
215
330
1F
100
AcDbEntity
  8
Layer0000
  6
Continuous
 62
     3
370
    25
100
AcDbLine
 10
265.0526916620885
 20
321.388182813653
 30
0.0
 11
265.0526916620885
 21
181.3881828136529
 31
0.0
  0
LINE
  5
216
330
1F
100
AcDbEntity
  8
Layer0000
  6
Continuous
 62
     3
370
    25
100
AcDbLine
 10
335.0526916620885
 20
286.3881828136529
 30
0.0
 11
335.0526916620885
 21
216.3881828136529
 31
0.0
  0
LINE
  5
217
330
1F
100
AcDbEntity
  8
Layer0000
  6
Continuous
 62
     3
370
    25
100
AcDbLine
 10
345.0526916620885
 20
321.388182813653
 30
0.0
 11
345.0526916620885
 21
291.3881828136529
 31
0.0
  0
LINE
  5
218
330
1F
100
AcDbEntity
  8
Layer0000
  6
Continuous
 62
     3
370
    25
100
AcDbLine
 10
265.0526916620885
 20
321.388182813653
 30
0.0
 11
345.0526916620885
 21
321.388182813653
 31
0.0
  0
LINE
  5
219
330
1F
100
AcDbEntity
  8
Layer0000
  6
Continuous
 62
     3
370
    25
100
AcDbLine
 10
345.0526916620885
 20
291.3881828136529
 30
0.0
 11
340.0526916620885
 21
291.3881828136529
 31
0.0
  0
ARC
  5
21A
330
1F
100
AcDbEntity
  8
Layer0000
  6
Continuous
 62
     3
370
    25
100
AcDbCircle
 10
340.0526916620885
 20
286.3881828136529
 30
0.0
 40
5.0
100
AcDbArc
 50
90.0
 51
180.0
  0
LINE
  5
21B
330
1F
100
AcDbEntity
  8
Layer0000
  6
Continuous
 62
     3
370
    25
100
AcDbLine
 10
265.0526916620885
 20
181.3881828136529
 30
0.0
 11
345.0526916620885
 21
181.3881828136529
 31
0.0
  0
LINE
  5
21C
330
1F
100
AcDbEntity
  8
Layer0000
  6
Continuous
 62
     3
370
    25
100
AcDbLine
 10
345.0526916620885
 20
211.3881828136529
 30
0.0
 11
340.0526916620885
 21
211.3881828136529
 31
0.0
  0
ARC
  5
21D
330
1F
100
AcDbEntity
  8
Layer0000
  6
Continuous
 62
     3
370
    25
100
AcDbCircle
 10
340.0526916620885
 20
216.3881828136529
 30
0.0
 40
5.0
100
AcDbArc
 50
180.0
 51
270.0
  0
LINE
  5
21E
330
1F
100
AcDbEntity
  8
Layer0000
  6
Continuous
 62
     3
370
    25
100
AcDbLine
 10
345.0526916620885
 20
181.3881828136529
 30
0.0
 11
345.0526916620885
 21
211.3881828136529
 31
0.0
  0
LINE
  5
21F
330
1F
100
AcDbEntity
  8
Layer0000
  6
Continuous
 62
     3
370
    25
100
AcDbLine
 10
261.0526916620885
 20
291.3881828136529
 30
0.0
 11
261.0526916620885
 21
271.3881828136529
 31
0.0
  0
LINE
  5
220
330
1F
100
AcDbEntity
  8
Layer0000
  6
Continuous
 62
     3
370
    25
100
AcDbLine
 10
261.0526916620885
 20
291.3881828136529
 30
0.0
 11
265.0526916620885
 21
291.3881828136529
 31
0.0
  0
LINE
  5
221
330
1F
100
AcDbEntity
  8
Layer0000
  6
Continuous
 62
     3
370
    25
100
AcDbLine
 10
261.0526916620885
 20
271.3881828136529
 30
0.0
 11
265.0526916620885
 21
271.3881828136529
 31
0.0
  0
LINE
  5
222
330
1F
100
AcDbEntity
  8
Layer0000
  6
Continuous
 62
     3
370
    25
100
AcDbLine
 10
48.41935826752398
 20
271.3881828136529
 30
0.0
 11
43.41935826752398
 21
271.3881828136529
 31
0.0
  0
LINE
  5
223
330
1F
100
AcDbEntity
  8
Layer0000
  6
Continuous
 62
     3
370
    25
100
AcDbLine
 10
48.41935826752398
 20
291.3881828136529
 30
0.0
 11
48.41935826752398
 21
271.3881828136529
 31
0.0
  0
LINE
  5
224
330
1F
100
AcDbEntity
  8
Layer0000
  6
Continuous
 62
     3
370
    25
100
AcDbLine
 10
261.0526916620885
 20
289.8881828136529
 30
0.0
 11
265.0526916620885
 21
289.8881828136529
 31
0.0
  0
LINE
  5
225
330
1F
100
AcDbEntity
  8
Layer0000
  6
Continuous
 62
     3
370
    25
100
AcDbLine
 10
261.0526916620885
 20
287.8881828136529
 30
0.0
 11
265.0526916620885
 21
287.8881828136529
 31
0.0
  0
LINE
  5
226
330
1F
100
AcDbEntity
  8
Layer0000
  6
Continuous
 62
     3
370
    25
100
AcDbLine
 10
43.41935826752398
 20
291.3881828136529
 30
0.0
 11
43.41935826752398
 21
211.3881828136529
 31
0.0
  0
LINE
  5
227
330
1F
100
AcDbEntity
  8
Layer0000
  6
Continuous
 62
     3
370
    25
100
AcDbLine
 10
-165.580641732476
 20
269.3881828136529
 30
0.0
 11
-165.580641732476
 21
233.3881828136529
 31
0.0
  0
LINE
  5
228
330
1F
100
AcDbEntity
  8
Layer0000
  6
Continuous
 62
     3
370
    25
100
AcDbLine
 10
261.0526916620885
 20
287.3881828136529
 30
0.0
 11
265.0526916620885
 21
287.3881828136529
 31
0.0
  0
LINE
  5
229
330
1F
100
AcDbEntity
  8
Layer0000
  6
Continuous
 62
     3
370
    25
100
AcDbLine
 10
261.0526916620885
 20
211.3881828136529
 30
0.0
 11
261.0526916620885
 21
231.3881828136529
 31
0.0
  0
LINE
  5
22A
330
1F
100
AcDbEntity
  8
Layer0000
  6
Continuous
 62
     3
370
    25
100
AcDbLine
 10
261.0526916620885
 20
211.3881828136529
 30
0.0
 11
265.0526916620885
 21
211.3881828136529
 31
0.0
  0
LINE
  5
22B
330
1F
100
AcDbEntity
  8
Layer0000
  6
Continuous
 62
     3
370
    25
100
AcDbLine
 10
261.0526916620885
 20
231.3881828136529
 30
0.0
 11
265.0526916620885
 21
231.3881828136529
 31
0.0
  0
LINE
  5
22C
330
1F
100
AcDbEntity
  8
Layer0000
  6
Continuous
 62
     3
370
    25
100
AcDbLine
 10
48.41935826752398
 20
231.3881828136529
 30
0.0
 11
43.41935826752398
 21
231.3881828136529
 31
0.0
  0
LINE
  5
22D
330
1F
100
AcDbEntity
  8
Layer0000
  6
Continuous
 62
     3
370
    25
100
AcDbLine
 10
48.41935826752398
 20
211.3881828136529
 30
0.0
 11
48.41935826752398
 21
231.3881828136529
 31
0.0
  0
LINE
  5
22E
330
1F
100
AcDbEntity
  8
Layer0000
  6
Continuous
 62
     3
370
    25
100
AcDbLine
 10
261.0526916620885
 20
212.8881828136529
 30
0.0
 11
265.0526916620885
 21
212.8881828136529
 31
0.0
  0
LINE
  5
22F
330
1F
100
AcDbEntity
  8
Layer0000
  6
Continuous
 62
     3
370
    25
100
AcDbLine
 10
261.0526916620885
 20
214.8881828136529
 30
0.0
 11
265.0526916620885
 21
214.8881828136529
 31
0.0
  0
LINE
  5
230
330
1F
100
AcDbEntity
  8
Layer0000
  6
Continuous
 62
     3
370
    25
100
AcDbLine
 10
261.0526916620885
 20
215.3881828136529
 30
0.0
 11
265.0526916620885
 21
215.3881828136529
 31
0.0
  0
LINE
  5
231
330
1F
100
AcDbEntity
  8
Layer0000
  6
Continuous
 62
     3
370
    25
100
AcDbLine
 10
-170.5806416100149
 20
271.3881828136529
 30
0.0
 11
-165.5806416100149
 21
271.3881828136529
 31
0.0
  0
LINE
  5
232
330
1F
100
AcDbEntity
  8
Layer0000
  6
Continuous
 62
     3
370
    25
100
AcDbLine
 10
-170.5806416100149
 20
291.3881828136529
 30
0.0
 11
-170.5806416100149
 21
271.3881828136529
 31
0.0
  0
LINE
  5
233
330
1F
100
AcDbEntity
  8
Layer0000
  6
Continuous
 62
     3
370
    25
100
AcDbLine
 10
-170.5806416100149
 20
231.3881828136529
 30
0.0
 11
-165.5806416100149
 21
231.3881828136529
 31
0.0
  0
LINE
  5
234
330
1F
100
AcDbEntity
  8
Layer0000
  6
Continuous
 62
     3
370
    25
100
AcDbLine
 10
-170.5806416100149
 20
211.3881828136529
 30
0.0
 11
-170.5806416100149
 21
231.3881828136529
 31
0.0
  0
LINE
  5
235
330
1F
100
AcDbEntity
  8
Layer0000
  6
Continuous
 62
     3
370
    25
100
AcDbLine
 10
345.0526916620885
 20
279.3881828136529
 30
0.0
 11
345.0526916620885
 21
223.3881828136529
 31
0.0
  0
LINE
  5
236
330
1F
100
AcDbEntity
  8
Layer0000
  6
Continuous
 62
     3
370
    25
100
AcDbLine
 10
48.41935826752398
 20
320.388182813653
 30
0.0
 11
73.41935826752241
 21
320.388182813653
 31
0.0
  0
LINE
  5
237
330
1F
100
AcDbEntity
  8
Layer0000
  6
Continuous
 62
     3
370
    25
100
AcDbLine
 10
48.41935826752398
 20
182.3881828136529
 30
0.0
 11
73.41935826752241
 21
182.3881828136529
 31
0.0
  0
LINE
  5
238
330
1F
100
AcDbEntity
  8
Layer0000
  6
Continuous
 62
     3
370
    25
100
AcDbLine
 10
73.41935826752241
 20
320.388182813653
 30
0.0
 11
73.41935826752241
 21
182.3881828136529
 31
0.0
  0
LINE
  5
239
330
1F
100
AcDbEntity
  8
Layer0000
  6
Continuous
 62
     3
370
    25
100
AcDbLine
 10
48.41935826752398
 20
320.388182813653
 30
0.0
 11
48.41935826752398
 21
182.3881828136529
 31
0.0
  0
LINE
  5
23A
330
1F
100
AcDbEntity
  8
Layer0000
  6
Continuous
 62
     3
370
    25
100
AcDbLine
 10
-396.5806417324747
 20
-55.01380646176593
 30
0.0
 11
-396.5806417324747
 21
-5.013806461765938
 31
0.0
  0
LINE
  5
23B
330
1F
100
AcDbEntity
  8
Layer0000
  6
Continuous
 62
     3
370
    25
100
AcDbLine
 10
-484.5806417324747
 20
-5.013806461765938
 30
0.0
 11
-484.5806417324747
 21
-55.01380646176593
 31
0.0
  0
LINE
  5
23C
330
1F
100
AcDbEntity
  8
Layer0000
  6
Continuous
 62
     3
370
    25
100
AcDbLine
 10
-396.5806417324747
 20
327.388182813653
 30
0.0
 11
-396.5806417324747
 21
175.3881828136529
 31
0.0
  0
LINE
  5
23D
330
1F
100
AcDbEntity
  8
Layer0000
  6
Continuous
 62
     3
370
    25
100
AcDbLine
 10
-445.5806417324747
 20
-55.01380646176593
 30
0.0
 11
-445.5806417324747
 21
-65.01380646176594
 31
0.0
  0
LINE
  5
23E
330
1F
100
AcDbEntity
  8
Layer0000
  6
Continuous
 62
     3
370
    25
100
AcDbLine
 10
-445.5806417324747
 20
-65.01380646176594
 30
0.0
 11
-425.5806417324747
 21
-65.01380646176594
 31
0.0
  0
LINE
  5
23F
330
1F
100
AcDbEntity
  8
Layer0000
  6
Continuous
 62
     3
370
    25
100
AcDbLine
 10
-425.5806417324747
 20
-65.01380646176594
 30
0.0
 11
-425.5806417324747
 21
-55.01380646176593
 31
0.0
  0
LINE
  5
240
330
1F
100
AcDbEntity
  8
Layer0000
  6
Continuous
 62
     3
370
    25
100
AcDbLine
 10
-484.5806417324747
 20
-55.01380646176593
 30
0.0
 11
-445.5806417324747
 21
-55.01380646176593
 31
0.0
  0
LINE
  5
241
330
1F
100
AcDbEntity
  8
Layer0000
  6
Continuous
 62
     3
370
    25
100
AcDbLine
 10
-425.5806417324747
 20
-55.01380646176593
 30
0.0
 11
48.41935826752398
 21
-55.01380646176593
 31
0.0
  0
LINE
  5
242
330
1F
100
AcDbEntity
  8
Layer0000
  6
Continuous
 62
     3
370
    25
100
AcDbLine
 10
260.0526916620885
 20
173.3881828136529
 30
0.0
 11
260.0526916620885
 21
211.3881828136529
 31
0.0
  0
LINE
  5
243
330
1F
100
AcDbEntity
  8
Layer0000
  6
Continuous
 62
     3
370
    25
100
AcDbLine
 10
260.0526916620885
 20
291.3881828136529
 30
0.0
 11
260.0526916620885
 21
329.3881828136529
 31
0.0
  0
LINE
  5
244
330
1F
100
AcDbEntity
  8
Layer0000
  6
Continuous
 62
     3
370
    25
100
AcDbLine
 10
-425.5806417324747
 20
-64.51380646176594
 30
0.0
 11
-445.5806417324747
 21
-64.51380646176594
 31
0.0
  0
LINE
  5
245
330
1F
100
AcDbEntity
  8
Layer0000
  6
Continuous
 62
     3
370
    25
100
AcDbLine
 10
260.0526916620885
 20
328.388182813653
 30
0.0
 11
209.0526916620885
 21
328.388182813653
 31
0.0
  0
LINE
  5
246
330
1F
100
AcDbEntity
  8
Layer0000
  6
Continuous
 62
     3
370
    25
100
AcDbLine
 10
209.0526916620885
 20
328.388182813653
 30
0.0
 11
209.0526916620885
 21
174.3881828136529
 31
0.0
  0
LINE
  5
247
330
1F
100
AcDbEntity
  8
Layer0000
  6
Continuous
 62
     3
370
    25
100
AcDbLine
 10
209.0526916620885
 20
174.3881828136529
 30
0.0
 11
209.0526916620885
 21
328.388182813653
 31
0.0
  0
LINE
  5
248
330
1F
100
AcDbEntity
  8
Layer0000
  6
Continuous
 62
     3
370
    25
100
AcDbLine
 10
209.0526916620885
 20
174.3881828136529
 30
0.0
 11
260.0526916620885
 21
174.3881828136529
 31
0.0
  0
LINE
  5
249
330
1F
100
AcDbEntity
  8
Layer0000
  6
Continuous
 62
     3
370
    25
100
AcDbLine
 10
260.0526916620885
 20
174.3881828136529
 30
0.0
 11
260.0526916620885
 21
328.388182813653
 31
0.0
  0
LINE
  5
24A
330
1F
100
AcDbEntity
  8
Layer0000
  6
Continuous
 62
     3
370
    25
100
AcDbLine
 10
340.0526916620885
 20
289.3881828136529
 30
0.0
 11
336.0526916620885
 21
289.3881828136529
 31
0.0
  0
ARC
  5
24B
330
1F
100
AcDbEntity
  8
Layer0000
  6
Continuous
 62
     3
370
    25
100
AcDbCircle
 10
335.0526916620885
 20
279.3881828136529
 30
0.0
 40
10.0
100
AcDbArc
 50
0.0
 51
84.46008704053686
  0
LINE
  5
24C
330
1F
100
AcDbEntity
  8
Layer0000
  6
Continuous
 62
     3
370
    25
100
AcDbLine
 10
340.0526916620885
 20
213.3881828136529
 30
0.0
 11
336.0526916620885
 21
213.3881828136529
 31
0.0
  0
ARC
  5
24D
330
1F
100
AcDbEntity
  8
Layer0000
  6
Continuous
 62
     3
370
    25
100
AcDbCircle
 10
335.0526916620885
 20
223.3881828136529
 30
0.0
 40
10.0
100
AcDbArc
 50
275.5399129594632
 51
0.0
  0
LINE
  5
24E
330
1F
100
AcDbEntity
  8
Layer0000
  6
Continuous
 62
     3
370
    25
100
AcDbLine
 10
-89.0806417324758
 20
-105.0138064617659
 30
0.0
 11
-254.0806417324758
 21
-105.0138064617659
 31
0.0
  0
ARC
  5
24F
330
1F
100
AcDbEntity
  8
Layer0000
  6
Continuous
 62
     3
370
    25
100
AcDbCircle
 10
-254.0806417324758
 20
-122.5138064617659
 30
0.0
 40
17.5
100
AcDbArc
 50
90.0
 51
270.0
  0
ARC
  5
250
330
1F
100
AcDbEntity
  8
Layer0000
  6
Continuous
 62
     3
370
    25
100
AcDbCircle
 10
-89.0806417324758
 20
-122.5138064617659
 30
0.0
 40
17.5
100
AcDbArc
 50
270.0
 51
90.0
  0
LINE
  5
251
330
1F
100
AcDbEntity
  8
Layer0000
  6
Continuous
 62
     3
370
    25
100
AcDbLine
 10
350.0526916620885
 20
223.3881828136529
 30
0.0
 11
350.0526916620885
 21
279.3881828136529
 31
0.0
  0
ARC
  5
252
330
1F
100
AcDbEntity
  8
Layer0000
  6
Continuous
 62
     3
370
    25
100
AcDbCircle
 10
340.0526916620885
 20
223.3881828136529
 30
0.0
 40
10.0
100
AcDbArc
 50
270.0
 51
0.0
  0
ARC
  5
253
330
1F
100
AcDbEntity
  8
Layer0000
  6
Continuous
 62
     3
370
    25
100
AcDbCircle
 10
340.0526916620885
 20
279.3881828136529
 30
0.0
 40
10.0
100
AcDbArc
 50
0.0
 51
90.0
  0
LINE
  5
254
330
1F
100
AcDbEntity
  8
Layer0000
  6
Continuous
 62
     3
370
    25
100
AcDbLine
 10
48.41935826752398
 20
-55.01380646176593
 30
0.0
 11
48.4193582675242
 21
-165.0138064617659
 31
0.0
  0
LINE
  5
255
330
1F
100
AcDbEntity
  8
Layer0000
  6
Continuous
 62
     3
370
    25
100
AcDbLine
 10
-165.580641732476
 20
267.3881828136529
 30
0.0
 11
-379.5806417324747
 21
267.3881828136529
 31
0.0
  0
LINE
  5
256
330
1F
100
AcDbEntity
  8
Layer0000
  6
Continuous
 62
     3
370
    25
100
AcDbLine
 10
-165.5806416100149
 20
269.3881828136529
 30
0.0
 11
-379.5806417324747
 21
269.3881828136529
 31
0.0
  0
LINE
  5
257
330
1F
100
AcDbEntity
  8
Layer0000
  6
Continuous
 62
     3
370
    25
100
AcDbLine
 10
-436.5806417324747
 20
-5.013806461765938
 30
0.0
 11
-436.5806417324747
 21
-9.513806461765938
 31
0.0
  0
LINE
  5
258
330
1F
100
AcDbEntity
  8
Layer0000
  6
Continuous
 62
     3
370
    25
100
AcDbLine
 10
-436.5806417324747
 20
-9.513806461765938
 30
0.0
 11
-452.5806417324747
 21
-9.513806461765938
 31
0.0
  0
LINE
  5
259
330
1F
100
AcDbEntity
  8
Layer0000
  6
Continuous
 62
     3
370
    25
100
AcDbLine
 10
-452.5806417324747
 20
-9.513806461765938
 30
0.0
 11
-452.5806417324747
 21
-5.013806461765938
 31
0.0
  0
LINE
  5
25A
330
1F
100
AcDbEntity
  8
Layer0000
  6
Continuous
 62
     3
370
    25
100
AcDbLine
 10
-396.5806417324747
 20
-5.013806461765938
 30
0.0
 11
-436.5806417324747
 21
-5.013806461765938
 31
0.0
  0
LINE
  5
25B
330
1F
100
AcDbEntity
  8
Layer0000
  6
Continuous
 62
     3
370
    25
100
AcDbLine
 10
-452.5806417324747
 20
-5.013806461765938
 30
0.0
 11
-484.5806417324747
 21
-5.013806461765938
 31
0.0
  0
LINE
  5
25C
330
1F
100
AcDbEntity
  8
Layer0000
  6
Continuous
 62
     3
370
    25
100
AcDbLine
 10
-57.58064173247472
 20
-5.013806461766023
 30
0.0
 11
-17.58064173247472
 21
-5.013806461766023
 31
0.0
  0
LINE
  5
25D
330
1F
100
AcDbEntity
  8
Layer0000
  6
Continuous
 62
     3
370
    25
100
AcDbLine
 10
-1.580641732474717
 20
-5.013806461766023
 30
0.0
 11
32.41935826752398
 21
-5.013806461766023
 31
0.0
  0
LINE
  5
25E
330
1F
100
AcDbEntity
  8
Layer0000
  6
Continuous
 62
     3
370
    25
100
AcDbLine
 10
-17.58064173247472
 20
-5.013806461766023
 30
0.0
 11
-17.58064173247472
 21
-9.513806461766023
 31
0.0
  0
LINE
  5
25F
330
1F
100
AcDbEntity
  8
Layer0000
  6
Continuous
 62
     3
370
    25
100
AcDbLine
 10
-17.58064173247472
 20
-9.513806461766023
 30
0.0
 11
-1.580641732474717
 21
-9.513806461766023
 31
0.0
  0
LINE
  5
260
330
1F
100
AcDbEntity
  8
Layer0000
  6
Continuous
 62
     3
370
    25
100
AcDbLine
 10
-1.580641732474717
 20
-9.513806461766023
 30
0.0
 11
-1.580641732474717
 21
-5.013806461766023
 31
0.0
  0
LINE
  5
261
330
1F
100
AcDbEntity
  8
Layer0000
  6
Continuous
 62
     3
370
    25
100
AcDbLine
 10
-268.5806417324747
 20
-165.0138064617659
 30
0.0
 11
-268.5806417324747
 21
-161.0138064617659
 31
0.0
  0
LINE
  5
262
330
1F
100
AcDbEntity
  8
Layer0000
  6
Continuous
 62
     3
370
    25
100
AcDbLine
 10
-268.5806417324747
 20
-161.0138064617659
 30
0.0
 11
-250.5806417324747
 21
-161.0138064617659
 31
0.0
  0
LINE
  5
263
330
1F
100
AcDbEntity
  8
Layer0000
  6
Continuous
 62
     3
370
    25
100
AcDbLine
 10
-250.5806417324747
 20
-161.0138064617659
 30
0.0
 11
-250.5806417324747
 21
-165.0138064617659
 31
0.0
  0
LINE
  5
264
330
1F
100
AcDbEntity
  8
Layer0000
  6
Continuous
 62
     3
370
    25
100
AcDbLine
 10
-208.5806417324747
 20
-165.0138064617659
 30
0.0
 11
-208.5806417324747
 21
-161.0138064617659
 31
0.0
  0
LINE
  5
265
330
1F
100
AcDbEntity
  8
Layer0000
  6
Continuous
 62
     3
370
    25
100
AcDbLine
 10
-208.5806417324747
 20
-161.0138064617659
 30
0.0
 11
-190.5806417324747
 21
-161.0138064617659
 31
0.0
  0
LINE
  5
266
330
1F
100
AcDbEntity
  8
Layer0000
  6
Continuous
 62
     3
370
    25
100
AcDbLine
 10
-190.5806417324747
 20
-161.0138064617659
 30
0.0
 11
-190.5806417324747
 21
-165.0138064617659
 31
0.0
  0
LINE
  5
267
330
1F
100
AcDbEntity
  8
Layer0000
  6
Continuous
 62
     3
370
    25
100
AcDbLine
 10
48.4193582675242
 20
-143.0138064617659
 30
0.0
 11
-484.5806417324746
 21
-143.0138064617659
 31
0.0
  0
LINE
  5
268
330
1F
100
AcDbEntity
  8
Layer0000
  6
Continuous
 62
     3
370
    25
100
AcDbLine
 10
48.41935826752398
 20
-90.01380646176594
 30
0.0
 11
-484.5806417324746
 21
-90.01380646176594
 31
0.0
  0
LINE
  5
269
330
1F
100
AcDbEntity
  8
Layer0000
  6
Continuous
 62
     3
370
    25
100
AcDbLine
 10
-379.5806417324747
 20
291.3881828136529
 30
0.0
 11
-74.58064173247473
 21
291.3881828136529
 31
0.0
  0
LINE
  5
26A
330
1F
100
AcDbEntity
  8
Layer0000
  6
Continuous
 62
     3
370
    25
100
AcDbLine
 10
32.41935826752398
 20
291.3881828136529
 30
0.0
 11
48.41935826752398
 21
291.3881828136529
 31
0.0
  0
LINE
  5
26B
330
1F
100
AcDbEntity
  8
Layer0000
  6
Continuous
 62
     3
370
    25
100
AcDbLine
 10
32.41935826752398
 20
211.3881828136529
 30
0.0
 11
48.41935826752398
 21
211.3881828136529
 31
0.0
  0
LINE
  5
26C
330
1F
100
AcDbEntity
  8
Layer0000
  6
Continuous
 62
     3
370
    25
100
AcDbLine
 10
210.0526916620885
 20
329.3881828136529
 30
0.0
 11
210.0526916620885
 21
328.4235801436662
 31
0.0
  0
LINE
  5
26D
330
1F
100
AcDbEntity
  8
Layer0000
  6
Continuous
 62
     3
370
    25
100
AcDbLine
 10
210.0526916620885
 20
174.5002632532284
 30
0.0
 11
210.0526916620885
 21
173.3881828136529
 31
0.0
  0
LINE
  5
26E
330
1F
100
AcDbEntity
  8
Layer0000
  6
Continuous
 62
     3
370
    25
100
AcDbLine
 10
-484.5806417324747
 20
327.388182813653
 30
0.0
 11
-471.5806417324746
 21
327.388182813653
 31
0.0
  0
LINE
  5
26F
330
1F
100
AcDbEntity
  8
Layer0000
  6
Continuous
 62
     3
370
    25
100
AcDbLine
 10
-471.5806417324746
 20
327.388182813653
 30
0.0
 11
-396.5806417324747
 21
327.388182813653
 31
0.0
  0
LINE
  5
270
330
1F
100
AcDbEntity
  8
Layer0000
  6
Continuous
 62
     3
370
    25
100
AcDbLine
 10
-484.5806417324747
 20
175.3881828136529
 30
0.0
 11
-471.5806417324746
 21
175.3881828136529
 31
0.0
  0
LINE
  5
271
330
1F
100
AcDbEntity
  8
Layer0000
  6
Continuous
 62
     3
370
    25
100
AcDbLine
 10
-406.5806417324746
 20
175.3881828136529
 30
0.0
 11
-396.5806417324747
 21
175.3881828136529
 31
0.0
  0
LINE
  5
272
330
1F
100
AcDbEntity
  8
Layer0000
  6
Continuous
 62
     3
370
    25
100
AcDbLine
 10
32.41935826752398
 20
327.388182813653
 30
0.0
 11
17.41935826752523
 21
327.388182813653
 31
0.0
  0
LINE
  5
273
330
1F
100
AcDbEntity
  8
Layer0000
  6
Continuous
 62
     3
370
    25
100
AcDbLine
 10
17.41935826752523
 20
327.388182813653
 30
0.0
 11
-57.58064173247472
 21
327.388182813653
 31
0.0
  0
LINE
  5
274
330
1F
100
AcDbEntity
  8
Layer0000
  6
Continuous
 62
     3
370
    25
100
AcDbLine
 10
32.41935826752398
 20
175.3881828136529
 30
0.0
 11
-47.58064173247477
 21
175.3881828136529
 31
0.0
  0
LINE
  5
275
330
1F
100
AcDbEntity
  8
Layer0000
  6
Continuous
 62
     3
370
    25
100
AcDbLine
 10
-47.58064173247477
 20
175.3881828136529
 30
0.0
 11
-57.58064173247472
 21
175.3881828136529
 31
0.0
  0
CIRCLE
  5
276
330
1F
100
AcDbEntity
  8
Layer0000
  6
Continuous
 62
     3
370
    25
100
AcDbCircle
 10
305.0526916620885
 20
251.3881828136529
 30
0.0
 40
18.0
  0
CIRCLE
  5
277
330
1F
100
AcDbEntity
  8
Layer0000
  6
Continuous
 62
     3
370
    25
100
AcDbCircle
 10
305.0526916620885
 20
251.3881828136529
 30
0.0
 40
16.0
  0
LINE
  5
278
330
1F
100
AcDbEntity
  8
Layer0000
  6
Continuous
 62
     3
370
    25
100
AcDbLine
 10
320.1941200906314
 20
261.1214836485863
 30
0.0
 11
305.9112632335457
 21
269.3676948998216
 31
0.0
  0
LINE
  5
279
330
1F
100
AcDbEntity
  8
Layer0000
  6
Continuous
 62
     3
370
    25
100
AcDbLine
 10
304.1941200906314
 20
269.3676948998216
 30
0.0
 11
289.9112632335457
 21
261.1214836485863
 31
0.0
  0
LINE
  5
27A
330
1F
100
AcDbEntity
  8
Layer0000
  6
Continuous
 62
     3
370
    25
100
AcDbLine
 10
289.0526916620885
 20
259.6343940648882
 30
0.0
 11
289.0526916620885
 21
243.1419715624176
 31
0.0
  0
LINE
  5
27B
330
1F
100
AcDbEntity
  8
Layer0000
  6
Continuous
 62
     3
370
    25
100
AcDbLine
 10
289.9112632335457
 20
241.6548819787196
 30
0.0
 11
304.1941200906314
 21
233.4086707274842
 31
0.0
  0
LINE
  5
27C
330
1F
100
AcDbEntity
  8
Layer0000
  6
Continuous
 62
     3
370
    25
100
AcDbLine
 10
305.9112632335457
 20
233.4086707274843
 30
0.0
 11
320.1941200906314
 21
241.6548819787195
 31
0.0
  0
LINE
  5
27D
330
1F
100
AcDbEntity
  8
Layer0000
  6
Continuous
 62
     3
370
    25
100
AcDbLine
 10
321.0526916620885
 20
243.1419715624176
 30
0.0
 11
321.0526916620885
 21
259.6343940648882
 31
0.0
  0
LINE
  5
27E
330
1F
100
AcDbEntity
  8
Layer0000
  6
Continuous
 62
     3
370
    25
100
AcDbLine
 10
-165.5806416100149
 20
-105.0138064617659
 30
0.0
 11
-165.5806416100149
 21
-132.0138064617659
 31
0.0
  0
LINE
  5
27F
330
1F
100
AcDbEntity
  8
Layer0000
  6
Continuous
 62
     3
370
    25
100
AcDbLine
 10
-165.5806416100149
 20
-132.0138064617659
 30
0.0
 11
-74.38370327577672
 21
-132.0138064617659
 31
0.0
  0
LINE
  5
280
330
1F
100
AcDbEntity
  8
Layer0000
  6
Continuous
 62
     3
370
    25
100
AcDbLine
 10
75.16935826752332
 20
269.3881828136529
 30
0.0
 11
92.41935832875042
 21
269.3881828136529
 31
0.0
  0
LINE
  5
281
330
1F
100
AcDbEntity
  8
Layer0000
  6
Continuous
 62
     3
370
    25
100
AcDbLine
 10
93.41935832875042
 20
237.888182813653
 30
0.0
 11
93.41935832875042
 21
264.8881828136529
 31
0.0
  0
LINE
  5
282
330
1F
100
AcDbEntity
  8
Layer0000
  6
Continuous
 62
     3
370
    25
100
AcDbLine
 10
75.16935826752332
 20
274.1881828136529
 30
0.0
 11
75.16935826752332
 21
228.5881828136528
 31
0.0
  0
LINE
  5
283
330
1F
100
AcDbEntity
  8
Layer0000
  6
Continuous
 62
     3
370
    25
100
AcDbLine
 10
75.16935826752332
 20
274.1881828136529
 30
0.0
 11
73.41935826752241
 21
274.1881828136529
 31
0.0
  0
LINE
  5
284
330
1F
100
AcDbEntity
  8
Layer0000
  6
Continuous
 62
     3
370
    25
100
AcDbLine
 10
75.16935826752332
 20
268.3881828136529
 30
0.0
 11
73.41935826752247
 21
268.3881828136529
 31
0.0
  0
LINE
  5
285
330
1F
100
AcDbEntity
  8
Layer0000
  6
Continuous
 62
     3
370
    25
100
AcDbLine
 10
75.16935826752332
 20
228.5881828136528
 30
0.0
 11
73.41935826752241
 21
228.5881828136528
 31
0.0
  0
LINE
  5
286
330
1F
100
AcDbEntity
  8
Layer0000
  6
Continuous
 62
     3
370
    25
100
AcDbLine
 10
75.16935826752332
 20
234.3881828136529
 30
0.0
 11
73.41935826752241
 21
234.3881828136529
 31
0.0
  0
LINE
  5
287
330
1F
100
AcDbEntity
  8
Layer0000
  6
Continuous
 62
     3
370
    25
100
AcDbLine
 10
130.9193583287546
 20
259.3881828136529
 30
0.0
 11
130.9193583287546
 21
243.3881828136529
 31
0.0
  0
LINE
  5
288
330
1F
100
AcDbEntity
  8
Layer0000
  6
Continuous
 62
     3
370
    25
100
AcDbLine
 10
113.9193583287546
 20
262.3881828136529
 30
0.0
 11
113.9193583287546
 21
240.3881828136529
 31
0.0
  0
LINE
  5
289
330
1F
100
AcDbEntity
  8
Layer0000
  6
Continuous
 62
     3
370
    25
100
AcDbLine
 10
113.9193583287546
 20
261.8881828136529
 30
0.0
 11
129.9193583287546
 21
261.8881828136529
 31
0.0
  0
LINE
  5
28A
330
1F
100
AcDbEntity
  8
Layer0000
  6
Continuous
 62
     3
370
    25
100
AcDbLine
 10
113.9193583287546
 20
240.8881828136529
 30
0.0
 11
129.9193583287546
 21
240.8881828136529
 31
0.0
  0
LINE
  5
28B
330
1F
100
AcDbEntity
  8
Layer0000
  6
Continuous
 62
     3
370
    25
100
AcDbLine
 10
103.4193583287546
 20
262.3881828136529
 30
0.0
 11
103.4193583287546
 21
240.3881828136529
 31
0.0
  0
LINE
  5
28C
330
1F
100
AcDbEntity
  8
Layer0000
  6
Continuous
 62
     3
370
    25
100
AcDbLine
 10
100.4193583287546
 20
262.3881828136529
 30
0.0
 11
100.4193583287546
 21
240.3881828136529
 31
0.0
  0
LINE
  5
28D
330
1F
100
AcDbEntity
  8
Layer0000
  6
Continuous
 62
     3
370
    25
100
AcDbLine
 10
97.41935832875457
 20
262.3881828136529
 30
0.0
 11
97.41935832875457
 21
240.3881828136529
 31
0.0
  0
LINE
  5
28E
330
1F
100
AcDbEntity
  8
Layer0000
  6
Continuous
 62
     3
370
    25
100
AcDbLine
 10
103.9193583287546
 20
262.3881828136529
 30
0.0
 11
103.9193583287546
 21
240.3881828136529
 31
0.0
  0
LINE
  5
28F
330
1F
100
AcDbEntity
  8
Layer0000
  6
Continuous
 62
     3
370
    25
100
AcDbLine
 10
100.9193583287546
 20
262.3881828136529
 30
0.0
 11
100.9193583287546
 21
240.3881828136529
 31
0.0
  0
LINE
  5
290
330
1F
100
AcDbEntity
  8
Layer0000
  6
Continuous
 62
     3
370
    25
100
AcDbLine
 10
97.91935832875457
 20
262.3881828136529
 30
0.0
 11
97.91935832875457
 21
240.3881828136529
 31
0.0
  0
LINE
  5
291
330
1F
100
AcDbEntity
  8
Layer0000
  6
Continuous
 62
     3
370
    25
100
AcDbLine
 10
97.41935832875457
 20
262.1381828136529
 30
0.0
 11
97.91935832875457
 21
262.1381828136529
 31
0.0
  0
LINE
  5
292
330
1F
100
AcDbEntity
  8
Layer0000
  6
Continuous
 62
     3
370
    25
100
AcDbLine
 10
100.4193583287546
 20
262.1381828136529
 30
0.0
 11
100.9193583287546
 21
262.1381828136529
 31
0.0
  0
LINE
  5
293
330
1F
100
AcDbEntity
  8
Layer0000
  6
Continuous
 62
     3
370
    25
100
AcDbLine
 10
103.4193583287546
 20
262.1381828136529
 30
0.0
 11
103.9193583287546
 21
262.1381828136529
 31
0.0
  0
LINE
  5
294
330
1F
100
AcDbEntity
  8
Layer0000
  6
Continuous
 62
     3
370
    25
100
AcDbLine
 10
93.41935832875042
 20
262.3881828136529
 30
0.0
 11
97.41935832875457
 21
262.3881828136529
 31
0.0
  0
LINE
  5
295
330
1F
100
AcDbEntity
  8
Layer0000
  6
Continuous
 62
     3
370
    25
100
AcDbLine
 10
97.91935832875457
 20
262.3881828136529
 30
0.0
 11
100.4193583287546
 21
262.3881828136529
 31
0.0
  0
LINE
  5
296
330
1F
100
AcDbEntity
  8
Layer0000
  6
Continuous
 62
     3
370
    25
100
AcDbLine
 10
100.9193583287546
 20
262.3881828136529
 30
0.0
 11
103.4193583287546
 21
262.3881828136529
 31
0.0
  0
LINE
  5
297
330
1F
100
AcDbEntity
  8
Layer0000
  6
Continuous
 62
     3
370
    25
100
AcDbLine
 10
103.9193583287546
 20
262.3881828136529
 30
0.0
 11
113.9193583287546
 21
262.3881828136529
 31
0.0
  0
LINE
  5
298
330
1F
100
AcDbEntity
  8
Layer0000
  6
Continuous
 62
     3
370
    25
100
AcDbLine
 10
93.41935832875042
 20
240.3881828136529
 30
0.0
 11
97.41935832875457
 21
240.3881828136529
 31
0.0
  0
LINE
  5
299
330
1F
100
AcDbEntity
  8
Layer0000
  6
Continuous
 62
     3
370
    25
100
AcDbLine
 10
103.9193583287546
 20
240.3881828136529
 30
0.0
 11
113.9193583287546
 21
240.3881828136529
 31
0.0
  0
LINE
  5
29A
330
1F
100
AcDbEntity
  8
Layer0000
  6
Continuous
 62
     3
370
    25
100
AcDbLine
 10
97.41935832875457
 20
240.6381828136529
 30
0.0
 11
97.91935832875457
 21
240.6381828136529
 31
0.0
  0
LINE
  5
29B
330
1F
100
AcDbEntity
  8
Layer0000
  6
Continuous
 62
     3
370
    25
100
AcDbLine
 10
100.4193583287546
 20
240.6381828136529
 30
0.0
 11
100.9193583287546
 21
240.6381828136529
 31
0.0
  0
LINE
  5
29C
330
1F
100
AcDbEntity
  8
Layer0000
  6
Continuous
 62
     3
370
    25
100
AcDbLine
 10
103.4193583287546
 20
240.6381828136529
 30
0.0
 11
103.9193583287546
 21
240.6381828136529
 31
0.0
  0
LINE
  5
29D
330
1F
100
AcDbEntity
  8
Layer0000
  6
Continuous
 62
     3
370
    25
100
AcDbLine
 10
97.91935832875457
 20
240.3881828136529
 30
0.0
 11
100.4193583287546
 21
240.3881828136529
 31
0.0
  0
LINE
  5
29E
330
1F
100
AcDbEntity
  8
Layer0000
  6
Continuous
 62
     3
370
    25
100
AcDbLine
 10
100.9193583287546
 20
240.3881828136529
 30
0.0
 11
103.4193583287546
 21
240.3881828136529
 31
0.0
  0
LINE
  5
29F
330
1F
100
AcDbEntity
  8
Layer0000
  6
Continuous
 62
     3
370
    25
100
AcDbLine
 10
129.9193583287546
 20
256.8881828136529
 30
0.0
 11
113.9193583287546
 21
256.8881828136529
 31
0.0
  0
LINE
  5
2A0
330
1F
100
AcDbEntity
  8
Layer0000
  6
Continuous
 62
     3
370
    25
100
AcDbLine
 10
129.9193583287546
 20
245.8881828136529
 30
0.0
 11
113.9193583287546
 21
245.8881828136529
 31
0.0
  0
ARC
  5
2A1
330
1F
100
AcDbEntity
  8
Layer0000
  6
Continuous
 62
     3
370
    25
100
AcDbCircle
 10
127.2943583287546
 20
259.3881828136529
 30
0.0
 40
3.625
100
AcDbArc
 50
316.3971810272964
 51
43.60281897270362
  0
ARC
  5
2A2
330
1F
100
AcDbEntity
  8
Layer0000
  6
Continuous
 62
     3
370
    25
100
AcDbCircle
 10
115.2943583287546
 20
251.3881828136529
 30
0.0
 40
15.625
100
AcDbArc
 50
339.390307062468
 51
20.60969293753205
  0
ARC
  5
2A3
330
1F
100
AcDbEntity
  8
Layer0000
  6
Continuous
 62
     3
370
    25
100
AcDbCircle
 10
127.2943583287546
 20
243.3881828136529
 30
0.0
 40
3.625
100
AcDbArc
 50
316.3971810272964
 51
43.60281897270362
  0
LINE
  5
2A4
330
1F
100
AcDbEntity
  8
Layer0000
  6
Continuous
 62
     3
370
    25
100
AcDbLine
 10
75.16935826752332
 20
233.3881828136529
 30
0.0
 11
92.41935832875039
 21
233.3881828136529
 31
0.0
  0
LINE
  5
2A5
330
1F
100
AcDbEntity
  8
Layer0000
  6
Continuous
 62
     3
370
    25
100
AcDbLine
 10
78.41935832875042
 20
269.3881828136529
 30
0.0
 11
78.41935832875042
 21
233.3881828136529
 31
0.0
  0
LINE
  5
2A6
330
1F
100
AcDbEntity
  8
Layer0000
  6
Continuous
 62
     3
370
    25
100
AcDbLine
 10
78.41935832875042
 20
260.3881828136529
 30
0.0
 11
92.41935832875042
 21
260.3881828136529
 31
0.0
  0
LINE
  5
2A7
330
1F
100
AcDbEntity
  8
Layer0000
  6
Continuous
 62
     3
370
    25
100
AcDbLine
 10
78.41935832875042
 20
242.388182813653
 30
0.0
 11
92.41935832875042
 21
242.388182813653
 31
0.0
  0
ARC
  5
2A8
330
1F
100
AcDbEntity
  8
Layer0000
  6
Continuous
 62
     3
370
    25
100
AcDbCircle
 10
82.79435832875042
 20
264.8881828136529
 30
0.0
 40
10.625
100
AcDbArc
 50
334.942384581697
 51
25.05761541830302
  0
ARC
  5
2A9
330
1F
100
AcDbEntity
  8
Layer0000
  6
Continuous
 62
     3
370
    25
100
AcDbCircle
 10
52.41935832875068
 20
251.3881828136529
 30
0.0
 40
40.99999999999974
100
AcDbArc
 50
347.3196165081802
 51
12.68038349181984
  0
ARC
  5
2AA
330
1F
100
AcDbEntity
  8
Layer0000
  6
Continuous
 62
     3
370
    25
100
AcDbCircle
 10
82.79435832875042
 20
237.888182813653
 30
0.0
 40
10.625
100
AcDbArc
 50
334.942384581697
 51
25.05761541830302
  0
LINE
  5
2AB
330
1F
100
AcDbEntity
  8
Layer0000
  6
Continuous
 62
     3
370
    25
100
AcDbLine
 10
75.16935826752332
 20
-82.01380646176605
 30
0.0
 11
92.41935832875042
 21
-82.01380646176605
 31
0.0
  0
LINE
  5
2AC
330
1F
100
AcDbEntity
  8
Layer0000
  6
Continuous
 62
     3
370
    25
100
AcDbLine
 10
93.41935832875042
 20
-113.513806461766
 30
0.0
 11
93.41935832875042
 21
-86.51380646176605
 31
0.0
  0
LINE
  5
2AD
330
1F
100
AcDbEntity
  8
Layer0000
  6
Continuous
 62
     3
370
    25
100
AcDbLine
 10
75.16935826752332
 20
-77.21380646176601
 30
0.0
 11
75.16935826752332
 21
-122.8138064617661
 31
0.0
  0
LINE
  5
2AE
330
1F
100
AcDbEntity
  8
Layer0000
  6
Continuous
 62
     3
370
    25
100
AcDbLine
 10
75.16935826752332
 20
-77.21380646176601
 30
0.0
 11
73.41935826752241
 21
-77.21380646176601
 31
0.0
  0
LINE
  5
2AF
330
1F
100
AcDbEntity
  8
Layer0000
  6
Continuous
 62
     3
370
    25
100
AcDbLine
 10
75.16935826752332
 20
-83.01380646176602
 30
0.0
 11
73.41935826752247
 21
-83.01380646176602
 31
0.0
  0
LINE
  5
2B0
330
1F
100
AcDbEntity
  8
Layer0000
  6
Continuous
 62
     3
370
    25
100
AcDbLine
 10
75.16935826752332
 20
-122.8138064617661
 30
0.0
 11
73.41935826752241
 21
-122.8138064617661
 31
0.0
  0
LINE
  5
2B1
330
1F
100
AcDbEntity
  8
Layer0000
  6
Continuous
 62
     3
370
    25
100
AcDbLine
 10
75.16935826752332
 20
-117.0138064617661
 30
0.0
 11
73.41935826752241
 21
-117.0138064617661
 31
0.0
  0
LINE
  5
2B2
330
1F
100
AcDbEntity
  8
Layer0000
  6
Continuous
 62
     3
370
    25
100
AcDbLine
 10
130.9193583287546
 20
-92.01380646176605
 30
0.0
 11
130.9193583287546
 21
-108.0138064617661
 31
0.0
  0
LINE
  5
2B3
330
1F
100
AcDbEntity
  8
Layer0000
  6
Continuous
 62
     3
370
    25
100
AcDbLine
 10
113.9193583287546
 20
-89.01380646176605
 30
0.0
 11
113.9193583287546
 21
-111.0138064617661
 31
0.0
  0
LINE
  5
2B4
330
1F
100
AcDbEntity
  8
Layer0000
  6
Continuous
 62
     3
370
    25
100
AcDbLine
 10
113.9193583287546
 20
-89.51380646176605
 30
0.0
 11
131.9193583287541
 21
-89.51380646176605
 31
0.0
  0
LINE
  5
2B5
330
1F
100
AcDbEntity
  8
Layer0000
  6
Continuous
 62
     3
370
    25
100
AcDbLine
 10
113.9193583287546
 20
-110.5138064617661
 30
0.0
 11
131.9193583287551
 21
-110.5138064617661
 31
0.0
  0
LINE
  5
2B6
330
1F
100
AcDbEntity
  8
Layer0000
  6
Continuous
 62
     3
370
    25
100
AcDbLine
 10
103.4193583287546
 20
-89.01380646176605
 30
0.0
 11
103.4193583287546
 21
-111.0138064617661
 31
0.0
  0
LINE
  5
2B7
330
1F
100
AcDbEntity
  8
Layer0000
  6
Continuous
 62
     3
370
    25
100
AcDbLine
 10
100.4193583287546
 20
-89.01380646176605
 30
0.0
 11
100.4193583287546
 21
-111.0138064617661
 31
0.0
  0
LINE
  5
2B8
330
1F
100
AcDbEntity
  8
Layer0000
  6
Continuous
 62
     3
370
    25
100
AcDbLine
 10
97.41935832875457
 20
-89.01380646176605
 30
0.0
 11
97.41935832875457
 21
-111.0138064617661
 31
0.0
  0
LINE
  5
2B9
330
1F
100
AcDbEntity
  8
Layer0000
  6
Continuous
 62
     3
370
    25
100
AcDbLine
 10
103.9193583287546
 20
-89.01380646176605
 30
0.0
 11
103.9193583287546
 21
-111.0138064617661
 31
0.0
  0
LINE
  5
2BA
330
1F
100
AcDbEntity
  8
Layer0000
  6
Continuous
 62
     3
370
    25
100
AcDbLine
 10
100.9193583287546
 20
-89.01380646176605
 30
0.0
 11
100.9193583287546
 21
-111.0138064617661
 31
0.0
  0
LINE
  5
2BB
330
1F
100
AcDbEntity
  8
Layer0000
  6
Continuous
 62
     3
370
    25
100
AcDbLine
 10
97.91935832875457
 20
-89.01380646176605
 30
0.0
 11
97.91935832875457
 21
-111.0138064617661
 31
0.0
  0
LINE
  5
2BC
330
1F
100
AcDbEntity
  8
Layer0000
  6
Continuous
 62
     3
370
    25
100
AcDbLine
 10
97.41935832875457
 20
-89.26380646176605
 30
0.0
 11
97.91935832875457
 21
-89.26380646176605
 31
0.0
  0
LINE
  5
2BD
330
1F
100
AcDbEntity
  8
Layer0000
  6
Continuous
 62
     3
370
    25
100
AcDbLine
 10
100.4193583287546
 20
-89.26380646176605
 30
0.0
 11
100.9193583287546
 21
-89.26380646176605
 31
0.0
  0
LINE
  5
2BE
330
1F
100
AcDbEntity
  8
Layer0000
  6
Continuous
 62
     3
370
    25
100
AcDbLine
 10
103.4193583287546
 20
-89.26380646176605
 30
0.0
 11
103.9193583287546
 21
-89.26380646176605
 31
0.0
  0
LINE
  5
2BF
330
1F
100
AcDbEntity
  8
Layer0000
  6
Continuous
 62
     3
370
    25
100
AcDbLine
 10
93.41935832875042
 20
-89.01380646176605
 30
0.0
 11
97.41935832875457
 21
-89.01380646176605
 31
0.0
  0
LINE
  5
2C0
330
1F
100
AcDbEntity
  8
Layer0000
  6
Continuous
 62
     3
370
    25
100
AcDbLine
 10
97.91935832875457
 20
-89.01380646176605
 30
0.0
 11
100.4193583287546
 21
-89.01380646176605
 31
0.0
  0
LINE
  5
2C1
330
1F
100
AcDbEntity
  8
Layer0000
  6
Continuous
 62
     3
370
    25
100
AcDbLine
 10
100.9193583287546
 20
-89.01380646176605
 30
0.0
 11
103.4193583287546
 21
-89.01380646176605
 31
0.0
  0
LINE
  5
2C2
330
1F
100
AcDbEntity
  8
Layer0000
  6
Continuous
 62
     3
370
    25
100
AcDbLine
 10
103.9193583287546
 20
-89.01380646176605
 30
0.0
 11
113.9193583287546
 21
-89.01380646176605
 31
0.0
  0
LINE
  5
2C3
330
1F
100
AcDbEntity
  8
Layer0000
  6
Continuous
 62
     3
370
    25
100
AcDbLine
 10
93.41935832875042
 20
-111.0138064617661
 30
0.0
 11
97.41935832875457
 21
-111.0138064617661
 31
0.0
  0
LINE
  5
2C4
330
1F
100
AcDbEntity
  8
Layer0000
  6
Continuous
 62
     3
370
    25
100
AcDbLine
 10
103.9193583287546
 20
-111.0138064617661
 30
0.0
 11
113.9193583287546
 21
-111.0138064617661
 31
0.0
  0
LINE
  5
2C5
330
1F
100
AcDbEntity
  8
Layer0000
  6
Continuous
 62
     3
370
    25
100
AcDbLine
 10
97.41935832875457
 20
-110.7638064617661
 30
0.0
 11
97.91935832875457
 21
-110.7638064617661
 31
0.0
  0
LINE
  5
2C6
330
1F
100
AcDbEntity
  8
Layer0000
  6
Continuous
 62
     3
370
    25
100
AcDbLine
 10
100.4193583287546
 20
-110.7638064617661
 30
0.0
 11
100.9193583287546
 21
-110.7638064617661
 31
0.0
  0
LINE
  5
2C7
330
1F
100
AcDbEntity
  8
Layer0000
  6
Continuous
 62
     3
370
    25
100
AcDbLine
 10
103.4193583287546
 20
-110.7638064617661
 30
0.0
 11
103.9193583287546
 21
-110.7638064617661
 31
0.0
  0
LINE
  5
2C8
330
1F
100
AcDbEntity
  8
Layer0000
  6
Continuous
 62
     3
370
    25
100
AcDbLine
 10
97.91935832875457
 20
-111.0138064617661
 30
0.0
 11
100.4193583287546
 21
-111.0138064617661
 31
0.0
  0
LINE
  5
2C9
330
1F
100
AcDbEntity
  8
Layer0000
  6
Continuous
 62
     3
370
    25
100
AcDbLine
 10
100.9193583287546
 20
-111.0138064617661
 30
0.0
 11
103.4193583287546
 21
-111.0138064617661
 31
0.0
  0
LINE
  5
2CA
330
1F
100
AcDbEntity
  8
Layer0000
  6
Continuous
 62
     3
370
    25
100
AcDbLine
 10
129.9193583287546
 20
-94.51380646176605
 30
0.0
 11
113.9193583287546
 21
-94.51380646176605
 31
0.0
  0
LINE
  5
2CB
330
1F
100
AcDbEntity
  8
Layer0000
  6
Continuous
 62
     3
370
    25
100
AcDbLine
 10
129.9193583287546
 20
-105.5138064617661
 30
0.0
 11
113.9193583287546
 21
-105.5138064617661
 31
0.0
  0
ARC
  5
2CC
330
1F
100
AcDbEntity
  8
Layer0000
  6
Continuous
 62
     3
370
    25
100
AcDbCircle
 10
127.2943583287546
 20
-92.01380646176605
 30
0.0
 40
3.625
100
AcDbArc
 50
316.3971810272964
 51
43.60281897270362
  0
ARC
  5
2CD
330
1F
100
AcDbEntity
  8
Layer0000
  6
Continuous
 62
     3
370
    25
100
AcDbCircle
 10
115.2943583287546
 20
-100.0138064617661
 30
0.0
 40
15.625
100
AcDbArc
 50
339.390307062468
 51
20.60969293753205
  0
ARC
  5
2CE
330
1F
100
AcDbEntity
  8
Layer0000
  6
Continuous
 62
     3
370
    25
100
AcDbCircle
 10
127.2943583287546
 20
-108.0138064617661
 30
0.0
 40
3.625
100
AcDbArc
 50
316.3971810272964
 51
43.60281897270362
  0
LINE
  5
2CF
330
1F
100
AcDbEntity
  8
Layer0000
  6
Continuous
 62
     3
370
    25
100
AcDbLine
 10
75.16935826752332
 20
-118.013806461766
 30
0.0
 11
92.41935832875039
 21
-118.013806461766
 31
0.0
  0
LINE
  5
2D0
330
1F
100
AcDbEntity
  8
Layer0000
  6
Continuous
 62
     3
370
    25
100
AcDbLine
 10
78.41935832875042
 20
-82.01380646176605
 30
0.0
 11
78.41935832875042
 21
-118.013806461766
 31
0.0
  0
LINE
  5
2D1
330
1F
100
AcDbEntity
  8
Layer0000
  6
Continuous
 62
     3
370
    25
100
AcDbLine
 10
78.41935832875042
 20
-91.01380646176605
 30
0.0
 11
92.41935832875042
 21
-91.01380646176605
 31
0.0
  0
LINE
  5
2D2
330
1F
100
AcDbEntity
  8
Layer0000
  6
Continuous
 62
     3
370
    25
100
AcDbLine
 10
78.41935832875042
 20
-109.013806461766
 30
0.0
 11
92.41935832875042
 21
-109.013806461766
 31
0.0
  0
ARC
  5
2D3
330
1F
100
AcDbEntity
  8
Layer0000
  6
Continuous
 62
     3
370
    25
100
AcDbCircle
 10
82.79435832875042
 20
-86.51380646176605
 30
0.0
 40
10.625
100
AcDbArc
 50
334.942384581697
 51
25.05761541830302
  0
ARC
  5
2D4
330
1F
100
AcDbEntity
  8
Layer0000
  6
Continuous
 62
     3
370
    25
100
AcDbCircle
 10
52.41935832875068
 20
-100.013806461766
 30
0.0
 40
40.99999999999974
100
AcDbArc
 50
347.3196165081802
 51
12.68038349181984
  0
ARC
  5
2D5
330
1F
100
AcDbEntity
  8
Layer0000
  6
Continuous
 62
     3
370
    25
100
AcDbCircle
 10
82.79435832875042
 20
-113.513806461766
 30
0.0
 40
10.625
100
AcDbArc
 50
334.942384581697
 51
25.05761541830302
  0
CIRCLE
  5
2D6
330
1F
100
AcDbEntity
  8
Layer0000
  6
Continuous
 62
     3
370
    25
100
AcDbCircle
 10
280.0526916620885
 20
308.888182813653
 30
0.0
 40
6.921539030917359
  0
CIRCLE
  5
2D7
330
1F
100
AcDbEntity
  8
Layer0000
  6
Continuous
 62
     3
370
    25
100
AcDbCircle
 10
280.0526916620885
 20
308.888182813653
 30
0.0
 40
9.0
  0
LINE
  5
2D8
330
1F
100
AcDbEntity
  8
Layer0000
  6
Continuous
 62
     3
370
    25
100
AcDbLine
 10
274.2791889701923
 20
308.888182813653
 30
0.0
 11
277.1659403161404
 21
303.888182813653
 31
0.0
  0
LINE
  5
2D9
330
1F
100
AcDbEntity
  8
Layer0000
  6
Continuous
 62
     3
370
    25
100
AcDbLine
 10
277.1659403161404
 20
303.888182813653
 30
0.0
 11
282.9394430080367
 21
303.888182813653
 31
0.0
  0
LINE
  5
2DA
330
1F
100
AcDbEntity
  8
Layer0000
  6
Continuous
 62
     3
370
    25
100
AcDbLine
 10
282.9394430080367
 20
303.888182813653
 30
0.0
 11
285.8261943539848
 21
308.888182813653
 31
0.0
  0
LINE
  5
2DB
330
1F
100
AcDbEntity
  8
Layer0000
  6
Continuous
 62
     3
370
    25
100
AcDbLine
 10
285.8261943539848
 20
308.888182813653
 30
0.0
 11
282.9394430080367
 21
313.888182813653
 31
0.0
  0
LINE
  5
2DC
330
1F
100
AcDbEntity
  8
Layer0000
  6
Continuous
 62
     3
370
    25
100
AcDbLine
 10
282.9394430080367
 20
313.888182813653
 30
0.0
 11
277.1659403161404
 21
313.888182813653
 31
0.0
  0
LINE
  5
2DD
330
1F
100
AcDbEntity
  8
Layer0000
  6
Continuous
 62
     3
370
    25
100
AcDbLine
 10
277.1659403161404
 20
313.888182813653
 30
0.0
 11
274.2791889701923
 21
308.888182813653
 31
0.0
  0
CIRCLE
  5
2DE
330
1F
100
AcDbEntity
  8
Layer0000
  6
Continuous
 62
     3
370
    25
100
AcDbCircle
 10
330.0526916620885
 20
308.888182813653
 30
0.0
 40
6.921539030917359
  0
CIRCLE
  5
2DF
330
1F
100
AcDbEntity
  8
Layer0000
  6
Continuous
 62
     3
370
    25
100
AcDbCircle
 10
330.0526916620885
 20
308.888182813653
 30
0.0
 40
9.0
  0
LINE
  5
2E0
330
1F
100
AcDbEntity
  8
Layer0000
  6
Continuous
 62
     3
370
    25
100
AcDbLine
 10
324.2791889701923
 20
308.888182813653
 30
0.0
 11
327.1659403161404
 21
303.888182813653
 31
0.0
  0
LINE
  5
2E1
330
1F
100
AcDbEntity
  8
Layer0000
  6
Continuous
 62
     3
370
    25
100
AcDbLine
 10
327.1659403161404
 20
303.888182813653
 30
0.0
 11
332.9394430080367
 21
303.888182813653
 31
0.0
  0
LINE
  5
2E2
330
1F
100
AcDbEntity
  8
Layer0000
  6
Continuous
 62
     3
370
    25
100
AcDbLine
 10
332.9394430080367
 20
303.888182813653
 30
0.0
 11
335.8261943539848
 21
308.888182813653
 31
0.0
  0
LINE
  5
2E3
330
1F
100
AcDbEntity
  8
Layer0000
  6
Continuous
 62
     3
370
    25
100
AcDbLine
 10
335.8261943539848
 20
308.888182813653
 30
0.0
 11
332.9394430080367
 21
313.888182813653
 31
0.0
  0
LINE
  5
2E4
330
1F
100
AcDbEntity
  8
Layer0000
  6
Continuous
 62
     3
370
    25
100
AcDbLine
 10
332.9394430080367
 20
313.888182813653
 30
0.0
 11
327.1659403161404
 21
313.888182813653
 31
0.0
  0
LINE
  5
2E5
330
1F
100
AcDbEntity
  8
Layer0000
  6
Continuous
 62
     3
370
    25
100
AcDbLine
 10
327.1659403161404
 20
313.888182813653
 30
0.0
 11
324.2791889701923
 21
308.888182813653
 31
0.0
  0
CIRCLE
  5
2E6
330
1F
100
AcDbEntity
  8
Layer0000
  6
Continuous
 62
     3
370
    25
100
AcDbCircle
 10
280.0526916620885
 20
193.8881828136529
 30
0.0
 40
6.921539030917359
  0
CIRCLE
  5
2E7
330
1F
100
AcDbEntity
  8
Layer0000
  6
Continuous
 62
     3
370
    25
100
AcDbCircle
 10
280.0526916620885
 20
193.8881828136529
 30
0.0
 40
9.0
  0
LINE
  5
2E8
330
1F
100
AcDbEntity
  8
Layer0000
  6
Continuous
 62
     3
370
    25
100
AcDbLine
 10
274.2791889701923
 20
193.8881828136529
 30
0.0
 11
277.1659403161404
 21
188.8881828136529
 31
0.0
  0
LINE
  5
2E9
330
1F
100
AcDbEntity
  8
Layer0000
  6
Continuous
 62
     3
370
    25
100
AcDbLine
 10
277.1659403161404
 20
188.8881828136529
 30
0.0
 11
282.9394430080367
 21
188.8881828136529
 31
0.0
  0
LINE
  5
2EA
330
1F
100
AcDbEntity
  8
Layer0000
  6
Continuous
 62
     3
370
    25
100
AcDbLine
 10
282.9394430080367
 20
188.8881828136529
 30
0.0
 11
285.8261943539848
 21
193.8881828136529
 31
0.0
  0
LINE
  5
2EB
330
1F
100
AcDbEntity
  8
Layer0000
  6
Continuous
 62
     3
370
    25
100
AcDbLine
 10
285.8261943539848
 20
193.8881828136529
 30
0.0
 11
282.9394430080367
 21
198.8881828136529
 31
0.0
  0
LINE
  5
2EC
330
1F
100
AcDbEntity
  8
Layer0000
  6
Continuous
 62
     3
370
    25
100
AcDbLine
 10
282.9394430080367
 20
198.8881828136529
 30
0.0
 11
277.1659403161404
 21
198.8881828136529
 31
0.0
  0
LINE
  5
2ED
330
1F
100
AcDbEntity
  8
Layer0000
  6
Continuous
 62
     3
370
    25
100
AcDbLine
 10
277.1659403161404
 20
198.8881828136529
 30
0.0
 11
274.2791889701923
 21
193.8881828136529
 31
0.0
  0
CIRCLE
  5
2EE
330
1F
100
AcDbEntity
  8
Layer0000
  6
Continuous
 62
     3
370
    25
100
AcDbCircle
 10
330.0526916620885
 20
193.8881828136529
 30
0.0
 40
6.921539030917359
  0
CIRCLE
  5
2EF
330
1F
100
AcDbEntity
  8
Layer0000
  6
Continuous
 62
     3
370
    25
100
AcDbCircle
 10
330.0526916620885
 20
193.8881828136529
 30
0.0
 40
9.0
  0
LINE
  5
2F0
330
1F
100
AcDbEntity
  8
Layer0000
  6
Continuous
 62
     3
370
    25
100
AcDbLine
 10
324.2791889701923
 20
193.8881828136529
 30
0.0
 11
327.1659403161404
 21
188.8881828136529
 31
0.0
  0
LINE
  5
2F1
330
1F
100
AcDbEntity
  8
Layer0000
  6
Continuous
 62
     3
370
    25
100
AcDbLine
 10
327.1659403161404
 20
188.8881828136529
 30
0.0
 11
332.9394430080367
 21
188.8881828136529
 31
0.0
  0
LINE
  5
2F2
330
1F
100
AcDbEntity
  8
Layer0000
  6
Continuous
 62
     3
370
    25
100
AcDbLine
 10
332.9394430080367
 20
188.8881828136529
 30
0.0
 11
335.8261943539848
 21
193.8881828136529
 31
0.0
  0
LINE
  5
2F3
330
1F
100
AcDbEntity
  8
Layer0000
  6
Continuous
 62
     3
370
    25
100
AcDbLine
 10
335.8261943539848
 20
193.8881828136529
 30
0.0
 11
332.9394430080367
 21
198.8881828136529
 31
0.0
  0
LINE
  5
2F4
330
1F
100
AcDbEntity
  8
Layer0000
  6
Continuous
 62
     3
370
    25
100
AcDbLine
 10
332.9394430080367
 20
198.8881828136529
 30
0.0
 11
327.1659403161404
 21
198.8881828136529
 31
0.0
  0
LINE
  5
2F5
330
1F
100
AcDbEntity
  8
Layer0000
  6
Continuous
 62
     3
370
    25
100
AcDbLine
 10
327.1659403161404
 20
198.8881828136529
 30
0.0
 11
324.2791889701923
 21
193.8881828136529
 31
0.0
  0
CIRCLE
  5
2F6
330
1F
100
AcDbEntity
  8
Layer0000
  6
Continuous
 62
     3
370
    25
100
AcDbCircle
 10
-441.5806417324747
 20
-27.01380646176594
 30
0.0
 40
6.899999999999977
  0
LINE
  5
2F7
330
1F
100
AcDbEntity
  8
Layer0000
  6
Continuous
 62
     3
370
    25
100
AcDbLine
 10
-328.5806417324747
 20
-173.0138064617659
 30
0.0
 11
-310.5806417324747
 21
-173.0138064617659
 31
0.0
  0
LINE
  5
2F8
330
1F
100
AcDbEntity
  8
Layer0000
  6
Continuous
 62
     3
370
    25
100
AcDbLine
 10
-484.5806417324747
 20
-165.0138064617659
 30
0.0
 11
-328.5806417324747
 21
-165.0138064617659
 31
0.0
  0
LINE
  5
2F9
330
1F
100
AcDbEntity
  8
Layer0000
  6
Continuous
 62
     3
370
    25
100
AcDbLine
 10
-310.5806417324747
 20
-165.0138064617659
 30
0.0
 11
48.4193582675242
 21
-165.0138064617659
 31
0.0
  0
CIRCLE
  5
2FA
330
1F
100
AcDbEntity
  8
Layer0000
  6
Continuous
 62
     3
370
    25
100
AcDbCircle
 10
-468.5806417324747
 20
311.388182813653
 30
0.0
 40
13.0
  0
LINE
  5
2FB
330
1F
100
AcDbEntity
  8
Layer0000
  6
Continuous
 62
     3
370
    25
100
AcDbLine
 10
-452.5806417324747
 20
175.3881828136529
 30
0.0
 11
-452.5806417324747
 21
327.3881828136529
 31
0.0
  0
LINE
  5
2FC
330
1F
100
AcDbEntity
  8
Layer0000
  6
Continuous
 62
     3
370
    25
100
AcDbLine
 10
-436.5806417324747
 20
175.3881828136529
 30
0.0
 11
-436.5806417324747
 21
327.3881828136528
 31
0.0
  0
CIRCLE
  5
2FD
330
1F
100
AcDbEntity
  8
Layer0000
  6
Continuous
 62
     3
370
    25
100
AcDbCircle
 10
-412.5806417324747
 20
311.388182813653
 30
0.0
 40
13.0
  0
CIRCLE
  5
2FE
330
1F
100
AcDbEntity
  8
Layer0000
  6
Continuous
 62
     3
370
    25
100
AcDbCircle
 10
-428.5806417324747
 20
296.3881828136528
 30
0.0
 40
4.190000000000001
  0
CIRCLE
  5
2FF
330
1F
100
AcDbEntity
  8
Layer0000
  6
Continuous
 62
     3
370
    25
100
AcDbCircle
 10
-428.5806417324747
 20
251.3881828136528
 30
0.0
 40
4.190000000000001
  0
CIRCLE
  5
300
330
1F
100
AcDbEntity
  8
Layer0000
  6
Continuous
 62
     3
370
    25
100
AcDbCircle
 10
-428.5806417324747
 20
206.3881828136528
 30
0.0
 40
4.190000000000001
  0
CIRCLE
  5
301
330
1F
100
AcDbEntity
  8
Layer0000
  6
Continuous
 62
     3
370
    25
100
AcDbCircle
 10
-412.5806417324747
 20
191.3881828136529
 30
0.0
 40
13.0
  0
CIRCLE
  5
302
330
1F
100
AcDbEntity
  8
Layer0000
  6
Continuous
 62
     3
370
    25
100
AcDbCircle
 10
-468.5806417324747
 20
191.3881828136529
 30
0.0
 40
13.0
  0
CIRCLE
  5
303
330
1F
100
AcDbEntity
  8
Layer0000
  6
Continuous
 62
     3
370
    25
100
AcDbCircle
 10
-42.58064173247563
 20
281.388182813653
 30
0.0
 40
11.5
  0
CIRCLE
  5
304
330
1F
100
AcDbEntity
  8
Layer0000
  6
Continuous
 62
     3
370
    25
100
AcDbCircle
 10
-25.58064173247472
 20
296.388182813653
 30
0.0
 40
4.190000000000001
  0
CIRCLE
  5
305
330
1F
100
AcDbEntity
  8
Layer0000
  6
Continuous
 62
     3
370
    25
100
AcDbCircle
 10
-25.58064173247472
 20
251.388182813653
 30
0.0
 40
4.190000000000001
  0
CIRCLE
  5
306
330
1F
100
AcDbEntity
  8
Layer0000
  6
Continuous
 62
     3
370
    25
100
AcDbCircle
 10
-42.58064173247563
 20
221.388182813653
 30
0.0
 40
11.5
  0
CIRCLE
  5
307
330
1F
100
AcDbEntity
  8
Layer0000
  6
Continuous
 62
     3
370
    25
100
AcDbCircle
 10
-25.58064173247472
 20
206.388182813653
 30
0.0
 40
4.190000000000001
  0
CIRCLE
  5
308
330
1F
100
AcDbEntity
  8
Layer0000
  6
Continuous
 62
     3
370
    25
100
AcDbCircle
 10
17.41935826752437
 20
221.388182813653
 30
0.0
 40
11.5
  0
CIRCLE
  5
309
330
1F
100
AcDbEntity
  8
Layer0000
  6
Continuous
 62
     3
370
    25
100
AcDbCircle
 10
17.41935826752437
 20
281.388182813653
 30
0.0
 40
11.5
  0
LINE
  5
30A
330
1F
100
AcDbEntity
  8
Layer0000
  6
Continuous
 62
     3
370
    25
100
AcDbLine
 10
-1.580641732474717
 20
327.3881828136529
 30
0.0
 11
-1.580641732474717
 21
175.388182813653
 31
0.0
  0
LINE
  5
30B
330
1F
100
AcDbEntity
  8
Layer0000
  6
Continuous
 62
     3
370
    25
100
AcDbLine
 10
-17.58064173247472
 20
327.3881828136529
 30
0.0
 11
-17.58064173247472
 21
175.388182813653
 31
0.0
  0
LINE
  5
30C
330
1F
100
AcDbEntity
  8
Layer0000
  6
Continuous
 62
     3
370
    25
100
AcDbLine
 10
-484.5806417324747
 20
173.3881828136529
 30
0.0
 11
48.41935826752392
 21
173.3881828136529
 31
0.0
  0
LINE
  5
30D
330
1F
100
AcDbEntity
  8
Layer0000
  6
Continuous
 62
     3
370
    25
100
AcDbLine
 10
-165.5806416100149
 20
235.3881828136529
 30
0.0
 11
-379.5806417324747
 21
235.3881828136529
 31
0.0
  0
LINE
  5
30E
330
1F
100
AcDbEntity
  8
Layer0000
  6
Continuous
 62
     3
370
    25
100
AcDbLine
 10
-165.5806416100149
 20
233.3881828136529
 30
0.0
 11
-379.5806417324747
 21
233.3881828136529
 31
0.0
  0
LINE
  5
30F
330
1F
100
AcDbEntity
  8
Layer0000
  6
Continuous
 62
     3
370
    25
100
AcDbLine
 10
-379.5806417324747
 20
211.3881828136529
 30
0.0
 11
-74.58064173247473
 21
211.3881828136529
 31
0.0
  0
LINE
  5
310
330
1F
100
AcDbEntity
  8
Layer0000
  6
CENTER
 62
     2
370
    25
100
AcDbLine
 10
-319.5806417324747
 20
-160.077561573581
 30
0.0
 11
-319.5806417324747
 21
-173.7856512560217
 31
0.0
  0
LINE
  5
311
330
1F
100
AcDbEntity
  8
Layer0000
  6
CENTER
 62
     2
370
    25
100
AcDbLine
 10
182.0526916620885
 20
251.388182813653
 30
0.0
 11
370.0526916620885
 21
251.3881828136529
 31
0.0
  0
LINE
  5
312
330
1F
100
AcDbEntity
  8
Layer0000
  6
CENTER
 62
     2
370
    25
100
AcDbLine
 10
340.0526916620885
 20
308.888182813653
 30
0.0
 11
320.0526916620885
 21
308.888182813653
 31
0.0
  0
LINE
  5
313
330
1F
100
AcDbEntity
  8
Layer0000
  6
CENTER
 62
     2
370
    25
100
AcDbLine
 10
330.0526916620885
 20
318.888182813653
 30
0.0
 11
330.0526916620885
 21
298.888182813653
 31
0.0
  0
LINE
  5
314
330
1F
100
AcDbEntity
  8
Layer0000
  6
CENTER
 62
     2
370
    25
100
AcDbLine
 10
270.0526916620885
 20
308.888182813653
 30
0.0
 11
290.0526916620885
 21
308.888182813653
 31
0.0
  0
LINE
  5
315
330
1F
100
AcDbEntity
  8
Layer0000
  6
CENTER
 62
     2
370
    25
100
AcDbLine
 10
280.0526916620885
 20
318.888182813653
 30
0.0
 11
280.0526916620885
 21
298.888182813653
 31
0.0
  0
LINE
  5
316
330
1F
100
AcDbEntity
  8
Layer0000
  6
CENTER
 62
     2
370
    25
100
AcDbLine
 10
270.0526916620885
 20
193.8881828136529
 30
0.0
 11
290.0526916620885
 21
193.8881828136529
 31
0.0
  0
LINE
  5
317
330
1F
100
AcDbEntity
  8
Layer0000
  6
CENTER
 62
     2
370
    25
100
AcDbLine
 10
280.0526916620885
 20
183.8881828136529
 30
0.0
 11
280.0526916620885
 21
203.8881828136529
 31
0.0
  0
LINE
  5
318
330
1F
100
AcDbEntity
  8
Layer0000
  6
CENTER
 62
     2
370
    25
100
AcDbLine
 10
340.0526916620885
 20
193.8881828136529
 30
0.0
 11
320.0526916620885
 21
193.8881828136529
 31
0.0
  0
LINE
  5
319
330
1F
100
AcDbEntity
  8
Layer0000
  6
CENTER
 62
     2
370
    25
100
AcDbLine
 10
330.0526916620885
 20
183.8881828136529
 30
0.0
 11
330.0526916620885
 21
203.8881828136529
 31
0.0
  0
LINE
  5
31A
330
1F
100
AcDbEntity
  8
Layer0000
  6
CENTER
 62
     2
370
    25
100
AcDbLine
 10
305.0526916620885
 20
321.388182813653
 30
0.0
 11
305.0526916620885
 21
181.3881828136529
 31
0.0
  0
LINE
  5
31B
330
1F
100
AcDbEntity
  8
Layer0000
  6
CENTER
 62
     2
370
    25
100
AcDbLine
 10
-259.5806417324747
 20
-160.077561573581
 30
0.0
 11
-259.5806417324747
 21
-173.7856512560217
 31
0.0
  0
LINE
  5
31C
330
1F
100
AcDbEntity
  8
Layer0000
  6
CENTER
 62
     2
370
    25
100
AcDbLine
 10
-199.5806417324747
 20
-160.077561573581
 30
0.0
 11
-199.5806417324747
 21
-173.7856512560217
 31
0.0
  0
LINE
  5
31D
330
1F
100
AcDbEntity
  8
Layer0000
  6
CENTER
 62
     2
370
    25
100
AcDbLine
 10
-484.5806417324747
 20
251.3881828136529
 30
0.0
 11
-362.093435794214
 21
251.3881828136529
 31
0.0
  0
LINE
  5
31E
330
1F
100
AcDbEntity
  8
Layer0000
  6
CENTER
 62
     2
370
    25
100
AcDbLine
 10
-349.2697402359015
 20
251.3881828136529
 30
0.0
 11
-309.8603343737703
 21
251.3881828136529
 31
0.0
  0
LINE
  5
31F
330
1F
100
AcDbEntity
  8
Layer0000
  6
CENTER
 62
     2
370
    25
100
AcDbLine
 10
-295.4727735034684
 20
251.3881828136529
 30
0.0
 11
130.9193583287546
 21
251.3881828136529
 31
0.0
  0
LINE
  5
320
330
1F
100
AcDbEntity
  8
Layer0000
  6
CENTER
 62
     2
370
    25
100
AcDbLine
 10
-432.5806417324747
 20
-27.01380646176594
 30
0.0
 11
-450.5806417324747
 21
-27.01380646176594
 31
0.0
  0
LINE
  5
321
330
1F
100
AcDbEntity
  8
Layer0000
  6
CENTER
 62
     2
370
    25
100
AcDbLine
 10
-441.5806417324747
 20
-18.01380646176594
 30
0.0
 11
-441.5806417324747
 21
-36.01380646176594
 31
0.0
  0
LINE
  5
322
330
1F
100
AcDbEntity
  8
Layer0000
  6
CENTER
 62
     2
370
    25
100
AcDbLine
 10
-483.5806417324747
 20
311.388182813653
 30
0.0
 11
-452.5806417324747
 21
311.388182813653
 31
0.0
  0
LINE
  5
323
330
1F
100
AcDbEntity
  8
Layer0000
  6
CENTER
 62
     2
370
    25
100
AcDbLine
 10
-468.5806417324747
 20
326.388182813653
 30
0.0
 11
-468.5806417324747
 21
296.3881828136529
 31
0.0
  0
LINE
  5
324
330
1F
100
AcDbEntity
  8
Layer0000
  6
CENTER
 62
     2
370
    25
100
AcDbLine
 10
-427.5806417324747
 20
311.388182813653
 30
0.0
 11
-397.5806417324747
 21
311.388182813653
 31
0.0
  0
LINE
  5
325
330
1F
100
AcDbEntity
  8
Layer0000
  6
CENTER
 62
     2
370
    25
100
AcDbLine
 10
-412.5806417324747
 20
326.388182813653
 30
0.0
 11
-412.5806417324747
 21
296.3881828136529
 31
0.0
  0
LINE
  5
326
330
1F
100
AcDbEntity
  8
Layer0000
  6
CENTER
 62
     2
370
    25
100
AcDbLine
 10
-428.5806417324747
 20
302.6381828136528
 30
0.0
 11
-428.5806417324747
 21
290.1381828136528
 31
0.0
  0
LINE
  5
327
330
1F
100
AcDbEntity
  8
Layer0000
  6
CENTER
 62
     2
370
    25
100
AcDbLine
 10
-434.6799190960023
 20
296.3881828136528
 30
0.0
 11
-422.5407310264083
 21
296.3881828136528
 31
0.0
  0
LINE
  5
328
330
1F
100
AcDbEntity
  8
Layer0000
  6
CENTER
 62
     2
370
    25
100
AcDbLine
 10
-428.5806417324747
 20
257.6381828136528
 30
0.0
 11
-428.5806417324747
 21
245.1381828136528
 31
0.0
  0
LINE
  5
329
330
1F
100
AcDbEntity
  8
Layer0000
  6
CENTER
 62
     2
370
    25
100
AcDbLine
 10
-428.5806417324747
 20
212.6381828136528
 30
0.0
 11
-428.5806417324747
 21
200.1381828136528
 31
0.0
  0
LINE
  5
32A
330
1F
100
AcDbEntity
  8
Layer0000
  6
CENTER
 62
     2
370
    25
100
AcDbLine
 10
-434.269148590617
 20
206.3881828136528
 30
0.0
 11
-420.8738434262978
 21
206.3881828136528
 31
0.0
  0
LINE
  5
32B
330
1F
100
AcDbEntity
  8
Layer0000
  6
CENTER
 62
     2
370
    25
100
AcDbLine
 10
-427.5806417324747
 20
191.3881828136529
 30
0.0
 11
-397.5806417324747
 21
191.3881828136529
 31
0.0
  0
LINE
  5
32C
330
1F
100
AcDbEntity
  8
Layer0000
  6
CENTER
 62
     2
370
    25
100
AcDbLine
 10
-412.5806417324747
 20
176.3881828136529
 30
0.0
 11
-412.5806417324747
 21
206.3881828136529
 31
0.0
  0
LINE
  5
32D
330
1F
100
AcDbEntity
  8
Layer0000
  6
CENTER
 62
     2
370
    25
100
AcDbLine
 10
-468.5806417324747
 20
176.3881828136529
 30
0.0
 11
-468.5806417324747
 21
206.3881828136529
 31
0.0
  0
LINE
  5
32E
330
1F
100
AcDbEntity
  8
Layer0000
  6
CENTER
 62
     2
370
    25
100
AcDbLine
 10
-483.5806417324747
 20
191.3881828136529
 30
0.0
 11
-452.5806417324747
 21
191.3881828136529
 31
0.0
  0
LINE
  5
32F
330
1F
100
AcDbEntity
  8
Layer0000
  6
CENTER
 62
     2
370
    25
100
AcDbLine
 10
-29.08064173247563
 20
281.388182813653
 30
0.0
 11
-56.08064173247563
 21
281.388182813653
 31
0.0
  0
LINE
  5
330
330
1F
100
AcDbEntity
  8
Layer0000
  6
CENTER
 62
     2
370
    25
100
AcDbLine
 10
-42.58064173247563
 20
294.888182813653
 30
0.0
 11
-42.58064173247563
 21
267.888182813653
 31
0.0
  0
LINE
  5
331
330
1F
100
AcDbEntity
  8
Layer0000
  6
CENTER
 62
     2
370
    25
100
AcDbLine
 10
-25.58064173247472
 20
302.638182813653
 30
0.0
 11
-25.58064173247472
 21
290.138182813653
 31
0.0
  0
LINE
  5
332
330
1F
100
AcDbEntity
  8
Layer0000
  6
CENTER
 62
     2
370
    25
100
AcDbLine
 10
-25.58064173247472
 20
257.638182813653
 30
0.0
 11
-25.58064173247472
 21
245.138182813653
 31
0.0
  0
LINE
  5
333
330
1F
100
AcDbEntity
  8
Layer0000
  6
CENTER
 62
     2
370
    25
100
AcDbLine
 10
-42.58064173247563
 20
207.888182813653
 30
0.0
 11
-42.58064173247563
 21
234.888182813653
 31
0.0
  0
LINE
  5
334
330
1F
100
AcDbEntity
  8
Layer0000
  6
CENTER
 62
     2
370
    25
100
AcDbLine
 10
-29.08064173247563
 20
221.388182813653
 30
0.0
 11
-56.08064173247563
 21
221.388182813653
 31
0.0
  0
LINE
  5
335
330
1F
100
AcDbEntity
  8
Layer0000
  6
CENTER
 62
     2
370
    25
100
AcDbLine
 10
-25.58064173247472
 20
212.638182813653
 30
0.0
 11
-25.58064173247472
 21
200.138182813653
 31
0.0
  0
LINE
  5
336
330
1F
100
AcDbEntity
  8
Layer0000
  6
CENTER
 62
     2
370
    25
100
AcDbLine
 10
-31.26914859061706
 20
206.388182813653
 30
0.0
 11
-19.8738434262978
 21
206.388182813653
 31
0.0
  0
LINE
  5
337
330
1F
100
AcDbEntity
  8
Layer0000
  6
CENTER
 62
     2
370
    25
100
AcDbLine
 10
30.91935826752437
 20
221.388182813653
 30
0.0
 11
3.919358267524373
 21
221.388182813653
 31
0.0
  0
LINE
  5
338
330
1F
100
AcDbEntity
  8
Layer0000
  6
CENTER
 62
     2
370
    25
100
AcDbLine
 10
17.41935826752437
 20
207.888182813653
 30
0.0
 11
17.41935826752437
 21
234.888182813653
 31
0.0
  0
LINE
  5
339
330
1F
100
AcDbEntity
  8
Layer0000
  6
CENTER
 62
     2
370
    25
100
AcDbLine
 10
30.91935826752437
 20
281.388182813653
 30
0.0
 11
3.919358267524373
 21
281.388182813653
 31
0.0
  0
LINE
  5
33A
330
1F
100
AcDbEntity
  8
Layer0000
  6
CENTER
 62
     2
370
    25
100
AcDbLine
 10
17.41935826752437
 20
294.888182813653
 30
0.0
 11
17.41935826752437
 21
267.888182813653
 31
0.0
  0
LINE
  5
33B
330
1F
100
AcDbEntity
  8
Layer0000
  6
Continuous
 62
    56
370
    25
100
AcDbLine
 10
106.9193583287541
 20
-84.01380646176474
 30
0.0
 11
119.9193583287538
 21
-84.01380646176418
 31
0.0
  0
LINE
  5
33C
330
1F
100
AcDbEntity
  8
Layer0000
  6
Continuous
 62
    56
370
    25
100
AcDbLine
 10
119.9193583287538
 20
-83.01380646176418
 30
0.0
 11
123.9193583287538
 21
-83.01380646176406
 31
0.0
  0
LINE
  5
33D
330
1F
100
AcDbEntity
  8
Layer0000
  6
Continuous
 62
    56
370
    25
100
AcDbLine
 10
123.9193583287553
 20
-81.01380646176383
 30
0.0
 11
131.9193583287537
 21
-81.01380646176361
 31
0.0
  0
LINE
  5
33E
330
1F
100
AcDbEntity
  8
Layer0000
  6
Continuous
 62
    56
370
    25
100
AcDbLine
 10
119.9193583287538
 20
-83.01380646176418
 30
0.0
 11
119.9193583287538
 21
-84.01380646176418
 31
0.0
  0
LINE
  5
33F
330
1F
100
AcDbEntity
  8
Layer0000
  6
Continuous
 62
    56
370
    25
100
AcDbLine
 10
106.9193583287542
 20
-89.01380646176605
 30
0.0
 11
106.9193583287541
 21
-84.01380646176474
 31
0.0
  0
LINE
  5
340
330
1F
100
AcDbEntity
  8
Layer0000
  6
Continuous
 62
    56
370
    25
100
AcDbLine
 10
131.9193583287537
 20
-81.01380646176361
 30
0.0
 11
131.9193583287601
 21
-214.0138064617636
 31
0.0
  0
LINE
  5
341
330
1F
100
AcDbEntity
  8
Layer0000
  6
Continuous
 62
    56
370
    25
100
AcDbLine
 10
106.9193583287548
 20
-116.0138064617648
 30
0.0
 11
106.9193583287547
 21
-111.0138064617661
 31
0.0
  0
LINE
  5
342
330
1F
100
AcDbEntity
  8
Layer0000
  6
Continuous
 62
    56
370
    25
100
AcDbLine
 10
106.9193583287548
 20
-116.0138064617648
 30
0.0
 11
119.9193583287553
 21
-116.013806461764
 31
0.0
  0
LINE
  5
343
330
1F
100
AcDbEntity
  8
Layer0000
  6
Continuous
 62
    56
370
    25
100
AcDbLine
 10
119.9193583287554
 20
-117.013806461764
 30
0.0
 11
123.9193583287553
 21
-117.0138064617639
 31
0.0
  0
LINE
  5
344
330
1F
100
AcDbEntity
  8
Layer0000
  6
Continuous
 62
    56
370
    25
100
AcDbLine
 10
119.9193583287553
 20
-116.013806461764
 30
0.0
 11
119.9193583287554
 21
-117.013806461764
 31
0.0
  0
LINE
  5
345
330
1F
100
AcDbEntity
  8
Layer0000
  6
Continuous
 62
    56
370
    25
100
AcDbLine
 10
125.919358328761
 20
-234.0138064617638
 30
0.0
 11
140.919358328761
 21
-234.0138064617631
 31
0.0
  0
LINE
  5
346
330
1F
100
AcDbEntity
  8
Layer0000
  6
Continuous
 62
    56
370
    25
100
AcDbLine
 10
140.919358328761
 20
-234.0138064617631
 30
0.0
 11
140.9193583287602
 21
-216.0138064617631
 31
0.0
  0
LINE
  5
347
330
1F
100
AcDbEntity
  8
Layer0000
  6
Continuous
 62
    56
370
    25
100
AcDbLine
 10
133.9193583287602
 20
-216.0138064617636
 30
0.0
 11
140.9193583287602
 21
-216.0138064617631
 31
0.0
  0
ARC
  5
348
330
1F
100
AcDbEntity
  8
Layer0000
  6
Continuous
 62
    56
370
    25
100
AcDbCircle
 10
133.9193583287601
 20
-214.0138064617636
 30
0.0
 40
2.0
100
AcDbArc
 50
180.0000000000026
 51
270.0000000000026
  0
ARC
  5
349
330
1F
100
AcDbEntity
  8
Layer0000
  6
Continuous
 62
    56
370
    25
100
AcDbCircle
 10
125.9193583287609
 20
-232.0138064617638
 30
0.0
 40
2.0
100
AcDbArc
 50
180.0000000000026
 51
270.0000000000026
  0
LINE
  5
34A
330
1F
100
AcDbEntity
  8
Layer0000
  6
Continuous
 62
    56
370
    25
100
AcDbLine
 10
122.9193583287606
 20
-228.5138064617661
 30
0.0
 11
122.9193583287606
 21
-221.5138064617661
 31
0.0
  0
LINE
  5
34B
330
1F
100
AcDbEntity
  8
Layer0000
  6
Continuous
 62
    56
370
    25
100
AcDbLine
 10
147.9193583287606
 20
-217.0138064617661
 30
0.0
 11
147.9193583287606
 21
-233.0138064617661
 31
0.0
  0
LINE
  5
34C
330
1F
100
AcDbEntity
  8
Layer0000
  6
Continuous
 62
    56
370
    25
100
AcDbLine
 10
147.9193583287606
 20
-217.0138064617661
 30
0.0
 11
219.9193583287573
 21
-212.9558590947096
 31
0.0
  0
LINE
  5
34D
330
1F
100
AcDbEntity
  8
Layer0000
  6
Continuous
 62
    56
370
    25
100
AcDbLine
 10
147.9193583287606
 20
-233.0138064617661
 30
0.0
 11
219.9193583287573
 21
-237.0717538288226
 31
0.0
  0
LINE
  5
34E
330
1F
100
AcDbEntity
  8
Layer0000
  6
Continuous
 62
    56
370
    25
100
AcDbLine
 10
219.9193583287573
 20
-237.0717538288226
 30
0.0
 11
219.9193583287573
 21
-212.9558590947096
 31
0.0
  0
LINE
  5
34F
330
1F
100
AcDbEntity
  8
Layer0000
  6
Continuous
 62
    56
370
    25
100
AcDbLine
 10
141.9193583287606
 20
-217.0138064617661
 30
0.0
 11
147.9193583287606
 21
-217.0138064617661
 31
0.0
  0
LINE
  5
350
330
1F
100
AcDbEntity
  8
Layer0000
  6
Continuous
 62
    56
370
    25
100
AcDbLine
 10
141.9193583287606
 20
-233.0138064617661
 30
0.0
 11
147.9193583287606
 21
-233.0138064617661
 31
0.0
  0
LINE
  5
351
330
1F
100
AcDbEntity
  8
Layer0000
  6
Continuous
 62
    56
370
    25
100
AcDbLine
 10
140.9193583287606
 20
-218.0138064617661
 30
0.0
 11
141.9193583287606
 21
-217.0138064617661
 31
0.0
  0
LINE
  5
352
330
1F
100
AcDbEntity
  8
Layer0000
  6
Continuous
 62
    56
370
    25
100
AcDbLine
 10
140.9193583287606
 20
-232.0138064617661
 30
0.0
 11
141.9193583287606
 21
-233.0138064617661
 31
0.0
  0
LINE
  5
353
330
1F
100
AcDbEntity
  8
Layer0000
  6
Continuous
 62
    56
370
    25
100
AcDbLine
 10
140.9193583287606
 20
-218.0138064617661
 30
0.0
 11
140.9193583287606
 21
-232.0138064617661
 31
0.0
  0
LINE
  5
354
330
1F
100
AcDbEntity
  8
Layer0000
  6
Continuous
 62
    56
370
    25
100
AcDbLine
 10
123.9193583287608
 20
-229.5138064617593
 30
0.0
 11
122.9193583287606
 21
-228.5138064617661
 31
0.0
  0
LINE
  5
355
330
1F
100
AcDbEntity
  8
Layer0000
  6
Continuous
 62
    56
370
    25
100
AcDbLine
 10
123.9193583287603
 20
-220.5138064617729
 30
0.0
 11
122.9193583287606
 21
-221.5138064617661
 31
0.0
  0
LINE
  5
356
330
1F
100
AcDbEntity
  8
Layer0000
  6
Continuous
 62
    56
370
    25
100
AcDbLine
 10
123.9193583287553
 20
-117.0138064617639
 30
0.0
 11
123.9193583287609
 21
-232.013806461764
 31
0.0
  0
LINE
  5
357
330
1F
100
AcDbEntity
  8
Layer0000
  6
Continuous
 62
    56
370
    25
100
AcDbLine
 10
123.9193583287553
 20
-83.01380646176406
 30
0.0
 11
123.9193583287553
 21
-81.01380646176383
 31
0.0
  0
LINE
  5
358
330
1F
100
AcDbEntity
  8
Layer0000
  6
Continuous
 62
    56
370
    25
100
AcDbLine
 10
-471.5806417324746
 20
114.3881828136529
 30
0.0
 11
-471.5806417324746
 21
134.3881828136529
 31
0.0
  0
LINE
  5
359
330
1F
100
AcDbEntity
  8
Layer0000
  6
Continuous
 62
    56
370
    25
100
AcDbLine
 10
-470.5806417324746
 20
113.3881828136529
 30
0.0
 11
-471.5806417324746
 21
114.3881828136529
 31
0.0
  0
LINE
  5
35A
330
1F
100
AcDbEntity
  8
Layer0000
  6
Continuous
 62
    56
370
    25
100
AcDbLine
 10
-471.5806417324746
 20
134.3881828136529
 30
0.0
 11
-470.5806417324746
 21
135.3881828136529
 31
0.0
  0
CIRCLE
  5
35B
330
1F
100
AcDbEntity
  8
Layer0000
  6
Continuous
 62
    56
370
    25
100
AcDbCircle
 10
-461.5806417324745
 20
124.3881828136529
 30
0.0
 40
6.267949192431104
  0
CIRCLE
  5
35C
330
1F
100
AcDbEntity
  8
Layer0000
  6
Continuous
 62
    56
370
    25
100
AcDbCircle
 10
-461.5806417324745
 20
124.3881828136529
 30
0.0
 40
8.0
  0
LINE
  5
35D
330
1F
100
AcDbEntity
  8
Layer0000
  6
Continuous
 62
    56
370
    25
100
AcDbLine
 10
-466.1994438859915
 20
124.3881828136529
 30
0.0
 11
-463.890042809233
 21
120.3881828136529
 31
0.0
  0
LINE
  5
35E
330
1F
100
AcDbEntity
  8
Layer0000
  6
Continuous
 62
    56
370
    25
100
AcDbLine
 10
-463.890042809233
 20
120.3881828136529
 30
0.0
 11
-459.271240655716
 21
120.3881828136529
 31
0.0
  0
LINE
  5
35F
330
1F
100
AcDbEntity
  8
Layer0000
  6
Continuous
 62
    56
370
    25
100
AcDbLine
 10
-459.271240655716
 20
120.3881828136529
 30
0.0
 11
-456.9618395789576
 21
124.3881828136529
 31
0.0
  0
LINE
  5
360
330
1F
100
AcDbEntity
  8
Layer0000
  6
Continuous
 62
    56
370
    25
100
AcDbLine
 10
-456.9618395789576
 20
124.3881828136529
 30
0.0
 11
-459.271240655716
 21
128.3881828136529
 31
0.0
  0
LINE
  5
361
330
1F
100
AcDbEntity
  8
Layer0000
  6
Continuous
 62
    56
370
    25
100
AcDbLine
 10
-459.271240655716
 20
128.3881828136529
 30
0.0
 11
-463.890042809233
 21
128.3881828136529
 31
0.0
  0
LINE
  5
362
330
1F
100
AcDbEntity
  8
Layer0000
  6
Continuous
 62
    56
370
    25
100
AcDbLine
 10
-463.890042809233
 20
128.3881828136529
 30
0.0
 11
-466.1994438859915
 21
124.3881828136529
 31
0.0
  0
LINE
  5
363
330
1F
100
AcDbEntity
  8
Layer0000
  6
Continuous
 62
    56
370
    25
100
AcDbLine
 10
-432.5806417324746
 20
113.3881828136529
 30
0.0
 11
-432.5806417324746
 21
76.38818281365293
 31
0.0
  0
LINE
  5
364
330
1F
100
AcDbEntity
  8
Layer0000
  6
Continuous
 62
    56
370
    25
100
AcDbLine
 10
-450.5806417324746
 20
113.3881828136529
 30
0.0
 11
-450.5806417324746
 21
76.38818281365293
 31
0.0
  0
LINE
  5
365
330
1F
100
AcDbEntity
  8
Layer0000
  6
Continuous
 62
    56
370
    25
100
AcDbLine
 10
-470.5806417324746
 20
113.3881828136529
 30
0.0
 11
-349.5806417324746
 21
113.3881828136529
 31
0.0
  0
LINE
  5
366
330
1F
100
AcDbEntity
  8
Layer0000
  6
Continuous
 62
    56
370
    25
100
AcDbLine
 10
-470.5806417324746
 20
135.3881828136529
 30
0.0
 11
-349.5806417324746
 21
135.3881828136529
 31
0.0
  0
LINE
  5
367
330
1F
100
AcDbEntity
  8
Layer0000
  6
Continuous
 62
    56
370
    25
100
AcDbLine
 10
-358.5806417324746
 20
104.8881828136529
 30
0.0
 11
-368.5806417324746
 21
104.8881828136529
 31
0.0
  0
LINE
  5
368
330
1F
100
AcDbEntity
  8
Layer0000
  6
Continuous
 62
    56
370
    25
100
AcDbLine
 10
-360.0806417324746
 20
103.3881828136529
 30
0.0
 11
-367.0806417324746
 21
103.3881828136529
 31
0.0
  0
LINE
  5
369
330
1F
100
AcDbEntity
  8
Layer0000
  6
Continuous
 62
    56
370
    25
100
AcDbLine
 10
-358.5806417324746
 20
104.8881828136529
 30
0.0
 11
-360.0806417324746
 21
103.3881828136529
 31
0.0
  0
LINE
  5
36A
330
1F
100
AcDbEntity
  8
Layer0000
  6
Continuous
 62
    56
370
    25
100
AcDbLine
 10
-368.5806417324746
 20
104.8881828136529
 30
0.0
 11
-367.0806417324746
 21
103.3881828136529
 31
0.0
  0
LINE
  5
36B
330
1F
100
AcDbEntity
  8
Layer0000
  6
Continuous
 62
    56
370
    25
100
AcDbLine
 10
-373.3806417324746
 20
135.3881828136529
 30
0.0
 11
-373.3806417324746
 21
142.493289896409
 31
0.0
  0
LINE
  5
36C
330
1F
100
AcDbEntity
  8
Layer0000
  6
Continuous
 62
    56
370
    25
100
AcDbLine
 10
-368.4731644443629
 20
142.493289896409
 30
0.0
 11
-368.4731644443629
 21
135.3881828136529
 31
0.0
  0
ARC
  5
36D
330
1F
100
AcDbEntity
  8
Layer0000
  6
Continuous
 62
    56
370
    25
100
AcDbCircle
 10
-370.9269030884187
 20
139.5767398268898
 30
0.0
 40
3.811442986763149
100
AcDbArc
 50
49.92557966161387
 51
130.0744203383854
  0
ARC
  5
36E
330
1F
100
AcDbEntity
  8
Layer0000
  6
Continuous
 62
    56
370
    25
100
AcDbCircle
 10
-363.5806417324746
 20
129.5666342557195
 30
0.0
 40
13.82154855793342
100
AcDbArc
 50
69.26918485858411
 51
110.7308151414159
  0
LINE
  5
36F
330
1F
100
AcDbEntity
  8
Layer0000
  6
Continuous
 62
    56
370
    25
100
AcDbLine
 10
-358.6881190205864
 20
135.3881828136529
 30
0.0
 11
-358.6881190205864
 21
142.493289896409
 31
0.0
  0
LINE
  5
370
330
1F
100
AcDbEntity
  8
Layer0000
  6
Continuous
 62
    56
370
    25
100
AcDbLine
 10
-368.5806417324746
 20
113.3881828136529
 30
0.0
 11
-368.5806417324746
 21
104.8881828136529
 31
0.0
  0
LINE
  5
371
330
1F
100
AcDbEntity
  8
Layer0000
  6
Continuous
 62
    56
370
    25
100
AcDbLine
 10
-358.5806417324746
 20
113.3881828136529
 30
0.0
 11
-358.5806417324746
 21
104.8881828136529
 31
0.0
  0
LINE
  5
372
330
1F
100
AcDbEntity
  8
Layer0000
  6
Continuous
 62
    56
370
    25
100
AcDbLine
 10
-367.7706417324746
 20
113.3881828136529
 30
0.0
 11
-367.7706417324746
 21
104.0781828136529
 31
0.0
  0
LINE
  5
373
330
1F
100
AcDbEntity
  8
Layer0000
  6
Continuous
 62
    56
370
    25
100
AcDbLine
 10
-359.3906417324746
 20
113.3881828136529
 30
0.0
 11
-359.3906417324746
 21
104.0781828136529
 31
0.0
  0
LINE
  5
374
330
1F
100
AcDbEntity
  8
Layer0000
  6
Continuous
 62
    56
370
    25
100
AcDbLine
 10
-370.9269030884187
 20
143.3881828136529
 30
0.0
 11
-356.2343803765305
 21
143.3881828136529
 31
0.0
  0
ARC
  5
375
330
1F
100
AcDbEntity
  8
Layer0000
  6
Continuous
 62
    56
370
    25
100
AcDbCircle
 10
-356.2343803765305
 20
139.5767398268898
 30
0.0
 40
3.811442986763113
100
AcDbArc
 50
49.92557966161453
 51
130.0744203383861
  0
LINE
  5
376
330
1F
100
AcDbEntity
  8
Layer0000
  6
Continuous
 62
    56
370
    25
100
AcDbLine
 10
-353.7806417324746
 20
135.3881828136529
 30
0.0
 11
-353.7806417324746
 21
142.493289896409
 31
0.0
  0
LINE
  5
377
330
1F
100
AcDbEntity
  8
Layer0000
  6
Continuous
 62
    56
370
    25
100
AcDbLine
 10
-348.5806417324746
 20
134.3881828136529
 30
0.0
 11
-348.5806417324746
 21
114.3881828136529
 31
0.0
  0
LINE
  5
378
330
1F
100
AcDbEntity
  8
Layer0000
  6
Continuous
 62
    56
370
    25
100
AcDbLine
 10
-349.5806417324746
 20
135.3881828136529
 30
0.0
 11
-348.5806417324746
 21
134.3881828136529
 31
0.0
  0
LINE
  5
379
330
1F
100
AcDbEntity
  8
Layer0000
  6
Continuous
 62
    56
370
    25
100
AcDbLine
 10
-349.5806417324746
 20
113.3881828136529
 30
0.0
 11
-348.5806417324746
 21
114.3881828136529
 31
0.0
  0
LINE
  5
37A
330
1F
100
AcDbEntity
  8
Layer0000
  6
Continuous
 62
    56
370
    25
100
AcDbLine
 10
-358.6881190205864
 20
163.3881828136529
 30
0.0
 11
-358.6881190205864
 21
169.493289896409
 31
0.0
  0
LINE
  5
37B
330
1F
100
AcDbEntity
  8
Layer0000
  6
Continuous
 62
    56
370
    25
100
AcDbLine
 10
-373.3806417324746
 20
163.3881828136529
 30
0.0
 11
-373.3806417324746
 21
169.493289896409
 31
0.0
  0
LINE
  5
37C
330
1F
100
AcDbEntity
  8
Layer0000
  6
Continuous
 62
    56
370
    25
100
AcDbLine
 10
-368.4731644443629
 20
163.3881828136529
 30
0.0
 11
-368.4731644443629
 21
169.493289896409
 31
0.0
  0
ARC
  5
37D
330
1F
100
AcDbEntity
  8
Layer0000
  6
Continuous
 62
    56
370
    25
100
AcDbCircle
 10
-370.9269030884187
 20
166.5767398268898
 30
0.0
 40
3.811442986763149
100
AcDbArc
 50
49.92557966161389
 51
130.0744203383851
  0
ARC
  5
37E
330
1F
100
AcDbEntity
  8
Layer0000
  6
Continuous
 62
    56
370
    25
100
AcDbCircle
 10
-363.5806417324746
 20
156.5666342557195
 30
0.0
 40
13.82154855793342
100
AcDbArc
 50
69.26918485858411
 51
110.7308151414159
  0
ARC
  5
37F
330
1F
100
AcDbEntity
  8
Layer0000
  6
Continuous
 62
    56
370
    25
100
AcDbCircle
 10
-358.1806417324747
 20
162.9881828136529
 30
0.0
 40
0.4000000000000057
100
AcDbArc
 50
90.0
 51
180.0
  0
ARC
  5
380
330
1F
100
AcDbEntity
  8
Layer0000
  6
Continuous
 62
    56
370
    25
100
AcDbCircle
 10
-368.9806417324746
 20
162.9881828136529
 30
0.0
 40
0.3999999999999773
100
AcDbArc
 50
0.0
 51
90.0
  0
LINE
  5
381
330
1F
100
AcDbEntity
  8
Layer0000
  6
Continuous
 62
    56
370
    25
100
AcDbLine
 10
-368.5806417324746
 20
158.8881828136529
 30
0.0
 11
-358.5806417324746
 21
158.8881828136529
 31
0.0
  0
LINE
  5
382
330
1F
100
AcDbEntity
  8
Layer0000
  6
Continuous
 62
    56
370
    25
100
AcDbLine
 10
-359.3906417324775
 20
158.8881828136529
 30
0.0
 11
-358.5806417324746
 21
160.2911439677889
 31
0.0
  0
LINE
  5
383
330
1F
100
AcDbEntity
  8
Layer0000
  6
Continuous
 62
    56
370
    25
100
AcDbLine
 10
-367.7706417324746
 20
158.8881828136529
 30
0.0
 11
-368.5806417324746
 21
160.2911439677878
 31
0.0
  0
LINE
  5
384
330
1F
100
AcDbEntity
  8
Layer0000
  6
Continuous
 62
    56
370
    25
100
AcDbLine
 10
-367.7706417324746
 20
158.8881828136529
 30
0.0
 11
-367.7706417324746
 21
143.3881828136529
 31
0.0
  0
LINE
  5
385
330
1F
100
AcDbEntity
  8
Layer0000
  6
Continuous
 62
    56
370
    25
100
AcDbLine
 10
-368.5806417324746
 20
162.9881828136529
 30
0.0
 11
-368.5806417324746
 21
143.3881828136529
 31
0.0
  0
LINE
  5
386
330
1F
100
AcDbEntity
  8
Layer0000
  6
Continuous
 62
    56
370
    25
100
AcDbLine
 10
-359.3906417324746
 20
158.8881828136529
 30
0.0
 11
-359.3906417324746
 21
143.3881828136529
 31
0.0
  0
LINE
  5
387
330
1F
100
AcDbEntity
  8
Layer0000
  6
Continuous
 62
    56
370
    25
100
AcDbLine
 10
-358.5806417324746
 20
162.9881828136529
 30
0.0
 11
-358.5806417324746
 21
143.3881828136529
 31
0.0
  0
LINE
  5
388
330
1F
100
AcDbEntity
  8
Layer0000
  6
Continuous
 62
    56
370
    25
100
AcDbLine
 10
-353.7806417324746
 20
163.3881828136529
 30
0.0
 11
-373.3806417324746
 21
163.3881828136529
 31
0.0
  0
LINE
  5
389
330
1F
100
AcDbEntity
  8
Layer0000
  6
Continuous
 62
    56
370
    25
100
AcDbLine
 10
-353.7806417324746
 20
163.3881828136529
 30
0.0
 11
-353.7806417324746
 21
169.493289896409
 31
0.0
  0
ARC
  5
38A
330
1F
100
AcDbEntity
  8
Layer0000
  6
Continuous
 62
    56
370
    25
100
AcDbCircle
 10
-356.2343803765305
 20
166.5767398268898
 30
0.0
 40
3.811442986763113
100
AcDbArc
 50
49.92557966161454
 51
130.0744203383861
  0
LINE
  5
38B
330
1F
100
AcDbEntity
  8
Layer0000
  6
Continuous
 62
    56
370
    25
100
AcDbLine
 10
-431.1947433476124
 20
162.3881828136529
 30
0.0
 11
-451.9665401173369
 21
162.3881828136529
 31
0.0
  0
ARC
  5
38C
330
1F
100
AcDbEntity
  8
Layer0000
  6
Continuous
 62
    56
370
    25
100
AcDbCircle
 10
-431.1947433476124
 20
167.4888267609776
 30
0.0
 40
5.100643947324726
100
AcDbArc
 50
227.2227543443626
 51
312.7772456556379
  0
ARC
  5
38D
330
1F
100
AcDbEntity
  8
Layer0000
  6
Continuous
 62
    56
370
    25
100
AcDbCircle
 10
-451.9665401173369
 20
167.4888267609776
 30
0.0
 40
5.100643947324764
100
AcDbArc
 50
227.2227543443621
 51
312.7772456556374
  0
ARC
  5
38E
330
1F
100
AcDbEntity
  8
Layer0000
  6
Continuous
 62
    56
370
    25
100
AcDbCircle
 10
-441.5806417324746
 20
180.7229001880756
 30
0.0
 40
18.33471737442274
100
AcDbArc
 50
247.8195992645518
 51
292.1804007354482
  0
LINE
  5
38F
330
1F
100
AcDbEntity
  8
Layer0000
  6
Continuous
 62
    56
370
    25
100
AcDbLine
 10
-449.5806417324746
 20
155.3881828136529
 30
0.0
 11
-433.5806417324746
 21
155.3881828136529
 31
0.0
  0
LINE
  5
390
330
1F
100
AcDbEntity
  8
Layer0000
  6
Continuous
 62
    56
370
    25
100
AcDbLine
 10
-449.5806417324746
 20
160.3881828136529
 30
0.0
 11
-433.5806417324746
 21
160.3881828136529
 31
0.0
  0
LINE
  5
391
330
1F
100
AcDbEntity
  8
Layer0000
  6
Continuous
 62
    56
370
    25
100
AcDbLine
 10
-449.5806417324746
 20
155.3881828136529
 30
0.0
 11
-449.5806417324746
 21
162.3881828136529
 31
0.0
  0
LINE
  5
392
330
1F
100
AcDbEntity
  8
Layer0000
  6
Continuous
 62
    56
370
    25
100
AcDbLine
 10
-448.4806417324746
 20
160.3881828136529
 30
0.0
 11
-448.4806417324746
 21
162.3881828136529
 31
0.0
  0
LINE
  5
393
330
1F
100
AcDbEntity
  8
Layer0000
  6
Continuous
 62
    56
370
    25
100
AcDbLine
 10
-433.5806417324746
 20
155.3881828136529
 30
0.0
 11
-433.5806417324746
 21
162.3881828136529
 31
0.0
  0
LINE
  5
394
330
1F
100
AcDbEntity
  8
Layer0000
  6
Continuous
 62
    56
370
    25
100
AcDbLine
 10
-434.6806417324747
 20
160.3881828136529
 30
0.0
 11
-434.6806417324747
 21
162.3881828136529
 31
0.0
  0
LINE
  5
395
330
1F
100
AcDbEntity
  8
Layer0000
  6
Continuous
 62
    56
370
    25
100
AcDbLine
 10
-433.5806417324746
 20
158.4829269253304
 30
0.0
 11
-434.6806417324727
 21
160.3881828136529
 31
0.0
  0
LINE
  5
396
330
1F
100
AcDbEntity
  8
Layer0000
  6
Continuous
 62
    56
370
    25
100
AcDbLine
 10
-448.4806417324746
 20
160.3881828136579
 30
0.0
 11
-449.5806417324746
 21
158.4829269253322
 31
0.0
  0
LINE
  5
397
330
1F
100
AcDbEntity
  8
Layer0000
  6
Continuous
 62
    56
370
    25
100
AcDbLine
 10
-432.5806417324746
 20
154.3881828136529
 30
0.0
 11
-432.5806417324746
 21
135.3881828136529
 31
0.0
  0
LINE
  5
398
330
1F
100
AcDbEntity
  8
Layer0000
  6
Continuous
 62
    56
370
    25
100
AcDbLine
 10
-450.5806417324746
 20
154.3881828136529
 30
0.0
 11
-450.5806417324746
 21
135.3881828136529
 31
0.0
  0
LINE
  5
399
330
1F
100
AcDbEntity
  8
Layer0000
  6
Continuous
 62
    56
370
    25
100
AcDbLine
 10
-449.5806417324746
 20
155.3881828136529
 30
0.0
 11
-450.5806417324746
 21
154.3881828136529
 31
0.0
  0
LINE
  5
39A
330
1F
100
AcDbEntity
  8
Layer0000
  6
Continuous
 62
    56
370
    25
100
AcDbLine
 10
-433.5806417324746
 20
155.3881828136529
 30
0.0
 11
-432.5806417324746
 21
154.3881828136529
 31
0.0
  0
LINE
  5
39B
330
1F
100
AcDbEntity
  8
Layer0000
  6
Continuous
 62
    56
370
    25
100
AcDbLine
 10
-432.5806417324746
 20
154.3881828136529
 30
0.0
 11
-450.5806417324746
 21
154.3881828136529
 31
0.0
  0
LINE
  5
39C
330
1F
100
AcDbEntity
  8
Layer0000
  6
Continuous
 62
    56
370
    25
100
AcDbLine
 10
-448.5024385021991
 20
175.3881828136529
 30
0.0
 11
-448.5024385021991
 21
163.7449559462485
 31
0.0
  0
LINE
  5
39D
330
1F
100
AcDbEntity
  8
Layer0000
  6
Continuous
 62
    56
370
    25
100
AcDbLine
 10
-455.4306417324747
 20
175.3881828136529
 30
0.0
 11
-455.4306417324747
 21
163.7449559462485
 31
0.0
  0
LINE
  5
39E
330
1F
100
AcDbEntity
  8
Layer0000
  6
Continuous
 62
    56
370
    25
100
AcDbLine
 10
-434.6588449627501
 20
163.7449559462485
 30
0.0
 11
-434.6588449627501
 21
175.3881828136529
 31
0.0
  0
LINE
  5
39F
330
1F
100
AcDbEntity
  8
Layer0000
  6
Continuous
 62
    56
370
    25
100
AcDbLine
 10
-427.7306417324746
 20
175.3881828136529
 30
0.0
 11
-427.7306417324746
 21
163.7449559462485
 31
0.0
  0
LINE
  5
3A0
330
1F
100
AcDbEntity
  8
Layer0000
  6
Continuous
 62
    56
370
    25
100
AcDbLine
 10
-370.9269030884183
 20
170.388182813653
 30
0.0
 11
-356.2343803765302
 21
170.388182813653
 31
0.0
  0
LINE
  5
3A1
330
1F
100
AcDbEntity
  8
Layer0000
  6
Continuous
 62
    56
370
    25
100
AcDbLine
 10
-433.5806417324746
 20
75.38818281365293
 30
0.0
 11
-449.5806417324746
 21
75.38818281365293
 31
0.0
  0
LINE
  5
3A2
330
1F
100
AcDbEntity
  8
Layer0000
  6
Continuous
 62
    56
370
    25
100
AcDbLine
 10
-450.5806417324746
 20
76.38818281365293
 30
0.0
 11
-449.5806417324746
 21
75.38818281365293
 31
0.0
  0
LINE
  5
3A3
330
1F
100
AcDbEntity
  8
Layer0000
  6
Continuous
 62
    56
370
    25
100
AcDbLine
 10
-432.5806417324746
 20
76.38818281365293
 30
0.0
 11
-433.5806417324746
 21
75.38818281365293
 31
0.0
  0
LINE
  5
3A4
330
1F
100
AcDbEntity
  8
Layer0000
  6
Continuous
 62
    56
370
    25
100
AcDbLine
 10
-450.5806417324746
 20
76.38818281365293
 30
0.0
 11
-432.5806417324746
 21
76.38818281365293
 31
0.0
  0
LINE
  5
3A5
330
1F
100
AcDbEntity
  8
Layer0000
  6
CENTER
 62
    56
370
    25
100
AcDbLine
 10
121.9193583287606
 20
-225.0138064617661
 30
0.0
 11
220.9193583287573
 21
-225.0138064617661
 31
0.0
  0
LINE
  5
3A6
330
1F
100
AcDbEntity
  8
Layer0000
  6
CENTER
 62
    56
370
    25
100
AcDbLine
 10
-452.5806417324745
 20
124.3881828136529
 30
0.0
 11
-470.5806417324745
 21
124.3881828136529
 31
0.0
  0
LINE
  5
3A7
330
1F
100
AcDbEntity
  8
Layer0000
  6
CENTER
 62
    56
370
    25
100
AcDbLine
 10
-461.5806417324745
 20
133.3881828136529
 30
0.0
 11
-461.5806417324745
 21
115.3881828136529
 31
0.0
  0
LINE
  5
3A8
330
1F
100
AcDbEntity
  8
Layer0000
  6
CENTER
 62
    56
370
    25
100
AcDbLine
 10
-363.5806417324746
 20
171.388182813653
 30
0.0
 11
-363.5806417324746
 21
102.3881828136529
 31
0.0
  0
LINE
  5
3A9
330
1F
100
AcDbEntity
  8
Layer0000
  6
CENTER
 62
    56
370
    25
100
AcDbLine
 10
-441.5806417324746
 20
176.3881828136529
 30
0.0
 11
-441.5806417324746
 21
73.38818281365293
 31
0.0
  0
LINE
  5
3AA
330
1F
100
AcDbEntity
  8
Layer0000
  6
DIVIDE
 62
    56
370
    25
100
AcDbLine
 10
-446.5806417324747
 20
16.98619353823404
 30
0.0
 11
-406.5806417324747
 21
16.98619353823404
 31
0.0
  0
LINE
  5
3AB
330
1F
100
AcDbEntity
  8
Layer0000
  6
DIVIDE
 62
    56
370
    25
100
AcDbLine
 10
-446.5806417324747
 20
16.98619353823404
 30
0.0
 11
-446.5806417324747
 21
21.98619353823404
 31
0.0
  0
LINE
  5
3AC
330
1F
100
AcDbEntity
  8
Layer0000
  6
DIVIDE
 62
    56
370
    25
100
AcDbLine
 10
-446.5806417324747
 20
21.98619353823404
 30
0.0
 11
-471.5806417324747
 21
21.98619353823404
 31
0.0
  0
LINE
  5
3AD
330
1F
100
AcDbEntity
  8
Layer0000
  6
DIVIDE
 62
    56
370
    25
100
AcDbLine
 10
-471.5806417324747
 20
21.98619353823404
 30
0.0
 11
-471.5806417324747
 21
-5.013806461765938
 31
0.0
  0
LINE
  5
3AE
330
1F
100
AcDbEntity
  8
Layer0000
  6
DIVIDE
 62
    56
370
    25
100
AcDbLine
 10
-406.5806417324747
 20
16.98619353823404
 30
0.0
 11
-406.5806417324747
 21
-5.013806461765938
 31
0.0
  0
LINE
  5
3AF
330
1F
100
AcDbEntity
  8
Layer0000
  6
DIVIDE
 62
    56
370
    25
100
AcDbLine
 10
-471.5806417324747
 20
-5.013806461765938
 30
0.0
 11
-452.5806417324747
 21
-5.013806461765938
 31
0.0
  0
LINE
  5
3B0
330
1F
100
AcDbEntity
  8
Layer0000
  6
DIVIDE
 62
    56
370
    25
100
AcDbLine
 10
-436.5806417324747
 20
-5.013806461765938
 30
0.0
 11
-406.5806417324747
 21
-5.013806461765938
 31
0.0
  0
LINE
  5
3B1
330
1F
100
AcDbEntity
  8
Layer0000
  6
DIVIDE
 62
    56
370
    25
100
AcDbLine
 10
-436.5806417324747
 20
-9.013806461765938
 30
0.0
 11
-452.5806417324747
 21
-9.013806461765938
 31
0.0
  0
LINE
  5
3B2
330
1F
100
AcDbEntity
  8
Layer0000
  6
DIVIDE
 62
    56
370
    25
100
AcDbLine
 10
-452.5806417324747
 20
-9.013806461765938
 30
0.0
 11
-452.5806417324747
 21
-5.013806461765938
 31
0.0
  0
LINE
  5
3B3
330
1F
100
AcDbEntity
  8
Layer0000
  6
DIVIDE
 62
    56
370
    25
100
AcDbLine
 10
-436.5806417324747
 20
-9.013806461765938
 30
0.0
 11
-436.5806417324747
 21
-5.013806461765938
 31
0.0
  0
LINE
  5
3B4
330
1F
100
AcDbEntity
  8
Layer0000
  6
DIVIDE
 62
    56
370
    25
100
AcDbLine
 10
-7.580641732474717
 20
16.98619353823396
 30
0.0
 11
-47.58064173247472
 21
16.98619353823396
 31
0.0
  0
LINE
  5
3B5
330
1F
100
AcDbEntity
  8
Layer0000
  6
DIVIDE
 62
    56
370
    25
100
AcDbLine
 10
-7.580641732474717
 20
16.98619353823396
 30
0.0
 11
-7.580641732474717
 21
21.98619353823396
 31
0.0
  0
LINE
  5
3B6
330
1F
100
AcDbEntity
  8
Layer0000
  6
DIVIDE
 62
    56
370
    25
100
AcDbLine
 10
-7.580641732474717
 20
21.98619353823396
 30
0.0
 11
17.41935826752528
 21
21.98619353823396
 31
0.0
  0
LINE
  5
3B7
330
1F
100
AcDbEntity
  8
Layer0000
  6
DIVIDE
 62
    56
370
    25
100
AcDbLine
 10
17.41935826752528
 20
21.98619353823396
 30
0.0
 11
17.41935826752528
 21
-5.013806461766023
 31
0.0
  0
LINE
  5
3B8
330
1F
100
AcDbEntity
  8
Layer0000
  6
DIVIDE
 62
    56
370
    25
100
AcDbLine
 10
-47.58064173247472
 20
16.98619353823396
 30
0.0
 11
-47.58064173247472
 21
-5.013806461766023
 31
0.0
  0
LINE
  5
3B9
330
1F
100
AcDbEntity
  8
Layer0000
  6
DIVIDE
 62
    56
370
    25
100
AcDbLine
 10
17.41935826752528
 20
-5.013806461766023
 30
0.0
 11
-1.580641732474717
 21
-5.013806461766023
 31
0.0
  0
LINE
  5
3BA
330
1F
100
AcDbEntity
  8
Layer0000
  6
DIVIDE
 62
    56
370
    25
100
AcDbLine
 10
-17.58064173247472
 20
-5.013806461766023
 30
0.0
 11
-47.58064173247472
 21
-5.013806461766023
 31
0.0
  0
LINE
  5
3BB
330
1F
100
AcDbEntity
  8
Layer0000
  6
DIVIDE
 62
    56
370
    25
100
AcDbLine
 10
-17.58064173247472
 20
-9.013806461766023
 30
0.0
 11
-1.580641732474717
 21
-9.013806461766023
 31
0.0
  0
LINE
  5
3BC
330
1F
100
AcDbEntity
  8
Layer0000
  6
DIVIDE
 62
    56
370
    25
100
AcDbLine
 10
-1.580641732474717
 20
-9.013806461766023
 30
0.0
 11
-1.580641732474717
 21
-5.013806461766023
 31
0.0
  0
LINE
  5
3BD
330
1F
100
AcDbEntity
  8
Layer0000
  6
DIVIDE
 62
    56
370
    25
100
AcDbLine
 10
-17.58064173247472
 20
-9.013806461766023
 30
0.0
 11
-17.58064173247472
 21
-5.013806461766023
 31
0.0
  0
LINE
  5
3BE
330
1F
100
AcDbEntity
  8
Layer0000
  6
DIVIDE
 62
    56
370
    25
100
AcDbLine
 10
182.0526916620885
 20
327.388182813653
 30
0.0
 11
182.0526916620885
 21
175.3881828136529
 31
0.0
  0
LINE
  5
3BF
330
1F
100
AcDbEntity
  8
Layer0000
  6
DIVIDE
 62
    56
370
    25
100
AcDbLine
 10
210.0526916620885
 20
175.3881828136529
 30
0.0
 11
182.0526916620885
 21
175.3881828136529
 31
0.0
  0
LINE
  5
3C0
330
1F
100
AcDbEntity
  8
Layer0000
  6
DIVIDE
 62
    56
370
    25
100
AcDbLine
 10
210.0526916620885
 20
327.388182813653
 30
0.0
 11
182.0526916620885
 21
327.388182813653
 31
0.0
  0
LINE
  5
3C1
330
1F
100
AcDbEntity
  8
Layer0001
  6
Continuous
 62
    56
370
    25
100
AcDbLine
 10
368.0526916620885
 20
173.3881828136529
 30
0.0
 11
348.0526916620885
 21
173.3881828136529
 31
0.0
  0
LINE
  5
3C2
330
1F
100
AcDbEntity
  8
Layer0001
  6
Continuous
 62
    56
370
    25
100
AcDbLine
 10
348.0526916620885
 20
173.3881828136529
 30
0.0
 11
348.0526916620885
 21
179.3881828136528
 31
0.0
  0
LINE
  5
3C3
330
1F
100
AcDbEntity
  8
Layer0001
  6
Continuous
 62
    56
370
    25
100
AcDbLine
 10
370.0526916620885
 20
127.3881828136528
 30
0.0
 11
343.0526916620885
 21
127.3881828136528
 31
0.0
  0
LINE
  5
3C4
330
1F
100
AcDbEntity
  8
Layer0001
  6
Continuous
 62
    56
370
    25
100
AcDbLine
 10
338.0526916620885
 20
179.3881828136528
 30
0.0
 11
338.0526916620885
 21
132.3881828136528
 31
0.0
  0
LINE
  5
3C5
330
1F
100
AcDbEntity
  8
Layer0001
  6
Continuous
 62
    56
370
    25
100
AcDbLine
 10
338.0526916620885
 20
179.3881828136528
 30
0.0
 11
348.0526916620885
 21
179.3881828136528
 31
0.0
  0
LINE
  5
3C6
330
1F
100
AcDbEntity
  8
Layer0001
  6
Continuous
 62
    56
370
    25
100
AcDbLine
 10
370.0526916620885
 20
136.3881828136528
 30
0.0
 11
368.0526916620885
 21
136.3881828136528
 31
0.0
  0
LINE
  5
3C7
330
1F
100
AcDbEntity
  8
Layer0001
  6
Continuous
 62
    56
370
    25
100
AcDbLine
 10
368.0526916620885
 20
136.3881828136528
 30
0.0
 11
368.0526916620885
 21
173.3881828136529
 31
0.0
  0
LINE
  5
3C8
330
1F
100
AcDbEntity
  8
Layer0001
  6
Continuous
 62
    56
370
    25
100
AcDbLine
 10
370.0526916620885
 20
136.3881828136528
 30
0.0
 11
370.0526916620885
 21
127.3881828136528
 31
0.0
  0
LINE
  5
3C9
330
1F
100
AcDbEntity
  8
Layer0001
  6
Continuous
 62
    56
370
    25
100
AcDbLine
 10
343.0526916620885
 20
127.3881828136528
 30
0.0
 11
338.0526916620885
 21
132.3881828136528
 31
0.0
  0
LINE
  5
3CA
330
1F
100
AcDbEntity
  8
Layer0001
  6
Continuous
 62
    56
370
    25
100
AcDbLine
 10
368.0526916620885
 20
329.388182813653
 30
0.0
 11
348.0526916620885
 21
329.388182813653
 31
0.0
  0
LINE
  5
3CB
330
1F
100
AcDbEntity
  8
Layer0001
  6
Continuous
 62
    56
370
    25
100
AcDbLine
 10
348.0526916620885
 20
329.388182813653
 30
0.0
 11
348.0526916620885
 21
323.3881828136531
 31
0.0
  0
LINE
  5
3CC
330
1F
100
AcDbEntity
  8
Layer0001
  6
Continuous
 62
    56
370
    25
100
AcDbLine
 10
338.0526916620885
 20
323.3881828136531
 30
0.0
 11
338.0526916620885
 21
370.3881828136531
 31
0.0
  0
LINE
  5
3CD
330
1F
100
AcDbEntity
  8
Layer0001
  6
Continuous
 62
    56
370
    25
100
AcDbLine
 10
338.0526916620885
 20
323.3881828136531
 30
0.0
 11
348.0526916620885
 21
323.3881828136531
 31
0.0
  0
LINE
  5
3CE
330
1F
100
AcDbEntity
  8
Layer0001
  6
Continuous
 62
    56
370
    25
100
AcDbLine
 10
368.0526916620885
 20
366.3881828136531
 30
0.0
 11
368.0526916620885
 21
329.388182813653
 31
0.0
  0
LINE
  5
3CF
330
1F
100
AcDbEntity
  8
Layer0001
  6
Continuous
 62
    56
370
    25
100
AcDbLine
 10
343.0526916620885
 20
375.3881828136531
 30
0.0
 11
338.0526916620885
 21
370.3881828136531
 31
0.0
  0
LINE
  5
3D0
330
1F
100
AcDbEntity
  8
Layer0001
  6
Continuous
 62
    56
370
    25
100
AcDbLine
 10
370.0526916620885
 20
375.3881828136531
 30
0.0
 11
343.0526916620885
 21
375.3881828136531
 31
0.0
  0
LINE
  5
3D1
330
1F
100
AcDbEntity
  8
Layer0001
  6
Continuous
 62
    56
370
    25
100
AcDbLine
 10
370.0526916620885
 20
366.3881828136531
 30
0.0
 11
368.0526916620885
 21
366.3881828136531
 31
0.0
  0
LINE
  5
3D2
330
1F
100
AcDbEntity
  8
Layer0001
  6
Continuous
 62
    56
370
    25
100
AcDbLine
 10
370.0526916620885
 20
366.3881828136531
 30
0.0
 11
370.0526916620885
 21
375.3881828136531
 31
0.0
  0
LINE
  5
3D3
330
1F
100
AcDbEntity
  8
Layer0001
  6
Continuous
 62
    56
370
    25
100
AcDbLine
 10
-334.5806417324749
 20
325.388182813653
 30
0.0
 11
-344.580641732475
 21
335.3881828136529
 31
0.0
  0
LINE
  5
3D4
330
1F
100
AcDbEntity
  8
Layer0001
  6
Continuous
 62
    56
370
    25
100
AcDbLine
 10
-334.5806417324749
 20
325.388182813653
 30
0.0
 11
-304.5806417324749
 21
325.388182813653
 31
0.0
  0
LINE
  5
3D5
330
1F
100
AcDbEntity
  8
Layer0001
  6
Continuous
 62
    56
370
    25
100
AcDbLine
 10
-304.5806417324749
 20
325.388182813653
 30
0.0
 11
-294.5806417324749
 21
335.3881828136531
 31
0.0
  0
LINE
  5
3D6
330
1F
100
AcDbEntity
  8
Layer0001
  6
Continuous
 62
    56
370
    25
100
AcDbLine
 10
-344.580641732475
 20
374.3881828136531
 30
0.0
 11
-343.580641732475
 21
375.388182813653
 31
0.0
  0
LINE
  5
3D7
330
1F
100
AcDbEntity
  8
Layer0001
  6
Continuous
 62
    56
370
    25
100
AcDbLine
 10
-344.580641732475
 20
335.3881828136529
 30
0.0
 11
-344.580641732475
 21
374.3881828136531
 31
0.0
  0
LINE
  5
3D8
330
1F
100
AcDbEntity
  8
Layer0001
  6
Continuous
 62
    56
370
    25
100
AcDbLine
 10
-294.5806417324749
 20
374.388182813653
 30
0.0
 11
-295.5806417324749
 21
375.388182813653
 31
0.0
  0
LINE
  5
3D9
330
1F
100
AcDbEntity
  8
Layer0001
  6
Continuous
 62
    56
370
    25
100
AcDbLine
 10
-343.580641732475
 20
375.388182813653
 30
0.0
 11
-295.5806417324749
 21
375.388182813653
 31
0.0
  0
LINE
  5
3DA
330
1F
100
AcDbEntity
  8
Layer0001
  6
Continuous
 62
    56
370
    25
100
AcDbLine
 10
-294.5806417324749
 20
335.3881828136531
 30
0.0
 11
-294.5806417324749
 21
374.388182813653
 31
0.0
  0
CIRCLE
  5
3DB
330
1F
100
AcDbEntity
  8
Layer0001
  6
Continuous
 62
    56
370
    25
100
AcDbCircle
 10
-319.5806417324747
 20
349.388182813653
 30
0.0
 40
9.5
  0
CIRCLE
  5
3DC
330
1F
100
AcDbEntity
  8
Layer0001
  6
Continuous
 62
    56
370
    25
100
AcDbCircle
 10
-319.5806417324747
 20
349.388182813653
 30
0.0
 40
14.5
  0
LINE
  5
3DD
330
1F
100
AcDbEntity
  8
Layer0001
  6
Continuous
 62
    56
370
    25
100
AcDbLine
 10
-144.580641732475
 20
374.3881828136531
 30
0.0
 11
-143.580641732475
 21
375.388182813653
 31
0.0
  0
LINE
  5
3DE
330
1F
100
AcDbEntity
  8
Layer0001
  6
Continuous
 62
    56
370
    25
100
AcDbLine
 10
-144.580641732475
 20
335.3881828136529
 30
0.0
 11
-144.580641732475
 21
374.3881828136531
 31
0.0
  0
LINE
  5
3DF
330
1F
100
AcDbEntity
  8
Layer0001
  6
Continuous
 62
    56
370
    25
100
AcDbLine
 10
-94.58064173247494
 20
374.388182813653
 30
0.0
 11
-95.58064173247494
 21
375.388182813653
 31
0.0
  0
LINE
  5
3E0
330
1F
100
AcDbEntity
  8
Layer0001
  6
Continuous
 62
    56
370
    25
100
AcDbLine
 10
-143.580641732475
 20
375.388182813653
 30
0.0
 11
-95.58064173247494
 21
375.388182813653
 31
0.0
  0
LINE
  5
3E1
330
1F
100
AcDbEntity
  8
Layer0001
  6
Continuous
 62
    56
370
    25
100
AcDbLine
 10
-94.58064173247494
 20
335.3881828136531
 30
0.0
 11
-94.58064173247494
 21
374.388182813653
 31
0.0
  0
CIRCLE
  5
3E2
330
1F
100
AcDbEntity
  8
Layer0001
  6
Continuous
 62
    56
370
    25
100
AcDbCircle
 10
-119.5806417324747
 20
349.388182813653
 30
0.0
 40
9.5
  0
CIRCLE
  5
3E3
330
1F
100
AcDbEntity
  8
Layer0001
  6
Continuous
 62
    56
370
    25
100
AcDbCircle
 10
-119.5806417324747
 20
349.388182813653
 30
0.0
 40
14.5
  0
LINE
  5
3E4
330
1F
100
AcDbEntity
  8
Layer0001
  6
Continuous
 62
    56
370
    25
100
AcDbLine
 10
-134.5806417324749
 20
325.388182813653
 30
0.0
 11
-144.580641732475
 21
335.3881828136529
 31
0.0
  0
LINE
  5
3E5
330
1F
100
AcDbEntity
  8
Layer0001
  6
Continuous
 62
    56
370
    25
100
AcDbLine
 10
-104.5806417324749
 20
325.388182813653
 30
0.0
 11
-94.58064173247494
 21
335.3881828136531
 31
0.0
  0
LINE
  5
3E6
330
1F
100
AcDbEntity
  8
Layer0001
  6
Continuous
 62
    56
370
    25
100
AcDbLine
 10
-134.5806417324749
 20
325.388182813653
 30
0.0
 11
-104.5806417324749
 21
325.388182813653
 31
0.0
  0
LINE
  5
3E7
330
1F
100
AcDbEntity
  8
Layer0001
  6
Continuous
 62
    56
370
    25
100
AcDbLine
 10
-334.5806417324749
 20
177.3881828136529
 30
0.0
 11
-344.580641732475
 21
167.388182813653
 31
0.0
  0
LINE
  5
3E8
330
1F
100
AcDbEntity
  8
Layer0001
  6
Continuous
 62
    56
370
    25
100
AcDbLine
 10
-334.5806417324749
 20
177.3881828136529
 30
0.0
 11
-304.5806417324749
 21
177.3881828136529
 31
0.0
  0
LINE
  5
3E9
330
1F
100
AcDbEntity
  8
Layer0001
  6
Continuous
 62
    56
370
    25
100
AcDbLine
 10
-304.5806417324749
 20
177.3881828136529
 30
0.0
 11
-294.5806417324749
 21
167.3881828136527
 31
0.0
  0
LINE
  5
3EA
330
1F
100
AcDbEntity
  8
Layer0001
  6
Continuous
 62
    56
370
    25
100
AcDbLine
 10
-344.580641732475
 20
128.3881828136528
 30
0.0
 11
-343.580641732475
 21
127.3881828136528
 31
0.0
  0
LINE
  5
3EB
330
1F
100
AcDbEntity
  8
Layer0001
  6
Continuous
 62
    56
370
    25
100
AcDbLine
 10
-344.580641732475
 20
167.388182813653
 30
0.0
 11
-344.580641732475
 21
128.3881828136528
 31
0.0
  0
LINE
  5
3EC
330
1F
100
AcDbEntity
  8
Layer0001
  6
Continuous
 62
    56
370
    25
100
AcDbLine
 10
-294.5806417324749
 20
128.3881828136528
 30
0.0
 11
-295.5806417324749
 21
127.3881828136528
 31
0.0
  0
LINE
  5
3ED
330
1F
100
AcDbEntity
  8
Layer0001
  6
Continuous
 62
    56
370
    25
100
AcDbLine
 10
-343.580641732475
 20
127.3881828136528
 30
0.0
 11
-295.5806417324749
 21
127.3881828136528
 31
0.0
  0
LINE
  5
3EE
330
1F
100
AcDbEntity
  8
Layer0001
  6
Continuous
 62
    56
370
    25
100
AcDbLine
 10
-294.5806417324749
 20
167.3881828136527
 30
0.0
 11
-294.5806417324749
 21
128.3881828136528
 31
0.0
  0
CIRCLE
  5
3EF
330
1F
100
AcDbEntity
  8
Layer0001
  6
Continuous
 62
    56
370
    25
100
AcDbCircle
 10
-319.5806417324747
 20
153.3881828136529
 30
0.0
 40
9.5
  0
CIRCLE
  5
3F0
330
1F
100
AcDbEntity
  8
Layer0001
  6
Continuous
 62
    56
370
    25
100
AcDbCircle
 10
-319.5806417324747
 20
153.3881828136529
 30
0.0
 40
14.5
  0
LINE
  5
3F1
330
1F
100
AcDbEntity
  8
Layer0001
  6
Continuous
 62
    56
370
    25
100
AcDbLine
 10
-144.580641732475
 20
128.3881828136528
 30
0.0
 11
-143.580641732475
 21
127.3881828136528
 31
0.0
  0
LINE
  5
3F2
330
1F
100
AcDbEntity
  8
Layer0001
  6
Continuous
 62
    56
370
    25
100
AcDbLine
 10
-144.580641732475
 20
167.388182813653
 30
0.0
 11
-144.580641732475
 21
128.3881828136528
 31
0.0
  0
LINE
  5
3F3
330
1F
100
AcDbEntity
  8
Layer0001
  6
Continuous
 62
    56
370
    25
100
AcDbLine
 10
-94.58064173247494
 20
128.3881828136528
 30
0.0
 11
-95.58064173247494
 21
127.3881828136528
 31
0.0
  0
LINE
  5
3F4
330
1F
100
AcDbEntity
  8
Layer0001
  6
Continuous
 62
    56
370
    25
100
AcDbLine
 10
-143.580641732475
 20
127.3881828136528
 30
0.0
 11
-95.58064173247494
 21
127.3881828136528
 31
0.0
  0
LINE
  5
3F5
330
1F
100
AcDbEntity
  8
Layer0001
  6
Continuous
 62
    56
370
    25
100
AcDbLine
 10
-94.58064173247494
 20
167.3881828136527
 30
0.0
 11
-94.58064173247494
 21
128.3881828136528
 31
0.0
  0
CIRCLE
  5
3F6
330
1F
100
AcDbEntity
  8
Layer0001
  6
Continuous
 62
    56
370
    25
100
AcDbCircle
 10
-119.5806417324747
 20
153.3881828136529
 30
0.0
 40
9.5
  0
CIRCLE
  5
3F7
330
1F
100
AcDbEntity
  8
Layer0001
  6
Continuous
 62
    56
370
    25
100
AcDbCircle
 10
-119.5806417324747
 20
153.3881828136529
 30
0.0
 40
14.5
  0
LINE
  5
3F8
330
1F
100
AcDbEntity
  8
Layer0001
  6
Continuous
 62
    56
370
    25
100
AcDbLine
 10
-134.5806417324749
 20
177.3881828136529
 30
0.0
 11
-144.580641732475
 21
167.388182813653
 31
0.0
  0
LINE
  5
3F9
330
1F
100
AcDbEntity
  8
Layer0001
  6
Continuous
 62
    56
370
    25
100
AcDbLine
 10
-104.5806417324749
 20
177.3881828136529
 30
0.0
 11
-94.58064173247494
 21
167.3881828136527
 31
0.0
  0
LINE
  5
3FA
330
1F
100
AcDbEntity
  8
Layer0001
  6
Continuous
 62
    56
370
    25
100
AcDbLine
 10
-134.5806417324749
 20
177.3881828136529
 30
0.0
 11
-104.5806417324749
 21
177.3881828136529
 31
0.0
  0
LINE
  5
3FB
330
1F
100
AcDbEntity
  8
Layer0001
  6
CENTER
 62
    56
370
    25
100
AcDbLine
 10
338.0526916620885
 20
153.3881828136529
 30
0.0
 11
370.0526916620885
 21
153.3881828136529
 31
0.0
  0
LINE
  5
3FC
330
1F
100
AcDbEntity
  8
Layer0001
  6
CENTER
 62
    56
370
    25
100
AcDbLine
 10
-119.5806417324747
 20
323.388182813653
 30
0.0
 11
-119.5806417324747
 21
375.388182813653
 31
0.0
  0
LINE
  5
3FD
330
1F
100
AcDbEntity
  8
Layer0001
  6
CENTER
 62
    56
370
    25
100
AcDbLine
 10
-94.58064173247494
 20
349.388182813653
 30
0.0
 11
-144.580641732475
 21
349.388182813653
 31
0.0
  0
LINE
  5
3FE
330
1F
100
AcDbEntity
  8
Layer0001
  6
CENTER
 62
    56
370
    25
100
AcDbLine
 10
-294.5806417324749
 20
349.388182813653
 30
0.0
 11
-344.580641732475
 21
349.388182813653
 31
0.0
  0
LINE
  5
3FF
330
1F
100
AcDbEntity
  8
Layer0001
  6
CENTER
 62
    56
370
    25
100
AcDbLine
 10
-319.5806417324747
 20
323.388182813653
 30
0.0
 11
-319.5806417324747
 21
375.388182813653
 31
0.0
  0
LINE
  5
400
330
1F
100
AcDbEntity
  8
Layer0001
  6
CENTER
 62
    56
370
    25
100
AcDbLine
 10
-119.5806417324747
 20
179.3881828136529
 30
0.0
 11
-119.5806417324747
 21
127.3881828136528
 31
0.0
  0
LINE
  5
401
330
1F
100
AcDbEntity
  8
Layer0001
  6
CENTER
 62
    56
370
    25
100
AcDbLine
 10
-94.58064173247494
 20
153.3881828136529
 30
0.0
 11
-144.580641732475
 21
153.3881828136529
 31
0.0
  0
LINE
  5
402
330
1F
100
AcDbEntity
  8
Layer0001
  6
CENTER
 62
    56
370
    25
100
AcDbLine
 10
-294.5806417324749
 20
153.3881828136529
 30
0.0
 11
-344.580641732475
 21
153.3881828136529
 31
0.0
  0
LINE
  5
403
330
1F
100
AcDbEntity
  8
Layer0001
  6
CENTER
 62
    56
370
    25
100
AcDbLine
 10
-319.5806417324747
 20
179.3881828136529
 30
0.0
 11
-319.5806417324747
 21
127.3881828136528
 31
0.0
  0
LINE
  5
404
330
1F
100
AcDbEntity
  8
Layer0001
  6
CENTER
 62
    56
370
    25
100
AcDbLine
 10
370.0526916620885
 20
349.388182813653
 30
0.0
 11
338.0526916620885
 21
349.388182813653
 31
0.0
  0
POINT
  5
405
330
1F
100
AcDbEntity
  8
Layer0000
  6
Continuous
 62
     5
100
AcDbPoint
 10
-577.84905445745
 20
-398.2630319906648
 30
0.0
  0
LINE
  5
406
330
1F
100
AcDbEntity
  8
Layer0000
  6
DASHED2
 62
    30
370
    25
100
AcDbLine
 10
370.0526916620885
 20
242.3881828136529
 30
0.0
 11
366.0526916620885
 21
242.3881828136529
 31
0.0
  0
LINE
  5
407
330
1F
100
AcDbEntity
  8
Layer0000
  6
DASHED2
 62
    30
370
    25
100
AcDbLine
 10
366.0526916620885
 20
242.3881828136529
 30
0.0
 11
366.0526916620885
 21
260.3881828136529
 31
0.0
  0
LINE
  5
408
330
1F
100
AcDbEntity
  8
Layer0000
  6
DASHED2
 62
    30
370
    25
100
AcDbLine
 10
366.0526916620885
 20
260.3881828136529
 30
0.0
 11
370.0526916620885
 21
260.3881828136529
 31
0.0
  0
CIRCLE
  5
409
330
1F
100
AcDbEntity
  8
Layer0000
  6
Continuous
 62
     4
370
    25
100
AcDbCircle
 10
-441.5806417324747
 20
-27.01380646176594
 30
0.0
 40
8.0
  0
CIRCLE
  5
40A
330
1F
100
AcDbEntity
  8
Layer0000
  6
Continuous
 62
     4
370
    25
100
AcDbCircle
 10
-428.5806417324747
 20
296.3881828136528
 30
0.0
 40
5.0
  0
CIRCLE
  5
40B
330
1F
100
AcDbEntity
  8
Layer0000
  6
Continuous
 62
     4
370
    25
100
AcDbCircle
 10
-428.5806417324747
 20
251.3881828136528
 30
0.0
 40
5.0
  0
CIRCLE
  5
40C
330
1F
100
AcDbEntity
  8
Layer0000
  6
Continuous
 62
     4
370
    25
100
AcDbCircle
 10
-428.5806417324747
 20
206.3881828136528
 30
0.0
 40
5.0
  0
CIRCLE
  5
40D
330
1F
100
AcDbEntity
  8
Layer0000
  6
Continuous
 62
     4
370
    25
100
AcDbCircle
 10
-25.58064173247472
 20
296.388182813653
 30
0.0
 40
5.0
  0
CIRCLE
  5
40E
330
1F
100
AcDbEntity
  8
Layer0000
  6
Continuous
 62
     4
370
    25
100
AcDbCircle
 10
-25.58064173247472
 20
251.388182813653
 30
0.0
 40
5.0
  0
CIRCLE
  5
40F
330
1F
100
AcDbEntity
  8
Layer0000
  6
Continuous
 62
     4
370
    25
100
AcDbCircle
 10
-25.58064173247472
 20
206.388182813653
 30
0.0
 40
5.0
  0
LINE
  5
410
330
1F
100
AcDbEntity
  8
Layer0000
  6
CENTER
 62
     2
370
    18
100
AcDbLine
 10
135.7287251219718
 20
-100.0138064617661
 30
0.0
 11
71.41935826752241
 21
-100.0138064617661
 31
0.0
  0
LINE
  5
411
330
1F
100
AcDbEntity
  8
Layer0000
  6
CENTER
 62
     2
370
    18
100
AcDbLine
 10
-18.58064173247472
 20
296.388182813653
 30
0.0
 11
-32.58064173247472
 21
296.388182813653
 31
0.0
  0
LINE
  5
412
330
1F
100
AcDbEntity
  8
Layer0000
  6
CENTER
 62
     2
370
    18
100
AcDbLine
 10
-344.8873562161491
 20
-304.3354480202067
 30
0.0
 11
-240.8873562161491
 21
-304.3354480202067
 31
0.0
  0
LINE
  5
413
330
1F
100
AcDbEntity
  8
Layer0000
  6
Continuous
 62
     3
370
    18
100
AcDbLine
 10
-406.5806417324746
 20
175.3881828136527
 30
0.0
 11
-471.5806417324746
 21
175.3881828136527
 31
0.0
  0
LINE
  5
414
330
1F
100
AcDbEntity
  8
Layer0000
  6
Continuous
 62
     3
370
    18
100
AcDbLine
 10
-342.3873562161491
 20
-282.3354480202067
 30
0.0
 11
-271.3873562161491
 21
-282.3354480202067
 31
0.0
  0
LINE
  5
415
330
1F
100
AcDbEntity
  8
Layer0000
  6
Continuous
 62
     3
370
    18
100
AcDbLine
 10
-342.3873562161491
 20
-326.3354480202067
 30
0.0
 11
-271.3873562161491
 21
-326.3354480202067
 31
0.0
  0
LINE
  5
416
330
1F
100
AcDbEntity
  8
Layer0000
  6
Continuous
 62
     3
370
    18
100
AcDbLine
 10
-260.8873562161491
 20
-293.8354480202067
 30
0.0
 11
-243.8873562161491
 21
-293.8354480202067
 31
0.0
  0
LINE
  5
417
330
1F
100
AcDbEntity
  8
Layer0000
  6
Continuous
 62
     3
370
    18
100
AcDbLine
 10
-260.8873562161491
 20
-314.8354480202067
 30
0.0
 11
-243.8873562161491
 21
-314.8354480202067
 31
0.0
  0
LINE
  5
418
330
1F
100
AcDbEntity
  8
Layer0000
  6
Continuous
 62
     3
370
    18
100
AcDbLine
 10
-242.8873562161491
 20
-295.5674988277756
 30
0.0
 11
-242.8873562161491
 21
-313.1033972126379
 31
0.0
  0
LINE
  5
419
330
1F
100
AcDbEntity
  8
Layer0000
  6
Continuous
 62
     3
370
    18
100
AcDbLine
 10
-270.8873562161491
 20
-325.8354480202067
 30
0.0
 11
-270.8873562161491
 21
-282.8354480202067
 31
0.0
  0
LINE
  5
41A
330
1F
100
AcDbEntity
  8
Layer0000
  6
Continuous
 62
     3
370
    18
100
AcDbLine
 10
-342.8873562161491
 20
-282.8354480202067
 30
0.0
 11
-342.8873562161491
 21
-325.8354480202067
 31
0.0
  0
LINE
  5
41B
330
1F
100
AcDbEntity
  8
Layer0000
  6
Continuous
 62
     3
370
    18
100
AcDbLine
 10
-271.3873562161491
 20
-282.3354480202067
 30
0.0
 11
-270.8873562161491
 21
-282.8354480202067
 31
0.0
  0
LINE
  5
41C
330
1F
100
AcDbEntity
  8
Layer0000
  6
Continuous
 62
     3
370
    18
100
AcDbLine
 10
-342.3873562161491
 20
-282.3354480202067
 30
0.0
 11
-342.8873562161491
 21
-282.8354480202067
 31
0.0
  0
LINE
  5
41D
330
1F
100
AcDbEntity
  8
Layer0000
  6
Continuous
 62
     3
370
    18
100
AcDbLine
 10
-342.8873562161491
 20
-325.8354480202067
 30
0.0
 11
-342.3873562161491
 21
-326.3354480202067
 31
0.0
  0
LINE
  5
41E
330
1F
100
AcDbEntity
  8
Layer0000
  6
Continuous
 62
     3
370
    18
100
AcDbLine
 10
-270.8873562161491
 20
-325.8354480202067
 30
0.0
 11
-271.3873562161491
 21
-326.3354480202067
 31
0.0
  0
LINE
  5
41F
330
1F
100
AcDbEntity
  8
Layer0000
  6
Continuous
 62
     3
370
    18
100
AcDbLine
 10
-270.3873562161491
 20
-315.3354480202067
 30
0.0
 11
-270.3873562161491
 21
-293.3354480202067
 31
0.0
  0
LINE
  5
420
330
1F
100
AcDbEntity
  8
Layer0000
  6
Continuous
 62
     3
370
    18
100
AcDbLine
 10
-271.3873562161491
 20
-326.3354480202067
 30
0.0
 11
-271.3873562161491
 21
-282.3354480202067
 31
0.0
  0
LINE
  5
421
330
1F
100
AcDbEntity
  8
Layer0000
  6
Continuous
 62
     3
370
    18
100
AcDbLine
 10
-342.3873562161491
 20
-326.3354480202067
 30
0.0
 11
-342.3873562161491
 21
-282.3354480202067
 31
0.0
  0
LINE
  5
422
330
1F
100
AcDbEntity
  8
Layer0000
  6
Continuous
 62
     3
370
    18
100
AcDbLine
 10
-243.8873562161491
 20
-299.8633120652072
 30
0.0
 11
-260.8873562161491
 21
-299.8633120652072
 31
0.0
  0
LINE
  5
423
330
1F
100
AcDbEntity
  8
Layer0000
  6
Continuous
 62
     3
370
    18
100
AcDbLine
 10
-243.8873562161491
 20
-298.3442746617543
 30
0.0
 11
-260.8873562161491
 21
-298.3442746617543
 31
0.0
  0
LINE
  5
424
330
1F
100
AcDbEntity
  8
Layer0000
  6
Continuous
 62
     3
370
    18
100
AcDbLine
 10
-243.8873562161491
 20
-308.8075839752063
 30
0.0
 11
-260.8873562161491
 21
-308.8075839752063
 31
0.0
  0
LINE
  5
425
330
1F
100
AcDbEntity
  8
Layer0000
  6
Continuous
 62
     3
370
    18
100
AcDbLine
 10
-243.8873562161491
 20
-310.3266213786591
 30
0.0
 11
-260.8873562161491
 21
-310.3266213786591
 31
0.0
  0
LINE
  5
426
330
1F
100
AcDbEntity
  8
Layer0000
  6
Continuous
 62
     3
370
    18
100
AcDbLine
 10
-243.8873562161491
 20
-298.3442746617543
 30
0.0
 11
-243.8873562161491
 21
-299.8633120652072
 31
0.0
  0
LINE
  5
427
330
1F
100
AcDbEntity
  8
Layer0000
  6
Continuous
 62
     3
370
    18
100
AcDbLine
 10
-243.8873562161491
 20
-310.3266213786591
 30
0.0
 11
-243.8873562161491
 21
-308.8075839752063
 31
0.0
  0
ARC
  5
428
330
1F
100
AcDbEntity
  8
Layer0000
  6
Continuous
 62
     3
370
    18
100
AcDbCircle
 10
-245.9285459265903
 20
-296.0898613409805
 30
0.0
 40
3.041189710441189
100
AcDbArc
 50
312.1583048916936
 51
12.15830489169361
  0
ARC
  5
429
330
1F
100
AcDbEntity
  8
Layer0000
  6
Continuous
 62
     3
370
    18
100
AcDbCircle
 10
-253.387356216149
 20
-304.3354480202067
 30
0.0
 40
10.49999999999994
100
AcDbArc
 50
334.7912347032415
 51
25.20876529675846
  0
ARC
  5
42A
330
1F
100
AcDbEntity
  8
Layer0000
  6
Continuous
 62
     3
370
    18
100
AcDbCircle
 10
-245.9285459265903
 20
-312.5810346994328
 30
0.0
 40
3.041189710441189
100
AcDbArc
 50
347.8416951083055
 51
47.84169510830637
  0
LINE
  5
42B
330
1F
100
AcDbEntity
  8
Layer0000
  6
Continuous
 62
     3
370
    18
100
AcDbLine
 10
-243.8873562161491
 20
-293.8354480202067
 30
0.0
 11
-242.8873562161491
 21
-295.5674988277756
 31
0.0
  0
LINE
  5
42C
330
1F
100
AcDbEntity
  8
Layer0000
  6
Continuous
 62
     3
370
    18
100
AcDbLine
 10
-243.8873562161491
 20
-314.8354480202067
 30
0.0
 11
-242.8873562161491
 21
-313.1033972126379
 31
0.0
  0
LINE
  5
42D
330
1F
100
AcDbEntity
  8
Layer0000
  6
Continuous
 62
     3
370
    18
100
AcDbLine
 10
-260.8873562161491
 20
-293.3354480202067
 30
0.0
 11
-260.8873562161491
 21
-315.3354480202067
 31
0.0
  0
LINE
  5
42E
330
1F
100
AcDbEntity
  8
Layer0000
  6
Continuous
 62
     3
370
    18
100
AcDbLine
 10
-270.3873562161491
 20
-293.3354480202067
 30
0.0
 11
-260.8873562161491
 21
-293.3354480202067
 31
0.0
  0
LINE
  5
42F
330
1F
100
AcDbEntity
  8
Layer0000
  6
Continuous
 62
     3
370
    18
100
AcDbLine
 10
-270.3873562161491
 20
-315.3354480202067
 30
0.0
 11
-260.8873562161491
 21
-315.3354480202067
 31
0.0
  0
LINE
  5
430
330
1F
100
AcDbEntity
  8
Layer0000
  6
Continuous
 62
     3
370
    18
100
AcDbLine
 10
-270.3873562161491
 20
-315.3354480202067
 30
0.0
 11
-270.8873562161491
 21
-315.8354480202067
 31
0.0
  0
LINE
  5
431
330
1F
100
AcDbEntity
  8
Layer0000
  6
Continuous
 62
     3
370
    18
100
AcDbLine
 10
-270.3873562161491
 20
-293.3354480202067
 30
0.0
 11
-270.8873562161491
 21
-292.8354480202067
 31
0.0
  0
LINE
  5
432
330
1F
100
AcDbEntity
  8
Layer0000
  6
DASHED2
 62
    30
370
    18
100
AcDbLine
 10
-342.8873562161491
 20
-286.3354480202066
 30
0.0
 11
-317.8873562161491
 21
-286.3354480202066
 31
0.0
  0
LINE
  5
433
330
1F
100
AcDbEntity
  8
Layer0000
  6
DASHED2
 62
    30
370
    18
100
AcDbLine
 10
-342.8873562161491
 20
-294.6021471852733
 30
0.0
 11
-317.8873562161491
 21
-294.6021471852733
 31
0.0
  0
LINE
  5
434
330
1F
100
AcDbEntity
  8
Layer0000
  6
DASHED2
 62
    30
370
    18
100
AcDbLine
 10
-342.8873562161491
 20
-296.0892367689719
 30
0.0
 11
-317.8873562161491
 21
-296.0892367689719
 31
0.0
  0
LINE
  5
435
330
1F
100
AcDbEntity
  8
Layer0000
  6
DASHED2
 62
    30
370
    18
100
AcDbLine
 10
-317.8873562161491
 20
-286.3354480202066
 30
0.0
 11
-317.8873562161491
 21
-304.3354480202067
 31
0.0
  0
ARC
  5
436
330
1F
100
AcDbEntity
  8
Layer0000
  6
DASHED2
 62
    30
370
    18
100
AcDbCircle
 10
-346.1585009090062
 20
-290.46879760274
 30
0.0
 40
5.271144692857096
100
AcDbArc
 50
308.3581926761688
 51
51.64180732383124
  0
ARC
  5
437
330
1F
100
AcDbEntity
  8
Layer0000
  6
DASHED2
 62
    30
370
    18
100
AcDbCircle
 10
-358.8873562161469
 20
-304.3354480202067
 30
0.0
 40
17.99999999999785
100
AcDbArc
 50
0.000000000000007
 51
27.26604445073447
  0
LINE
  5
438
330
1F
100
AcDbEntity
  8
Layer0000
  6
DASHED2
 62
    30
370
    18
100
AcDbLine
 10
-317.8873562161491
 20
-290.8354480202067
 30
0.0
 11
-278.8873562161491
 21
-290.8354480202067
 31
0.0
  0
LINE
  5
439
330
1F
100
AcDbEntity
  8
Layer0000
  6
DASHED2
 62
    30
370
    18
100
AcDbLine
 10
-277.8873562161491
 20
-291.8354480202067
 30
0.0
 11
-277.8873562161491
 21
-304.3354480202067
 31
0.0
  0
LINE
  5
43A
330
1F
100
AcDbEntity
  8
Layer0000
  6
DASHED2
 62
    30
370
    18
100
AcDbLine
 10
-278.8873562161491
 20
-290.8354480202067
 30
0.0
 11
-277.8873562161491
 21
-291.8354480202067
 31
0.0
  0
LINE
  5
43B
330
1F
100
AcDbEntity
  8
Layer0000
  6
DASHED2
 62
    30
370
    18
100
AcDbLine
 10
-342.8873562161491
 20
-322.3354480202067
 30
0.0
 11
-317.8873562161491
 21
-322.3354480202067
 31
0.0
  0
LINE
  5
43C
330
1F
100
AcDbEntity
  8
Layer0000
  6
DASHED2
 62
    30
370
    18
100
AcDbLine
 10
-342.8873562161491
 20
-314.0687488551401
 30
0.0
 11
-317.8873562161491
 21
-314.0687488551401
 31
0.0
  0
LINE
  5
43D
330
1F
100
AcDbEntity
  8
Layer0000
  6
DASHED2
 62
    30
370
    18
100
AcDbLine
 10
-342.8873562161491
 20
-312.5816592714415
 30
0.0
 11
-317.8873562161491
 21
-312.5816592714415
 31
0.0
  0
LINE
  5
43E
330
1F
100
AcDbEntity
  8
Layer0000
  6
DASHED2
 62
    30
370
    18
100
AcDbLine
 10
-317.8873562161491
 20
-322.3354480202067
 30
0.0
 11
-317.8873562161491
 21
-304.3354480202067
 31
0.0
  0
ARC
  5
43F
330
1F
100
AcDbEntity
  8
Layer0000
  6
DASHED2
 62
    30
370
    18
100
AcDbCircle
 10
-346.1585009090062
 20
-318.2020984376734
 30
0.0
 40
5.271144692857096
100
AcDbArc
 50
308.3581926761688
 51
51.64180732383124
  0
ARC
  5
440
330
1F
100
AcDbEntity
  8
Layer0000
  6
DASHED2
 62
    30
370
    18
100
AcDbCircle
 10
-358.8873562161469
 20
-304.3354480202067
 30
0.0
 40
17.99999999999785
100
AcDbArc
 50
332.7339555492655
 51
0.0
  0
LINE
  5
441
330
1F
100
AcDbEntity
  8
Layer0000
  6
DASHED2
 62
    30
370
    18
100
AcDbLine
 10
-317.8873562161491
 20
-317.8354480202067
 30
0.0
 11
-278.8873562161491
 21
-317.8354480202067
 31
0.0
  0
LINE
  5
442
330
1F
100
AcDbEntity
  8
Layer0000
  6
DASHED2
 62
    30
370
    18
100
AcDbLine
 10
-277.8873562161491
 20
-316.8354480202067
 30
0.0
 11
-277.8873562161491
 21
-304.3354480202067
 31
0.0
  0
LINE
  5
443
330
1F
100
AcDbEntity
  8
Layer0000
  6
DASHED2
 62
    30
370
    18
100
AcDbLine
 10
-278.8873562161491
 20
-317.8354480202067
 30
0.0
 11
-277.8873562161491
 21
-316.8354480202067
 31
0.0
  0
LINE
  5
444
330
1F
100
AcDbEntity
  8
Layer0014
  6
DIVIDE
 62
     4
370
    25
100
AcDbLine
 10
-89.58064173247475
 20
-4.513806461766031
 30
0.0
 11
-89.58064173247473
 21
-51.01380646176604
 31
0.0
  0
LINE
  5
445
330
1F
100
AcDbEntity
  8
Layer0014
  6
DIVIDE
 62
     4
370
    25
100
AcDbLine
 10
-67.38032051740633
 20
-51.01380646176607
 30
0.0
 11
-82.65154624035297
 21
-4.013806461766038
 31
0.0
  0
LINE
  5
446
330
1F
100
AcDbEntity
  8
Layer0014
  6
DIVIDE
 62
     4
370
    25
100
AcDbLine
 10
-57.58064173247475
 20
-4.013806461766031
 30
0.0
 11
-82.65154624035297
 21
-4.013806461766031
 31
0.0
  0
LINE
  5
447
330
1F
100
AcDbEntity
  8
Layer0014
  6
DIVIDE
 62
     4
370
    25
100
AcDbLine
 10
-89.58064173247475
 20
-4.513806461766031
 30
0.0
 11
-82.48908639223653
 21
-4.513806461766031
 31
0.0
  0
LINE
  5
448
330
1F
100
AcDbEntity
  8
Layer0014
  6
DIVIDE
 62
     4
370
    25
100
AcDbLine
 10
-68.78064173247472
 20
-55.01380646176604
 30
0.0
 11
-57.78064173247473
 21
-55.01380646176604
 31
0.0
  0
LINE
  5
449
330
1F
100
AcDbEntity
  8
Layer0014
  6
DIVIDE
 62
     4
370
    25
100
AcDbLine
 10
-67.38032051740633
 20
-51.01380646176607
 30
0.0
 11
-76.78064173247473
 21
-51.01380646176602
 31
0.0
  0
LINE
  5
44A
330
1F
100
AcDbEntity
  8
Layer0014
  6
DIVIDE
 62
     4
370
    25
100
AcDbLine
 10
-68.78064173247472
 20
-55.01380646176604
 30
0.0
 11
-68.78064173247472
 21
-54.01380646176604
 31
0.0
  0
LINE
  5
44B
330
1F
100
AcDbEntity
  8
Layer0014
  6
DIVIDE
 62
     4
370
    25
100
AcDbLine
 10
-68.78064173247472
 20
-54.01380646176604
 30
0.0
 11
-81.78064173247473
 21
-54.01380646176604
 31
0.0
  0
LINE
  5
44C
330
1F
100
AcDbEntity
  8
Layer0014
  6
DIVIDE
 62
     4
370
    25
100
AcDbLine
 10
-81.78064173247473
 20
-51.01380646176604
 30
0.0
 11
-81.78064173247473
 21
-54.01380646176604
 31
0.0
  0
LINE
  5
44D
330
1F
100
AcDbEntity
  8
Layer0014
  6
DIVIDE
 62
     4
370
    25
100
AcDbLine
 10
-76.78064173247473
 20
-51.01380646176602
 30
0.0
 11
-76.78064173247473
 21
-50.51380646176602
 31
0.0
  0
LINE
  5
44E
330
1F
100
AcDbEntity
  8
Layer0014
  6
DIVIDE
 62
     4
370
    25
100
AcDbLine
 10
-76.78064173247473
 20
-50.51380646176602
 30
0.0
 11
-67.5427803655228
 21
-50.51380646176602
 31
0.0
  0
LINE
  5
44F
330
1F
100
AcDbEntity
  8
Layer0014
  6
DIVIDE
 62
     4
370
    25
100
AcDbLine
 10
-57.58064173247473
 20
-51.01380646176604
 30
0.0
 11
-67.38032051740633
 21
-51.01380646176607
 31
0.0
  0
LINE
  5
450
330
1F
100
AcDbEntity
  8
Layer0014
  6
DIVIDE
 62
     4
370
    25
100
AcDbLine
 10
-76.78064173247473
 20
-51.01380646176604
 30
0.0
 11
-89.58064173247473
 21
-51.01380646176604
 31
0.0
  0
LINE
  5
451
330
1F
100
AcDbEntity
  8
Layer0014
  6
DIVIDE
 62
     4
370
    25
100
AcDbLine
 10
-57.78064173247473
 20
-51.01380646176604
 30
0.0
 11
-57.78064173247473
 21
-55.01380646176604
 31
0.0
  0
LINE
  5
452
330
1F
100
AcDbEntity
  8
Layer0014
  6
DIVIDE
 62
     4
370
    25
100
AcDbLine
 10
-57.58064173247475
 20
-4.013806461766031
 30
0.0
 11
-57.58064173247475
 21
-51.01380646176604
 31
0.0
  0
LINE
  5
453
330
1F
100
AcDbEntity
  8
Layer0014
  6
Continuous
 62
     3
370
    25
100
AcDbLine
 10
289.0739507642887
 20
-60.01380646176593
 30
0.0
 11
314.0739507642872
 21
-60.01380646176599
 31
0.0
  0
LINE
  5
454
330
1F
100
AcDbEntity
  8
Layer0014
  6
Continuous
 62
     3
370
    25
100
AcDbLine
 10
289.073950764289
 20
-140.013806461766
 30
0.0
 11
314.0739507642872
 21
-140.013806461766
 31
0.0
  0
LINE
  5
455
330
1F
100
AcDbEntity
  8
Layer0014
  6
Continuous
 62
     3
370
    25
100
AcDbLine
 10
314.0739508255152
 20
-140.013806461766
 30
0.0
 11
314.0739508255152
 21
-60.01380646176599
 31
0.0
  0
LINE
  5
456
330
1F
100
AcDbEntity
  8
Layer0014
  6
Continuous
 62
     3
370
    25
100
AcDbLine
 10
360.0560201378929
 20
-62.01380646176604
 30
0.0
 11
392.3739508255145
 21
-80.67257244391607
 31
0.0
  0
LINE
  5
457
330
1F
100
AcDbEntity
  8
Layer0014
  6
Continuous
 62
     3
370
    25
100
AcDbLine
 10
360.0560201378929
 20
-62.01380646176604
 30
0.0
 11
314.0739508255152
 21
-62.01380646176599
 31
0.0
  0
LINE
  5
458
330
1F
100
AcDbEntity
  8
Layer0014
  6
Continuous
 62
     3
370
    25
100
AcDbLine
 10
392.3739508255145
 20
-80.67257244391607
 30
0.0
 11
392.3739508255145
 21
-128.013806461766
 31
0.0
  0
LINE
  5
459
330
1F
100
AcDbEntity
  8
Layer0014
  6
Continuous
 62
     3
370
    25
100
AcDbLine
 10
314.0739508255152
 20
-128.013806461766
 30
0.0
 11
392.3739508255145
 21
-128.013806461766
 31
0.0
  0
LINE
  5
45A
330
1F
100
AcDbEntity
  8
Layer0014
  6
Continuous
 62
     3
370
    25
100
AcDbLine
 10
380.280684085775
 20
-40.20420602334882
 30
0.0
 11
398.4672175652481
 21
-50.70420602334922
 31
0.0
  0
LINE
  5
45B
330
1F
100
AcDbEntity
  8
Layer0014
  6
Continuous
 62
     3
370
    25
100
AcDbLine
 10
390.1502302671408
 20
-66.10965058957521
 30
0.0
 11
389.9672175652486
 21
-65.42663788768306
 31
0.0
  0
LINE
  5
45C
330
1F
100
AcDbEntity
  8
Layer0014
  6
Continuous
 62
     3
370
    25
100
AcDbLine
 10
389.9672175652486
 20
-65.42663788768306
 30
0.0
 11
398.4672175652481
 21
-50.70420602334922
 31
0.0
  0
LINE
  5
45D
330
1F
100
AcDbEntity
  8
Layer0014
  6
Continuous
 62
     3
370
    25
100
AcDbLine
 10
371.0976713838834
 20
-55.10965058957486
 30
0.0
 11
371.7806840857756
 21
-54.92663788768271
 31
0.0
  0
LINE
  5
45E
330
1F
100
AcDbEntity
  8
Layer0014
  6
Continuous
 62
     3
370
    25
100
AcDbLine
 10
371.7806840857756
 20
-54.92663788768271
 30
0.0
 11
380.280684085775
 21
-40.20420602334882
 31
0.0
  0
LINE
  5
45F
330
1F
100
AcDbEntity
  8
Layer0014
  6
Continuous
 62
     3
370
    25
100
AcDbLine
 10
390.1502302671408
 20
-66.10965058957521
 30
0.0
 11
371.0976713838834
 21
-55.10965058957486
 31
0.0
  0
LINE
  5
460
330
1F
100
AcDbEntity
  8
Layer0014
  6
Continuous
 62
     3
370
    25
100
AcDbLine
 10
371.7806840857756
 20
-54.92663788768271
 30
0.0
 11
389.9672175652486
 21
-65.42663788768306
 31
0.0
  0
LINE
  5
461
330
1F
100
AcDbEntity
  8
Layer0014
  6
Continuous
 62
     3
370
    25
100
AcDbLine
 10
371.0976713838838
 20
-55.10965058957543
 30
0.0
 11
365.3476713838837
 21
-65.06894273309649
 31
0.0
  0
LINE
  5
462
330
1F
100
AcDbEntity
  8
Layer0014
  6
Continuous
 62
     3
370
    25
100
AcDbLine
 10
390.1502302671414
 20
-66.10965058957544
 30
0.0
 11
384.4002302671414
 21
-76.06894273309649
 31
0.0
  0
LINE
  5
463
330
1F
100
AcDbEntity
  8
Layer0014
  6
Continuous
 62
     3
370
    25
100
AcDbLine
 10
159.0567296339621
 20
-55.01380646176593
 30
0.0
 11
289.0739507642887
 21
-55.01380646176593
 31
0.0
  0
LINE
  5
464
330
1F
100
AcDbEntity
  8
Layer0014
  6
Continuous
 62
     3
370
    25
100
AcDbLine
 10
289.0739507642887
 20
-55.01380646176593
 30
0.0
 11
289.073950764289
 21
-165.0138064617659
 31
0.0
  0
LINE
  5
465
330
1F
100
AcDbEntity
  8
Layer0014
  6
Continuous
 62
     3
370
    25
100
AcDbLine
 10
196.0746195399627
 20
-165.0138064617659
 30
0.0
 11
289.073950764289
 21
-165.0138064617659
 31
0.0
  0
LINE
  5
466
330
1F
100
AcDbEntity
  8
Layer0014
  6
Continuous
 62
     3
370
    25
100
AcDbLine
 10
239.07395076429
 20
-5.013806461766023
 30
0.0
 11
273.0739507642887
 21
-5.013806461766023
 31
0.0
  0
LINE
  5
467
330
1F
100
AcDbEntity
  8
Layer0014
  6
Continuous
 62
     3
370
    25
100
AcDbLine
 10
223.07395076429
 20
-5.013806461766023
 30
0.0
 11
223.07395076429
 21
-9.513806461766023
 31
0.0
  0
LINE
  5
468
330
1F
100
AcDbEntity
  8
Layer0014
  6
Continuous
 62
     3
370
    25
100
AcDbLine
 10
223.07395076429
 20
-9.513806461766023
 30
0.0
 11
239.07395076429
 21
-9.513806461766023
 31
0.0
  0
LINE
  5
469
330
1F
100
AcDbEntity
  8
Layer0014
  6
Continuous
 62
     3
370
    25
100
AcDbLine
 10
239.07395076429
 20
-9.513806461766023
 30
0.0
 11
239.07395076429
 21
-5.013806461766023
 31
0.0
  0
LINE
  5
46A
330
1F
100
AcDbEntity
  8
Layer0014
  6
Continuous
 62
     3
370
    25
100
AcDbLine
 10
183.07395076429
 20
-55.01380646176604
 30
0.0
 11
183.07395076429
 21
-5.013806461766023
 31
0.0
  0
LINE
  5
46B
330
1F
100
AcDbEntity
  8
Layer0014
  6
Continuous
 62
     3
370
    25
100
AcDbLine
 10
183.07395076429
 20
-55.01380646176593
 30
0.0
 11
166.07395076429
 21
-55.01380646176593
 31
0.0
  0
LINE
  5
46C
330
1F
100
AcDbEntity
  8
Layer0014
  6
Continuous
 62
     3
370
    25
100
AcDbLine
 10
166.07395076429
 20
-55.01380646176593
 30
0.0
 11
166.07395076429
 21
-4.013806461765938
 31
0.0
  0
LINE
  5
46D
330
1F
100
AcDbEntity
  8
Layer0014
  6
Continuous
 62
     3
370
    25
100
AcDbLine
 10
166.07395076429
 20
-4.013806461765938
 30
0.0
 11
183.07395076429
 21
-4.013806461765938
 31
0.0
  0
LINE
  5
46E
330
1F
100
AcDbEntity
  8
Layer0014
  6
Continuous
 62
     3
370
    25
100
AcDbLine
 10
183.07395076429
 20
-4.013806461765938
 30
0.0
 11
183.07395076429
 21
-55.01380646176593
 31
0.0
  0
LINE
  5
46F
330
1F
100
AcDbEntity
  8
Layer0014
  6
Continuous
 62
     3
370
    25
100
AcDbLine
 10
183.07395076429
 20
-55.01380646176604
 30
0.0
 11
215.57395076429
 21
-55.01380646176604
 31
0.0
  0
LINE
  5
470
330
1F
100
AcDbEntity
  8
Layer0014
  6
Continuous
 62
     3
370
    25
100
AcDbLine
 10
240.57395076429
 20
-55.01380646176604
 30
0.0
 11
273.0739507642887
 21
-55.01380646176604
 31
0.0
  0
LINE
  5
471
330
1F
100
AcDbEntity
  8
Layer0014
  6
Continuous
 62
     3
370
    25
100
AcDbLine
 10
273.0739507642887
 20
-5.013806461766023
 30
0.0
 11
273.0739507642887
 21
-55.01380646176604
 31
0.0
  0
LINE
  5
472
330
1F
100
AcDbEntity
  8
Layer0014
  6
Continuous
 62
     3
370
    25
100
AcDbLine
 10
183.07395076429
 20
-5.013806461766023
 30
0.0
 11
223.07395076429
 21
-5.013806461766023
 31
0.0
  0
LINE
  5
473
330
1F
100
AcDbEntity
  8
Layer0014
  6
Continuous
 62
    56
370
    25
100
AcDbLine
 10
271.3265467184041
 20
18.08169236152163
 30
0.0
 11
278.8265467184049
 21
31.07207341828764
 31
0.0
  0
LINE
  5
474
330
1F
100
AcDbEntity
  8
Layer0014
  6
Continuous
 62
    56
370
    25
100
AcDbLine
 10
278.8265467184049
 20
31.07207341828764
 30
0.0
 11
294.4150039865242
 21
22.07207341828673
 31
0.0
  0
LINE
  5
475
330
1F
100
AcDbEntity
  8
Layer0014
  6
Continuous
 62
    56
370
    25
100
AcDbLine
 10
290.9150039865237
 20
16.0098955917959
 30
0.0
 11
294.4150039865242
 21
22.07207341828673
 31
0.0
  0
ARC
  5
476
330
1F
100
AcDbEntity
  8
Layer0014
  6
Continuous
 62
    56
370
    25
100
AcDbCircle
 10
292.6470547940925
 20
15.00989559179579
 30
0.0
 40
2.0
100
AcDbArc
 50
149.9999999999963
 51
239.9999999999963
  0
ARC
  5
477
330
1F
100
AcDbEntity
  8
Layer0014
  6
Continuous
 62
    56
370
    25
100
AcDbCircle
 10
273.0585975259729
 20
17.08169236152145
 30
0.0
 40
2.0
100
AcDbArc
 50
149.9999999999963
 51
239.9999999999963
  0
LINE
  5
478
330
1F
100
AcDbEntity
  8
Layer0014
  6
Continuous
 62
    56
370
    25
100
AcDbLine
 10
274.5896864392162
 20
12.73361615016905
 30
0.0
 11
280.6518642657072
 21
9.233616150168935
 31
0.0
  0
LINE
  5
479
330
1F
100
AcDbEntity
  8
Layer0014
  6
Continuous
 62
    56
370
    25
100
AcDbLine
 10
297.0489785827376
 20
28.63425124477954
 30
0.0
 11
283.1925721221867
 21
36.63425124477983
 31
0.0
  0
LINE
  5
47A
330
1F
100
AcDbEntity
  8
Layer0014
  6
Continuous
 62
    56
370
    25
100
AcDbLine
 10
297.0489785827376
 20
28.63425124477954
 30
0.0
 11
335.9835724651929
 21
88.07411496609274
 31
0.0
  0
LINE
  5
47B
330
1F
100
AcDbEntity
  8
Layer0014
  6
Continuous
 62
    56
370
    25
100
AcDbLine
 10
283.1925721221867
 20
36.63425124477983
 30
0.0
 11
315.2017071611038
 21
100.0725304936717
 31
0.0
  0
LINE
  5
47C
330
1F
100
AcDbEntity
  8
Layer0014
  6
Continuous
 62
    56
370
    25
100
AcDbLine
 10
316.5944981726703
 20
100.4880790113835
 30
0.0
 11
335.6470570464837
 21
89.48807901683568
 31
0.0
  0
ARC
  5
47D
330
1F
100
AcDbEntity
  8
Layer0014
  6
Continuous
 62
    56
370
    25
100
AcDbCircle
 10
316.0944959108347
 20
99.62205491347447
 30
0.0
 40
1.0
100
AcDbArc
 50
59.99985035805094
 51
153.2257992241566
  0
ARC
  5
47E
330
1F
100
AcDbEntity
  8
Layer0014
  6
Continuous
 62
    56
370
    25
100
AcDbCircle
 10
335.1470547940921
 20
88.62205491347407
 30
0.0
 40
1.0
100
AcDbArc
 50
326.7742007758411
 51
60.00014964194605
  0
LINE
  5
47F
330
1F
100
AcDbEntity
  8
Layer0014
  6
Continuous
 62
    56
370
    25
100
AcDbLine
 10
315.2017071640925
 20
100.0725304919463
 30
0.0
 11
335.9835724622042
 21
88.07411496781828
 31
0.0
  0
LINE
  5
480
330
1F
100
AcDbEntity
  8
Layer0014
  6
Continuous
 62
    56
370
    25
100
AcDbLine
 10
294.0489785827374
 20
23.43809882207297
 30
0.0
 11
297.0489785827376
 21
28.63425124477954
 31
0.0
  0
LINE
  5
481
330
1F
100
AcDbEntity
  8
Layer0014
  6
Continuous
 62
    56
370
    25
100
AcDbLine
 10
280.1925721221866
 20
31.43809882207325
 30
0.0
 11
283.1925721221867
 21
36.63425124477983
 31
0.0
  0
LINE
  5
482
330
1F
100
AcDbEntity
  8
Layer0014
  6
Continuous
 62
    56
370
    25
100
AcDbLine
 10
292.682953178953
 20
23.0720734182886
 30
0.0
 11
294.0489785827374
 21
23.43809882207297
 31
0.0
  0
LINE
  5
483
330
1F
100
AcDbEntity
  8
Layer0014
  6
Continuous
 62
    56
370
    25
100
AcDbLine
 10
280.558597525971
 20
30.07207341828883
 30
0.0
 11
280.1925721221866
 21
31.43809882207325
 31
0.0
  0
LINE
  5
484
330
1F
100
AcDbEntity
  8
Layer0014
  6
Continuous
 62
    56
370
    25
100
AcDbLine
 10
292.682953178953
 20
23.0720734182886
 30
0.0
 11
280.558597525971
 21
30.07207341828883
 31
0.0
  0
LINE
  5
485
330
1F
100
AcDbEntity
  8
Layer0014
  6
Continuous
 62
    56
370
    25
100
AcDbLine
 10
274.2236610354378
 20
14.09964155395023
 30
0.0
 11
274.5896864392162
 21
12.73361615016905
 31
0.0
  0
LINE
  5
486
330
1F
100
AcDbEntity
  8
Layer0014
  6
Continuous
 62
    56
370
    25
100
AcDbLine
 10
282.0178896694814
 20
9.599641553958925
 30
0.0
 11
280.6518642657072
 21
9.233616150168935
 31
0.0
  0
LINE
  5
487
330
1F
100
AcDbEntity
  8
Layer0014
  6
Continuous
 62
    56
370
    25
100
AcDbLine
 10
281.8013833185454
 20
9.724641553953127
 30
0.0
 11
281.676383318548
 21
9.508135203011427
 31
0.0
  0
LINE
  5
488
330
1F
100
AcDbEntity
  8
Layer0014
  6
Continuous
 62
    56
370
    25
100
AcDbLine
 10
274.4401673863778
 20
13.97464155395313
 30
0.0
 11
274.3151673863803
 21
13.75813520301148
 31
0.0
  0
LINE
  5
489
330
1F
100
AcDbEntity
  8
Layer0014
  6
Continuous
 62
    56
370
    25
100
AcDbLine
 10
399.0963826898488
 20
-62.61446006119353
 30
0.0
 11
401.0963826898491
 21
-59.15035844605597
 31
0.0
  0
LINE
  5
48A
330
1F
100
AcDbEntity
  8
Layer0014
  6
Continuous
 62
    56
370
    25
100
AcDbLine
 10
403.8284334974182
 20
-58.4183076384873
 30
0.0
 11
405.8284334974182
 21
-54.95420602334956
 31
0.0
  0
ARC
  5
48B
330
1F
100
AcDbEntity
  8
Layer0014
  6
Continuous
 62
    56
370
    25
100
AcDbCircle
 10
404.0963826898494
 20
-53.95420602334956
 30
0.0
 40
2.0
100
AcDbArc
 50
329.9999999999965
 51
59.99999999999627
  0
ARC
  5
48C
330
1F
100
AcDbEntity
  8
Layer0014
  6
Continuous
 62
    56
370
    25
100
AcDbCircle
 10
402.0963826898493
 20
-57.41830763848724
 30
0.0
 40
2.0
100
AcDbArc
 50
239.9999999999965
 51
329.9999999999965
  0
LINE
  5
48D
330
1F
100
AcDbEntity
  8
Layer0014
  6
Continuous
 62
    56
370
    25
100
AcDbLine
 10
399.0963826898488
 20
-62.61446006119353
 30
0.0
 11
398.2303572860645
 21
-62.11446006119353
 31
0.0
  0
LINE
  5
48E
330
1F
100
AcDbEntity
  8
Layer0014
  6
Continuous
 62
    56
370
    25
100
AcDbLine
 10
392.230357286064
 20
-72.50676490660612
 30
0.0
 11
398.2303572860645
 21
-62.11446006119353
 31
0.0
  0
LINE
  5
48F
330
1F
100
AcDbEntity
  8
Layer0014
  6
Continuous
 62
    56
370
    25
100
AcDbLine
 10
390.8643318822796
 20
-72.87279031039049
 30
0.0
 11
392.230357286064
 21
-72.50676490660612
 31
0.0
  0
LINE
  5
490
330
1F
100
AcDbEntity
  8
Layer0014
  6
Continuous
 62
    56
370
    25
100
AcDbLine
 10
390.8643318822796
 20
-72.87279031039049
 30
0.0
 11
387.4002302671407
 21
-70.87279031038975
 31
0.0
  0
ARC
  5
491
330
1F
100
AcDbEntity
  8
Layer0014
  6
Continuous
 62
    56
370
    25
100
AcDbCircle
 10
368.9194681536105
 20
-42.88240925362282
 30
0.0
 40
2.0
100
AcDbArc
 50
329.9999999999962
 51
59.99999999999627
  0
LINE
  5
492
330
1F
100
AcDbEntity
  8
Layer0014
  6
Continuous
 62
    56
370
    25
100
AcDbLine
 10
369.6515189611792
 20
-45.61446006119171
 30
0.0
 11
370.6515189611793
 21
-43.88240925362293
 31
0.0
  0
LINE
  5
493
330
1F
100
AcDbEntity
  8
Layer0014
  6
Continuous
 62
    56
370
    25
100
AcDbLine
 10
370.5175443649637
 20
-46.11446006119183
 30
0.0
 11
369.6515189611792
 21
-45.61446006119171
 31
0.0
  0
LINE
  5
494
330
1F
100
AcDbEntity
  8
Layer0014
  6
Continuous
 62
    56
370
    25
100
AcDbLine
 10
364.5175443649626
 20
-56.50676490660509
 30
0.0
 11
370.5175443649637
 21
-46.11446006119183
 31
0.0
  0
LINE
  5
495
330
1F
100
AcDbEntity
  8
Layer0014
  6
Continuous
 62
    56
370
    25
100
AcDbLine
 10
364.8835697687472
 20
-57.87279031039031
 30
0.0
 11
368.3476713838832
 21
-59.87279031038928
 31
0.0
  0
LINE
  5
496
330
1F
100
AcDbEntity
  8
Layer0014
  6
Continuous
 62
    56
370
    25
100
AcDbLine
 10
364.883569768747
 20
-57.87279031038951
 30
0.0
 11
364.5175443649626
 21
-56.50676490660509
 31
0.0
  0
LINE
  5
497
330
1F
100
AcDbEntity
  8
Layer0014
  6
Continuous
 62
    56
370
    25
100
AcDbLine
 10
405.0963826898497
 20
-52.22215521578084
 30
0.0
 11
291.6470547940925
 21
13.27784478422695
 31
0.0
  0
LINE
  5
498
330
1F
100
AcDbEntity
  8
Layer0014
  6
Continuous
 62
    56
370
    25
100
AcDbLine
 10
369.9194681536105
 20
-41.15035844605398
 30
0.0
 11
272.0585975259726
 21
15.34964155395279
 31
0.0
  0
LINE
  5
499
330
1F
100
AcDbEntity
  8
Layer0014
  6
Continuous
 62
    56
370
    25
100
AcDbLine
 10
503.4213549326289
 20
-115.9183076384785
 30
0.0
 11
510.9213549326282
 21
-102.9279265817116
 31
0.0
  0
LINE
  5
49A
330
1F
100
AcDbEntity
  8
Layer0014
  6
Continuous
 62
    56
370
    25
100
AcDbLine
 10
510.9213549326282
 20
-102.9279265817116
 30
0.0
 11
495.332897664508
 21
-93.92792658171226
 31
0.0
  0
LINE
  5
49B
330
1F
100
AcDbEntity
  8
Layer0014
  6
Continuous
 62
    56
370
    25
100
AcDbLine
 10
491.8328976645084
 20
-99.99010440820362
 30
0.0
 11
495.332897664508
 21
-93.92792658171226
 31
0.0
  0
ARC
  5
49C
330
1F
100
AcDbEntity
  8
Layer0014
  6
Continuous
 62
    56
370
    25
100
AcDbCircle
 10
490.1008468569394
 20
-98.99010440820368
 30
0.0
 40
2.000000000000001
100
AcDbArc
 50
240.0000000000026
 51
330.0000000000026
  0
ARC
  5
49D
330
1F
100
AcDbEntity
  8
Layer0014
  6
Continuous
 62
    56
370
    25
100
AcDbCircle
 10
501.6893041250599
 20
-114.9183076384786
 30
0.0
 40
2.000000000000001
100
AcDbArc
 50
240.0000000000026
 51
330.0000000000026
  0
LINE
  5
49E
330
1F
100
AcDbEntity
  8
Layer0014
  6
Continuous
 62
    56
370
    25
100
AcDbLine
 10
497.1582152118163
 20
-115.7663838498333
 30
0.0
 11
491.0960373853252
 21
-112.2663838498333
 31
0.0
  0
LINE
  5
49F
330
1F
100
AcDbEntity
  8
Layer0014
  6
Continuous
 62
    56
370
    25
100
AcDbLine
 10
499.6989230682952
 20
-88.36574875522234
 30
0.0
 11
513.5553295288462
 21
-96.36574875522234
 31
0.0
  0
LINE
  5
4A0
330
1F
100
AcDbEntity
  8
Layer0014
  6
Continuous
 62
    56
370
    25
100
AcDbLine
 10
499.6989230682952
 20
-88.36574875522234
 30
0.0
 11
531.708058107211
 21
-24.92746950632976
 31
0.0
  0
LINE
  5
4A1
330
1F
100
AcDbEntity
  8
Layer0014
  6
Continuous
 62
    56
370
    25
100
AcDbLine
 10
513.5553295288462
 20
-96.36574875522234
 30
0.0
 11
552.4899234113003
 21
-36.92588503390828
 31
0.0
  0
LINE
  5
4A2
330
1F
100
AcDbEntity
  8
Layer0014
  6
Continuous
 62
    56
370
    25
100
AcDbLine
 10
552.1534034783605
 20
-35.5119183768732
 30
0.0
 11
533.1008446045469
 21
-24.51191838232574
 31
0.0
  0
ARC
  5
4A3
330
1F
100
AcDbEntity
  8
Layer0014
  6
Continuous
 62
    56
370
    25
100
AcDbCircle
 10
551.6534057401996
 20
-36.377945086527
 30
0.0
 40
1.0
100
AcDbArc
 50
326.7742007758423
 51
60.00014964194798
  0
ARC
  5
4A4
330
1F
100
AcDbEntity
  8
Layer0014
  6
Continuous
 62
    56
370
    25
100
AcDbCircle
 10
532.6008468569419
 20
-25.37794508652711
 30
0.0
 40
1.0
100
AcDbArc
 50
59.9998503580529
 51
153.2257992241578
  0
LINE
  5
4A5
330
1F
100
AcDbEntity
  8
Layer0014
  6
Continuous
 62
    56
370
    25
100
AcDbLine
 10
552.4899234083117
 20
-36.92588503218274
 30
0.0
 11
531.7080581101997
 21
-24.9274695080553
 31
0.0
  0
LINE
  5
4A6
330
1F
100
AcDbEntity
  8
Layer0014
  6
Continuous
 62
    56
370
    25
100
AcDbLine
 10
496.6989230682952
 20
-93.56190117792903
 30
0.0
 11
499.6989230682952
 21
-88.36574875522234
 31
0.0
  0
LINE
  5
4A7
330
1F
100
AcDbEntity
  8
Layer0014
  6
Continuous
 62
    56
370
    25
100
AcDbLine
 10
510.5553295288462
 20
-101.561901177929
 30
0.0
 11
513.5553295288462
 21
-96.36574875522234
 31
0.0
  0
LINE
  5
4A8
330
1F
100
AcDbEntity
  8
Layer0014
  6
Continuous
 62
    56
370
    25
100
AcDbLine
 10
497.0649484720796
 20
-94.9279265817134
 30
0.0
 11
496.6989230682952
 21
-93.56190117792903
 31
0.0
  0
LINE
  5
4A9
330
1F
100
AcDbEntity
  8
Layer0014
  6
Continuous
 62
    56
370
    25
100
AcDbLine
 10
509.1893041250618
 20
-101.9279265817134
 30
0.0
 11
510.5553295288462
 21
-101.561901177929
 31
0.0
  0
LINE
  5
4AA
330
1F
100
AcDbEntity
  8
Layer0014
  6
Continuous
 62
    56
370
    25
100
AcDbLine
 10
497.0649484720796
 20
-94.9279265817134
 30
0.0
 11
509.1893041250618
 21
-101.9279265817134
 31
0.0
  0
LINE
  5
4AB
330
1F
100
AcDbEntity
  8
Layer0014
  6
Continuous
 62
    56
370
    25
100
AcDbLine
 10
498.5242406155949
 20
-115.4003584460453
 30
0.0
 11
497.1582152118163
 21
-115.7663838498333
 31
0.0
  0
LINE
  5
4AC
330
1F
100
AcDbEntity
  8
Layer0014
  6
Continuous
 62
    56
370
    25
100
AcDbLine
 10
490.7300119815507
 20
-110.900358446055
 30
0.0
 11
491.0960373853252
 21
-112.2663838498333
 31
0.0
  0
LINE
  5
4AD
330
1F
100
AcDbEntity
  8
Layer0014
  6
Continuous
 62
    56
370
    25
100
AcDbLine
 10
490.9465183324867
 20
-111.0253584460491
 30
0.0
 11
490.8215183324892
 21
-111.2418647969908
 31
0.0
  0
LINE
  5
4AE
330
1F
100
AcDbEntity
  8
Layer0014
  6
Continuous
 62
    56
370
    25
100
AcDbLine
 10
498.3077342646544
 20
-115.2753584460491
 30
0.0
 11
498.182734264657
 21
-115.4918647969908
 31
0.0
  0
LINE
  5
4AF
330
1F
100
AcDbEntity
  8
Layer0014
  6
Continuous
 62
    56
370
    25
100
AcDbLine
 10
467.600754753492
 20
-97.54667555928069
 30
0.0
 11
500.6893041250602
 21
-116.6503584460476
 31
0.0
  0
LINE
  5
4B0
330
1F
100
AcDbEntity
  8
Layer0014
  6
Continuous
 62
    56
370
    25
100
AcDbLine
 10
471.6007547534917
 20
-90.61847232900496
 30
0.0
 11
489.1008468569395
 21
-100.7221552157726
 31
0.0
  0
LINE
  5
4B1
330
1F
100
AcDbEntity
  8
Layer0014
  6
CENTER
 62
    56
370
    25
100
AcDbLine
 10
277.6207753524642
 20
10.98361615016751
 30
0.0
 11
326.1207753524642
 21
94.98808031725417
 31
0.0
  0
LINE
  5
4B2
330
1F
100
AcDbEntity
  8
Layer0014
  6
CENTER
 62
    56
370
    25
100
AcDbLine
 10
494.1271262985682
 20
-114.0163838498318
 30
0.0
 11
542.6271262985664
 21
-30.01191968274411
 31
0.0
  0
LINE
  5
4B3
330
1F
100
AcDbEntity
  8
Layer0014
  6
DIVIDE
 62
    56
370
    25
100
AcDbLine
 10
233.07395076429
 20
16.98619353823396
 30
0.0
 11
193.07395076429
 21
16.98619353823396
 31
0.0
  0
LINE
  5
4B4
330
1F
100
AcDbEntity
  8
Layer0014
  6
DIVIDE
 62
    56
370
    25
100
AcDbLine
 10
233.07395076429
 20
16.98619353823396
 30
0.0
 11
233.07395076429
 21
21.98619353823396
 31
0.0
  0
LINE
  5
4B5
330
1F
100
AcDbEntity
  8
Layer0014
  6
DIVIDE
 62
    56
370
    25
100
AcDbLine
 10
233.07395076429
 20
21.98619353823396
 30
0.0
 11
258.07395076429
 21
21.98619353823396
 31
0.0
  0
LINE
  5
4B6
330
1F
100
AcDbEntity
  8
Layer0014
  6
DIVIDE
 62
    56
370
    25
100
AcDbLine
 10
258.07395076429
 20
21.98619353823396
 30
0.0
 11
258.07395076429
 21
-5.013806461766023
 31
0.0
  0
LINE
  5
4B7
330
1F
100
AcDbEntity
  8
Layer0014
  6
DIVIDE
 62
    56
370
    25
100
AcDbLine
 10
193.07395076429
 20
16.98619353823396
 30
0.0
 11
193.07395076429
 21
-5.013806461766023
 31
0.0
  0
LINE
  5
4B8
330
1F
100
AcDbEntity
  8
Layer0014
  6
DIVIDE
 62
    56
370
    25
100
AcDbLine
 10
258.07395076429
 20
-5.013806461766023
 30
0.0
 11
239.07395076429
 21
-5.013806461766023
 31
0.0
  0
LINE
  5
4B9
330
1F
100
AcDbEntity
  8
Layer0014
  6
DIVIDE
 62
    56
370
    25
100
AcDbLine
 10
223.07395076429
 20
-5.013806461766023
 30
0.0
 11
193.07395076429
 21
-5.013806461766023
 31
0.0
  0
LINE
  5
4BA
330
1F
100
AcDbEntity
  8
Layer0014
  6
DIVIDE
 62
    56
370
    25
100
AcDbLine
 10
223.07395076429
 20
-9.013806461766023
 30
0.0
 11
239.07395076429
 21
-9.013806461766023
 31
0.0
  0
LINE
  5
4BB
330
1F
100
AcDbEntity
  8
Layer0014
  6
DIVIDE
 62
    56
370
    25
100
AcDbLine
 10
239.07395076429
 20
-9.013806461766023
 30
0.0
 11
239.07395076429
 21
-5.013806461766023
 31
0.0
  0
LINE
  5
4BC
330
1F
100
AcDbEntity
  8
Layer0014
  6
DIVIDE
 62
    56
370
    25
100
AcDbLine
 10
223.07395076429
 20
-9.013806461766023
 30
0.0
 11
223.07395076429
 21
-5.013806461766023
 31
0.0
  0
LINE
  5
4BD
330
1F
100
AcDbEntity
  8
Layer0014
  6
CENTER
 62
     2
370
    25
100
AcDbLine
 10
357.8739508255126
 20
-100.013806461766
 30
0.0
 11
391.4716188133873
 21
-41.82093849093796
 31
0.0
  0
LINE
  5
4BE
330
1F
100
AcDbEntity
  8
Layer0014
  6
CENTER
 62
     2
370
    25
100
AcDbLine
 10
357.8739508255126
 20
-100.013806461766
 30
0.0
 11
314.0739508255152
 21
-100.013806461766
 31
0.0
  0
DIMENSION
  5
4BF
330
1F
100
AcDbEntity
  8
Layer0015
  6
Continuous
370
    25
100
AcDbDimension
  2
*D1
 10
-513.060801285403
 20
329.3881828136529
 30
0.0
 11
-513.060801285403
 21
251.3881828136529
 31
0.0
 70
    32
 71
     8
 42
-1.0
  3
DaDimRotatedStyle
100
AcDbAlignedDimension
 13
-484.5806417324747
 23
173.3881828136529
 33
0.0
 14
-484.5806417324747
 24
329.3881828136529
 34
0.0
 50
90.0
100
AcDbRotatedDimension
1001
ACAD
1000
DSTYLE
1002
{
1070
   274
1070
     4
1070
    41
1040
2.999996871569202
1070
   289
1070
     0
1070
    79
1070
     2
1070
   343
1005
FB
1070
   344
1005
FB
1070
   176
1070
     2
1070
   177
1070
     2
1070
   178
1070
     2
1070
   271
1070
     3
1070
    44
1040
0.8
1070
    42
1040
1.0
1070
   147
1040
1.0
1070
   173
1070
     1
1070
    77
1070
     3
1070
    73
1070
     0
1070
   172
1070
     1
1070
    74
1070
     0
1070
   283
1070
     0
1070
   340
1005
105
1070
   140
1040
6.0
1070
   284
1070
     8
1070
   288
1070
     1
1070
    78
1070
     8
1002
}
  0
DIMENSION
  5
4C1
330
1F
100
AcDbEntity
  8
Layer0015
  6
Continuous
370
    25
100
AcDbDimension
  2
*D2
 10
-351.5830092064476
 20
328.3881828136529
 30
0.0
 11
-351.5830092064476
 21
251.3881828136529
 31
0.0
 70
    32
 71
     8
 42
-1.0
  3
DaDimRotatedStyle
100
AcDbAlignedDimension
 13
-379.5806417324747
 23
174.3881828136529
 33
0.0
 14
-379.5806417324747
 24
328.3881828136529
 34
0.0
 50
90.0
100
AcDbRotatedDimension
1001
ACAD
1000
DSTYLE
1002
{
1070
   274
1070
     4
1070
    41
1040
2.999996871569202
1070
   289
1070
     0
1070
    79
1070
     2
1070
   343
1005
FB
1070
   344
1005
FB
1070
   176
1070
     2
1070
   177
1070
     2
1070
   178
1070
     2
1070
   271
1070
     3
1070
    44
1040
0.8
1070
    42
1040
1.0
1070
   147
1040
1.0
1070
   173
1070
     1
1070
    77
1070
     3
1070
    73
1070
     0
1070
   172
1070
     1
1070
    74
1070
     0
1070
   283
1070
     0
1070
   340
1005
105
1070
   140
1040
6.0
1070
   284
1070
     8
1070
   288
1070
     1
1070
    78
1070
     8
1002
}
  0
DIMENSION
  5
4C2
330
1F
100
AcDbEntity
  8
Layer0015
  6
Continuous
370
    25
100
AcDbDimension
  2
*D3
 10
-299.1537327811682
 20
291.3881828136529
 30
0.0
 11
-299.1537327811682
 21
251.3881828136529
 31
0.0
 70
    32
 71
     8
 42
-1.0
  3
DaDimRotatedStyle
100
AcDbAlignedDimension
 13
-299.1537327811682
 23
211.3881828136529
 33
0.0
 14
-299.1537327811682
 24
291.3881828136529
 34
0.0
 50
90.0
100
AcDbRotatedDimension
1001
ACAD
1000
DSTYLE
1002
{
1070
   274
1070
     4
1070
    41
1040
2.999996871569202
1070
   289
1070
     0
1070
    79
1070
     2
1070
   343
1005
FB
1070
   344
1005
FB
1070
   176
1070
     2
1070
   177
1070
     7
1070
   178
1070
     2
1070
   271
1070
     3
1070
    44
1040
0.0
1070
    42
1040
1.0
1070
   147
1040
1.0
1070
   173
1070
     1
1070
    75
1070
     1
1070
    76
1070
     1
1070
    77
1070
     3
1070
    73
1070
     0
1070
   172
1070
     1
1070
    74
1070
     0
1070
   283
1070
     0
1070
   340
1005
105
1070
   140
1040
6.0
1070
   284
1070
     8
1070
   288
1070
     1
1070
    78
1070
     8
1002
}
  0
DIMENSION
  5
4C3
330
1F
100
AcDbEntity
  8
Layer0015
  6
Continuous
370
    25
100
AcDbDimension
  2
*D4
 10
396.5953839768496
 20
173.3881828136529
 30
0.0
 11
396.5953839768496
 21
147.3881828136529
 31
0.0
 70
    32
 71
     8
 42
-1.0
  3
DaDimRotatedStyle
100
AcDbAlignedDimension
 13
370.0983786912209
 23
127.3881828136528
 33
0.0
 14
370.0526916620885
 24
173.3881828136529
 34
0.0
 50
90.0
100
AcDbRotatedDimension
1001
ACAD
1000
DSTYLE
1002
{
1070
   274
1070
     4
1070
    41
1040
2.999996871569202
1070
   289
1070
     0
1070
    79
1070
     2
1070
   343
1005
FB
1070
   344
1005
FB
1070
   176
1070
     2
1070
   177
1070
     2
1070
   178
1070
     2
1070
   271
1070
     3
1070
    44
1040
0.8
1070
    42
1040
1.0
1070
   147
1040
1.0
1070
   173
1070
     1
1070
    77
1070
     3
1070
    73
1070
     0
1070
   172
1070
     1
1070
    74
1070
     0
1070
   283
1070
     0
1070
   340
1005
105
1070
   140
1040
6.0
1070
   284
1070
     8
1070
   288
1070
     1
1070
    78
1070
     8
1002
}
  0
DIMENSION
  5
4C4
330
1F
100
AcDbEntity
  8
Layer0015
  6
Continuous
370
    25
100
AcDbDimension
  2
*D5
 10
396.5953839768496
 20
329.3881828136529
 30
0.0
 11
396.5953839768496
 21
251.3881828136529
 31
0.0
 70
    32
 71
     8
 42
-1.0
  3
DaDimRotatedStyle
100
AcDbAlignedDimension
 13
370.0526916620885
 23
173.3881828136529
 33
0.0
 14
370.0526916620885
 24
329.3881828136529
 34
0.0
 50
90.0
100
AcDbRotatedDimension
1001
ACAD
1000
DSTYLE
1002
{
1070
   274
1070
     4
1070
    41
1040
2.999996871569202
1070
   289
1070
     0
1070
    79
1070
     2
1070
   343
1005
FB
1070
   344
1005
FB
1070
   176
1070
     2
1070
   177
1070
     2
1070
   178
1070
     2
1070
   271
1070
     3
1070
    44
1040
0.8
1070
    42
1040
1.0
1070
   147
1040
1.0
1070
   173
1070
     1
1070
    77
1070
     3
1070
    73
1070
     0
1070
   172
1070
     1
1070
    74
1070
     0
1070
   283
1070
     0
1070
   340
1005
105
1070
   140
1040
6.0
1070
   284
1070
     8
1070
   288
1070
     1
1070
    78
1070
     8
1002
}
  0
DIMENSION
  5
4C5
330
1F
100
AcDbEntity
  8
Layer0015
  6
Continuous
370
    25
100
AcDbDimension
  2
*D6
 10
396.5953839768496
 20
375.3881828136531
 30
0.0
 11
396.5953839768496
 21
355.388182813653
 31
0.0
 70
    32
 71
     8
 42
-1.0
  3
DaDimRotatedStyle
100
AcDbAlignedDimension
 13
370.0526916620885
 23
329.3881828136529
 33
0.0
 14
370.0366311485784
 24
375.3881828136531
 34
0.0
 50
90.0
100
AcDbRotatedDimension
1001
ACAD
1000
DSTYLE
1002
{
1070
   274
1070
     4
1070
    41
1040
2.999996871569202
1070
   289
1070
     0
1070
    79
1070
     2
1070
   343
1005
FB
1070
   344
1005
FB
1070
   176
1070
     2
1070
   177
1070
     2
1070
   178
1070
     2
1070
   271
1070
     3
1070
    44
1040
0.8
1070
    42
1040
1.0
1070
   147
1040
1.0
1070
   173
1070
     1
1070
    77
1070
     3
1070
    73
1070
     0
1070
   172
1070
     1
1070
    74
1070
     0
1070
   283
1070
     0
1070
   340
1005
105
1070
   140
1040
6.0
1070
   284
1070
     8
1070
   288
1070
     1
1070
    78
1070
     8
1002
}
  0
DIMENSION
  5
4C6
330
1F
100
AcDbEntity
  8
Layer0015
  6
Continuous
370
    25
100
AcDbDimension
  2
*D7
 10
409.0070196871316
 20
375.3881828136531
 30
0.0
 11
409.0070196871316
 21
251.388182813653
 31
0.0
 70
    32
 71
     8
 42
-1.0
  3
DaDimRotatedStyle
100
AcDbAlignedDimension
 13
369.9003663807484
 23
127.3881828136528
 33
0.0
 14
370.0366311485784
 24
375.3881828136531
 34
0.0
 50
90.0
100
AcDbRotatedDimension
1001
ACAD
1000
DSTYLE
1002
{
1070
   274
1070
     4
1070
    41
1040
2.999996871569202
1070
   289
1070
     0
1070
    79
1070
     2
1070
   343
1005
FB
1070
   344
1005
FB
1070
   176
1070
     2
1070
   177
1070
     2
1070
   178
1070
     2
1070
   271
1070
     3
1070
    44
1040
0.8
1070
    42
1040
1.0
1070
   147
1040
1.0
1070
   173
1070
     1
1070
    77
1070
     3
1070
    73
1070
     0
1070
   172
1070
     1
1070
    74
1070
     0
1070
   283
1070
     0
1070
   340
1005
105
1070
   140
1040
6.0
1070
   284
1070
     8
1070
   288
1070
     1
1070
    78
1070
     8
1002
}
  0
DIMENSION
  5
4C7
330
1F
100
AcDbEntity
  8
Layer0015
  6
Continuous
370
    25
100
AcDbDimension
  2
*D8
 10
-506.4720807221221
 20
-5.013806461765938
 30
0.0
 11
-506.4720807221221
 21
-85.01380646176597
 31
0.0
 70
    32
 71
     8
 42
-1.0
  3
DaDimRotatedStyle
100
AcDbAlignedDimension
 13
-484.5806417324747
 23
-165.0138064617659
 33
0.0
 14
-484.5806417324747
 24
-5.013806461765938
 34
0.0
 50
90.0
100
AcDbRotatedDimension
1001
ACAD
1000
DSTYLE
1002
{
1070
   274
1070
     4
1070
    41
1040
2.999996871569202
1070
   289
1070
     0
1070
    79
1070
     2
1070
   343
1005
FB
1070
   344
1005
FB
1070
   176
1070
     2
1070
   177
1070
     2
1070
   178
1070
     2
1070
   271
1070
     3
1070
    44
1040
0.8
1070
    42
1040
1.0
1070
   147
1040
1.0
1070
   173
1070
     1
1070
    77
1070
     3
1070
    73
1070
     0
1070
   172
1070
     1
1070
    74
1070
     0
1070
   283
1070
     0
1070
   340
1005
105
1070
   140
1040
6.0
1070
   284
1070
     8
1070
   288
1070
     1
1070
    78
1070
     8
1002
}
  0
DIMENSION
  5
4C8
330
1F
100
AcDbEntity
  8
Layer0015
  6
Continuous
370
    25
100
AcDbDimension
  2
*D9
 10
-517.2047864816221
 20
21.98619353823404
 30
0.0
 11
-517.2047864816221
 21
-71.51380646176597
 31
0.0
 70
    32
 71
     8
 42
-1.0
  3
DaDimRotatedStyle
100
AcDbAlignedDimension
 13
-484.5806417324747
 23
-165.0138064617659
 33
0.0
 14
-471.5806417324747
 24
21.98619353823404
 34
0.0
 50
90.0
100
AcDbRotatedDimension
1001
ACAD
1000
DSTYLE
1002
{
1070
   274
1070
     4
1070
    41
1040
2.999996871569202
1070
   289
1070
     0
1070
    79
1070
     2
1070
   343
1005
FB
1070
   344
1005
FB
1070
   176
1070
     2
1070
   177
1070
     2
1070
   178
1070
     2
1070
   271
1070
     3
1070
    44
1040
0.8
1070
    42
1040
1.0
1070
   147
1040
1.0
1070
   173
1070
     1
1070
    77
1070
     3
1070
    73
1070
     0
1070
   172
1070
     1
1070
    74
1070
     0
1070
   283
1070
     0
1070
   340
1005
105
1070
   140
1040
6.0
1070
   284
1070
     8
1070
   288
1070
     1
1070
    78
1070
     8
1002
}
  0
DIMENSION
  5
4C9
330
1F
100
AcDbEntity
  8
Layer0015
  6
Continuous
370
    13
100
AcDbDimension
  2
*D10
 10
-341.3213560652748
 20
-4.013806461765938
 30
0.0
 11
-341.3213560652748
 21
-31.30168395297339
 31
0.0
 70
    32
 71
     8
 42
-1.0
  3
DaDimRotatedStyle
100
AcDbAlignedDimension
 13
-341.3213560652748
 23
-55.01380646176593
 33
0.0
 14
-379.5806417324747
 24
-4.013806461765938
 34
0.0
 50
90.0
100
AcDbRotatedDimension
1001
ACAD
1000
DSTYLE
1002
{
1070
   274
1070
     4
1070
    41
1040
2.999996871569202
1070
   289
1070
     0
1070
    79
1070
     2
1070
   343
1005
FB
1070
   344
1005
FB
1070
   176
1070
     2
1070
   177
1070
     2
1070
   178
1070
     2
1070
   271
1070
     3
1070
    44
1040
0.8
1070
    42
1040
1.0
1070
   147
1040
1.0
1070
   173
1070
     1
1070
    75
1070
     1
1070
    77
1070
     3
1070
    73
1070
     0
1070
   172
1070
     1
1070
    74
1070
     0
1070
   283
1070
     0
1070
   340
1005
105
1070
   140
1040
6.0
1070
   284
1070
     8
1070
   288
1070
     1
1070
    78
1070
     8
1002
}
  0
DIMENSION
  5
4CA
330
1F
100
AcDbEntity
  8
Layer0015
  6
Continuous
370
    13
100
AcDbDimension
  2
*D11
 10
-341.3213560652748
 20
-55.01380646176593
 30
0.0
 11
-341.3213560652748
 21
-83.53936126519264
 31
0.0
 70
    32
 71
     8
 42
-1.0
  3
DaDimRotatedStyle
100
AcDbAlignedDimension
 13
-341.3213560652748
 23
-165.0138064617659
 33
0.0
 14
-341.3213560652748
 24
-55.01380646176593
 34
0.0
 50
90.0
100
AcDbRotatedDimension
1001
ACAD
1000
DSTYLE
1002
{
1070
   274
1070
     4
1070
    41
1040
2.999996871569202
1070
   289
1070
     0
1070
    79
1070
     2
1070
   343
1005
FB
1070
   344
1005
FB
1070
   176
1070
     2
1070
   177
1070
     7
1070
   178
1070
     2
1070
   271
1070
     3
1070
    44
1040
0.0
1070
    42
1040
1.0
1070
   147
1040
1.0
1070
   173
1070
     1
1070
    75
1070
     1
1070
    76
1070
     1
1070
    77
1070
     3
1070
    73
1070
     0
1070
   172
1070
     1
1070
    74
1070
     0
1070
   283
1070
     0
1070
   340
1005
105
1070
   140
1040
6.0
1070
   284
1070
     8
1070
   288
1070
     1
1070
    78
1070
     8
1002
}
  0
DIMENSION
  5
4CB
330
1F
100
AcDbEntity
  8
Layer0015
  6
Continuous
370
    13
100
AcDbDimension
  2
*D12
 10
-341.3213560652748
 20
-165.0138064617659
 30
0.0
 11
-341.3213560652748
 21
-169.0138064617659
 31
0.0
 70
    32
 71
     8
 42
-1.0
  3
DaDimRotatedStyle
100
AcDbAlignedDimension
 13
-328.5806417324747
 23
-173.0138064617659
 33
0.0
 14
-341.3213560652748
 24
-165.0138064617659
 34
0.0
 50
90.0
100
AcDbRotatedDimension
1001
ACAD
1000
DSTYLE
1002
{
1070
   274
1070
     4
1070
    41
1040
2.999996871569202
1070
   289
1070
     0
1070
    79
1070
     2
1070
   343
1005
FB
1070
   344
1005
FB
1070
   176
1070
     2
1070
   177
1070
     2
1070
   178
1070
     2
1070
   271
1070
     3
1070
    44
1040
0.0
1070
    42
1040
1.0
1070
   147
1040
1.0
1070
   173
1070
     1
1070
    76
1070
     1
1070
    77
1070
     3
1070
    73
1070
     0
1070
   172
1070
     1
1070
    74
1070
     0
1070
   283
1070
     0
1070
   340
1005
105
1070
   140
1040
6.0
1070
   284
1070
     8
1070
   288
1070
     1
1070
    78
1070
     8
1002
}
  0
DIMENSION
  5
4CC
330
1F
100
AcDbEntity
  8
Layer0015
  6
Continuous
370
    13
100
AcDbDimension
  2
*D13
 10
-297.4489827839032
 20
16.98619353823404
 30
0.0
 11
-297.4489827839032
 21
-74.01380646176594
 31
0.0
 70
    32
 71
     8
 42
-1.0
  3
DaDimRotatedStyle
100
AcDbAlignedDimension
 13
-297.4489827839032
 23
-165.0138064617659
 33
0.0
 14
-406.5806417324747
 24
16.98619353823404
 34
0.0
 50
90.0
100
AcDbRotatedDimension
1001
ACAD
1000
DSTYLE
1002
{
1070
   274
1070
     4
1070
    41
1040
2.999996871569202
1070
   289
1070
     0
1070
    79
1070
     2
1070
   343
1005
FB
1070
   344
1005
FB
1070
   176
1070
     2
1070
   177
1070
     2
1070
   178
1070
     2
1070
   271
1070
     3
1070
    44
1040
0.8
1070
    42
1040
1.0
1070
   147
1040
1.0
1070
   173
1070
     1
1070
    75
1070
     1
1070
    77
1070
     3
1070
    73
1070
     0
1070
   172
1070
     1
1070
    74
1070
     0
1070
   283
1070
     0
1070
   340
1005
105
1070
   140
1040
6.0
1070
   284
1070
     8
1070
   288
1070
     1
1070
    78
1070
     8
1002
}
  0
INSERT
  5
4CD
330
1F
100
AcDbEntity
  8
Layer0015
  6
Continuous
100
AcDbBlockReference
  2
DA_IMAGEDIMGROUP_1
 10
0.0
 20
0.0
 30
0.0
  0
DIMENSION
  5
4CE
330
1F
100
AcDbEntity
  8
Layer0015
  6
Continuous
370
    13
100
AcDbDimension
  2
*D15
 10
-319.5806417324747
 20
-212.099535139785
 30
0.0
 11
-349.5806417324747
 21
-212.099535139785
 31
0.0
 70
    32
 71
     8
 42
-1.0
  3
DaDimRotatedStyle
100
AcDbAlignedDimension
 13
-379.5806417324747
 23
-55.01380646176593
 33
0.0
 14
-319.5806417324747
 24
-173.7856512560217
 34
0.0
100
AcDbRotatedDimension
1001
ACAD
1000
DSTYLE
1002
{
1070
   274
1070
     4
1070
    41
1040
2.999996871569202
1070
   289
1070
     0
1070
    79
1070
     2
1070
   343
1005
FB
1070
   344
1005
FB
1070
   176
1070
     2
1070
   177
1070
     2
1070
   178
1070
     2
1070
   271
1070
     3
1070
    44
1040
0.8
1070
    42
1040
1.0
1070
   147
1040
1.0
1070
   173
1070
     1
1070
    77
1070
     3
1070
    73
1070
     0
1070
   172
1070
     1
1070
    74
1070
     0
1070
   283
1070
     0
1070
   340
1005
105
1070
   140
1040
6.0
1070
   284
1070
     8
1070
   288
1070
     1
1070
    78
1070
     8
1002
}
  0
DIMENSION
  5
4CF
330
1F
100
AcDbEntity
  8
Layer0015
  6
Continuous
370
    13
100
AcDbDimension
  2
*D16
 10
-259.5806417324747
 20
-212.099535139785
 30
0.0
 11
-289.5806417324747
 21
-212.099535139785
 31
0.0
 70
    32
 71
     8
 42
-1.0
  3
DaDimRotatedStyle
100
AcDbAlignedDimension
 13
-319.5806417324747
 23
-173.7856512560217
 33
0.0
 14
-259.5806417324747
 24
-173.7856512560217
 34
0.0
100
AcDbRotatedDimension
1001
ACAD
1000
DSTYLE
1002
{
1070
   274
1070
     4
1070
    41
1040
2.999996871569202
1070
   289
1070
     0
1070
    79
1070
     2
1070
   343
1005
FB
1070
   344
1005
FB
1070
   176
1070
     2
1070
   177
1070
     2
1070
   178
1070
     2
1070
   271
1070
     3
1070
    44
1040
0.8
1070
    42
1040
1.0
1070
   147
1040
1.0
1070
   173
1070
     1
1070
    77
1070
     3
1070
    73
1070
     0
1070
   172
1070
     1
1070
    74
1070
     0
1070
   283
1070
     0
1070
   340
1005
105
1070
   140
1040
6.0
1070
   284
1070
     8
1070
   288
1070
     1
1070
    78
1070
     8
1002
}
  0
DIMENSION
  5
4D0
330
1F
100
AcDbEntity
  8
Layer0015
  6
Continuous
370
    13
100
AcDbDimension
  2
*D17
 10
-199.5806417324747
 20
-212.099535139785
 30
0.0
 11
-229.5806417324747
 21
-212.099535139785
 31
0.0
 70
    32
 71
     8
 42
-1.0
  3
DaDimRotatedStyle
100
AcDbAlignedDimension
 13
-259.5806417324747
 23
-173.7856512560217
 33
0.0
 14
-199.5806417324747
 24
-173.7856512560217
 34
0.0
100
AcDbRotatedDimension
1001
ACAD
1000
DSTYLE
1002
{
1070
   274
1070
     4
1070
    41
1040
2.999996871569202
1070
   289
1070
     0
1070
    79
1070
     2
1070
   343
1005
FB
1070
   344
1005
FB
1070
   176
1070
     2
1070
   177
1070
     2
1070
   178
1070
     2
1070
   271
1070
     3
1070
    44
1040
0.8
1070
    42
1040
1.0
1070
   147
1040
1.0
1070
   173
1070
     1
1070
    77
1070
     3
1070
    73
1070
     0
1070
   172
1070
     1
1070
    74
1070
     0
1070
   283
1070
     0
1070
   340
1005
105
1070
   140
1040
6.0
1070
   284
1070
     8
1070
   288
1070
     1
1070
    78
1070
     8
1002
}
  0
DIMENSION
  5
4D1
330
1F
100
AcDbEntity
  8
Layer0015
  6
Continuous
370
    13
100
AcDbDimension
  2
*D18
 10
48.4193582675242
 20
-245.5182544671968
 30
0.0
 11
-218.0806417324753
 21
-245.5182544671968
 31
0.0
 70
    32
 71
     8
 42
-1.0
  3
DaDimRotatedStyle
100
AcDbAlignedDimension
 13
-484.5806417324747
 23
-165.0138064617659
 33
0.0
 14
48.4193582675242
 24
-165.0138064617659
 34
0.0
100
AcDbRotatedDimension
1001
ACAD
1000
DSTYLE
1002
{
1070
   274
1070
     4
1070
    41
1040
2.999996871569202
1070
   289
1070
     0
1070
    79
1070
     2
1070
   343
1005
FB
1070
   344
1005
FB
1070
   176
1070
     2
1070
   177
1070
     2
1070
   178
1070
     2
1070
   271
1070
     3
1070
    44
1040
0.8
1070
    42
1040
1.0
1070
   147
1040
1.0
1070
   173
1070
     1
1070
    77
1070
     3
1070
    73
1070
     0
1070
   172
1070
     1
1070
    74
1070
     0
1070
   283
1070
     0
1070
   340
1005
105
1070
   140
1040
6.0
1070
   284
1070
     8
1070
   288
1070
     1
1070
    78
1070
     8
1002
}
  0
DIMENSION
  5
4D2
330
1F
100
AcDbEntity
  8
Layer0015
  6
Continuous
370
    13
100
AcDbDimension
  2
*D19
 10
130.9193583287546
 20
-245.5182544671968
 30
0.0
 11
89.66935829813939
 21
-245.5182544671968
 31
0.0
 70
    32
  1
83
 71
     8
 42
-1.0
  3
DaDimRotatedStyle
100
AcDbAlignedDimension
 13
48.4193582675242
 23
-165.0138064617659
 33
0.0
 14
130.9193583287546
 24
-108.0138064617661
 34
0.0
100
AcDbRotatedDimension
1001
ACAD
1000
DSTYLE
1002
{
1070
   274
1070
     4
1070
    41
1040
2.999996871569202
1070
   289
1070
     0
1070
    79
1070
     2
1070
   343
1005
FB
1070
   344
1005
FB
1070
   176
1070
     2
1070
   177
1070
     2
1070
   178
1070
     2
1070
   271
1070
     3
1070
    44
1040
0.8
1070
    42
1040
1.0
1070
   147
1040
1.0
1070
   173
1070
     1
1070
    77
1070
     3
1070
    73
1070
     0
1070
   172
1070
     1
1070
    74
1070
     0
1070
   283
1070
     0
1070
   340
1005
105
1070
   140
1040
6.0
1070
   284
1070
     8
1070
   288
1070
     1
1070
    78
1070
     8
1002
}
  0
DIMENSION
  5
4D3
330
1F
100
AcDbEntity
  8
Layer0015
  6
Continuous
370
    13
100
AcDbDimension
  2
*D20
 10
219.9193583287573
 20
-245.5182544671968
 30
0.0
 11
175.4193583287559
 21
-245.5182544671968
 31
0.0
 70
    32
 71
     8
 42
-1.0
  3
DaDimRotatedStyle
100
AcDbAlignedDimension
 13
130.9193583287546
 23
-108.0138064617661
 33
0.0
 14
219.9193583287573
 24
-237.0717538288226
 34
0.0
100
AcDbRotatedDimension
1001
ACAD
1000
DSTYLE
1002
{
1070
   274
1070
     4
1070
    41
1040
2.999996871569202
1070
   289
1070
     0
1070
    79
1070
     2
1070
   343
1005
FB
1070
   344
1005
FB
1070
   176
1070
     2
1070
   177
1070
     2
1070
   178
1070
     2
1070
   271
1070
     3
1070
    44
1040
0.8
1070
    42
1040
1.0
1070
   147
1040
1.0
1070
   173
1070
     1
1070
    77
1070
     3
1070
    73
1070
     0
1070
   172
1070
     1
1070
    74
1070
     0
1070
   283
1070
     0
1070
   340
1005
105
1070
   140
1040
6.0
1070
   284
1070
     8
1070
   288
1070
     1
1070
    78
1070
     8
1002
}
  0
DIMENSION
  5
4D4
330
1F
100
AcDbEntity
  8
Layer0015
  6
Continuous
370
    13
100
AcDbDimension
  2
*D21
 10
-379.5806417324747
 20
5.633162043776068
 30
0.0
 11
-388.0806417324747
 21
5.633162043776068
 31
0.0
 70
    32
 71
     8
 42
-1.0
  3
DaDimRotatedStyle
100
AcDbAlignedDimension
 13
-396.5806417324747
 23
-4.013806461765938
 33
0.0
 14
-379.5806417324747
 24
-4.013806461765938
 34
0.0
100
AcDbRotatedDimension
1001
ACAD
1000
DSTYLE
1002
{
1070
   274
1070
     4
1070
    41
1040
2.999996871569202
1070
   289
1070
     0
1070
    79
1070
     2
1070
   343
1005
FB
1070
   344
1005
FB
1070
   176
1070
     2
1070
   177
1070
     2
1070
   178
1070
     2
1070
   271
1070
     3
1070
    44
1040
0.8
1070
    42
1040
1.0
1070
   147
1040
1.0
1070
   173
1070
     1
1070
    77
1070
     3
1070
    73
1070
     0
1070
   172
1070
     1
1070
    74
1070
     0
1070
   283
1070
     0
1070
   340
1005
105
1070
   140
1040
6.0
1070
   284
1070
     8
1070
   288
1070
     1
1070
    78
1070
     8
1002
}
  0
DIMENSION
  5
4D5
330
1F
100
AcDbEntity
  8
Layer0015
  6
Continuous
370
    13
100
AcDbDimension
  2
*D22
 10
-379.5806417324747
 20
40.75518482692901
 30
0.0
 11
-432.0806417324747
 21
40.75518482692901
 31
0.0
 70
    32
 71
     8
 42
-1.0
  3
DaDimRotatedStyle
100
AcDbAlignedDimension
 13
-484.5806417324747
 23
-5.013806461765938
 33
0.0
 14
-379.5806417324747
 24
-4.013806461765938
 34
0.0
100
AcDbRotatedDimension
1001
ACAD
1000
DSTYLE
1002
{
1070
   274
1070
     4
1070
    41
1040
2.999996871569202
1070
   289
1070
     0
1070
    79
1070
     2
1070
   343
1005
FB
1070
   344
1005
FB
1070
   176
1070
     2
1070
   177
1070
     2
1070
   178
1070
     2
1070
   271
1070
     3
1070
    44
1040
0.8
1070
    42
1040
1.0
1070
   147
1040
1.0
1070
   173
1070
     1
1070
    77
1070
     3
1070
    73
1070
     0
1070
   172
1070
     1
1070
    74
1070
     0
1070
   283
1070
     0
1070
   340
1005
105
1070
   140
1040
6.0
1070
   284
1070
     8
1070
   288
1070
     1
1070
    78
1070
     8
1002
}
  0
DIMENSION
  5
4D6
330
1F
100
AcDbEntity
  8
Layer0015
  6
Continuous
370
    13
100
AcDbDimension
  2
*D23
 10
-74.58064173247473
 20
40.75518482692901
 30
0.0
 11
-227.0806417324747
 21
40.75518482692901
 31
0.0
 70
    32
  1
300
 71
     8
 42
-1.0
  3
DaDimRotatedStyle
100
AcDbAlignedDimension
 13
-379.5806417324747
 23
-4.013806461765938
 33
0.0
 14
-74.58064173247473
 24
-4.013806461765938
 34
0.0
100
AcDbRotatedDimension
1001
ACAD
1000
DSTYLE
1002
{
1070
   274
1070
     4
1070
    41
1040
2.999996871569202
1070
   289
1070
     0
1070
    79
1070
     2
1070
   343
1005
FB
1070
   344
1005
FB
1070
   176
1070
     2
1070
   177
1070
     2
1070
   178
1070
     2
1070
   271
1070
     3
1070
    44
1040
0.8
1070
    42
1040
1.0
1070
   147
1040
1.0
1070
   173
1070
     1
1070
    77
1070
     3
1070
    73
1070
     0
1070
   172
1070
     1
1070
    74
1070
     0
1070
   283
1070
     0
1070
   340
1005
105
1070
   140
1040
6.0
1070
   284
1070
     8
1070
   288
1070
     1
1070
    78
1070
     8
1002
}
  0
DIMENSION
  5
4D7
330
1F
100
AcDbEntity
  8
Layer0015
  6
Continuous
370
    13
100
AcDbDimension
  2
*D24
 10
130.9193583287546
 20
40.75518482692901
 30
0.0
 11
28.16935829813993
 21
40.75518482692901
 31
0.0
 70
    32
  1
211
 71
     8
 42
-1.0
  3
DaDimRotatedStyle
100
AcDbAlignedDimension
 13
-74.58064173247473
 23
-4.013806461765938
 33
0.0
 14
130.9193583287546
 24
-92.01380646176605
 34
0.0
100
AcDbRotatedDimension
1001
ACAD
1000
DSTYLE
1002
{
1070
   274
1070
     4
1070
    41
1040
2.999996871569202
1070
   289
1070
     0
1070
    79
1070
     2
1070
   343
1005
FB
1070
   344
1005
FB
1070
   176
1070
     2
1070
   177
1070
     2
1070
   178
1070
     2
1070
   271
1070
     3
1070
    44
1040
0.8
1070
    42
1040
1.0
1070
   147
1040
1.0
1070
   173
1070
     1
1070
    77
1070
     3
1070
    73
1070
     0
1070
   172
1070
     1
1070
    74
1070
     0
1070
   283
1070
     0
1070
   340
1005
105
1070
   140
1040
6.0
1070
   284
1070
     8
1070
   288
1070
     1
1070
    78
1070
     8
1002
}
  0
DIMENSION
  5
4D8
330
1F
100
AcDbEntity
  8
Layer0015
  6
Continuous
370
    13
100
AcDbDimension
  2
*D25
 10
130.9193583287546
 20
66.72545785091486
 30
0.0
 11
-176.8306417018601
 21
66.72545785091486
 31
0.0
 70
    32
  1
616
 71
     8
 42
-1.0
  3
DaDimRotatedStyle
100
AcDbAlignedDimension
 13
-484.5806417324747
 23
173.3881828136529
 33
0.0
 14
130.9193583287546
 24
243.3881828136529
 34
0.0
100
AcDbRotatedDimension
1001
ACAD
1000
DSTYLE
1002
{
1070
   274
1070
     4
1070
    41
1040
2.999996871569202
1070
   289
1070
     0
1070
    79
1070
     2
1070
   343
1005
FB
1070
   344
1005
FB
1070
   176
1070
     2
1070
   177
1070
     2
1070
   178
1070
     2
1070
   271
1070
     3
1070
    44
1040
0.8
1070
    42
1040
1.0
1070
   147
1040
1.0
1070
   173
1070
     1
1070
    77
1070
     3
1070
    73
1070
     0
1070
   172
1070
     1
1070
    74
1070
     0
1070
   283
1070
     0
1070
   340
1005
105
1070
   140
1040
6.0
1070
   284
1070
     8
1070
   288
1070
     1
1070
    78
1070
     8
1002
}
  0
DIMENSION
  5
4D9
330
1F
100
AcDbEntity
  8
Layer0015
  6
Continuous
370
    13
100
AcDbDimension
  2
*D26
 10
-242.8873562161491
 20
-361.1897857794022
 30
0.0
 11
-292.8873562161491
 21
-361.1897857794022
 31
0.0
 70
    32
 71
     8
 42
-1.0
  3
DaDimRotatedStyle
100
AcDbAlignedDimension
 13
-342.8873562161491
 23
-326.8354480202067
 33
0.0
 14
-242.8873562161491
 24
-313.5810346994328
 34
0.0
100
AcDbRotatedDimension
1001
ACAD
1000
DSTYLE
1002
{
1070
   274
1070
     4
1070
    41
1040
2.999996871569202
1070
   289
1070
     0
1070
    79
1070
     2
1070
   343
1005
FB
1070
   344
1005
FB
1070
   176
1070
     2
1070
   177
1070
     2
1070
   178
1070
     2
1070
   271
1070
     2
1070
    44
1040
1.600000000000023
1070
    42
1040
1.0
1070
   147
1040
2.0
1070
   173
1070
     1
1070
    77
1070
     3
1070
    73
1070
     0
1070
   172
1070
     1
1070
    74
1070
     0
1070
   283
1070
     0
1070
   340
1005
105
1070
   140
1040
6.0
1070
   284
1070
     8
1070
   288
1070
     1
1070
    78
1070
     8
1002
}
  0
INSERT
  5
4DA
330
1F
100
AcDbEntity
  8
Layer0015
  6
Continuous
100
AcDbBlockReference
  2
DA_IMAGEDIMGROUP_2
 10
0.0
 20
0.0
 30
0.0
  0
DIMENSION
  5
4DB
330
1F
100
AcDbEntity
  8
Layer0015
  6
Continuous
370
    13
100
AcDbDimension
  2
*D28
 10
-89.58064173247475
 20
29.26107771179318
 30
0.0
 11
-234.5806417324747
 21
29.26107771179318
 31
0.0
 70
    32
  1
285
 71
     8
 42
-1.0
  3
DaDimRotatedStyle
100
AcDbAlignedDimension
 13
-379.5806417324747
 23
-4.013806461765938
 33
0.0
 14
-89.58064173247475
 24
-4.513806461766031
 34
0.0
100
AcDbRotatedDimension
1001
ACAD
1000
DSTYLE
1002
{
1070
   274
1070
     4
1070
    41
1040
2.999996871569202
1070
   289
1070
     0
1070
    79
1070
     2
1070
   343
1005
FB
1070
   344
1005
FB
1070
   176
1070
     2
1070
   177
1070
     2
1070
   178
1070
     2
1070
   271
1070
     2
1070
    44
1040
0.8
1070
    42
1040
1.0
1070
   147
1040
1.0
1070
   173
1070
     1
1070
    77
1070
     3
1070
    73
1070
     0
1070
   172
1070
     1
1070
    74
1070
     0
1070
   283
1070
     0
1070
   340
1005
105
1070
   140
1040
6.0
1070
   284
1070
     8
1070
   288
1070
     1
1070
    78
1070
     8
1002
}
  0
DIMENSION
  5
4DC
330
1F
100
AcDbEntity
  8
Layer0015
  6
Continuous
370
    13
100
AcDbDimension
  2
*D29
 10
423.9543090613081
 20
-40.20420602334882
 30
0.0
 11
423.9543090613081
 21
-102.6090062425574
 31
0.0
 70
    32
  1
125
 71
     8
 42
-1.0
  3
DaDimRotatedStyle
100
AcDbAlignedDimension
 13
289.073950764289
 23
-165.0138064617659
 33
0.0
 14
380.280684085775
 24
-40.20420602334882
 34
0.0
 50
90.0
100
AcDbRotatedDimension
1001
ACAD
1000
DSTYLE
1002
{
1070
   274
1070
     4
1070
    41
1040
2.999996871569202
1070
   289
1070
     0
1070
    79
1070
     2
1070
   343
1005
FB
1070
   344
1005
FB
1070
   176
1070
     2
1070
   177
1070
     2
1070
   178
1070
     2
1070
   271
1070
     2
1070
    44
1040
0.8
1070
    42
1040
1.0
1070
   147
1040
1.0
1070
   173
1070
     1
1070
    77
1070
     3
1070
    73
1070
     0
1070
   172
1070
     1
1070
    74
1070
     0
1070
   283
1070
     0
1070
   340
1005
105
1070
   140
1040
6.0
1070
   284
1070
     8
1070
   288
1070
     1
1070
    78
1070
     8
1002
}
  0
DIMENSION
  5
4DD
330
1F
100
AcDbEntity
  8
Layer0015
  6
Continuous
370
    13
100
AcDbDimension
  2
*D30
 10
438.4584064744778
 20
100.6220549134745
 30
0.0
 11
438.4584064744778
 21
-32.19587577414571
 31
0.0
 70
    32
  1
266
 71
     8
 42
-1.0
  3
DaDimRotatedStyle
100
AcDbAlignedDimension
 13
289.073950764289
 23
-165.0138064617659
 33
0.0
 14
316.0944959108347
 24
100.6220549134745
 34
0.0
 50
90.0
100
AcDbRotatedDimension
1001
ACAD
1000
DSTYLE
1002
{
1070
   274
1070
     4
1070
    41
1040
2.999996871569202
1070
   289
1070
     0
1070
    79
1070
     2
1070
   343
1005
FB
1070
   344
1005
FB
1070
   176
1070
     2
1070
   177
1070
     2
1070
   178
1070
     2
1070
   271
1070
     2
1070
    44
1040
0.8
1070
    42
1040
1.0
1070
   147
1040
1.0
1070
   173
1070
     1
1070
    77
1070
     3
1070
    73
1070
     0
1070
   172
1070
     1
1070
    74
1070
     0
1070
   283
1070
     0
1070
   340
1005
105
1070
   140
1040
6.0
1070
   284
1070
     8
1070
   288
1070
     1
1070
    78
1070
     8
1002
}
  0
DIMENSION
  5
4DE
330
1F
100
AcDbEntity
  8
Layer0015
  6
Continuous
370
    13
100
AcDbDimension
  2
*D31
 10
563.8811879821217
 20
-24.37794508652711
 30
0.0
 11
563.8811879821217
 21
-94.69587577414651
 31
0.0
 70
    32
  1
141
 71
     8
 42
-1.0
  3
DaDimRotatedStyle
100
AcDbAlignedDimension
 13
289.073950764289
 23
-165.0138064617659
 33
0.0
 14
532.6008468569419
 24
-24.37794508652711
 34
0.0
 50
90.0
100
AcDbRotatedDimension
1001
ACAD
1000
DSTYLE
1002
{
1070
   274
1070
     4
1070
    41
1040
2.999996871569202
1070
   289
1070
     0
1070
    79
1070
     2
1070
   343
1005
FB
1070
   344
1005
FB
1070
   176
1070
     2
1070
   177
1070
     2
1070
   178
1070
     2
1070
   271
1070
     2
1070
    44
1040
0.8
1070
    42
1040
1.0
1070
   147
1040
1.0
1070
   173
1070
     1
1070
    77
1070
     3
1070
    73
1070
     0
1070
   172
1070
     1
1070
    74
1070
     0
1070
   283
1070
     0
1070
   340
1005
105
1070
   140
1040
6.0
1070
   284
1070
     8
1070
   288
1070
     1
1070
    78
1070
     8
1002
}
  0
INSERT
  5
4DF
330
1F
100
AcDbEntity
  8
Layer0015
  6
Continuous
100
AcDbBlockReference
  2
DC_GROUP_HCN150_1
 10
0.0
 20
0.0
 30
0.0
  0
INSERT
  5
4E0
330
1F
100
AcDbEntity
  8
Layer0015
  6
Continuous
100
AcDbBlockReference
  2
DC_GROUP_HCN150_2
 10
0.0
 20
0.0
 30
0.0
  0
INSERT
  5
4E1
330
1F
100
AcDbEntity
  8
Layer0014
  6
Continuous
100
AcDbBlockReference
  2
DC_GROUP_HCN150_3
 10
0.0
 20
0.0
 30
0.0
  0
INSERT
  5
4E2
330
1F
100
AcDbEntity
  8
Layer0014
  6
Continuous
100
AcDbBlockReference
  2
DC_GROUP_HCN150_4
 10
0.0
 20
0.0
 30
0.0
  0
INSERT
  5
4E3
330
1F
100
AcDbEntity
  8
Layer0014
  6
Continuous
100
AcDbBlockReference
  2
DC_GROUP_HCN150_5
 10
0.0
 20
0.0
 30
0.0
  0
INSERT
  5
4E4
330
1F
100
AcDbEntity
  8
Layer0004
  6
Continuous
100
AcDbBlockReference
  2
DC_GROUP_HCN150_6
 10
0.0
 20
0.0
 30
0.0
  0
INSERT
  5
4E5
330
1F
100
AcDbEntity
  8
Layer0004
  6
Continuous
100
AcDbBlockReference
  2
DC_GROUP_HCN150_7
 10
0.0
 20
0.0
 30
0.0
  0
INSERT
  5
4E6
330
1F
100
AcDbEntity
  8
Layer0004
  6
Continuous
100
AcDbBlockReference
  2
DC_GROUP_HCN150_8
 10
0.0
 20
0.0
 30
0.0
  0
INSERT
  5
4E7
330
1F
100
AcDbEntity
  8
Layer0004
  6
Continuous
100
AcDbBlockReference
  2
DC_GROUP_HCN150_9
 10
0.0
 20
0.0
 30
0.0
  0
INSERT
  5
4E8
330
1F
100
AcDbEntity
  8
Layer0004
  6
Continuous
100
AcDbBlockReference
  2
DC_GROUP_HCN150_10
 10
0.0
 20
0.0
 30
0.0
  0
INSERT
  5
4E9
330
1F
100
AcDbEntity
  8
Layer0004
  6
Continuous
100
AcDbBlockReference
  2
DC_GROUP_HCN150_11
 10
0.0
 20
0.0
 30
0.0
  0
INSERT
  5
4EA
330
1F
100
AcDbEntity
  8
Layer0004
  6
Continuous
100
AcDbBlockReference
  2
DC_GROUP_HCN150_12
 10
0.0
 20
0.0
 30
0.0
  0
INSERT
  5
4EB
330
1F
100
AcDbEntity
  8
Layer0004
  6
Continuous
100
AcDbBlockReference
  2
DC_GROUP_HCN150_13
 10
0.0
 20
0.0
 30
0.0
  0
VIEWPORT
  5
75
330
1B
100
AcDbEntity
 67
     1
  8
0
100
AcDbViewport
 10
-6.833933237664269
 20
-8.57531645297945
 30
0.0
 40
3429.090727318715
 41
2341.126293226112
 68
     1
 69
     1
 12
-6.833933237664269
 22
-8.57531645297945
 13
0.0
 23
0.0
 14
0.5
 24
0.5
 15
0.0
 25
0.0
 16
0.0
 26
0.0
 36
1.0
 17
0.0
 27
0.0
 37
0.0
 42
50.0
 43
0.0
 44
0.0
 45
2341.126293226112
 50
0.0
 51
0.0
 72
   100
 90
   557152
  1

281
     0
 71
     1
 74
     0
110
0.0
120
0.0
130
0.0
111
1.0
121
0.0
131
0.0
112
0.0
122
1.0
132
0.0
 79
     0
146
0.0
  0
ENDSEC
  0
SECTION
  2
OBJECTS
  0
DICTIONARY
  5
C
330
0
100
AcDbDictionary
281
     1
  3
ACAD_GROUP
350
D
  3
ACAD_LAYOUT
350
1A
  3
ACAD_MLEADERSTYLE
350
4ED
  3
ACAD_MLINESTYLE
350
17
  3
ACAD_PLOTSETTINGS
350
19
  3
ACAD_PLOTSTYLENAME
350
E
  3
ACAD_TABLESTYLE
350
4EC
  3
ACAD_VISUALSTYLE
350
2A
  0
DICTIONARY
  5
D
102
{ACAD_REACTORS
330
C
102
}
330
C
100
AcDbDictionary
281
     1
  0
DICTIONARY
  5
1A
102
{ACAD_REACTORS
330
C
102
}
330
C
100
AcDbDictionary
281
     1
  3
Layout1
350
1E
  3
Layout2
350
26
  3
Model
350
22
  0
DICTIONARY
  5
4ED
102
{ACAD_REACTORS
330
C
102
}
330
C
100
AcDbDictionary
281
     1
  0
DICTIONARY
  5
17
102
{ACAD_REACTORS
330
C
102
}
330
C
100
AcDbDictionary
281
     1
  3
Standard
350
18
  0
DICTIONARY
  5
19
102
{ACAD_REACTORS
330
C
102
}
330
C
100
AcDbDictionary
281
     1
  0
ACDBDICTIONARYWDFLT
  5
E
102
{ACAD_REACTORS
330
C
102
}
330
C
100
AcDbDictionary
281
     1
  3
Normal
350
F
100
AcDbDictionaryWithDefault
340
F
  0
DICTIONARY
  5
4EC
102
{ACAD_REACTORS
330
C
102
}
330
C
100
AcDbDictionary
281
     1
  0
DICTIONARY
  5
2A
102
{ACAD_REACTORS
330
C
102
}
330
C
100
AcDbDictionary
281
     1
  3
2dWireframe
350
2F
  3
3D Hidden
350
31
  3
3dWireframe
350
30
  3
Basic
350
32
  3
Brighten
350
36
  3
ColorChange
350
3A
  3
Conceptual
350
34
  3
Dim
350
35
  3
Facepattern
350
39
  3
Flat
350
2B
  3
FlatWithEdges
350
2C
  3
Gouraud
350
2D
  3
GouraudWithEdges
350
2E
  3
Linepattern
350
38
  3
Realistic
350
33
  3
Thicken
350
37
  0
LAYOUT
  5
1E
102
{ACAD_REACTORS
330
1A
102
}
330
1A
100
AcDbPlotSettings
  1

  2
none_device
  4

  6

 40
0.0
 41
0.0
 42
0.0
 43
0.0
 44
0.0
 45
0.0
 46
0.0
 47
0.0
 48
0.0
 49
0.0
140
0.0
141
0.0
142
1.0
143
1.0
 70
   688
 72
     0
 73
     0
 74
     5
  7

 75
    16
147
1.0
148
0.0
149
0.0
100
AcDbLayout
  1
Layout1
 70
     0
 71
     1
 10
0.0
 20
0.0
 11
12.0
 21
9.0
 12
0.0
 22
0.0
 32
0.0
 14
1.000000000000000E+20
 24
1.000000000000000E+20
 34
1.000000000000000E+20
 15
-1.000000000000000E+20
 25
-1.000000000000000E+20
 35
-1.000000000000000E+20
146
0.0
 13
0.0
 23
0.0
 33
0.0
 16
1.0
 26
0.0
 36
0.0
 17
0.0
 27
1.0
 37
0.0
 76
     0
330
1B
331
75
  0
LAYOUT
  5
26
102
{ACAD_REACTORS
330
1A
102
}
330
1A
100
AcDbPlotSettings
  1

  2
none_device
  4

  6

 40
0.0
 41
0.0
 42
0.0
 43
0.0
 44
0.0
 45
0.0
 46
0.0
 47
0.0
 48
0.0
 49
0.0
140
0.0
141
0.0
142
1.0
143
1.0
 70
   688
 72
     0
 73
     0
 74
     5
  7

 75
    16
147
1.0
148
0.0
149
0.0
100
AcDbLayout
  1
Layout2
 70
     1
 71
     2
 10
0.0
 20
0.0
 11
0.0
 21
0.0
 12
0.0
 22
0.0
 32
0.0
 14
0.0
 24
0.0
 34
0.0
 15
0.0
 25
0.0
 35
0.0
146
0.0
 13
0.0
 23
0.0
 33
0.0
 16
1.0
 26
0.0
 36
0.0
 17
0.0
 27
1.0
 37
0.0
 76
     0
330
23
  0
LAYOUT
  5
22
102
{ACAD_REACTORS
330
1A
102
}
330
1A
100
AcDbPlotSettings
  1

  2
none_device
  4

  6

 40
0.0
 41
0.0
 42
0.0
 43
0.0
 44
0.0
 45
0.0
 46
0.0
 47
0.0
 48
0.0
 49
0.0
140
0.0
141
0.0
142
1.0
143
1.0
 70
  1712
 72
     0
 73
     0
 74
     0
  7

 75
     0
147
1.0
148
0.0
149
0.0
100
AcDbLayout
  1
Model
 70
     1
 71
     0
 10
-576.0
 20
-413.5
 11
576.0
 21
413.5
 12
0.0
 22
0.0
 32
0.0
 14
-1721.379296897022
 24
-1179.138463066035
 34
0.0
 15
1707.711430421693
 25
1161.987830160077
 35
0.0
146
0.0
 13
0.0
 23
0.0
 33
0.0
 16
1.0
 26
0.0
 36
0.0
 17
0.0
 27
1.0
 37
0.0
 76
     0
330
1F
331
29
  0
MLINESTYLE
  5
18
102
{ACAD_REACTORS
330
17
102
}
330
17
100
AcDbMlineStyle
  2
Standard
 70
     0
  3

 62
   256
 51
90.0
 52
90.0
 71
     2
 49
0.5
 62
   256
  6
BYLAYER
 49
-0.5
 62
   256
  6
BYLAYER
  0
ACDBPLACEHOLDER
  5
F
102
{ACAD_REACTORS
330
E
102
}
330
E
  0
VISUALSTYLE
  5
2F
102
{ACAD_REACTORS
330
2A
102
}
330
2A
100
AcDbVisualStyle
  2
2dWireframe
 70
     4
 71
     0
 72
     2
 73
     0
 90
        0
 40
-0.6
 41
-30.0
 62
     5
 63
     7
 74
     1
 91
        4
 64
     7
 65
   257
 75
     1
175
     1
 42
1.0
 92
        0
 66
   257
 43
1.0
 76
     1
 77
     6
 78
     2
 67
     7
 79
     5
170
     0
171
     0
290
     0
174
     0
 93
        1
 44
0.0
173
     0
291
     0
 45
0.0
1001
ACAD
1000
AcDbSavedByObjectVersion
1070
     0
  0
VISUALSTYLE
  5
31
102
{ACAD_REACTORS
330
2A
102
}
330
2A
100
AcDbVisualStyle
  2
3D Hidden
 70
     6
 71
     1
 72
     2
 73
     2
 90
        0
 40
-0.6
 41
-30.0
 62
     5
 63
     7
 74
     2
 91
        2
 64
     7
 65
   257
 75
     2
175
     1
 42
40.0
 92
        0
 66
   257
 43
1.0
 76
     1
 77
     6
 78
     2
 67
     7
 79
     3
170
     0
171
     0
290
     0
174
     0
 93
        1
 44
0.0
173
     0
291
     0
 45
0.0
1001
ACAD
1000
AcDbSavedByObjectVersion
1070
     0
  0
VISUALSTYLE
  5
30
102
{ACAD_REACTORS
330
2A
102
}
330
2A
100
AcDbVisualStyle
  2
3dWireframe
 70
     5
 71
     0
 72
     2
 73
     0
 90
        0
 40
-0.6
 41
-30.0
 62
     5
 63
     7
 74
     1
 91
        4
 64
     7
 65
   257
 75
     1
175
     1
 42
1.0
 92
        0
 66
   257
 43
1.0
 76
     1
 77
     6
 78
     2
 67
     7
 79
     5
170
     0
171
     0
290
     0
174
     0
 93
        1
 44
0.0
173
     0
291
     0
 45
0.0
1001
ACAD
1000
AcDbSavedByObjectVersion
1070
     0
  0
VISUALSTYLE
  5
32
102
{ACAD_REACTORS
330
2A
102
}
330
2A
100
AcDbVisualStyle
  2
Basic
 70
     7
 71
     1
 72
     0
 73
     1
 90
        0
 40
-0.6
 41
-30.0
 62
     5
 63
     7
 74
     0
 91
        4
 64
     7
 65
   257
 75
     1
175
     1
 42
1.0
 92
        8
 66
     7
 43
1.0
 76
     1
 77
     6
 78
     2
 67
     7
 79
     5
170
     0
171
     0
290
     0
174
     0
 93
        1
 44
0.0
173
     0
291
     1
 45
0.0
1001
ACAD
1000
AcDbSavedByObjectVersion
1070
     0
  0
VISUALSTYLE
  5
36
102
{ACAD_REACTORS
330
2A
102
}
330
2A
100
AcDbVisualStyle
  2
Brighten
 70
    12
 71
     2
 72
     2
 73
     0
 90
        0
 40
-0.6
 41
-30.0
 62
     5
 63
     7
 74
     1
 91
        4
 64
     7
 65
   257
 75
     1
175
     1
 42
1.0
 92
        8
 66
     7
 43
1.0
 76
     1
 77
     6
 78
     2
 67
     7
 79
     5
170
     0
171
     0
290
     0
174
     0
 93
        1
 44
50.0
173
     0
291
     1
 45
0.0
1001
ACAD
1000
AcDbSavedByObjectVersion
1070
     0
  0
VISUALSTYLE
  5
3A
102
{ACAD_REACTORS
330
2A
102
}
330
2A
100
AcDbVisualStyle
  2
ColorChange
 70
    16
 71
     2
 72
     2
 73
     3
 90
        0
 40
-0.6
 41
-30.0
 62
     5
 63
     8
 74
     1
 91
        4
 64
     7
 65
   257
 75
     1
175
     1
 42
1.0
 92
        8
 66
     8
 43
1.0
 76
     1
 77
     6
 78
     2
 67
     7
 79
     5
170
     0
171
     0
290
     0
174
     0
 93
        1
 44
0.0
173
     0
291
     1
 45
0.0
1001
ACAD
1000
AcDbSavedByObjectVersion
1070
     0
  0
VISUALSTYLE
  5
34
102
{ACAD_REACTORS
330
2A
102
}
330
2A
100
AcDbVisualStyle
  2
Conceptual
 70
     9
 71
     3
 72
     2
 73
     0
 90
        0
 40
-0.6
 41
-30.0
 62
     5
 63
     7
 74
     2
 91
        2
 64
     7
 65
   257
 75
     1
175
     1
 42
40.0
 92
        8
 66
     7
 43
1.0
 76
     1
 77
     6
 78
     2
 67
     7
 79
     3
170
     0
171
     0
290
     0
174
     0
 93
        1
 44
0.0
173
     0
291
     0
 45
0.0
1001
ACAD
1000
AcDbSavedByObjectVersion
1070
     0
  0
VISUALSTYLE
  5
35
102
{ACAD_REACTORS
330
2A
102
}
330
2A
100
AcDbVisualStyle
  2
Dim
 70
    11
 71
     2
 72
     2
 73
     0
 90
        0
 40
-0.6
 41
-30.0
 62
     5
 63
     7
 74
     1
 91
        4
 64
     7
 65
   257
 75
     1
175
     1
 42
1.0
 92
        8
 66
     7
 43
1.0
 76
     1
 77
     6
 78
     2
 67
     7
 79
     5
170
     0
171
     0
290
     0
174
     0
 93
        1
 44
-50.0
173
     0
291
     1
 45
0.0
1001
ACAD
1000
AcDbSavedByObjectVersion
1070
     0
  0
VISUALSTYLE
  5
39
102
{ACAD_REACTORS
330
2A
102
}
330
2A
100
AcDbVisualStyle
  2
Facepattern
 70
    15
 71
     2
 72
     2
 73
     0
 90
        0
 40
-0.6
 41
-30.0
 62
     5
 63
     7
 74
     1
 91
        4
 64
     7
 65
   257
 75
     1
175
     1
 42
1.0
 92
        8
 66
     7
 43
1.0
 76
     1
 77
     6
 78
     2
 67
     7
 79
     5
170
     0
171
     0
290
     0
174
     0
 93
        1
 44
0.0
173
     0
291
     1
 45
0.0
1001
ACAD
1000
AcDbSavedByObjectVersion
1070
     0
  0
VISUALSTYLE
  5
2B
102
{ACAD_REACTORS
330
2A
102
}
330
2A
100
AcDbVisualStyle
  2
Flat
 70
     0
 71
     2
 72
     1
 73
     1
 90
        2
 40
-0.6
 41
30.0
 62
     5
 63
     7
 74
     0
 91
        4
 64
     7
 65
   257
 75
     1
175
     1
 42
1.0
 92
        8
 66
     7
 43
1.0
 76
     1
 77
     6
 78
     2
 67
     7
 79
     5
170
     0
171
     0
290
     0
174
     0
 93
       13
 44
0.0
173
     0
291
     1
 45
0.0
1001
ACAD
1000
AcDbSavedByObjectVersion
1070
     0
  0
VISUALSTYLE
  5
2C
102
{ACAD_REACTORS
330
2A
102
}
330
2A
100
AcDbVisualStyle
  2
FlatWithEdges
 70
     1
 71
     2
 72
     1
 73
     1
 90
        2
 40
-0.6
 41
30.0
 62
     5
 63
     7
 74
     1
 91
        4
 64
     7
 65
   257
 75
     1
175
     1
 42
1.0
 92
        0
 66
   257
 43
1.0
 76
     1
 77
     6
 78
     2
 67
     7
 79
     5
170
     0
171
     0
290
     0
174
     0
 93
       13
 44
0.0
173
     0
291
     1
 45
0.0
1001
ACAD
1000
AcDbSavedByObjectVersion
1070
     0
  0
VISUALSTYLE
  5
2D
102
{ACAD_REACTORS
330
2A
102
}
330
2A
100
AcDbVisualStyle
  2
Gouraud
 70
     2
 71
     2
 72
     2
 73
     1
 90
        2
 40
-0.6
 41
30.0
 62
     5
 63
     7
 74
     0
 91
        4
 64
     7
 65
   257
 75
     1
175
     1
 42
1.0
 92
        0
 66
     7
 43
1.0
 76
     1
 77
     6
 78
     2
 67
     7
 79
     5
170
     0
171
     0
290
     0
174
     0
 93
       13
 44
0.0
173
     0
291
     1
 45
0.0
1001
ACAD
1000
AcDbSavedByObjectVersion
1070
     0
  0
VISUALSTYLE
  5
2E
102
{ACAD_REACTORS
330
2A
102
}
330
2A
100
AcDbVisualStyle
  2
GouraudWithEdges
 70
     3
 71
     2
 72
     2
 73
     1
 90
        2
 40
-0.6
 41
30.0
 62
     5
 63
     7
 74
     1
 91
        4
 64
     7
 65
   257
 75
     1
175
     1
 42
1.0
 92
        0
 66
   257
 43
1.0
 76
     1
 77
     6
 78
     2
 67
     7
 79
     5
170
     0
171
     0
290
     0
174
     0
 93
       13
 44
0.0
173
     0
291
     1
 45
0.0
1001
ACAD
1000
AcDbSavedByObjectVersion
1070
     0
  0
VISUALSTYLE
  5
38
102
{ACAD_REACTORS
330
2A
102
}
330
2A
100
AcDbVisualStyle
  2
Linepattern
 70
    14
 71
     2
 72
     2
 73
     0
 90
        0
 40
-0.6
 41
-30.0
 62
     5
 63
     7
 74
     1
 91
        4
 64
     7
 65
   257
 75
     7
175
     7
 42
1.0
 92
        8
 66
     7
 43
1.0
 76
     1
 77
     6
 78
     2
 67
     7
 79
     5
170
     0
171
     0
290
     0
174
     0
 93
        1
 44
0.0
173
     0
291
     1
 45
0.0
1001
ACAD
1000
AcDbSavedByObjectVersion
1070
     0
  0
VISUALSTYLE
  5
33
102
{ACAD_REACTORS
330
2A
102
}
330
2A
100
AcDbVisualStyle
  2
Realistic
 70
     8
 71
     2
 72
     2
 73
     0
 90
        0
 40
-0.6
 41
-30.0
 62
     5
 63
     7
 74
     1
 91
        0
 64
     7
 65
   257
 75
     1
175
     1
 42
1.0
 92
        8
 66
     8
 43
1.0
 76
     1
 77
     6
 78
     2
 67
     7
 79
     5
170
     0
171
     0
290
     0
174
     0
 93
       13
 44
0.0
173
     0
291
     0
 45
0.0
1001
ACAD
1000
AcDbSavedByObjectVersion
1070
     0
  0
VISUALSTYLE
  5
37
102
{ACAD_REACTORS
330
2A
102
}
330
2A
100
AcDbVisualStyle
  2
Thicken
 70
    13
 71
     2
 72
     2
 73
     0
 90
        0
 40
-0.6
 41
-30.0
 62
     5
 63
     7
 74
     1
 91
        4
 64
     7
 65
   257
 75
     1
175
     1
 42
1.0
 92
       12
 66
     7
 43
1.0
 76
     1
 77
     6
 78
     2
 67
     7
 79
     5
170
     0
171
     0
290
     0
174
     0
 93
        1
 44
0.0
173
     0
291
     1
 45
0.0
1001
ACAD
1000
AcDbSavedByObjectVersion
1070
     0
  0
ENDSEC
  0
EOF
